osu file format v14

[General]
AudioFilename: audio.mp3
AudioLeadIn: 0
PreviewTime: 80086
Countdown: 0
SampleSet: Soft
StackLeniency: 0.2
Mode: 0
LetterboxInBreaks: 0
EpilepsyWarning: 1
WidescreenStoryboard: 1

[Editor]
Bookmarks: 8658,13801,27515,41229,54943,65229,72086,80658,92658,94372,106372,118372,121801
DistanceSpacing: 1.2
BeatDivisor: 6
GridSize: 16
TimelineZoom: 2.1

[Metadata]
Title:The Navigator's Hope
TitleUnicode:The Navigator's Hope
Artist:a_hisaxChicking
ArtistUnicode:a_hisa×ちきんぐ
Creator:Rohit6
Version:N/A's Insane
Source:
Tags:fantasy LowComboFC NeilPerry Nerova Riuz GX BOUYAAA Namki
BeatmapID:964625
BeatmapSetID:439225

[Difficulty]
HPDrainRate:5.5
CircleSize:4
OverallDifficulty:7.5
ApproachRate:9
SliderMultiplier:2.6
SliderTickRate:1

[Events]
//Background and Video events
0,0,"bg.jpg",0,0
//Break Periods
2,65429,71487
//Storyboard Layer 0 (Background)
//Storyboard Layer 1 (Fail)
//Storyboard Layer 2 (Pass)
//Storyboard Layer 3 (Foreground)
//Storyboard Sound Samples

[TimingPoints]
86,428.577551107873,4,2,1,100,1,0
1371,-200,4,2,0,60,0,0
1728,-200,4,2,1,20,0,0
1800,-133.333333333333,4,2,2,80,0,0
2086,-133.333333333333,4,2,0,80,0,0
8228,-117.647058823529,4,2,0,80,0,0
8586,-133.333333333333,4,2,1,20,0,0
8657,-111.111111111111,4,2,1,80,0,0
13800,-111.111111111111,4,2,1,80,0,0
20657,-111.111111111111,4,2,1,60,0,0
26657,-133.333333333333,4,2,1,80,0,0
26872,-133.333333333333,4,2,1,20,0,0
26943,-133.333333333333,4,2,1,40,0,0
27086,-133.333333333333,4,2,1,50,0,0
27229,-133.333333333333,4,2,1,60,0,0
27372,-133.333333333333,4,2,1,70,0,0
27514,-111.111111111111,4,2,1,80,0,0
32872,-111.111111111111,4,2,1,20,0,0
32943,-111.111111111111,4,2,1,80,0,0
40372,-133.333333333333,4,2,1,40,0,0
40800,-133.333333333333,4,2,1,50,0,0
40943,-133.333333333333,4,2,1,60,0,0
41086,-133.333333333333,4,2,1,70,0,0
41229,-111.111111111111,4,2,1,80,0,0
46585,-111.111111111111,4,2,1,20,0,0
46657,-111.111111111111,4,2,1,80,0,0
54943,-111.111111111111,4,2,2,80,0,0
65229,-111.111111111111,4,2,2,80,0,0
72087,-200,4,2,2,80,0,0
72515,-200,4,2,0,60,0,0
75515,-200,4,2,2,70,0,0
75944,-200,4,2,0,60,0,0
78087,-200,4,2,2,80,0,0
78372,-200,4,2,2,85,0,0
78658,-200,4,2,2,90,0,0
78944,-200,4,2,1,30,0,0
79087,-200,4,2,1,40,0,0
79229,-200,4,2,1,50,0,0
79372,-200,4,2,1,60,0,0
79515,-200,4,2,1,70,0,0
79658,-200,4,2,1,80,0,0
79801,-200,4,2,1,90,0,0
79944,-200,4,2,1,100,0,0
80087,-200,4,2,1,20,0,0
80230,-200,4,2,1,80,0,0
80658,-90.9090909090909,4,2,3,80,0,1
92444,-90.9090909090909,4,2,3,20,0,1
92515,-90.9090909090909,4,2,3,80,0,1
92658,-90.9090909090908,4,2,1,70,0,0
93944,-90.9090909090908,4,2,1,80,0,0
94373,-90.9090909090908,4,2,3,80,0,1
106158,-90.9090909090908,4,2,3,20,0,1
106230,-90.9090909090908,4,2,3,80,0,1
106373,-111.111111111111,4,2,3,60,0,0
118159,-90.9090909090909,4,2,3,20,0,0
118230,-90.9090909090909,4,2,3,60,0,0
118373,-111.111111111111,4,2,1,80,0,1
120373,-111.111111111111,4,2,1,90,0,1
121802,-111.111111111111,4,2,2,90,0,0

[Colours]
Combo1 : 255,64,255
Combo2 : 64,64,255
Combo3 : 12,224,241
Combo4 : 150,45,255

[HitObjects]
185,257,1371,6,0,L|191:156,1,86.6666666666667,2|0,0:0|0:0,0:0:0:0:
149,110,1800,6,0,P|217:130|288:105,1,130.000004959107,4|2,0:3|0:0,0:0:0:0:
361,66,2228,1,0,0:0:0:0:
432,138,2371,2,0,L|436:214,1,65.0000024795533,2|2,0:0|0:0,0:0:0:0:
496,320,2657,6,0,P|433:305|372:325,1,130.000004959107,2|0,0:0|0:0,0:0:0:0:
275,258,3086,2,0,L|278:193,2,65.0000024795533,2|0|2,0:0|0:0|0:0,0:0:0:0:
178,325,3514,6,0,B|134:335|134:335|35:313,1,130.000004959107,2|0,0:0|0:0,0:0:0:0:
8,216,3943,1,2,0:0:0:0:
82,151,4086,2,0,L|160:155,1,65.0000024795533,2|2,0:0|0:0,0:0:0:0:
253,104,4371,6,0,P|261:158|401:160,1,195.00000743866,2|2,0:0|0:0,0:0:0:0:
458,172,4943,1,2,0:0:0:0:
458,172,5086,1,2,0:0:0:0:
458,172,5228,6,0,L|450:309,1,130.000004959107,2|0,0:0|0:0,0:0:0:0:
488,384,5657,1,2,0:0:0:0:
352,288,5800,2,0,P|316:281|258:286,1,65.0000024795533,0|2,0:0|0:0,0:0:0:0:
157,354,6086,6,0,B|181:312|181:312|170:211,1,130.000004959107,2|0,0:0|0:0,0:0:0:0:
119,105,6514,2,0,P|112:73|115:41,2,65.0000024795533,2|2|2,0:0|0:0|0:0,0:0:0:0:
232,155,6943,6,0,L|366:164,1,130.000004959107,2|2,0:0|0:0,0:0:0:0:
460,100,7371,2,0,B|482:161|482:161|465:223,1,130.000004959107,2|2,0:0|0:0,0:0:0:0:
434,337,7800,2,0,P|386:306|294:315,1,130.000004959107,2|2,0:0|0:0,0:0:0:0:
240,353,8228,1,2,0:0:0:0:
194,75,8657,6,0,P|118:77|70:19,1,155.999995239258,2|0,0:0|0:0,0:0:0:0:
85,160,9086,2,0,P|87:207|77:253,1,77.999997619629,2|0,0:0|0:0,0:0:0:0:
38,320,9371,1,4,0:0:0:0:
174,279,9514,6,0,L|332:284,1,155.999995239258,2|0,0:0|0:0,0:0:0:0:
428,222,9943,2,0,P|462:236|517:225,2,77.999997619629,4|0|4,0:0|0:0|0:0,0:0:0:0:
368,120,10371,6,0,P|325:79|230:71,1,155.999995239258,2|0,0:0|0:0,0:0:0:0:
149,24,10800,1,2,0:0:0:0:
165,155,10943,2,0,L|161:242,1,77.999997619629,0|4,0:0|0:0,0:0:0:0:
50,317,11229,6,0,B|95:301|125:317|125:317|156:332|202:317,1,155.999995239258,2|0,0:0|0:0,0:0:0:0:
310,272,11657,2,0,L|314:359,2,77.999997619629,4|0|4,0:0|0:0|0:0,0:0:0:0:
316,154,12086,6,0,B|271:138|241:154|241:154|210:169|164:154,1,155.999995239258,2|0,0:0|0:0,0:0:0:0:
169,36,12514,2,0,P|209:40|261:33,1,77.999997619629,2|0,0:0|0:0,0:0:0:0:
337,9,12800,1,4,0:0:0:0:
459,78,12943,6,0,P|419:110|411:213,1,155.999995239258,2|0,0:0|0:0,0:0:0:0:
467,336,13371,1,4,0:0:0:0:
379,303,13514,1,0,0:0:0:0:
294,344,13657,1,4,0:0:0:0:
206,311,13800,6,0,B|208:278|189:261|189:261|200:234|195:207|195:207|180:189|179:161,1,155.999995239258,2|2,1:2|1:2,0:0:0:0:
98,114,14229,2,0,P|78:80|74:42,2,77.999997619629,2|0|0,0:1|0:0|0:0,0:0:0:0:
249,101,14657,2,0,P|262:64|259:26,2,77.999997619629,2|0|0,0:1|0:0|0:0,0:0:0:0:
169,52,15086,1,2,0:1:0:0:
169,52,15371,5,4,0:0:0:0:
268,193,15514,2,0,P|306:203|345:202,1,77.999997619629,2|0,1:2|0:0,0:0:0:0:
424,151,15800,1,2,1:2:0:0:
313,31,15943,2,0,L|319:122,2,77.999997619629,2|0|0,0:1|0:0|0:0,0:0:0:0:
214,131,16371,6,0,P|135:137|80:75,1,155.999995239258,2|0,1:1|0:0,0:0:0:0:
95,208,16800,2,0,L|86:365,1,155.999995239258,2|0,1:1|0:0,0:0:0:0:
176,287,17229,6,0,P|231:235|306:243,1,155.999995239258,2|2,1:2|1:2,0:0:0:0:
365,171,17657,2,0,B|371:133|371:133|354:97,2,77.999997619629,2|0|0,0:1|0:0|0:0,0:0:0:0:
386,289,18085,2,0,B|381:328|381:328|400:361,2,77.999997619629,2|0|0,0:1|0:0|0:0,0:0:0:0:
445,217,18514,1,2,0:1:0:0:
445,217,18800,5,4,0:0:0:0:
274,155,18943,2,0,P|258:191|255:230,1,77.999997619629,2|0,1:2|0:0,0:0:0:0:
304,310,19229,1,2,1:2:0:0:
151,285,19371,2,0,L|56:297,2,77.999997619629,0|0|0,0:0|0:2|0:0,0:0:0:0:
255,230,19800,6,0,B|279:189|279:189|260:69,1,155.999995239258,2|0,1:2|0:0,0:0:0:0:
358,149,20229,2,0,P|414:152|482:69,1,155.999995239258,2|0,1:2|0:0,0:0:0:0:
333,31,20657,6,0,L|161:43,1,155.999995239258,2|2,1:2|1:2,0:0:0:0:
89,70,21086,2,0,P|64:48|3:33,2,77.999997619629,2|0|0,0:1|0:0|0:0,0:0:0:0:
206,130,21515,2,0,P|237:134|289:172,2,77.999997619629,2|0|0,0:1|0:0|0:0,0:0:0:0:
119,163,21943,1,2,0:1:0:0:
119,163,22229,5,4,0:0:0:0:
0,308,22372,2,0,P|40:306|82:315,1,77.999997619629,2|0,1:2|0:0,0:0:0:0:
145,377,22657,1,2,1:2:0:0:
125,240,22800,2,0,L|117:151,2,77.999997619629,2|0|0,0:1|0:0|0:0,0:0:0:0:
216,325,23229,6,0,P|286:291|360:309,1,155.999995239258,2|0,1:1|0:0,0:0:0:0:
458,370,23657,2,0,B|442:331|457:293|457:293|472:255|457:217,1,155.999995239258,2|0,1:1|0:0,0:0:0:0:
507,111,24086,6,0,P|432:128|363:95,1,155.999995239258,2|2,1:2|1:2,0:0:0:0:
270,81,24514,2,0,P|276:42|270:4,2,77.999997619629,2|0|0,0:1|0:0|0:0,0:0:0:0:
305,168,24943,2,0,P|298:206|305:244,2,77.999997619629,2|0|0,0:1|0:0|0:0,0:0:0:0:
212,154,25372,1,2,0:1:0:0:
212,154,25657,5,4,0:0:0:0:
49,145,25800,2,0,P|34:181|27:253,1,77.999997619629,2|0,1:2|0:0,0:0:0:0:
27,329,26086,1,2,1:2:0:0:
131,186,26228,5,0,0:0:0:0:
131,363,26372,1,0,0:0:0:0:
27,220,26514,1,0,0:0:0:0:
195,273,26657,6,0,L|346:270,1,130.000004959107,2|0,1:2|0:0,0:0:0:0:
360,181,27086,2,0,L|230:183,1,130.000004959107,8|8,0:1|0:1,0:0:0:0:
336,369,27514,6,0,P|382:351|421:258,1,155.999995239258,2|0,0:0|0:0,0:0:0:0:
395,90,27943,1,12,0:3:0:0:
360,181,28086,1,4,0:0:0:0:
455,166,28229,1,0,0:0:0:0:
300,104,28372,6,0,P|227:128|156:99,1,155.999995239258,2|0,0:0|0:0,0:0:0:0:
63,23,28800,2,0,L|74:127,1,77.999997619629,8|0,0:1|0:0,0:0:0:0:
86,193,29086,1,4,0:0:0:0:
12,294,29229,6,0,B|71:290|71:290|102:275|102:275|163:272,1,155.999995239258,2|0,0:0|0:0,0:0:0:0:
268,171,29657,1,12,0:3:0:0:
256,265,29799,1,0,0:0:0:0:
245,361,29942,1,4,0:0:0:0:
342,296,30086,6,0,P|417:311|484:273,1,155.999995239258,2|0,0:0|0:0,0:0:0:0:
507,181,30515,1,8,0:1:0:0:
450,106,30657,2,0,P|451:54|471:10,1,77.999997619629,0|4,0:0|0:0,0:0:0:0:
392,180,30943,6,0,L|234:174,1,155.999995239258,2|0,0:0|0:0,0:0:0:0:
148,209,31372,1,12,0:3:0:0:
234,80,31514,1,0,0:0:0:0:
214,267,31657,1,4,0:0:0:0:
157,122,31800,6,0,P|88:88|12:99,1,155.999995239258,2|0,0:0|0:0,0:0:0:0:
70,209,32229,2,0,L|148:209,2,77.999997619629,8|0|4,0:1|0:0|0:0,0:0:0:0:
12,319,32657,6,0,P|88:329|158:296,1,155.999995239258,2|4,0:0|0:0,0:0:0:0:
248,176,33086,2,0,P|240:208|248:272,1,77.999997619629,12|4,0:3|0:0,0:0:0:0:
280,344,33372,1,4,0:0:0:0:
421,310,33515,6,0,P|449:239|419:170,1,155.999995239258,2|0,0:0|0:0,0:0:0:0:
318,238,33943,2,0,P|280:248|241:251,2,77.999997619629,8|0|4,0:1|0:0|0:0,0:0:0:0:
420,171,34372,6,0,P|391:118|425:25,1,155.999995239258,2|0,0:0|0:0,0:0:0:0:
485,100,34800,1,12,0:3:0:0:
313,132,34943,2,0,L|228:129,1,77.999997619629,0|4,0:0|0:0,0:0:0:0:
150,28,35229,6,0,L|305:33,1,155.999995239258,2|0,0:0|0:0,0:0:0:0:
418,31,35657,1,8,0:1:0:0:
420,171,35800,1,0,0:0:0:0:
311,134,35943,1,4,0:0:0:0:
485,100,36086,6,0,B|476:155|476:155|488:194|488:194|477:253,1,155.999995239258,2|0,0:0|0:0,0:0:0:0:
500,351,36515,1,12,0:3:0:0:
383,262,36657,2,0,P|339:250|296:256,1,77.999997619629,4|4,0:0|0:0,0:0:0:0:
187,341,36943,6,0,B|259:373|259:373|347:347,1,155.999995239258,2|0,0:0|0:0,0:0:0:0:
383,262,37372,2,0,P|396:225|400:186,2,77.999997619629,8|0|4,0:1|0:0|0:0,0:0:0:0:
223,266,37800,6,0,B|189:220|189:220|199:121,1,155.999995239258,2|0,0:0|0:0,0:0:0:0:
252,42,38229,1,12,0:3:0:0:
107,98,38371,1,0,0:0:0:0:
294,119,38515,1,4,0:0:0:0:
165,32,38657,6,0,P|96:67|25:38,1,155.999995239258,2|0,0:0|0:0,0:0:0:0:
102,153,39086,2,0,L|96:240,1,77.999997619629,8|0,0:1|0:0,0:0:0:0:
88,324,39372,1,4,0:0:0:0:
256,192,39515,12,4,40800,0:0:0:0:
72,146,41229,6,0,P|147:133|235:166,1,155.999995239258,2|0,0:3|0:0,0:0:0:0:
277,232,41658,1,8,0:1:0:0:
279,89,41800,2,0,P|292:50|333:14,1,77.999997619629,4|4,0:0|0:0,0:0:0:0:
482,149,42086,6,0,P|408:172|332:159,1,155.999995239258,2|0,0:3|0:0,0:0:0:0:
388,84,42515,1,8,0:1:0:0:
378,265,42658,2,0,P|370:301|383:348,1,77.999997619629,4|4,0:0|0:0,0:0:0:0:
277,232,42943,6,0,L|121:237,1,155.999995239258,2|0,0:3|0:0,0:0:0:0:
76,320,43372,2,0,L|153:317,2,77.999997619629,8|4|4,0:1|0:0|0:0,0:0:0:0:
38,158,43800,6,0,L|193:152,1,155.999995239258,2|0,0:3|0:0,0:0:0:0:
277,232,44229,1,8,0:1:0:0:
363,153,44372,2,0,P|370:106|361:69,1,77.999997619629,4|4,0:0|0:0,0:0:0:0:
199,141,44658,6,0,P|191:221|222:299,1,155.999995239258,2|0,0:3|0:0,0:0:0:0:
311,325,45086,1,8,0:1:0:0:
445,259,45229,2,0,P|409:245|371:243,1,77.999997619629,4|4,0:0|0:0,0:0:0:0:
216,302,45515,6,0,P|141:320|72:288,1,155.999995239258,2|0,0:3|0:0,0:0:0:0:
83,187,45943,2,0,L|90:93,1,77.999997619629,8|4,0:1|0:0,0:0:0:0:
21,32,46229,1,4,0:0:0:0:
186,89,46372,6,0,B|229:74|272:89|250:96|294:110|337:96,1,155.999995239258,2|4,0:3|0:0,0:0:0:0:
453,29,46800,1,12,0:1:0:0:
418,124,46943,1,4,0:0:0:0:
470,211,47086,1,4,0:0:0:0:
434,305,47229,6,0,P|359:302|306:356,1,155.999995239258,2|0,0:3|0:0,0:0:0:0:
207,327,47658,2,0,P|131:330|78:276,1,155.999995239258,8|4,0:1|0:0,0:0:0:0:
178,178,48086,6,0,L|346:187,1,155.999995239258,2|0,0:3|0:0,0:0:0:0:
413,236,48515,2,0,P|406:278|423:329,1,77.999997619629,8|4,0:1|0:0,0:0:0:0:
488,174,48800,1,4,0:0:0:0:
457,69,48943,6,0,P|383:88|317:51,1,155.999995239258,2|0,0:3|0:0,0:0:0:0:
246,118,49372,2,0,L|254:204,2,77.999997619629,8|4|4,0:1|0:0|0:0,0:0:0:0:
174,25,49800,6,0,P|97:24|43:78,1,155.999995239258,2|0,0:3|0:0,0:0:0:0:
22,232,50229,1,8,0:1:0:0:
88,167,50372,2,0,P|127:163|165:170,1,77.999997619629,4|4,0:0|0:0,0:0:0:0:
207,319,50658,6,0,B|133:346|133:346|59:315,1,155.999995239258,2|0,0:3|0:0,0:0:0:0:
251,233,51086,2,0,L|259:147,2,77.999997619629,8|4|4,0:1|0:0|0:0,0:0:0:0:
316,331,51515,6,0,P|353:274|449:264,1,155.999995239258,2|0,0:3|0:0,0:0:0:0:
414,358,51943,1,8,0:1:0:0:
343,184,52086,2,0,P|335:145|339:107,1,77.999997619629,4|4,0:0|0:0,0:0:0:0:
432,35,52372,6,0,L|276:22,2,155.999995239258,2|2|2,0:0|0:0|0:0,0:0:0:0:
402,267,53229,2,0,P|338:307|334:382,2,155.999995239258,2|2|4,0:0|0:0|0:0,0:0:0:0:
475,197,53943,1,4,0:0:0:0:
402,125,54086,6,0,L|320:118,1,77.999997619629,2|0,0:0|0:0,0:0:0:0:
230,110,54372,1,2,0:0:0:0:
306,32,54515,5,6,0:0:0:0:
188,211,54658,1,4,0:0:0:0:
289,201,54801,1,4,0:0:0:0:
219,20,54943,6,0,P|165:48|150:150,1,155.999995239258,2|0,0:3|0:0,0:0:0:0:
188,211,55372,1,10,0:1:0:0:
369,340,55658,1,0,0:0:0:0:
425,267,55801,6,0,L|432:106,1,155.999995239258,2|0,0:3|0:0,0:0:0:0:
435,17,56229,2,0,P|385:48|281:31,1,155.999995239258,10|0,0:1|0:0,0:0:0:0:
144,135,56658,6,0,P|219:120|287:155,1,155.999995239258,2|0,0:3|0:0,0:0:0:0:
339,234,57086,1,10,0:1:0:0:
133,348,57372,1,0,0:0:0:0:
62,291,57515,6,0,L|55:130,1,155.999995239258,2|0,0:3|0:0,0:0:0:0:
28,45,57943,2,0,P|81:32|190:83,1,155.999995239258,10|4,0:1|0:0,0:0:0:0:
257,207,58372,5,2,0:3:0:0:
257,113,58515,1,4,0:0:0:0:
176,160,58658,1,4,0:0:0:0:
338,160,58801,2,0,P|405:174|450:265,1,155.999995239258,10|0,0:1|0:0,0:0:0:0:
441,361,59229,5,2,0:3:0:0:
356,320,59372,1,4,0:0:0:0:
271,359,59515,1,4,0:0:0:0:
186,318,59658,2,0,P|165:282|161:243,1,77.999997619629,10|0,0:1|0:0,0:0:0:0:
176,160,59943,1,0,0:0:0:0:
296,66,60086,6,0,L|130:63,1,155.999995239258,2|0,0:3|0:0,0:0:0:0:
20,162,60515,2,0,L|186:159,1,155.999995239258,10|4,0:1|0:0,0:0:0:0:
251,215,60944,6,0,B|234:268|234:268|256:390,2,155.999995239258,2|2|2,0:0|0:0|0:0,0:0:0:0:
459,115,61801,6,0,L|474:24,2,77.999997619629,2|4|4,0:3|0:0|0:0,0:0:0:0:
506,195,62229,2,0,P|430:204|374:154,1,155.999995239258,10|0,0:1|0:0,0:0:0:0:
279,153,62658,6,0,L|294:243,2,77.999997619629,2|4|4,0:3|0:0|0:0,0:0:0:0:
326,73,63086,2,0,P|250:63|194:113,1,155.999995239258,10|0,0:1|0:0,0:0:0:0:
199,257,63515,6,0,L|37:270,1,155.999995239258,2|0,0:3|0:0,0:0:0:0:
0,185,63944,1,10,0:1:0:0:
160,38,64229,1,0,0:0:0:0:
253,46,64372,6,0,L|408:58,2,155.999995239258,2|2|2,0:0|0:0|0:0,0:0:0:0:
253,46,65229,1,4,0:3:0:0:
369,77,72087,6,0,P|384:133|370:191,1,86.6666666666667,4|0,0:3|0:0,0:0:0:0:
336,224,72515,6,0,L|344:286,2,43.3333333333333,8|0|2,0:0|0:0|0:0,0:0:0:0:
269,182,72944,2,0,L|277:120,2,43.3333333333333,2|2|2,0:0|0:0|0:0,0:0:0:0:
193,201,73372,2,0,P|173:240|175:283,1,86.6666666666667,8|2,0:0|0:0,0:0:0:0:
230,339,73801,6,0,L|277:347,2,43.3333333333333,2|0|2,0:0|0:0|0:0,0:0:0:0:
121,341,74229,2,0,L|74:349,2,43.3333333333333,8|0|0,0:0|0:0|0:0,0:0:0:0:
175,283,74658,6,0,L|214:245,2,43.3333333333333,2|2|2,0:0|0:0|0:0,0:0:0:0:
100,258,75087,2,0,P|73:224|69:181,1,86.6666666666667,8|0,0:0|0:0,0:0:0:0:
44,107,75515,6,0,L|157:113,1,86.6666666666667,4|0,0:3|0:0,0:0:0:0:
196,69,75944,6,0,L|188:7,2,43.3333333333333,8|0|2,0:0|0:0|0:0,0:0:0:0:
263,111,76373,2,0,L|255:173,2,43.3333333333333,2|2|2,0:0|0:0|0:0,0:0:0:0:
330,71,76801,2,0,P|365:97|408:101,1,86.6666666666667,10|0,0:0|0:0,0:0:0:0:
465,154,77229,6,0,L|510:149,2,43.3333333333333,2|0|2,0:0|0:0|0:0,0:0:0:0:
466,232,77658,2,0,L|509:236,2,43.3333333333333,2|0|2,0:0|0:0|0:0,0:0:0:0:
383,226,78087,5,4,0:3:0:0:
327,279,78229,2,0,P|318:299|316:321,1,43.3333333333333,0|4,0:0|0:3,0:0:0:0:
262,238,78515,5,0,0:0:0:0:
206,182,78658,2,0,P|198:162|196:141,1,43.3333333333333,4|0,0:3|0:0,0:0:0:0:
256,192,78944,12,2,80230,0:1:0:0:
362,101,80658,6,0,B|498:115|498:115|448:87,1,190.666672485352,6|0,0:1|0:0,0:0:0:0:
309,20,81087,1,14,0:1:0:0:
300,166,81230,2,0,L|291:271,1,95.3333362426759,4|4,0:0|0:0,0:0:0:0:
131,365,81515,6,0,P|124:293|206:219,1,190.666672485352,6|4,0:1|0:0,0:0:0:0:
403,312,81944,2,0,B|352:337|352:337|278:341|278:341|222:319,1,190.666672485352,14|4,0:1|0:0,0:0:0:0:
62,216,82372,6,0,B|91:157|91:157|70:25,1,190.666672485352,6|4,0:1|0:0,0:0:0:0:
182,94,82801,2,0,P|233:100|291:82,1,95.3333362426759,14|0,0:1|0:0,0:0:0:0:
452,147,83087,1,4,0:0:0:0:
301,236,83230,6,0,B|158:249|158:249|217:217,1,190.666672485352,6|0,0:1|0:0,0:0:0:0:
357,153,83658,2,0,L|361:42,2,95.3333362426759,14|4|4,0:1|0:0|0:0,0:0:0:0:
349,319,84087,6,0,P|428:361|497:304,1,190.666672485352,6|4,0:1|0:0,0:0:0:0:
432,94,84515,2,0,B|437:164|437:164|414:210|414:210|419:278,1,190.666672485352,14|0,0:1|0:0,0:0:0:0:
507,219,84944,5,6,0:1:0:0:
330,200,85087,2,0,L|229:189,1,95.3333362426759,4|4,0:0|0:0,0:0:0:0:
327,77,85372,5,14,0:1:0:0:
150,96,85515,2,0,L|49:107,1,95.3333362426759,4|4,0:0|0:0,0:0:0:0:
43,340,85801,6,0,P|109:344|172:227,1,190.666672485352,6|0,0:1|0:0,0:0:0:0:
90,188,86230,1,14,0:1:0:0:
259,186,86372,2,0,P|294:198|343:238,1,95.3333362426759,4|4,0:0|0:0,0:0:0:0:
392,369,86658,6,0,B|421:308|421:308|413:175,1,190.666672485352,6|0,0:1|0:0,0:0:0:0:
363,19,87087,1,14,0:1:0:0:
336,121,87230,1,2,0:1:0:0:
436,93,87372,1,2,0:1:0:0:
263,47,87515,6,0,P|201:108|86:104,1,190.666672485352,6|0,0:1|0:0,0:0:0:0:
9,209,87944,2,0,P|102:209|170:273,1,190.666672485352,14|0,0:1|0:0,0:0:0:0:
214,368,88372,5,6,0:1:0:0:
265,229,88515,2,0,P|268:177|255:124,1,95.3333362426759,4|4,0:0|0:0,0:0:0:0:
309,324,88801,2,0,B|402:349|402:349|490:287,1,190.666672485352,14|0,0:1|0:0,0:0:0:0:
449,127,89230,6,0,L|258:134,1,190.666672485352,6|0,0:1|0:0,0:0:0:0:
188,56,89658,5,14,0:1:0:0:
205,224,89801,2,0,L|214:334,1,95.3333362426759,4|4,0:0|0:0,0:0:0:0:
75,364,90087,5,6,0:1:0:0:
92,196,90230,2,0,L|101:86,1,95.3333362426759,4|4,0:0|0:0,0:0:0:0:
8,238,90515,6,0,P|88:291|177:233,1,190.666672485352,14|0,0:1|0:0,0:0:0:0:
234,147,90944,6,0,P|314:94|403:152,1,190.666672485352,6|0,0:1|0:0,0:0:0:0:
462,277,91373,2,0,L|453:377,2,95.3333362426759,14|4|4,0:1|0:0|0:0,0:0:0:0:
486,175,91801,5,6,0:1:0:0:
367,233,91944,2,0,P|326:240|266:229,1,95.3333362426759,4|4,0:0|0:0,0:0:0:0:
166,146,92230,2,0,P|178:221|158:332,1,190.666672485352,14|2,0:1|0:1,0:0:0:0:
33,248,92658,6,0,P|20:172|40:61,1,190.666672485352,2|2,0:0|0:0,0:0:0:0:
143,38,93087,2,0,L|244:31,2,95.3333362426759,0|2|4,0:0|0:0|0:0,0:0:0:0:
157,141,93515,6,0,L|256:160,2,95.3333362426759,0|8|8,1:0|0:1|0:1,0:0:0:0:
7,276,93944,1,2,0:1:0:0:
123,233,94087,1,2,0:1:0:0:
102,356,94230,1,2,0:1:0:0:
28,153,94373,6,0,P|123:106|221:132,1,190.666672485352,6|0,0:1|0:0,0:0:0:0:
323,229,94801,1,14,0:1:0:0:
228,285,94944,2,0,L|112:288,1,95.3333362426759,4|4,0:0|0:0,0:0:0:0:
202,121,95230,6,0,B|331:140|331:140|270:158,1,190.666672485352,6|0,0:1|0:0,0:0:0:0:
113,206,95658,2,0,L|123:-6,1,190.666672485352,14|0,0:1|0:0,0:0:0:0:
34,123,96087,6,0,P|129:160|209:110,1,190.666672485352,6|4,0:1|0:0,0:0:0:0:
315,33,96515,2,0,L|410:40,1,95.3333362426759,14|0,0:1|0:0,0:0:0:0:
504,130,96801,1,4,0:0:0:0:
486,326,96944,6,0,P|402:285|318:323,1,190.666672485352,6|0,0:1|0:0,0:0:0:0:
168,369,97373,1,14,0:1:0:0:
222,279,97515,2,0,L|221:183,1,95.3333362426759,4|4,0:0|0:0,0:0:0:0:
142,38,97801,6,0,B|3:55|3:55|74:75,1,190.666672485352,6|0,0:1|0:0,0:0:0:0:
259,111,98230,2,0,B|397:130|397:130|334:92,1,190.666672485352,14|0,0:1|0:0,0:0:0:0:
232,26,98658,5,6,0:1:0:0:
135,140,98801,2,0,L|146:246,1,95.3333362426759,4|4,0:0|0:0,0:0:0:0:
140,343,99087,5,14,0:1:0:0:
254,246,99230,2,0,L|360:257,1,95.3333362426759,4|4,0:0|0:0,0:0:0:0:
512,308,99515,6,0,P|448:373|359:351,1,190.666672485352,6|0,0:1|0:0,0:0:0:0:
328,162,99944,2,0,L|341:58,2,95.3333362426759,14|4|4,0:1|0:0|0:0,0:0:0:0:
254,246,100373,6,0,P|190:180|101:202,1,190.666672485352,6|0,0:1|0:0,0:0:0:0:
138,370,100801,1,14,0:1:0:0:
165,268,100944,1,2,0:1:0:0:
65,296,101086,1,2,0:1:0:0:
238,342,101230,6,0,L|437:331,1,190.666672485352,6|0,0:1|0:0,0:0:0:0:
474,183,101658,2,0,P|383:192|327:120,1,190.666672485352,14|0,0:1|0:0,0:0:0:0:
368,22,102087,5,6,0:1:0:0:
223,97,102230,2,0,P|172:103|114:90,1,95.3333362426759,4|4,0:0|0:0,0:0:0:0:
33,17,102516,2,0,B|54:77|54:77|45:203,1,190.666672485352,14|0,0:1|0:0,0:0:0:0:
21,357,102944,6,0,P|79:284|171:281,1,190.666672485352,6|0,0:1|0:0,0:0:0:0:
246,356,103373,5,14,0:1:0:0:
252,213,103515,2,0,L|254:117,1,95.3333362426759,4|4,0:0|0:0,0:0:0:0:
181,41,103801,5,6,0:1:0:0:
324,35,103944,2,0,L|419:32,1,95.3333362426759,4|4,0:0|0:0,0:0:0:0:
510,171,104230,6,0,P|386:191|333:135,1,190.666672485352,14|0,0:1|0:0,0:0:0:0:
457,108,104658,6,0,L|445:316,1,190.666672485352,6|0,0:1|0:0,0:0:0:0:
348,371,105087,2,0,P|301:345|234:335,1,95.3333362426759,14|4,0:1|0:0,0:0:0:0:
156,355,105373,1,4,0:0:0:0:
265,212,105516,6,0,L|270:116,2,95.3333362426759,6|4|4,0:1|0:0|0:0,0:0:0:0:
98,283,105944,2,0,P|33:217|52:127,1,190.666672485352,14|2,0:1|0:1,0:0:0:0:
180,34,106373,6,0,L|346:48,1,155.999995239258,6|0,0:1|0:0,0:0:0:0:
499,91,106801,1,14,0:1:0:0:
407,114,106944,1,4,0:0:0:0:
431,24,107087,1,4,0:0:0:0:
472,181,107230,6,0,L|468:266,1,77.999997619629,6|4,0:1|0:0,0:0:0:0:
462,353,107516,1,4,0:0:0:0:
377,235,107658,2,0,P|325:208|225:237,1,155.999995239258,14|0,0:1|0:0,0:0:0:0:
79,278,108087,5,6,0:1:0:0:
171,301,108230,1,0,0:0:0:0:
103,368,108373,1,4,0:0:0:0:
143,211,108516,2,0,P|158:174|162:136,1,77.999997619629,14|4,0:1|0:0,0:0:0:0:
153,17,108801,1,4,0:0:0:0:
7,77,108944,6,0,L|85:82,1,77.999997619629,6|4,0:1|0:0,0:0:0:0:
230,72,109230,1,4,0:0:0:0:
332,17,109373,2,0,P|310:81|374:176,1,155.999995239258,14|4,0:1|0:0,0:0:0:0:
425,300,109801,6,0,P|459:233|438:160,1,155.999995239258,6|0,0:1|0:0,0:0:0:0:
276,225,110230,2,0,L|188:224,1,77.999997619629,14|4,0:1|0:0,0:0:0:0:
103,223,110516,1,4,0:0:0:0:
152,142,110659,5,6,0:1:0:0:
54,303,110801,1,4,0:0:0:0:
57,141,110944,1,4,0:0:0:0:
149,305,111087,2,0,P|206:342|307:305,1,155.999995239258,14|4,0:1|0:0,0:0:0:0:
375,199,111516,6,0,L|369:277,1,77.999997619629,6|4,0:1|0:0,0:0:0:0:
361,370,111801,1,4,0:0:0:0:
494,290,111944,2,0,L|487:212,1,77.999997619629,14|4,0:1|0:0,0:0:0:0:
479,119,112229,1,4,0:0:0:0:
374,199,112373,6,0,P|297:210|239:160,1,155.999995239258,6|4,0:1|0:0,0:0:0:0:
148,178,112801,2,0,P|70:167|12:217,1,155.999995239258,14|0,0:1|0:0,0:0:0:0:
97,258,113230,6,0,L|106:71,1,155.999995239258,6|0,0:1|0:0,0:0:0:0:
247,6,113659,2,0,P|268:39|276:81,1,77.999997619629,14|4,0:1|0:0,0:0:0:0:
240,162,113944,1,4,0:0:0:0:
372,246,114087,6,0,P|332:248|291:233,1,77.999997619629,6|4,0:1|0:0,0:0:0:0:
240,162,114372,1,4,0:0:0:0:
441,129,114516,2,0,B|441:179|441:179|457:213|457:213|457:280,1,155.999995239258,14|0,0:1|0:0,0:0:0:0:
315,383,114944,5,6,0:1:0:0:
339,292,115087,1,0,0:0:0:0:
405,358,115230,1,4,0:0:0:0:
248,315,115373,2,0,P|191:303|143:311,1,77.999997619629,14|4,0:1|0:0,0:0:0:0:
91,354,115659,1,4,0:0:0:0:
134,217,115801,6,0,P|146:160|138:112,1,77.999997619629,6|0,0:1|0:0,0:0:0:0:
95,60,116087,1,0,0:0:0:0:
231,95,116230,2,0,L|386:90,1,155.999995239258,14|4,0:1|0:0,0:0:0:0:
468,197,116659,6,0,L|312:192,1,155.999995239258,6|0,0:1|0:0,0:0:0:0:
175,160,117087,2,0,P|201:211|206:260,1,77.999997619629,14|4,0:1|0:0,0:0:0:0:
177,321,117373,1,4,0:0:0:0:
92,221,117516,6,0,L|98:126,1,77.999997619629,6|4,0:1|0:0,0:0:0:0:
104,49,117801,1,4,0:0:0:0:
19,146,117944,2,0,L|186:161,1,155.999995239258,14|2,0:1|0:1,0:0:0:0:
277,102,118373,6,0,P|271:58|278:17,2,77.999997619629,2|2|2,0:1|0:1|0:0,0:0:0:0:
357,165,118801,2,0,P|398:181|430:208,2,77.999997619629,4|2|4,0:0|0:0|0:0,0:0:0:0:
262,202,119230,6,0,P|226:229|187:243,2,77.999997619629,2|4|4,0:0|0:0|0:0,0:0:0:0:
277,102,119659,1,2,0:0:0:0:
374,75,119801,2,0,L|472:83,1,77.999997619629,4|4,0:0|0:0,0:0:0:0:
486,231,120087,5,2,0:1:0:0:
389,258,120230,1,2,0:1:0:0:
415,158,120373,1,8,0:1:0:0:
460,329,120516,6,0,P|417:345|370:342,1,77.999997619629,0|8,0:0|0:1,0:0:0:0:
287,316,120802,1,0,0:0:0:0:
206,175,120944,5,8,0:1:0:0:
206,269,121087,1,0,0:0:0:0:
287,128,121230,1,8,0:1:0:0:
125,222,121373,5,0,0:0:0:0:
287,316,121516,1,8,0:1:0:0:
287,222,121658,1,0,0:0:0:0:
125,316,121802,5,4,0:3:0:0:
