osu file format v14

[General]
AudioFilename: audio.mp3
AudioLeadIn: 0
PreviewTime: 80086
Countdown: 0
SampleSet: Soft
StackLeniency: 0.2
Mode: 0
LetterboxInBreaks: 0
EpilepsyWarning: 1
WidescreenStoryboard: 1

[Editor]
Bookmarks: 8658,13801,27515,41229,54943,65229,72086,80658,92658,94372,106372,118372,121801
DistanceSpacing: 1
BeatDivisor: 6
GridSize: 32
TimelineZoom: 2.1

[Metadata]
Title:The Navigator's Hope
TitleUnicode:The Navigator's Hope
Artist:a_hisaxChicking
ArtistUnicode:a_hisa×ちきんぐ
Creator:Rohit6
Version:LCFC's Easy
Source:
Tags:fantasy LowComboFC NeilPerry Nerova Riuz GX BOUYAAA Namki
BeatmapID:1324278
BeatmapSetID:439225

[Difficulty]
HPDrainRate:2
CircleSize:2.5
OverallDifficulty:2
ApproachRate:2
SliderMultiplier:1.1
SliderTickRate:1

[Events]
//Background and Video events
0,0,"bg.jpg",0,0
//Break Periods
2,65429,70527
//Storyboard Layer 0 (Background)
//Storyboard Layer 1 (Fail)
//Storyboard Layer 2 (Pass)
//Storyboard Layer 3 (Foreground)
//Storyboard Sound Samples

[TimingPoints]
86,428.577551107873,4,2,1,100,1,0
1371,-100,4,2,0,60,0,0
1728,-100,4,2,1,20,0,0
1800,-100,4,2,2,80,0,0
2086,-100,4,2,0,80,0,0
8586,-100,4,2,1,20,0,0
8657,-100,4,2,1,80,0,0
20657,-100,4,2,1,60,0,0
26657,-100,4,2,1,80,0,0
26872,-100,4,2,1,20,0,0
26943,-100,4,2,1,40,0,0
27086,-100,4,2,1,50,0,0
27229,-100,4,2,1,60,0,0
27372,-100,4,2,1,70,0,0
27514,-100,4,2,1,80,0,0
32872,-100,4,2,1,20,0,0
32943,-100,4,2,1,80,0,0
40372,-100,4,2,1,40,0,0
40800,-100,4,2,1,50,0,0
40943,-100,4,2,1,60,0,0
41086,-100,4,2,1,70,0,0
41229,-100,4,2,1,80,0,0
46585,-100,4,2,1,20,0,0
46657,-100,4,2,1,80,0,0
54943,-100,4,2,2,80,0,0
59872,-100,4,2,2,40,0,0
59943,-100,4,2,2,80,0,0
72515,-100,4,2,0,60,0,0
75515,-100,4,2,2,70,0,0
75944,-100,4,2,0,60,0,0
78087,-100,4,2,2,80,0,0
78372,-100,4,2,2,85,0,0
78658,-100,4,2,2,90,0,0
78944,-100,4,2,1,30,0,0
79087,-100,4,2,1,40,0,0
79229,-100,4,2,1,50,0,0
79372,-100,4,2,1,60,0,0
79515,-100,4,2,1,70,0,0
79658,-100,4,2,1,80,0,0
79801,-100,4,2,1,90,0,0
79944,-100,4,2,1,100,0,0
80087,-100,4,2,1,20,0,0
80230,-100,4,2,1,80,0,0
80658,-100,4,2,3,80,0,1
82587,-100,4,2,3,40,0,1
82658,-100,4,2,3,80,0,1
84730,-100,4,2,3,40,0,1
84801,-100,4,2,3,80,0,1
88158,-100,4,2,3,40,0,1
88230,-100,4,2,3,80,0,1
92444,-100,4,2,3,20,0,1
92515,-100,4,2,3,80,0,1
92658,-100,4,2,1,70,0,0
93944,-100,4,2,1,80,0,0
94373,-100,4,2,3,80,0,1
96301,-100,4,2,3,40,0,1
96373,-100,4,2,3,80,0,1
98444,-100,4,2,3,40,0,1
98515,-100,4,2,3,80,0,1
101873,-100,4,2,3,40,0,1
101944,-100,4,2,3,80,0,1
106158,-100,4,2,3,20,0,1
106230,-100,4,2,3,80,0,1
106373,-100,4,2,3,60,0,0
118159,-100,4,2,3,20,0,0
118230,-100,4,2,3,60,0,0
118373,-100,4,2,1,80,0,1
120373,-100,4,2,1,90,0,1
121802,-100,4,2,2,90,0,0

[Colours]
Combo1 : 255,64,255
Combo2 : 64,64,255
Combo3 : 12,224,241
Combo4 : 150,45,255

[HitObjects]
59,123,1371,5,2,0:0:0:0:
142,51,1800,2,0,P|210:36|334:114,1,220,4|2,0:3|0:0,0:0:0:0:
344,219,3086,1,2,0:0:0:0:
264,294,3514,2,0,L|147:278,1,110,2|2,0:0|0:0,0:0:0:0:
132,171,4371,2,0,L|240:185,1,110,2|2,0:0|0:0,0:0:0:0:
344,219,5228,6,0,B|405:169|405:169|376:10,1,220,2|2,0:0|0:0,0:0:0:0:
271,10,6514,1,2,0:0:0:0:
175,65,6943,2,0,P|161:117|182:167,1,110,2|2,0:0|0:0,0:0:0:0:
247,255,7800,2,0,P|260:307|239:357,1,110,2|2,0:0|0:0,0:0:0:0:
146,298,8657,6,0,L|19:315,2,110,2|2|2,0:0|0:0|0:0,0:0:0:0:
247,255,9943,1,4,0:0:0:0:
348,212,10371,2,0,L|457:226,2,110,2|2|2,0:0|0:0|0:0,0:0:0:0:
262,143,11657,1,4,0:0:0:0:
182,66,12086,6,0,P|134:70|71:89,2,110,2|2|2,0:0|0:0|0:0,0:0:0:0:
288,37,13371,1,4,0:0:0:0:
373,105,13800,5,2,1:2:0:0:
435,195,14229,2,0,B|379:227|325:202|325:202|274:177|224:201,1,220,2|2,0:1|0:1,0:0:0:0:
149,282,15514,2,0,P|94:279|49:249,1,110,2|2,1:2|0:1,0:0:0:0:
88,146,16371,2,0,L|71:21,1,110,2|2,1:1|1:1,0:0:0:0:
179,9,17229,5,2,1:2:0:0:
256,87,17657,2,0,P|362:101|446:36,1,220,2|2,0:1|0:1,0:0:0:0:
507,127,18943,2,0,L|492:235,1,110,2|0,1:2|0:0,0:0:0:0:
500,345,19800,2,0,L|391:359,1,110,2|2,1:2|1:2,0:0:0:0:
302,294,20657,5,2,1:2:0:0:
199,334,21086,2,0,B|120:327|120:327|76:282|76:282|-1:275,1,220,2|2,0:1|0:1,0:0:0:0:
69,191,22372,2,0,P|66:136|36:91,1,110,2|2,1:2|0:1,0:0:0:0:
118,18,23229,2,0,P|163:48|217:50,1,110,2|2,1:1|1:1,0:0:0:0:
323,22,24086,5,2,1:2:0:0:
298,128,24514,2,0,P|304:238|333:344,1,220,2|2,0:1|0:1,0:0:0:0:
441,322,25800,2,0,L|455:213,1,110,2|0,1:2|0:0,0:0:0:0:
497,111,26657,2,0,P|451:80|397:78,1,110,2|8,1:2|0:1,0:0:0:0:
298,128,27514,6,0,B|244:140|200:180|200:180|147:153|79:156,1,220,2|2,0:0|0:0,0:0:0:0:
42,252,28800,1,8,0:1:0:0:
118,331,29229,2,0,P|171:339|220:316,1,110,2|12,0:0|0:3,0:0:0:0:
292,232,30086,2,0,P|345:224|394:247,1,110,2|8,0:0|0:1,0:0:0:0:
473,324,30943,6,0,L|493:104,1,220,2|2,0:0|0:0,0:0:0:0:
403,40,32229,1,8,0:1:0:0:
324,117,32657,2,0,P|271:125|222:102,2,110,2|12|2,0:0|0:3|0:0,0:0:0:0:
287,13,33943,1,8,0:1:0:0:
177,4,34372,6,0,B|114:57|114:57|136:204,1,220,2|2,0:0|0:0,0:0:0:0:
235,235,35657,1,8,0:1:0:0:
148,303,36086,2,0,L|31:294,1,110,2|12,0:0|0:3,0:0:0:0:
24,184,36943,2,0,L|133:192,1,110,2|8,0:0|0:1,0:0:0:0:
223,127,37800,6,0,P|313:72|414:106,1,220,2|2,0:0|0:0,0:0:0:0:
461,206,39086,1,8,0:1:0:0:
376,276,39515,2,0,P|353:325|361:378,2,110,2|2|2,0:0|0:0|0:3,0:0:0:0:
461,206,40800,1,4,0:0:0:0:
414,106,41229,6,0,L|191:80,1,220,2|2,0:3|0:3,0:0:0:0:
98,28,42515,1,8,0:1:0:0:
21,106,42943,2,0,B|12:161|12:161|37:208,1,110,2|8,0:3|0:1,0:0:0:0:
132,263,43800,2,0,B|187:254|187:254|234:279,1,110,2|8,0:3|0:1,0:0:0:0:
329,336,44658,6,0,B|361:280|336:226|336:226|311:175|335:125,1,220,2|2,0:3|0:3,0:0:0:0:
428,67,45943,1,8,0:1:0:0:
331,13,46372,2,0,L|221:24,2,110,2|12|2,0:3|0:1|0:3,0:0:0:0:
335,124,47658,1,8,0:1:0:0:
242,181,48086,6,0,P|194:276|236:374,1,220,2|2,0:3|0:3,0:0:0:0:
342,345,49372,1,8,0:1:0:0:
445,380,49800,2,0,P|467:330|459:277,1,110,2|8,0:3|0:1,0:0:0:0:
428,170,50658,2,0,P|419:116|442:67,1,110,2|8,0:3|0:1,0:0:0:0:
339,24,51515,6,0,P|230:35|126:70,1,220,2|2,0:3|0:0,0:0:0:0:
24,30,52801,1,0,0:0:0:0:
44,137,53229,2,0,P|35:197|17:251,2,110,2|8|2,0:0|0:1|0:0,0:0:0:0:
126,70,54515,1,6,0:0:0:0:
187,161,54943,6,0,P|242:204|395:194,1,220,2|2,0:3|0:3,0:0:0:0:
453,112,56229,1,10,0:1:0:0:
500,211,56658,2,0,L|475:326,1,110,2|10,0:3|0:1,0:0:0:0:
368,339,57515,1,2,0:3:0:0:
260,359,57943,1,10,0:1:0:0:
177,286,58372,6,0,P|168:232|191:183,1,110,2|10,0:3|0:1,0:0:0:0:
289,134,59229,2,0,P|343:143|392:120,1,110,2|10,0:3|0:1,0:0:0:0:
325,32,60086,2,0,B|216:14|216:14|118:63,1,220,2|2,0:3|0:0,0:0:0:0:
49,149,61372,1,8,0:1:0:0:
145,201,61801,6,0,L|121:308,1,110,2|10,0:3|0:1,0:0:0:0:
217,360,62658,2,0,L|241:253,1,110,2|10,0:3|0:1,0:0:0:0:
267,145,63515,2,0,B|323:177|377:152|377:152|428:127|478:151,1,220,2|2,0:3|0:0,0:0:0:0:
509,256,64801,1,8,0:1:0:0:
438,340,65229,1,4,0:3:0:0:
438,340,72087,6,0,P|358:269|254:292,1,220,4|2,0:3|0:0,0:0:0:0:
170,362,73372,1,8,0:0:0:0:
73,308,73801,2,0,P|56:255|53:200,1,110,2|8,0:0|0:0,0:0:0:0:
115,109,74658,2,0,P|167:125|222:128,1,110,2|8,0:0|0:0,0:0:0:0:
302,53,75515,6,0,B|363:18|363:18|518:43,1,220,4|2,0:3|0:0,0:0:0:0:
459,139,76801,1,10,0:0:0:0:
488,244,77229,2,0,L|465:364,1,110,2|2,0:0|0:0,0:0:0:0:
359,374,78087,6,0,B|352:334|352:334|369:305,2,73.3333333333333,4|4|4,0:3|0:3|0:3,0:0:0:0:
359,374,80230,1,2,0:1:0:0:
261,323,80658,6,0,L|43:350,1,220,6|6,0:1|0:1,0:0:0:0:
57,240,81944,1,14,0:1:0:0:
71,129,82372,2,0,L|197:113,2,110,6|14|6,0:1|0:1|0:1,0:0:0:0:
57,240,83658,1,14,0:1:0:0:
43,350,84087,6,0,L|261:323,1,220,6|6,0:1|0:1,0:0:0:0:
342,248,85372,1,14,0:1:0:0:
409,334,85801,2,0,P|445:293|450:239,1,110,6|14,0:1|0:1,0:0:0:0:
392,145,86658,2,0,L|274:162,1,110,6|14,0:1|0:1,0:0:0:0:
225,254,87515,6,0,B|171:242|127:202|127:202|74:229|6:226,1,220,6|6,0:1|0:1,0:0:0:0:
2,118,88801,1,14,0:1:0:0:
84,45,89230,2,0,P|136:30|191:28,2,110,6|14|6,0:1|0:1|0:1,0:0:0:0:
107,152,90515,1,14,0:1:0:0:
211,187,90944,6,0,B|290:180|290:180|334:135|334:135|411:128,1,220,6|6,0:1|0:1,0:0:0:0:
487,207,92230,1,14,0:1:0:0:
393,264,92658,2,0,L|371:383,2,110,2|0|0,0:0|0:0|1:0,0:0:0:0:
296,210,93944,1,2,0:1:0:0:
204,270,94373,6,0,L|176:52,1,220,6|6,0:1|0:1,0:0:0:0:
275,4,95658,1,14,0:1:0:0:
321,104,96087,2,0,P|376:109|431:108,2,110,6|14|6,0:1|0:1|0:1,0:0:0:0:
237,172,97373,1,14,0:1:0:0:
299,262,97801,6,0,B|243:294|189:269|189:269|138:244|88:268,1,220,6|6,0:1|0:1,0:0:0:0:
29,361,99087,1,14,0:1:0:0:
138,372,99515,2,0,L|250:362,1,110,6|14,0:1|0:1,0:0:0:0:
299,262,100373,2,0,L|408:271,1,110,6|14,0:1|0:1,0:0:0:0:
461,175,101230,6,0,P|399:90|297:110,1,220,6|6,0:1|0:1,0:0:0:0:
223,192,102516,1,14,0:1:0:0:
119,154,102944,2,0,P|93:106|105:53,2,110,6|14|6,0:1|0:1|0:1,0:0:0:0:
223,192,104230,1,14,0:1:0:0:
273,289,104658,6,0,L|492:309,1,220,6|6,0:1|0:1,0:0:0:0:
485,199,105944,1,14,0:1:0:0:
423,107,106373,5,6,0:1:0:0:
335,40,106801,2,0,P|272:19|148:104,1,220,14|14,0:1|0:1,0:0:0:0:
200,194,108087,2,0,P|212:246|192:296,1,110,6|14,0:1|0:1,0:0:0:0:
82,289,108944,2,0,P|69:236|89:186,1,110,6|14,0:1|0:1,0:0:0:0:
151,95,109801,5,6,0:1:0:0:
238,28,110230,2,0,P|347:38|460:70,1,220,14|14,0:1|0:1,0:0:0:0:
386,154,111516,2,0,L|409:283,1,110,6|14,0:1|0:1,0:0:0:0:
439,367,112373,2,0,L|330:347,1,110,6|14,0:1|0:1,0:0:0:0:
267,257,113230,5,6,0:1:0:0:
176,319,113659,2,0,B|144:263|169:209|169:209|194:158|170:108,1,220,14|14,0:1|0:1,0:0:0:0:
262,48,114944,2,0,P|312:70|366:78,1,110,6|14,0:1|0:1,0:0:0:0:
468,37,115801,2,0,L|455:155,1,110,6|14,0:1|0:1,0:0:0:0:
442,255,116659,5,6,0:1:0:0:
379,345,117087,2,0,P|339:364|181:293,1,220,14|14,0:1|0:1,0:0:0:0:
115,220,118373,6,0,P|60:215|13:241,1,110,2|4,0:1|0:0,0:0:0:0:
85,325,119230,2,0,P|139:329|186:303,1,110,2|2,0:0|0:0,0:0:0:0:
236,205,120087,2,0,L|359:220,1,110,2|0,0:1|0:0,0:0:0:0:
387,116,120944,2,0,L|277:102,1,110,8|0,0:1|0:0,0:0:0:0:
180,50,121802,5,4,0:3:0:0:
