osu file format v14

[General]
AudioFilename: audio.mp3
AudioLeadIn: 0
PreviewTime: 80086
Countdown: 0
SampleSet: Soft
StackLeniency: 0.2
Mode: 0
LetterboxInBreaks: 0
EpilepsyWarning: 1
WidescreenStoryboard: 1

[Editor]
Bookmarks: 8658,13801,27515,41229,54943,65229,72086,80658,92658,94372,106372,118372,121801
DistanceSpacing: 1
BeatDivisor: 6
GridSize: 4
TimelineZoom: 2.1

[Metadata]
Title:The Navigator's Hope
TitleUnicode:The Navigator's Hope
Artist:a_hisaxChicking
ArtistUnicode:a_hisa×ちきんぐ
Creator:Rohit6
Version:Endurance of the Seafarer
Source:
Tags:fantasy LowComboFC NeilPerry Nerova Riuz GX BOUYAAA Namki
BeatmapID:945304
BeatmapSetID:439225

[Difficulty]
HPDrainRate:6.5
CircleSize:5
OverallDifficulty:9.3
ApproachRate:9.3
SliderMultiplier:2.6
SliderTickRate:1

[Events]
//Background and Video events
0,0,"bg.jpg",0,0
//Break Periods
2,65429,71228
//Storyboard Layer 0 (Background)
//Storyboard Layer 1 (Fail)
//Storyboard Layer 2 (Pass)
//Storyboard Layer 3 (Foreground)
//Storyboard Sound Samples

[TimingPoints]
86,428.577551107873,4,2,1,100,1,0
1371,-200,4,2,0,60,0,0
1728,-200,4,2,1,20,0,0
1800,-133.333333333333,4,2,2,80,0,0
2086,-133.333333333333,4,2,0,80,0,0
8228,-117.647058823529,4,2,0,80,0,0
8586,-133.333333333333,4,2,1,20,0,0
8657,-111.111111111111,4,2,1,80,0,0
13800,-111.111111111111,4,2,1,80,0,0
19800,-133.333333333333,4,2,1,80,0,0
20657,-111.111111111111,4,2,1,60,0,0
26657,-133.333333333333,4,2,1,80,0,0
26872,-133.333333333333,4,2,1,20,0,0
26943,-133.333333333333,4,2,1,40,0,0
27086,-133.333333333333,4,2,1,50,0,0
27229,-133.333333333333,4,2,1,60,0,0
27372,-133.333333333333,4,2,1,70,0,0
27514,-111.111111111111,4,2,1,80,0,0
32872,-111.111111111111,4,2,1,20,0,0
32943,-111.111111111111,4,2,1,80,0,0
40372,-133.333333333333,4,2,1,40,0,0
40800,-133.333333333333,4,2,1,50,0,0
40943,-133.333333333333,4,2,1,60,0,0
41086,-133.333333333333,4,2,1,70,0,0
41229,-111.111111111111,4,2,1,80,0,0
46585,-111.111111111111,4,2,1,20,0,0
46657,-111.111111111111,4,2,1,80,0,0
54943,-111.111111111111,4,2,2,80,0,0
59872,-111.111111111111,4,2,2,40,0,0
59943,-111.111111111111,4,2,2,80,0,0
65229,-111.111111111111,4,2,2,80,0,0
72087,-200,4,2,2,80,0,0
72515,-200,4,2,0,60,0,0
75515,-200,4,2,2,70,0,0
75944,-200,4,2,0,60,0,0
78087,-200,4,2,2,80,0,0
78372,-200,4,2,2,85,0,0
78658,-200,4,2,2,90,0,0
78944,-200,4,2,1,30,0,0
79087,-200,4,2,1,40,0,0
79229,-200,4,2,1,50,0,0
79372,-200,4,2,1,60,0,0
79515,-200,4,2,1,70,0,0
79658,-200,4,2,1,80,0,0
79801,-200,4,2,1,90,0,0
79944,-200,4,2,1,100,0,0
80087,-200,4,2,1,20,0,0
80230,-200,4,2,1,80,0,0
80658,-90.9090909090909,4,2,3,80,0,1
82587,-90.9090909090909,4,2,3,40,0,1
82658,-90.9090909090909,4,2,3,80,0,1
84730,-90.9090909090909,4,2,3,40,0,1
84801,-90.9090909090909,4,2,3,80,0,1
88158,-90.9090909090909,4,2,3,40,0,1
88230,-90.9090909090909,4,2,3,80,0,1
91158,-90.9090909090909,4,2,3,40,0,1
91230,-90.9090909090909,4,2,3,80,0,1
92444,-90.9090909090909,4,2,3,20,0,1
92515,-90.9090909090909,4,2,3,80,0,1
92658,-111.111111111111,4,2,1,70,0,0
93944,-111.111111111111,4,2,1,80,0,0
94373,-90.9090909090908,4,2,3,80,0,1
96301,-90.9090909090908,4,2,3,40,0,1
96373,-90.9090909090908,4,2,3,80,0,1
98444,-90.9090909090908,4,2,3,40,0,1
98515,-90.9090909090908,4,2,3,80,0,1
101873,-90.9090909090908,4,2,3,40,0,1
101944,-90.9090909090908,4,2,3,80,0,1
106158,-90.9090909090908,4,2,3,20,0,1
106230,-90.9090909090908,4,2,3,80,0,1
106373,-100,4,2,3,60,0,0
113230,-90.9090909090909,4,2,3,60,0,0
118159,-90.9090909090909,4,2,3,20,0,0
118230,-90.9090909090909,4,2,3,60,0,0
118373,-111.111111111111,4,2,1,80,0,1
120373,-111.111111111111,4,2,1,90,0,1
121802,-111.111111111111,4,2,2,90,0,0

[Colours]
Combo1 : 255,64,255
Combo2 : 64,64,255
Combo3 : 12,224,241
Combo4 : 150,45,255

[HitObjects]
69,252,1371,6,6,P|120:252|160:303,1,108.333333333333,2|0,0:0|0:0,0:0:0:0:
163,248,1800,6,0,B|150:163,1,65.0000024795533,4|0,0:3|0:0,0:0:0:0:
64,111,2086,2,0,P|92:125|124:122,1,65.0000024795533,2|0,0:0|0:0,0:0:0:0:
182,94,2370,1,2,0:0:0:0:
215,151,2514,1,2,0:0:0:0:
343,68,2657,6,0,B|387:73|387:73|408:108|408:108|462:119,1,130.000004959107,2|0,0:0|0:0,0:0:0:0:
452,117,3086,2,0,P|445:145|447:182,1,65.0000024795533,2|0,0:0|0:0,0:0:0:0:
468,242,3371,1,2,0:0:0:0:
381,327,3514,6,0,P|332:306|240:322,1,130.000004959107,2|0,0:0|0:0,0:0:0:0:
154,329,3943,1,2,0:0:0:0:
194,232,4086,1,2,0:0:0:0:
143,140,4228,1,2,0:0:0:0:
1,204,4371,6,0,P|26:237|141:216,1,130.000004959107,2|0,0:0|0:0,0:0:0:0:
211,202,4800,1,2,0:0:0:0:
154,131,4943,1,2,0:0:0:0:
233,74,5086,1,2,0:0:0:0:
91,33,5228,6,0,P|126:3|213:17,1,130.000004959107,2|0,0:0|0:0,0:0:0:0:
354,83,5657,2,0,L|348:161,1,65.0000024795533,2|0,0:0|0:0,0:0:0:0:
502,200,5943,1,2,0:0:0:0:
502,200,6014,1,2,0:0:0:0:
502,200,6086,6,0,P|439:195|388:258,1,130.000004959107,2|0,0:0|0:0,0:0:0:0:
362,363,6514,1,2,0:0:0:0:
280,320,6657,1,2,0:0:0:0:
215,383,6800,1,2,0:0:0:0:
99,352,6943,6,0,P|86:317|94:266,1,65.0000024795533,2|0,0:0|0:0,0:0:0:0:
100,225,7228,1,2,0:0:0:0:
258,211,7371,2,0,P|234:239|186:258,1,65.0000024795533,2|0,0:0|0:0,0:0:0:0:
147,273,7657,1,2,0:0:0:0:
55,140,7800,2,0,P|91:146|131:178,1,65.0000024795533,2|0,0:0|0:0,0:0:0:0:
165,204,8086,1,2,0:0:0:0:
18,202,8228,6,6,P|52:149|31:32,1,184.166670179367,2|0,0:0|0:0,0:0:0:0:
18,75,8657,6,0,B|101:98|81:30|188:63,1,155.999995239258,2|0,0:0|0:0,0:0:0:0:
294,147,9086,2,0,L|205:136,1,77.999997619629,2|0,0:0|0:0,0:0:0:0:
138,129,9371,1,4,0:0:0:0:
279,53,9514,6,0,B|328:60|328:60|373:99|373:99|424:106,1,155.999995239258,2|0,0:0|0:0,0:0:0:0:
512,0,9943,2,0,P|489:31|490:91,1,77.999997619629,4|0,0:0|0:0,0:0:0:0:
485,147,10229,1,4,0:0:0:0:
288,144,10371,6,0,B|308:180|308:180|293:293,1,155.999995239258,2|0,0:0|0:0,0:0:0:0:
421,352,10800,1,2,0:0:0:0:
421,352,10871,1,0,0:0:0:0:
421,352,10943,2,0,P|426:317|403:266,1,77.999997619629,0|4,0:0|0:0,0:0:0:0:
258,219,11229,6,0,P|174:230|93:181,1,155.999995239258,2|0,0:0|0:0,0:0:0:0:
15,122,11657,1,4,0:0:0:0:
85,89,11800,1,0,0:0:0:0:
68,13,11943,1,4,0:0:0:0:
32,198,12086,6,0,P|32:288|102:336,1,155.999995239258,2|0,0:0|0:0,0:0:0:0:
199,278,12514,1,2,0:0:0:0:
252,334,12657,1,0,0:0:0:0:
320,295,12800,1,4,0:0:0:0:
401,375,12943,6,0,P|420:348|382:231,1,155.999995239258,2|0,0:0|0:0,0:0:0:0:
306,138,13371,1,4,0:0:0:0:
313,215,13514,1,0,0:0:0:0:
415,118,13657,1,4,0:0:0:0:
476,331,13800,5,2,1:2:0:0:
140,218,14086,1,2,1:2:0:0:
231,83,14229,6,0,L|237:173,1,77.999997619629,2|0,0:1|0:0,0:0:0:0:
219,237,14514,1,0,0:0:0:0:
72,266,14657,5,2,0:1:0:0:
55,173,14800,1,0,0:0:0:0:
39,81,14943,1,0,0:0:0:0:
158,141,15086,1,2,0:1:0:0:
158,141,15371,1,4,0:0:0:0:
343,88,15514,6,0,B|435:103,1,77.999997619629,2|0,1:2|0:0,0:0:0:0:
481,258,15800,1,2,1:2:0:0:
499,182,15943,5,2,0:1:0:0:
377,244,16086,1,0,0:0:0:0:
258,159,16229,1,0,0:0:0:0:
115,266,16371,6,0,P|96:232|101:182,1,77.999997619629,2|0,1:1|0:0,0:0:0:0:
140,128,16657,1,0,0:0:0:0:
283,232,16800,2,0,P|282:270|253:311,1,77.999997619629,2|0,1:1|0:0,0:0:0:0:
192,339,17086,1,0,0:0:0:0:
434,203,17229,5,2,1:2:0:0:
102,64,17514,1,2,1:2:0:0:
183,187,17657,6,0,L|264:173,1,77.999997619629,2|0,0:1|0:0,0:0:0:0:
332,203,17943,1,0,0:0:0:0:
263,299,18086,5,2,0:1:0:0:
172,321,18229,1,0,0:0:0:0:
81,344,18371,1,0,0:0:0:0:
71,202,18514,1,2,0:1:0:0:
71,202,18800,2,0,L|75:145,1,38.9999988098145,4|0,0:0|0:0,0:0:0:0:
45,78,18943,6,0,B|76:86|76:86|142:72,1,77.999997619629,2|0,1:2|0:0,0:0:0:0:
327,123,19229,2,0,B|296:115|296:115|230:129,1,77.999997619629,2|0,1:2|0:0,0:0:0:0:
198,58,19514,1,0,0:2:0:0:
168,138,19657,1,0,0:0:0:0:
343,45,19800,6,0,B|384:55|384:55|432:42|432:42|494:63,1,130.000004959107,2|0,1:2|0:0,0:0:0:0:
415,237,20229,2,0,P|397:169|446:112,1,130.000004959107,2|0,1:2|0:0,0:0:0:0:
512,219,20657,5,2,1:2:0:0:
174,342,20943,1,2,1:2:0:0:
162,207,21086,5,2,0:1:0:0:
207,270,21229,1,0,0:0:0:0:
129,276,21372,1,0,0:0:0:0:
243,114,21514,5,2,0:1:0:0:
285,231,21657,1,0,0:0:0:0:
162,207,21800,1,0,0:0:0:0:
356,91,21943,1,2,0:1:0:0:
356,91,22229,1,4,0:0:0:0:
140,41,22372,5,2,1:2:0:0:
442,241,22657,1,2,1:2:0:0:
365,255,22800,1,2,0:1:0:0:
403,170,22943,1,0,0:0:0:0:
300,209,23086,1,0,0:0:0:0:
482,131,23229,6,0,P|497:98|483:43,1,77.999997619629,2|0,1:1|0:0,0:0:0:0:
424,16,23514,1,0,0:0:0:0:
272,52,23657,2,0,P|285:86|334:115,1,77.999997619629,2|0,1:1|0:0,0:0:0:0:
395,93,23943,1,0,0:0:0:0:
205,24,24086,5,2,1:2:0:0:
39,346,24372,1,2,1:2:0:0:
115,328,24514,5,2,0:1:0:0:
91,253,24657,1,0,0:0:0:0:
130,185,24800,1,0,0:0:0:0:
192,334,24943,5,2,0:1:0:0:
266,277,25086,1,0,0:0:0:0:
354,308,25229,1,0,0:0:0:0:
434,141,25372,1,2,0:1:0:0:
434,141,25657,2,0,L|431:94,1,38.9999988098145,4|0,0:0|0:0,0:0:0:0:
452,16,25800,6,0,B|426:34|426:34|359:28,1,77.999997619629,2|0,1:2|0:0,0:0:0:0:
235,48,26086,2,0,B|261:66|261:66|308:62,1,77.999997619629,2|0,1:2|0:0,0:0:0:0:
349,127,26372,1,0,0:0:0:0:
318,198,26514,1,0,0:0:0:0:
96,182,26657,6,0,L|112:299,1,97.50000371933,2|0,1:2|0:0,0:0:0:0:
114,303,26943,1,0,0:0:0:0:
83,106,27086,1,8,0:1:0:0:
239,216,27229,1,8,0:1:0:0:
337,60,27372,1,8,0:1:0:0:
472,195,27514,6,0,P|406:241|340:216,1,155.999995239258,2|0,0:0|0:0,0:0:0:0:
292,155,27943,1,12,0:3:0:0:
229,295,28086,2,0,B|202:303|202:303|134:292,1,77.999997619629,4|0,0:0|0:0,0:0:0:0:
29,183,28372,6,0,P|8:124|56:46,1,155.999995239258,2|0,0:0|0:0,0:0:0:0:
123,13,28800,1,8,0:1:0:0:
152,117,28943,1,0,0:0:0:0:
261,99,29086,1,4,0:0:0:0:
265,238,29229,6,0,B|172:248|211:189|99:205,1,155.999995239258,2|0,0:0|0:0,0:0:0:0:
126,363,29657,2,0,P|140:328|131:273,1,77.999997619629,12|0,0:3|0:0,0:0:0:0:
59,284,29943,1,4,0:0:0:0:
212,352,30086,6,0,L|381:324,1,155.999995239258,2|0,0:0|0:0,0:0:0:0:
494,349,30515,1,8,0:1:0:0:
435,275,30657,1,0,0:0:0:0:
464,185,30800,1,4,0:0:0:0:
345,110,30943,6,0,B|301:106|301:106|240:128|240:128|189:122,1,155.999995239258,2|0,0:0|0:0,0:0:0:0:
78,22,31372,2,0,L|183:30,1,77.999997619629,12|0,0:3|0:0,0:0:0:0:
231,50,31657,1,4,0:0:0:0:
150,197,31800,6,0,P|113:143|149:47,1,155.999995239258,2|0,0:0|0:0,0:0:0:0:
268,118,32229,2,0,L|257:199,1,77.999997619629,8|0,0:1|0:0,0:0:0:0:
314,249,32515,1,4,0:0:0:0:
447,169,32657,6,0,B|466:143|466:143|452:34,1,116.999996429443,2|0,0:0|0:0,0:0:0:0:
450,28,32943,1,4,0:0:0:0:
262,103,33086,1,12,0:3:0:0:
333,0,33229,1,4,0:0:0:0:
382,114,33372,1,4,0:0:0:0:
200,161,33515,6,0,P|154:163|89:69,1,155.999995239258,2|0,0:0|0:0,0:0:0:0:
241,23,33943,2,0,L|235:120,1,77.999997619629,8|0,0:1|0:0,0:0:0:0:
229,179,34229,1,4,0:0:0:0:
349,62,34372,6,0,P|387:53|451:149,1,155.999995239258,2|0,0:0|0:0,0:0:0:0:
321,268,34800,2,0,L|329:182,1,77.999997619629,12|0,0:3|0:0,0:0:0:0:
379,131,35086,1,4,0:0:0:0:
339,350,35229,6,0,B|243:357|292:303|186:313,1,155.999995239258,2|0,0:0|0:0,0:0:0:0:
110,383,35657,1,8,0:1:0:0:
100,289,35800,1,0,0:0:0:0:
8,268,35943,1,4,0:0:0:0:
123,119,36086,6,0,L|289:140,1,155.999995239258,2|0,0:0|0:0,0:0:0:0:
380,42,36515,1,12,0:3:0:0:
380,42,36586,1,4,0:0:0:0:
380,42,36657,2,0,L|270:54,1,77.999997619629,4|4,0:0|0:0,0:0:0:0:
353,180,36943,6,0,P|427:173|446:73,1,155.999995239258,2|0,0:0|0:0,0:0:0:0:
282,217,37372,2,0,L|289:320,1,77.999997619629,8|0,0:1|0:0,0:0:0:0:
354,336,37657,1,4,0:0:0:0:
279,180,37800,6,0,P|152:151|116:165,1,155.999995239258,2|0,0:0|0:0,0:0:0:0:
46,287,38229,1,12,0:3:0:0:
131,247,38372,1,0,0:0:0:0:
51,198,38515,1,4,0:0:0:0:
166,358,38657,6,0,B|212:364|212:364|272:336|272:336|339:343,1,155.999995239258,2|0,0:0|0:0,0:0:0:0:
438,356,39086,1,8,0:1:0:0:
392,274,39229,1,0,0:0:0:0:
441,194,39372,1,4,0:0:0:0:
303,254,39515,6,0,P|252:250|204:140,1,155.999995239258,2|0,0:0|0:0,0:0:0:0:
33,334,39943,2,0,P|84:330|132:220,1,155.999995239258,2|0,0:0|0:0,0:0:0:0:
336,355,40372,6,0,L|205:336,1,130.000004959107,2|0,0:3|0:0,0:0:0:0:
58,259,40800,1,4,0:0:0:0:
106,100,40943,1,4,0:0:0:0:
225,217,41086,1,4,0:0:0:0:
24,71,41229,6,0,B|84:21|84:21|186:37,1,155.999995239258,2|0,0:3|0:0,0:0:0:0:
254,129,41658,1,8,0:1:0:0:
243,43,41800,1,4,0:0:0:0:
180,159,41943,1,4,0:0:0:0:
337,137,42086,6,0,B|432:122|395:182|489:169,1,155.999995239258,2|0,0:3|0:0,0:0:0:0:
473,19,42515,2,0,B|455:45|455:45|465:110,1,77.999997619629,8|4,0:1|0:0,0:0:0:0:
488,255,42800,1,4,0:0:0:0:
267,207,42943,6,0,B|295:239|295:239|274:372,1,155.999995239258,2|0,0:3|0:0,0:0:0:0:
390,296,43372,2,0,P|359:273|313:270,1,77.999997619629,8|4,0:1|0:0,0:0:0:0:
227,281,43658,1,4,0:0:0:0:
377,368,43800,6,0,P|404:368|439:246,1,155.999995239258,2|0,0:3|0:0,0:0:0:0:
356,181,44229,1,8,0:1:0:0:
320,268,44372,1,4,0:0:0:0:
227,281,44515,1,4,0:0:0:0:
312,99,44658,6,0,B|355:92|355:92|422:114|422:114|476:104,1,155.999995239258,2|0,0:3|0:0,0:0:0:0:
512,0,45086,1,8,0:1:0:0:
426,38,45229,1,4,0:0:0:0:
340,0,45372,1,4,0:0:0:0:
229,127,45515,6,0,P|153:146|95:93,1,155.999995239258,2|0,0:3|0:0,0:0:0:0:
256,50,45943,2,0,L|261:139,1,77.999997619629,8|4,0:1|0:0,0:0:0:0:
241,204,46229,1,4,0:0:0:0:
181,61,46372,6,0,L|296:43,1,116.999996429443,2|0,0:3|0:0,0:0:0:0:
327,38,46658,1,4,0:0:0:0:
453,184,46800,1,12,0:1:0:0:
335,141,46943,1,4,0:0:0:0:
434,65,47086,1,4,0:0:0:0:
452,275,47229,6,0,B|409:288|409:288|350:259|350:259|288:275,1,155.999995239258,2|0,0:3|0:0,0:0:0:0:
163,360,47658,2,0,P|221:315|194:219,1,155.999995239258,8|0,0:1|0:0,0:0:0:0:
30,174,48086,6,0,P|39:246|136:271,1,155.999995239258,2|0,0:3|0:0,0:0:0:0:
167,154,48515,1,8,0:1:0:0:
259,168,48658,1,4,0:0:0:0:
316,93,48800,1,4,0:0:0:0:
463,189,48943,6,0,L|443:355,1,155.999995239258,2|0,0:3|0:0,0:0:0:0:
300,376,49372,2,0,L|309:287,1,77.999997619629,8|4,0:1|0:0,0:0:0:0:
355,235,49658,1,4,0:0:0:0:
235,321,49800,6,0,P|179:353|102:288,1,155.999995239258,2|0,0:3|0:0,0:0:0:0:
172,160,50229,1,8,0:1:0:0:
182,253,50372,1,4,0:0:0:0:
94,220,50515,1,4,0:0:0:0:
263,197,50658,6,0,B|354:169|327:230|421:199,1,155.999995239258,2|0,0:3|0:0,0:0:0:0:
508,78,51086,2,0,P|469:68|414:83,1,77.999997619629,8|4,0:1|0:0,0:0:0:0:
377,130,51372,1,4,0:0:0:0:
490,268,51515,6,0,L|505:106,1,155.999995239258,2|0,0:3|0:0,0:0:0:0:
425,0,51943,1,8,0:1:0:0:
349,55,52086,1,4,0:0:0:0:
260,23,52229,1,4,0:0:0:0:
170,141,52372,6,0,P|206:139|249:152,1,77.999997619629,2|0,0:0|0:0,0:0:0:0:
366,203,52658,2,0,P|333:219|303:252,1,77.999997619629,2|0,0:0|0:0,0:0:0:0:
187,277,52943,2,0,P|207:309|216:347,1,77.999997619629,2|0,0:0|0:0,0:0:0:0:
9,364,53229,6,0,L|21:270,1,77.999997619629,2|0,0:0|0:0,0:0:0:0:
198,211,53515,2,0,L|120:220,1,77.999997619629,2|8,0:0|0:1,0:0:0:0:
71,33,53801,1,4,0:0:0:0:
198,120,53943,1,4,0:0:0:0:
327,30,54086,6,0,P|365:25|419:39,1,77.999997619629,2|0,0:0|0:0,0:0:0:0:
461,85,54372,1,2,0:0:0:0:
461,85,54443,1,4,0:0:0:0:
461,85,54515,1,6,0:0:0:0:
356,244,54658,1,4,0:0:0:0:
487,169,54801,1,4,0:0:0:0:
299,183,54943,6,0,P|277:222|319:322,1,155.999995239258,2|0,0:3|0:0,0:0:0:0:
506,251,55372,2,0,B|422:216|447:286|346:240,1,155.999995239258,10|0,0:1|0:0,0:0:0:0:
231,99,55801,6,0,B|271:75|271:75|401:100,1,155.999995239258,2|0,0:3|0:0,0:0:0:0:
230,250,56229,2,0,B|190:274|190:274|58:257,1,155.999995239258,10|0,0:1|0:0,0:0:0:0:
139,54,56658,6,0,P|154:116|93:195,1,155.999995239258,2|0,0:3|0:0,0:0:0:0:
68,28,57086,2,0,L|254:29,1,155.999995239258,10|0,0:1|0:0,0:0:0:0:
333,179,57515,6,0,P|386:160|411:57,1,155.999995239258,2|0,0:3|0:0,0:0:0:0:
247,175,57943,1,10,0:1:0:0:
297,253,58086,1,4,0:0:0:0:
390,250,58229,1,4,0:0:0:0:
295,102,58372,5,2,0:3:0:0:
183,118,58515,1,4,0:0:0:0:
221,15,58658,1,4,0:0:0:0:
247,175,58801,2,0,P|153:192|101:142,1,155.999995239258,10|0,0:1|0:0,0:0:0:0:
295,102,59229,5,2,0:3:0:0:
183,118,59372,1,4,0:0:0:0:
221,15,59515,1,4,0:0:0:0:
247,175,59658,2,0,P|153:192|113:164,1,116.999996429443,10|0,0:1|0:0,0:0:0:0:
110,158,59943,1,4,0:0:0:0:
318,115,60086,6,0,P|334:189|298:256,1,155.999995239258,2|0,0:3|0:0,0:0:0:0:
224,329,60515,2,0,L|121:326,1,77.999997619629,10|0,0:1|0:0,0:0:0:0:
52,324,60801,1,4,0:0:0:0:
238,157,60944,5,2,0:0:0:0:
238,157,61015,1,0,0:0:0:0:
238,157,61086,1,0,0:0:0:0:
365,275,61229,2,0,P|393:248|407:212,1,77.999997619629,2|8,0:0|0:1,0:0:0:0:
313,112,61515,2,0,P|288:61|292:23,1,77.999997619629,2|4,0:0|0:0,0:0:0:0:
288,316,61801,5,2,0:3:0:0:
182,344,61944,1,4,0:0:0:0:
206,238,62086,1,4,0:0:0:0:
101,269,62229,2,0,B|80:111,1,155.999995239258,10|0,0:1|0:0,0:0:0:0:
288,316,62658,5,2,0:3:0:0:
182,344,62801,1,4,0:0:0:0:
206,238,62943,1,4,0:0:0:0:
101,269,63086,2,0,B|81:120,1,116.999996429443,10|0,0:1|0:0,0:0:0:0:
81,114,63372,1,4,0:0:0:0:
287,115,63515,6,0,B|384:128|334:71|452:91,1,155.999995239258,2|0,0:3|0:0,0:0:0:0:
458,216,63944,2,0,P|424:197|408:151,1,77.999997619629,10|0,0:1|0:0,0:0:0:0:
403,9,64229,1,0,0:0:0:0:
486,151,64372,5,2,0:0:0:0:
486,151,64444,1,0,0:0:0:0:
486,151,64515,1,0,0:0:0:0:
386,278,64658,2,0,L|285:262,1,77.999997619629,2|8,0:0|0:1,0:0:0:0:
291,73,64944,2,0,L|213:85,1,77.999997619629,2|0,0:0|0:0,0:0:0:0:
43,215,65229,5,4,0:3:0:0:
232,289,72087,6,0,P|224:246|233:186,1,86.6666666666667,4|0,0:3|0:0,0:0:0:0:
320,123,72515,2,0,P|342:127|374:119,1,43.3333333333333,8|0,0:0|0:0,0:0:0:0:
426,85,72801,1,2,0:0:0:0:
493,176,72944,5,2,0:0:0:0:
493,176,73015,1,2,0:0:0:0:
493,176,73087,2,0,P|471:180|439:172,1,43.3333333333333,2|2,0:0|0:0,0:0:0:0:
341,57,73372,1,8,0:0:0:0:
341,57,73658,1,2,0:0:0:0:
225,101,73801,6,0,P|200:103|171:93,1,43.3333333333333,2|0,0:0|0:0,0:0:0:0:
117,18,74087,1,2,0:0:0:0:
54,113,74229,2,0,P|57:134|53:155,1,43.3333333333333,8|0,0:0|0:0,0:0:0:0:
4,222,74515,1,0,0:0:0:0:
118,328,74658,5,2,0:0:0:0:
118,328,74729,1,2,0:0:0:0:
118,328,74801,2,0,P|141:331|175:321,1,43.3333333333333,2|2,0:0|0:0,0:0:0:0:
227,228,75087,1,8,0:0:0:0:
227,228,75372,1,0,0:0:0:0:
78,253,75515,6,0,B|61:213|61:213|81:164,1,86.6666666666667,4|0,0:3|0:0,0:0:0:0:
179,103,75944,2,0,P|181:129|171:153,1,43.3333333333333,8|0,0:0|0:0,0:0:0:0:
140,210,76229,1,2,0:0:0:0:
112,108,76372,5,2,0:0:0:0:
112,108,76444,1,2,0:0:0:0:
112,108,76515,2,0,P|112:86|130:54,1,43.3333333333333,2|2,0:0|0:0,0:0:0:0:
256,13,76801,1,10,0:0:0:0:
256,13,77087,1,0,0:0:0:0:
301,138,77229,6,0,P|275:154|246:156,1,43.3333333333333,2|0,0:0|0:0,0:0:0:0:
191,113,77515,1,2,0:0:0:0:
311,169,77658,6,0,P|296:195|272:212,1,43.3333333333333,2|0,0:0|0:0,0:0:0:0:
179,234,77944,1,2,0:0:0:0:
381,127,78087,5,4,0:3:0:0:
385,208,78229,1,0,0:0:0:0:
92,50,78373,5,4,0:3:0:0:
160,6,78515,1,0,0:0:0:0:
182,316,78659,5,4,0:3:0:0:
109,278,78801,1,0,0:0:0:0:
256,192,78872,12,0,80087,0:0:0:0:
190,248,80230,5,2,0:1:0:0:
235,118,80372,1,2,0:1:0:0:
344,202,80515,1,2,0:1:0:0:
147,107,80658,6,2,P|211:39|301:62,1,190.666672485352,6|0,0:1|0:0,0:1:0:0:
383,130,81087,1,14,0:1:0:0:
235,118,81230,1,4,0:0:0:0:
450,77,81372,1,4,0:0:0:0:
282,193,81515,6,2,B|177:228|193:150|82:191,1,190.666672485352,6|4,0:1|0:0,0:1:0:0:
182,351,81944,2,2,L|401:318,1,190.666672485352,14|4,0:1|0:0,0:1:0:0:
496,127,82372,6,2,P|470:91|355:98,1,143.000004364014,6|0,0:1|0:0,0:0:0:0:
347,104,82658,1,4,0:0:0:0:
433,249,82801,2,2,L|418:148,1,95.3333362426759,14|0,0:1|0:0,0:1:0:0:
463,42,83087,1,4,0:0:0:0:
378,207,83230,6,2,P|262:179|225:243,1,190.666672485352,6|0,0:1|0:0,0:1:0:0:
209,343,83658,1,14,0:1:0:0:
309,261,83801,1,4,0:0:0:0:
147,181,83944,1,4,0:0:0:0:
303,46,84087,6,2,P|390:18|461:75,1,190.666672485352,6|4,0:1|0:0,0:0:0:0:
310,222,84515,2,2,B|301:176|301:176|318:138|318:138|307:71,1,143.000004364014,14|0,0:1|0:0,0:1:0:0:
303,46,84801,1,4,0:0:0:0:
107,66,84944,5,6,0:1:0:0:
230,141,85087,1,4,0:0:0:0:
224,0,85230,1,4,0:0:0:0:
142,183,85372,1,14,0:1:0:0:
257,230,85515,1,4,0:0:0:0:
330,137,85658,1,4,0:0:0:0:
180,260,85801,6,2,B|76:290|107:206|-1:234,1,190.666672485352,6|0,0:1|0:0,0:1:0:0:
33,316,86230,1,14,0:1:0:0:
33,316,86301,1,4,0:0:0:0:
33,316,86372,1,4,0:0:0:0:
0,149,86515,1,4,0:0:0:0:
148,193,86658,6,0,L|342:160,1,190.666672485352,6|0,0:1|0:0,0:0:0:0:
457,137,87087,1,14,0:1:0:0:
336,43,87230,1,2,0:1:0:0:
338,274,87372,1,2,0:1:0:0:
207,60,87515,6,2,L|7:44,1,190.666672485352,6|0,0:1|0:0,0:1:0:0:
205,234,87944,2,2,B|198:186|198:186|220:146|220:146|210:81,1,143.000004364014,14|0,0:1|0:0,0:1:0:0:
207,60,88230,1,4,0:0:0:0:
114,221,88372,5,6,0:1:0:0:
213,355,88515,1,4,0:0:0:0:
277,215,88658,1,4,0:0:0:0:
427,382,88801,2,2,P|334:378|280:304,1,190.666672485352,14|0,0:1|0:0,0:1:0:0:
485,180,89230,6,2,P|474:252|365:301,1,190.666672485352,6|0,0:1|0:0,0:1:0:0:
295,123,89658,1,14,0:1:0:0:
419,73,89801,1,4,0:0:0:0:
390,202,89944,1,4,0:0:0:0:
197,161,90087,5,6,0:1:0:0:
328,32,90230,1,4,0:0:0:0:
298,245,90373,1,4,0:0:0:0:
192,24,90515,2,2,P|125:27|56:144,1,190.666672485352,14|0,0:1|0:0,0:1:0:0:
212,233,90944,6,2,L|390:201,1,143.000004364014,6|0,0:1|0:0,0:1:0:0:
390,202,91230,1,4,0:0:0:0:
492,118,91373,1,14,0:1:0:0:
472,275,91515,1,4,0:0:0:0:
334,125,91658,1,4,0:0:0:0:
206,319,91801,5,6,0:1:0:0:
343,248,91944,1,4,0:0:0:0:
220,155,92087,1,4,0:0:0:0:
325,368,92230,2,2,L|484:348,1,143.000004364014,14|0,0:1|0:0,0:1:0:0:
504,344,92515,1,2,0:1:0:0:
356,156,92658,6,0,P|323:162|282:207,1,77.999997619629,2|0,0:0|0:0,0:0:0:0:
206,319,92944,2,0,P|168:327|131:315,1,77.999997619629,2|0,0:0|0:0,0:0:0:0:
7,137,93230,1,2,0:0:0:0:
133,157,93373,1,4,0:0:0:0:
16,341,93515,5,0,1:0:0:0:
69,238,93658,1,8,0:1:0:0:
69,238,93730,1,8,0:1:0:0:
69,238,93801,1,8,0:1:0:0:
220,280,93944,5,2,0:1:0:0:
78,96,94087,1,2,0:1:0:0:
273,154,94230,1,2,0:1:0:0:
158,343,94373,6,2,P|138:253|206:192,1,190.666672485352,6|0,0:1|0:0,0:1:0:0:
340,193,94801,1,14,0:1:0:0:
220,280,94944,1,4,0:0:0:0:
295,65,95087,1,4,0:0:0:0:
416,217,95230,6,2,P|351:270|264:211,1,190.666672485352,6|0,0:1|0:0,0:1:0:0:
384,0,95658,2,2,L|417:219,1,190.666672485352,14|0,0:1|0:0,0:1:0:0:
152,368,96087,6,2,P|121:345|148:218,1,143.000004364014,6|0,0:1|0:0,0:1:0:0:
136,217,96373,1,4,0:0:0:0:
281,309,96515,2,0,L|186:294,1,95.3333362426759,14|0,0:1|0:0,0:0:0:0:
76,328,96801,1,4,0:0:0:0:
240,253,96944,6,0,P|209:169|294:86,1,190.666672485352,6|0,0:1|0:0,0:0:0:0:
384,33,97373,1,14,0:1:0:0:
306,177,97515,1,4,0:0:0:0:
195,19,97658,1,4,0:0:0:0:
30,163,97801,6,2,P|17:246|106:342,1,190.666672485352,6|0,0:1|0:0,0:1:0:0:
210,155,98230,2,2,B|161:163|161:163|119:146|119:146|46:158,1,143.000004364014,14|0,0:1|0:0,0:1:0:0:
30,163,98515,1,4,0:0:0:0:
240,235,98658,5,6,0:1:0:0:
312,100,98801,1,4,0:0:0:0:
396,227,98944,1,4,0:0:0:0:
198,75,99087,1,14,0:1:0:0:
305,12,99230,1,4,0:0:0:0:
420,60,99373,1,4,0:0:0:0:
304,221,99515,6,2,B|200:251|231:167|123:195,1,190.666672485352,6|0,0:1|0:0,0:1:0:0:
1,231,99944,1,14,0:1:0:0:
1,231,100015,1,4,0:0:0:0:
1,231,100087,1,4,0:0:0:0:
162,272,100230,1,4,0:0:0:0:
31,142,100373,6,0,L|14:347,1,190.666672485352,6|0,0:1|0:0,0:0:0:0:
221,360,100801,1,14,0:1:0:0:
189,187,100944,1,2,0:1:0:0:
104,382,101087,1,2,0:1:0:0:
310,158,101230,6,2,L|500:173,1,190.666672485352,6|0,0:1|0:0,0:1:0:0:
358,74,101658,2,0,B|308:70|308:70|266:93|266:93|200:84,1,143.000004364014,14|0,0:1|0:0,0:0:0:0:
183,81,101944,1,4,0:0:0:0:
57,66,102087,5,6,0:1:0:0:
131,190,102230,1,4,0:0:0:0:
227,22,102373,1,4,0:0:0:0:
348,250,102516,2,2,P|441:246|495:172,1,190.666672485352,14|0,0:1|0:0,0:1:0:0:
265,192,102944,6,2,P|251:282|317:347,1,190.666672485352,6|0,0:1|0:0,0:1:0:0:
356,149,103373,1,14,0:1:0:0:
233,96,103516,1,4,0:0:0:0:
337,13,103658,1,4,0:0:0:0:
426,216,103801,5,6,0:1:0:0:
265,192,103944,1,4,0:0:0:0:
470,84,104087,1,4,0:0:0:0:
254,15,104230,2,0,B|143:1|179:66|65:46,1,190.666672485352,14|0,0:1|0:0,0:0:0:0:
248,292,104658,6,2,L|218:77,1,190.666672485352,6|0,0:1|0:0,0:1:0:0:
129,4,105087,1,14,0:1:0:0:
150,166,105230,1,4,0:0:0:0:
280,29,105373,1,4,0:0:0:0:
403,220,105516,5,6,0:1:0:0:
254,190,105658,1,4,0:0:0:0:
376,98,105801,1,4,0:0:0:0:
291,300,105944,2,0,L|132:280,1,143.000004364014,14|0,0:1|0:0,0:0:0:0:
111,276,106230,1,2,0:1:0:0:
213,138,106373,6,2,B|318:151|278:89|381:98,1,173.333333333333,6|0,0:1|0:0,0:1:0:0:
504,223,106801,2,0,P|466:234|396:221,1,86.6666666666667,14|4,0:1|0:0,0:0:0:0:
347,182,107087,1,4,0:0:0:0:
234,311,107230,5,6,0:1:0:0:
257,191,107373,1,4,0:0:0:0:
347,272,107516,1,4,0:0:0:0:
167,199,107658,2,2,P|148:172|201:47,1,173.333333333333,14|0,0:1|0:0,0:1:0:0:
257,191,108087,6,2,B|267:235|267:235|239:298,1,86.6666666666667,6|0,0:1|0:0,0:1:0:0:
119,375,108373,1,4,0:0:0:0:
96,273,108516,1,14,0:1:0:0:
269,377,108658,1,4,0:0:0:0:
371,190,108801,1,4,0:0:0:0:
170,98,108944,6,2,L|69:113,1,86.6666666666667,6|4,0:1|0:0,0:1:0:0:
38,184,109230,1,4,0:0:0:0:
207,232,109373,1,14,0:1:0:0:
207,232,109444,1,4,0:0:0:0:
207,232,109516,2,0,P|226:194|221:151,1,86.6666666666667,4|4,0:0|0:0,0:0:0:0:
169,354,109801,6,2,B|229:346|229:346|286:362|286:362|371:347,1,173.333333333333,6|0,0:1|0:0,0:1:0:0:
402,204,110230,2,0,P|363:187|303:201,1,86.6666666666667,14|4,0:1|0:0,0:0:0:0:
275,267,110516,1,4,0:0:0:0:
466,263,110659,5,6,0:1:0:0:
466,263,110730,1,4,0:0:0:0:
466,263,110801,2,0,L|474:156,1,86.6666666666667,4|4,0:0|0:0,0:0:0:0:
381,13,111087,2,2,B|282:-5|323:60|204:29,1,173.333333333333,14|4,0:1|0:0,0:1:0:0:
19,83,111516,5,6,0:1:0:0:
19,83,111587,1,4,0:0:0:0:
19,83,111659,2,0,P|4:120|11:179,1,86.6666666666667,4|4,0:0|0:0,0:0:0:0:
149,281,111944,1,14,0:1:0:0:
244,205,112087,1,4,0:0:0:0:
352,260,112230,1,4,0:0:0:0:
385,108,112373,5,6,0:1:0:0:
385,108,112444,1,4,0:0:0:0:
385,108,112516,2,0,P|340:78|302:78,1,86.6666666666667,4|4,0:0|0:0,0:0:0:0:
163,189,112801,2,2,P|229:207|321:151,1,173.333333333333,14|0,0:1|0:0,0:1:0:0:
114,70,113230,6,2,B|126:263,1,190.666672485352,6|0,0:1|0:0,0:1:0:0:
269,378,113659,1,14,0:1:0:0:
208,259,113801,1,4,0:0:0:0:
127,364,113944,1,4,0:0:0:0:
307,271,114087,5,6,0:1:0:0:
239,166,114230,1,4,0:0:0:0:
334,86,114373,1,4,0:0:0:0:
208,259,114516,2,0,P|114:254|86:168,1,190.666672485352,14|0,0:1|0:0,0:0:0:0:
240,70,114944,6,2,L|355:89,1,95.3333362426759,6|0,0:1|0:0,0:1:0:0:
448,215,115230,1,4,0:0:0:0:
364,193,115373,1,14,0:1:0:0:
512,123,115516,1,4,0:0:0:0:
473,315,115659,1,4,0:0:0:0:
425,131,115801,6,0,P|446:86|427:36,1,95.3333362426759,6|0,0:1|0:0,0:0:0:0:
346,4,116087,1,0,0:0:0:0:
279,157,116230,1,14,0:1:0:0:
279,157,116301,1,4,0:0:0:0:
279,157,116373,2,0,L|169:146,1,95.3333362426759,4|4,0:0|0:0,0:0:0:0:
39,79,116659,6,2,P|71:35|205:40,1,190.666672485352,6|0,0:1|0:0,0:1:0:0:
274,151,117087,2,0,L|256:256,1,95.3333362426759,14|4,0:1|0:0,0:0:0:0:
317,308,117373,1,4,0:0:0:0:
330,107,117516,5,6,0:1:0:0:
330,107,117587,1,4,0:0:0:0:
330,107,117659,2,0,P|287:79|222:105,1,95.3333362426759,4|4,0:0|0:0,0:0:0:0:
178,256,117944,2,0,L|358:229,1,143.000004364014,14|0,0:1|0:0,0:0:0:0:
357,227,118230,1,2,0:1:0:0:
135,122,118373,6,0,L|93:126,2,38.9999988098145,2|2|2,0:1|0:1|0:1,0:0:0:0:
274,322,118659,1,2,0:0:0:0:
32,352,118801,1,4,0:0:0:0:
147,283,118944,1,2,0:0:0:0:
147,283,119087,1,4,0:0:0:0:
274,322,119230,5,2,0:0:0:0:
110,157,119373,1,4,0:0:0:0:
334,97,119516,1,4,0:0:0:0:
147,283,119659,5,2,0:0:0:0:
207,58,119802,1,4,0:0:0:0:
371,222,119945,1,4,0:0:0:0:
110,157,120087,6,0,L|64:150,2,38.9999988098145,2|2|2,0:1|0:1|0:1,0:0:0:0:
426,55,120373,5,8,0:1:0:0:
412,131,120516,1,0,0:0:0:0:
133,89,120659,1,8,0:1:0:0:
147,165,120802,1,0,0:0:0:0:
412,131,120944,5,8,0:1:0:0:
398,207,121087,1,0,0:0:0:0:
147,165,121230,1,8,0:1:0:0:
161,241,121373,1,0,0:0:0:0:
398,207,121516,5,8,0:1:0:0:
384,283,121659,1,0,0:0:0:0:
286,0,121802,1,4,0:3:0:0:
