osu file format v14

[General]
AudioFilename: audio.mp3
AudioLeadIn: 0
PreviewTime: 174619
Countdown: 0
SampleSet: Soft
StackLeniency: 0.7
Mode: 2
LetterboxInBreaks: 0
WidescreenStoryboard: 1

[Editor]
Bookmarks: 22703,44036,62703,65369,86703,117369,132036,164036,185369,208036,218703,229369
DistanceSpacing: 1
BeatDivisor: 4
GridSize: 4
TimelineZoom: 2.2

[Metadata]
Title:Tokei no Heya to Seishin Sekai
TitleUnicode:時計の部屋と精神世界
Artist:a_hisa
ArtistUnicode:a_hisa
Creator:Spectator
Version:Salad
Source:
Tags:kyuare -wwwww Fii spiritual core artcore collab
BeatmapID:1415183
BeatmapSetID:639409

[Difficulty]
HPDrainRate:4
CircleSize:3
OverallDifficulty:7
ApproachRate:7
SliderMultiplier:1.7
SliderTickRate:1

[Events]
//Background and Video events
0,0,"Tokei no Heya to Seishin Sekai BG.png",0,0
//Break Periods
2,44236,53803
2,121369,131136
2,196236,205803
//Storyboard Layer 0 (Background)
//Storyboard Layer 1 (Fail)
//Storyboard Layer 2 (Pass)
//Storyboard Layer 3 (Foreground)
//Storyboard Sound Samples

[TimingPoints]
1370,333.333333333333,4,2,1,30,1,0
1370,-142.857142857143,4,2,1,30,0,0
22036,-76.9230769230769,4,2,1,30,0,0
22703,-111.111111111111,4,2,1,60,0,1
22786,-111.111111111111,4,2,1,70,0,0
44036,-142.857142857143,4,2,1,35,0,0
44203,-142.857142857143,4,2,2,55,0,0
54703,-133.333333333333,4,2,1,60,0,0
64703,-125,4,2,1,55,0,0
65369,-111.111111111111,4,2,1,65,0,0
76036,-111.111111111111,4,2,1,70,0,0
86703,-111.111111111111,4,2,1,70,0,0
94703,-111.111111111111,4,2,1,70,0,0
105369,-100,4,2,1,70,0,1
116036,-142.857142857143,4,2,1,30,0,0
148036,-111.111111111111,4,2,1,30,0,0
148703,-111.111111111111,4,2,1,50,0,0
162036,-200,4,2,2,40,0,0
164036,-111.111111111111,4,2,1,50,0,0
172036,-111.111111111111,4,2,1,10,0,0
172536,-111.111111111111,4,2,1,14,0,0
172869,-111.111111111111,4,2,1,27,0,0
173036,-111.111111111111,4,2,1,30,0,0
173203,-111.111111111111,4,2,1,35,0,0
173369,-90.9090909090909,4,2,1,42,0,0
173703,-90.9090909090909,4,2,1,45,0,0
174036,-90.9090909090909,4,2,1,50,0,0
174369,-90.9090909090909,4,2,1,58,0,0
174703,-100,4,2,1,70,0,0
185369,-100,4,2,1,75,0,0
196036,-111.111111111111,4,2,1,45,0,0
206703,-111.111111111111,4,2,1,50,0,0
207036,-111.111111111111,4,2,1,54,0,0
207369,-111.111111111111,4,2,1,60,0,0
207703,-111.111111111111,4,2,1,64,0,0
208036,-90.9090909090909,4,2,1,70,0,1
218703,-86.9565217391304,4,2,1,70,0,1
229369,-100,4,2,1,70,0,0
250703,-100,4,2,1,70,0,1
250786,-100,4,2,1,30,0,0

[Colours]
Combo1 : 240,166,111
Combo2 : 162,126,235
Combo3 : 90,220,198
Combo4 : 132,183,244

[HitObjects]
213,352,1370,6,0,P|186:309|244:258,1,118.999996368408,0|0,1:3|0:0,0:0:0:0:
321,351,1869,2,0,P|348:308|290:257,1,118.999996368408,2|0,2:0|0:0,0:0:0:0:
200,351,2369,1,2,2:0:0:0:
367,116,2869,1,2,2:0:0:0:
159,190,3369,1,2,0:0:0:0:
320,247,3703,1,2,0:0:0:0:
156,342,4036,6,0,P|108:314|96:229,1,118.999996368408,2|0,0:0|0:0,0:0:0:0:
171,185,4536,1,2,0:0:0:0:
337,255,4869,2,0,L|410:250,2,59.4999981842042,0|2|2,0:0|0:0|0:0,0:0:0:0:
147,194,5536,2,0,P|133:153|179:91,1,118.999996368408,0|0,0:0|0:0,0:0:0:0:
251,93,6036,1,2,0:0:0:0:
410,173,6369,2,0,L|403:92,1,59.4999981842042,2|2,0:0|0:0,0:0:0:0:
328,70,6703,6,0,P|279:63|196:70,1,118.999996368408,2|0,0:0|0:0,0:0:0:0:
132,167,7203,2,0,P|191:162|250:169,1,118.999996368408,2|0,0:0|0:0,0:0:0:0:
328,224,7703,1,2,0:0:0:0:
146,222,8369,1,0,0:0:0:0:
374,327,8869,2,0,L|452:324,2,59.4999981842042,0|2|0,0:0|0:0|0:0,0:0:0:0:
279,344,9369,6,0,P|246:289|272:229,1,118.999996368408,2|0,0:0|0:0,0:0:0:0:
357,226,9869,2,0,P|390:171|364:111,1,118.999996368408,2|0,0:0|0:0,0:0:0:0:
293,116,10369,1,0,0:0:0:0:
445,310,11036,2,0,L|302:308,2,118.999996368408,2|2|2,0:0|0:0|0:0,0:0:0:0:
156,352,12036,6,0,P|137:318|173:238,1,118.999996368408,2|0,0:0|0:0,0:0:0:0:
244,247,12536,1,2,0:0:0:0:
415,300,13036,2,0,P|475:260|451:220,1,118.999996368408,2|0,0:0|0:0,0:0:0:0:
380,184,13536,2,0,P|331:152|347:80,1,118.999996368408,0|0,0:0|0:0,0:0:0:0:
417,78,14036,1,2,0:0:0:0:
248,79,14369,1,2,0:0:0:0:
403,301,14703,6,0,P|422:267|386:187,1,118.999996368408,2|0,0:0|0:0,0:0:0:0:
315,196,15203,1,2,0:0:0:0:
136,328,15703,1,2,0:0:0:0:
103,278,15870,1,0,0:0:0:0:
114,219,16037,1,0,0:0:0:0:
168,194,16203,2,0,P|217:162|201:90,1,118.999996368408,2|2,0:0|0:0,0:0:0:0:
149,73,16703,1,2,0:0:0:0:
321,73,17036,1,2,0:0:0:0:
65,345,17369,6,0,P|40:300|73:222,1,118.999996368408,0|0,1:0|1:0,0:0:0:0:
218,227,18036,1,0,1:0:0:0:
78,227,18369,1,0,1:0:0:0:
412,343,18703,6,0,P|437:298|404:220,1,118.999996368408,0|0,1:0|1:0,0:0:0:0:
263,228,19370,1,0,1:0:0:0:
390,228,19703,1,0,1:0:0:0:
305,236,19869,1,0,1:0:0:0:
228,346,20036,5,0,1:0:0:0:
169,296,20203,1,0,1:0:0:0:
223,242,20369,1,0,1:0:0:0:
349,220,20703,1,0,1:0:0:0:
406,170,20870,1,0,1:0:0:0:
349,117,21036,1,0,1:0:0:0:
220,98,21369,5,0,1:0:0:0:
127,107,21536,1,0,1:0:0:0:
220,170,21703,2,0,L|344:159,1,118.999996368408,0|2,1:0|0:0,0:0:0:0:
164,251,22369,1,4,1:3:0:0:
422,327,22703,6,0,P|468:304|450:197,1,152.999995330811,0|8,1:0|0:0,0:0:0:0:
373,200,23203,1,2,2:2:0:0:
216,205,23536,1,0,1:0:0:0:
142,322,23703,2,0,P|96:299|107:191,1,152.999995330811,8|0,2:0|1:0,0:0:0:0:
191,195,24203,5,0,0:0:0:0:
291,159,24536,1,0,0:0:0:0:
200,156,24703,2,0,P|136:129|144:28,1,152.999995330811,2|8,0:0|0:0,0:0:0:0:
388,356,25369,6,0,P|436:317|368:240,1,152.999995330811,0|8,1:2|0:0,0:0:0:0:
301,238,25869,1,2,0:0:0:0:
145,166,26203,1,0,1:0:0:0:
68,160,26369,2,0,P|20:121|84:52,1,152.999995330811,8|0,0:0|1:0,0:0:0:0:
144,41,26869,5,0,0:0:0:0:
312,323,27203,1,2,0:0:0:0:
323,238,27369,1,0,0:0:0:0:
126,227,27703,1,8,0:0:0:0:
385,328,28036,6,0,P|440:310|427:209,1,152.999995330811,4|8,1:2|0:0,0:0:0:0:
358,181,28536,1,2,0:0:0:0:
201,277,28869,1,0,1:0:0:0:
190,197,29036,1,8,0:0:0:0:
363,193,29369,5,0,1:0:0:0:
374,113,29536,1,2,0:0:0:0:
271,77,29703,2,0,L|93:67,2,152.999995330811,8|2|8,0:0|0:0|0:0,0:0:0:0:
404,351,30703,6,0,P|436:309|377:241,1,152.999995330811,0|8,1:0|0:0,0:0:0:0:
324,202,31203,1,2,0:0:0:0:
331,73,31536,1,0,1:0:0:0:
396,51,31703,1,8,0:0:0:0:
189,343,32036,5,0,1:0:0:0:
146,283,32203,1,0,0:0:0:0:
192,219,32369,1,8,0:0:0:0:
336,199,32703,1,2,0:0:0:0:
391,154,32869,1,0,0:0:0:0:
336,199,33036,1,8,0:0:0:0:
77,204,33369,5,4,1:2:0:0:
231,298,33703,2,0,L|212:209,1,76.4999976654053,8|2,0:0|0:0,0:0:0:0:
83,182,34203,2,0,L|102:93,1,76.4999976654053,2|8,1:2|0:0,0:0:0:0:
253,128,34703,6,0,L|341:126,2,76.4999976654053,0|0|8,0:0|1:0|0:0,0:0:0:0:
150,190,35369,1,0,1:0:0:0:
321,239,35703,1,8,0:0:0:0:
67,341,36036,5,0,1:0:0:0:
191,254,36369,2,0,L|211:153,1,76.4999976654053,8|2,0:0|0:0,0:0:0:0:
49,134,36869,2,0,L|29:33,1,76.4999976654053,0|10,1:0|0:0,0:0:0:0:
192,144,37369,5,0,1:0:0:0:
125,127,37536,1,2,0:0:0:0:
58,109,37703,1,8,0:0:0:0:
211,84,38036,1,2,0:0:0:0:
61,150,38369,1,8,1:2:0:0:
324,214,38703,5,4,0:0:0:0:
457,216,39036,1,8,0:0:0:0:
313,220,39369,1,2,0:0:0:0:
469,221,39703,1,8,0:0:0:0:
227,201,40036,5,0,1:0:0:0:
42,196,40369,1,8,0:0:0:0:
232,205,40703,1,2,0:0:0:0:
49,292,41036,1,10,0:0:0:0:
232,249,41369,6,0,P|268:209|232:120,1,152.999995330811,4|8,0:0|0:0,0:0:0:0:
156,122,41869,2,0,P|163:61|248:10,1,152.999995330811,0|0,0:0|1:0,0:0:0:0:
319,47,42369,1,8,0:0:0:0:
423,355,42703,5,0,1:0:0:0:
474,307,42869,1,2,0:0:0:0:
481,238,43036,1,8,0:0:0:0:
434,188,43203,1,0,0:0:0:0:
367,174,43369,1,2,0:0:0:0:
307,143,43536,1,0,1:0:0:0:
258,81,43703,1,12,0:0:0:0:
305,15,43869,1,0,0:0:0:0:
446,16,44036,5,4,0:3:0:0:
316,344,54703,6,0,P|366:328|336:214,1,191.250007295609,4|0,0:0|0:0,0:0:0:0:
246,218,55369,2,0,P|201:164|245:109,1,127.500004863739,8|0,0:0|0:0,0:0:0:0:
370,309,56036,5,0,1:0:0:0:
257,234,56286,1,0,1:0:0:0:
377,180,56536,1,0,1:0:0:0:
390,97,56703,1,8,0:0:0:0:
246,95,57036,1,2,0:0:0:0:
135,325,57369,6,0,P|85:309|115:195,1,191.250007295609,0|0,1:0|1:0,0:0:0:0:
191,200,58035,2,0,P|236:146|192:91,1,127.500004863739,8|2,0:0|0:0,0:0:0:0:
335,270,58703,5,0,1:0:0:0:
219,201,58953,1,0,0:0:0:0:
321,109,59203,1,0,1:0:0:0:
334,19,59369,1,8,0:0:0:0:
186,57,59703,1,0,2:0:0:0:
346,338,60036,6,0,P|401:308|361:196,1,191.250007295609,0|0,1:0|0:0,0:0:0:0:
281,197,60703,2,0,L|151:186,1,127.500004863739,8|2,2:0|0:0,0:0:0:0:
315,331,61369,5,0,1:0:0:0:
418,235,61619,1,0,0:0:0:0:
309,145,61869,1,0,2:0:0:0:
226,146,62036,1,8,0:0:0:0:
70,146,62369,1,2,0:0:0:0:
253,337,62703,6,0,P|300:304|271:228,1,127.500004863739,0|2,1:0|0:0,0:0:0:0:
102,211,63369,2,0,P|55:178|84:102,1,127.500004863739,8|2,0:0|2:2,0:0:0:0:
148,77,63869,1,0,2:0:0:0:
202,95,64036,5,0,1:2:0:0:
224,147,64203,1,8,1:2:0:0:
213,203,64369,1,0,1:2:0:0:
171,243,64536,1,8,1:2:0:0:
71,246,64703,1,8,2:2:0:0:
231,346,65369,6,0,P|314:322|403:348,1,152.999995330811,4|8,0:0|0:0,0:0:0:0:
216,276,66036,1,0,0:0:0:0:
145,216,66203,1,0,1:0:0:0:
215,156,66369,1,8,0:0:0:0:
378,149,66703,5,0,1:0:0:0:
196,338,67036,1,8,0:0:0:0:
183,270,67203,1,0,0:0:0:0:
167,203,67369,1,2,0:0:0:0:
349,203,67703,1,8,0:0:0:0:
357,124,67869,1,2,0:0:0:0:
250,328,68036,6,0,P|165:304|74:328,1,152.999995330811,0|8,1:0|0:0,0:0:0:0:
286,234,68703,1,2,0:0:0:0:
96,218,69036,1,8,0:0:0:0:
81,142,69203,1,2,0:0:0:0:
173,65,69369,6,0,P|258:41|349:65,1,152.999995330811,0|8,1:0|0:0,0:0:0:0:
160,315,70036,1,2,0:0:0:0:
100,248,70203,1,0,1:0:0:0:
162,176,70369,1,8,0:0:0:0:
385,282,70703,6,0,P|435:262|461:170,1,152.999995330811,4|8,0:0|0:0,0:0:0:0:
280,189,71369,2,0,P|230:169|204:77,1,152.999995330811,2|8,0:0|0:0,0:0:0:0:
349,82,72036,5,0,2:0:0:0:
155,338,72369,1,8,0:0:0:0:
94,268,72536,1,2,0:0:0:0:
156,193,72703,1,2,0:0:0:0:
314,196,73036,1,8,2:0:0:0:
326,101,73203,1,2,0:0:0:0:
236,332,73369,6,0,P|169:303|202:215,1,152.999995330811,0|8,1:0|2:0,0:0:0:0:
333,259,74036,1,2,0:0:0:0:
373,202,74203,1,0,1:0:0:0:
358,135,74369,1,8,0:0:0:0:
302,94,74536,1,0,0:0:0:0:
233,97,74703,5,0,1:0:0:0:
403,198,75036,1,8,0:0:0:0:
252,277,75286,1,8,0:0:0:0:
374,384,75536,1,0,1:0:0:0:
454,298,75703,2,0,L|481:202,1,76.4999976654053,8|2,0:0|0:0,0:0:0:0:
323,175,76036,6,0,L|151:167,1,152.999995330811,4|8,0:0|0:0,0:0:0:0:
84,106,76536,1,0,0:0:0:0:
167,39,76703,1,2,0:0:0:0:
334,121,77036,1,8,0:0:0:0:
168,312,77369,6,0,L|340:304,1,152.999995330811,2|8,0:0|0:0,0:0:0:0:
412,244,77869,1,0,0:0:0:0:
324,176,78036,1,0,0:0:0:0:
132,260,78369,2,0,L|119:159,1,76.4999976654053,8|2,0:0|0:0,0:0:0:0:
244,129,78703,6,0,L|427:124,1,152.999995330811,4|8,0:0|0:0,0:0:0:0:
216,311,79369,2,0,L|33:306,1,152.999995330811,0|8,0:0|0:0,0:0:0:0:
155,261,79869,1,0,0:0:0:0:
254,236,80036,6,0,P|279:183|223:96,1,152.999995330811,0|8,1:0|0:0,0:0:0:0:
409,133,80703,1,2,0:0:0:0:
427,260,81036,1,8,0:0:0:0:
133,323,81369,6,0,P|116:275|129:231,1,76.4999976654053,4|0,0:0|0:0,0:0:0:0:
189,180,81703,1,8,0:0:0:0:
322,154,82036,1,2,0:0:0:0:
172,154,82369,1,8,0:0:0:0:
350,270,82703,6,0,P|407:246|435:153,1,152.999995330811,0|8,1:0|0:0,0:0:0:0:
358,96,83203,1,0,0:0:0:0:
262,93,83369,1,2,0:0:0:0:
457,90,83703,1,8,0:0:0:0:
188,224,84036,6,0,P|131:200|103:107,1,152.999995330811,4|8,0:0|0:0,0:0:0:0:
260,109,84703,1,2,0:0:0:0:
85,149,85036,1,8,0:0:0:0:
328,299,85369,5,0,1:0:0:0:
341,231,85536,1,0,2:0:0:0:
350,162,85703,1,8,0:0:0:0:
192,152,85953,1,8,2:0:0:0:
325,106,86203,1,0,1:0:0:0:
347,210,86369,1,8,0:0:0:0:
106,328,86703,5,2,0:0:0:0:
326,283,87203,1,2,0:0:0:0:
333,153,87536,1,2,0:0:0:0:
134,212,88036,1,2,0:0:0:0:
127,82,88369,1,2,0:0:0:0:
281,96,88703,5,2,0:0:0:0:
77,262,89203,1,2,0:0:0:0:
70,132,89536,1,2,0:0:0:0:
296,219,90036,1,2,0:0:0:0:
303,89,90369,1,2,0:0:0:0:
75,90,90703,5,4,1:3:0:0:
262,139,91203,1,4,0:2:0:0:
75,219,91536,1,4,2:2:0:0:
177,256,92036,1,4,0:2:0:0:
355,336,92369,1,4,0:0:0:0:
196,296,92703,5,4,0:0:0:0:
342,183,93203,1,4,0:0:0:0:
171,228,93537,1,4,0:0:0:0:
344,284,94036,1,4,0:0:0:0:
158,308,94369,1,0,1:0:0:0:
83,235,94536,1,0,1:0:0:0:
157,157,94703,6,0,L|342:153,1,152.999995330811,4|8,0:0|0:0,0:0:0:0:
381,68,95203,1,2,0:0:0:0:
304,145,95369,1,0,0:0:0:0:
106,149,95703,1,8,0:0:0:0:
302,291,96036,6,0,P|342:271|374:167,1,152.999995330811,0|8,1:0|0:0,0:0:0:0:
180,175,96703,2,0,L|83:162,2,76.4999976654053,2|0|8,0:0|1:0|0:0,0:0:0:0:
336,131,97369,5,0,1:0:0:0:
168,333,97703,2,0,P|137:303|150:249,1,76.4999976654053,8|0,0:0|0:0,0:0:0:0:
201,193,98036,1,2,0:0:0:0:
354,195,98286,1,0,0:0:0:0:
201,193,98536,1,0,0:0:0:0:
111,185,98703,6,0,P|68:140|121:54,1,152.999995330811,0|8,1:0|0:0,0:0:0:0:
166,65,99203,1,2,0:0:0:0:
234,67,99369,1,2,0:0:0:0:
396,308,99703,2,0,L|411:220,1,76.4999976654053,8|0,0:0|2:0,0:0:0:0:
331,175,100036,6,0,L|161:165,1,152.999995330811,0|8,1:0|0:0,0:0:0:0:
326,330,100703,1,0,0:0:0:0:
444,244,100953,1,0,0:0:0:0:
330,175,101203,1,0,0:0:0:0:
243,169,101369,6,0,P|210:136|257:36,1,152.999995330811,0|8,1:0|2:0,0:0:0:0:
418,217,102036,1,2,0:0:0:0:
494,151,102203,1,0,1:0:0:0:
421,89,102369,1,8,0:0:0:0:
162,282,102703,6,0,P|93:243|73:142,1,152.999995330811,0|8,1:0|0:0,0:0:0:0:
157,107,103203,1,2,0:0:0:0:
250,106,103369,1,2,0:0:0:0:
52,108,103703,1,8,0:0:0:0:
256,192,104036,12,8,105036,0:0:0:0:
305,330,105369,6,0,P|338:284|283:186,1,170,4|8,1:3|0:0,0:0:0:0:
217,185,105869,1,0,0:0:0:0:
140,183,106036,1,0,0:0:0:0:
311,293,106369,2,0,L|322:194,1,85,8|0,0:0|0:0,0:0:0:0:
220,192,106703,6,0,P|154:159|139:73,2,127.5,0|0|2,1:0|0:0|0:0,0:0:0:0:
316,197,107369,2,0,P|358:153|296:76,1,170,0|8,0:0|0:0,0:0:0:0:
86,316,108036,6,0,P|53:270|108:172,1,170,0|8,1:0|0:0,0:0:0:0:
174,171,108536,1,0,0:0:0:0:
251,169,108703,1,0,0:0:0:0:
80,279,109036,2,0,L|69:180,1,85,8|2,0:0|0:0,0:0:0:0:
171,178,109370,6,0,P|237:145|252:59,2,127.5,0|0|8,1:0|0:0|0:0,0:0:0:0:
71,302,110036,2,8,L|244:293,1,170,0|8,0:0|0:0,0:0:0:0:
277,218,110536,1,2,0:0:0:0:
136,223,110703,6,0,P|68:211|40:107,1,170,4|8,0:0|0:0,0:0:0:0:
118,115,111203,1,0,0:0:0:0:
194,112,111369,1,2,0:0:0:0:
345,142,111703,1,8,0:0:0:0:
208,333,112036,6,0,P|148:310|123:224,2,127.5,0|0|0,1:0|0:0|0:0,0:0:0:0:
287,337,112703,2,0,P|324:279|271:194,1,170,2|8,0:0|0:0,0:0:0:0:
38,189,113369,6,0,L|212:183,1,170,0|8,1:0|0:0,0:0:0:0:
289,139,113869,1,2,0:0:0:0:
208,104,114036,1,0,2:0:0:0:
92,309,114369,2,0,L|66:217,1,85,8|0,0:0|0:0,0:0:0:0:
159,214,114703,6,0,P|207:206|238:109,2,127.5,0|0|0,1:0|0:0|0:0,0:0:0:0:
70,216,115369,1,0,0:0:0:0:
259,218,115703,1,8,0:0:0:0:
256,192,116036,12,4,117369,1:3:0:0:
288,304,132036,6,0,P|340:264|264:144,1,237.999992736817,2|2,0:0|0:0,0:0:0:0:
86,268,133369,1,2,0:0:0:0:
82,187,133703,1,0,0:0:0:0:
78,106,134036,5,2,0:0:0:0:
259,125,134703,1,0,0:0:0:0:
58,132,135369,1,2,0:0:0:0:
296,313,136036,6,0,P|331:280|346:208,1,118.999996368408,2|0,0:0|0:0,0:0:0:0:
206,314,136703,2,0,P|171:281|156:209,1,118.999996368408,2|0,0:0|0:0,0:0:0:0:
306,314,137369,2,0,P|341:281|356:209,1,118.999996368408,2|0,0:0|0:0,0:0:0:0:
211,204,138036,6,0,P|88:168|79:49,2,237.999992736817,2|0|2,0:0|0:0|0:0,0:0:0:0:
391,339,140036,6,0,P|443:299|367:179,1,237.999992736817,2|2,0:0|0:0,0:0:0:0:
107,288,141369,1,2,0:0:0:0:
103,207,141703,1,0,0:0:0:0:
99,126,142036,5,2,0:0:0:0:
316,204,142703,1,0,0:0:0:0:
92,311,143369,1,2,0:0:0:0:
346,350,144036,6,0,P|374:323|395:242,1,118.999996368408,2|0,0:0|0:0,0:0:0:0:
252,242,144703,2,0,P|224:215|203:134,1,118.999996368408,2|0,0:0|0:0,0:0:0:0:
325,139,145369,1,2,0:0:0:0:
196,138,145703,1,0,0:0:0:0:
361,138,146036,1,2,0:0:0:0:
256,192,146369,12,4,148036,0:0:0:0:
170,306,149036,6,0,P|121:293|97:199,2,152.999995330811,0|2|0,0:0|0:0|0:0,0:0:0:0:
337,297,150036,1,2,0:0:0:0:
209,298,150369,5,0,0:0:0:0:
387,280,150703,1,2,0:0:0:0:
252,272,151036,1,0,0:0:0:0:
405,236,151369,2,0,P|450:201|461:98,1,152.999995330811,2|0,0:0|0:0,0:0:0:0:
195,209,152036,6,0,P|127:175|221:83,1,229.499992996216,2|0,0:0|0:0,0:0:0:0:
362,131,153036,1,2,0:0:0:0:
211,220,153369,1,2,0:0:0:0:
204,151,153536,1,0,0:0:0:0:
197,82,153703,1,0,0:0:0:0:
394,270,154036,6,0,P|462:236|368:144,1,229.499992996216,2|0,0:0|0:0,0:0:0:0:
179,205,155036,1,2,0:0:0:0:
341,309,155369,2,0,L|362:139,1,152.999995330811,2|0,0:0|0:0,0:0:0:0:
124,303,156036,6,0,P|45:244|154:119,1,305.999990661621,2|0,0:0|0:0,0:0:0:0:
304,124,157036,1,2,0:0:0:0:
162,242,157369,2,0,P|107:193|93:105,1,152.999995330811,2|0,0:0|0:0,0:0:0:0:
264,44,158036,5,2,0:0:0:0:
407,129,158369,1,0,0:0:0:0:
252,177,158703,1,2,0:0:0:0:
109,262,159036,1,0,0:0:0:0:
275,355,159369,2,0,P|343:318|352:227,1,152.999995330811,2|0,0:0|0:0,0:0:0:0:
123,248,160036,6,0,P|55:211|46:120,1,152.999995330811,2|2,0:0|0:0,0:0:0:0:
106,128,160536,1,0,0:0:0:0:
173,115,160703,1,2,0:0:0:0:
315,166,161036,1,2,0:0:0:0:
182,201,161369,6,0,P|157:166|160:102,1,76.4999976654053,2|0,0:0|0:0,0:0:0:0:
209,60,161703,1,0,0:0:0:0:
350,62,162036,1,2,0:0:0:0:
256,192,162369,12,0,163703,0:0:0:0:
318,339,164036,6,0,P|346:294|266:237,1,152.999995330811,2|0,0:0|0:0,0:0:0:0:
216,237,164536,1,0,0:0:0:0:
143,236,164703,1,2,0:0:0:0:
295,234,165036,1,0,0:0:0:0:
126,311,165369,6,0,P|69:272|83:191,1,152.999995330811,2|0,0:0|0:0,0:0:0:0:
224,192,166036,2,0,P|281:153|267:72,1,152.999995330811,0|2,0:0|0:0,0:0:0:0:
132,96,166703,5,2,0:0:0:0:
295,99,167036,1,0,0:0:0:0:
107,285,167369,2,0,P|46:234|45:148,1,152.999995330811,2|0,0:0|0:0,0:0:0:0:
174,192,168036,6,0,P|235:141|236:55,1,152.999995330811,2|0,0:0|0:0,0:0:0:0:
97,89,168703,1,2,0:0:0:0:
270,87,169036,1,2,0:0:0:0:
109,295,169369,6,0,P|48:244|47:158,1,152.999995330811,2|0,0:0|0:0,0:0:0:0:
109,166,169869,1,0,0:0:0:0:
177,158,170036,1,2,0:0:0:0:
346,225,170369,1,0,0:0:0:0:
176,347,170703,6,0,L|154:185,1,152.999995330811,2|2,0:0|0:0,0:0:0:0:
338,242,171369,2,0,L|360:80,1,152.999995330811,2|2,0:0|0:0,0:0:0:0:
256,192,172036,12,4,174369,1:3:0:0:
316,347,174703,6,0,P|376:331|385:226,1,170,0|8,1:0|2:0,0:0:0:0:
315,224,175203,1,0,0:0:0:0:
239,212,175369,1,2,0:0:0:0:
409,94,175703,1,8,0:0:0:0:
259,230,176036,6,0,P|203:203|182:101,1,170,0|8,1:0|0:0,0:0:0:0:
366,336,176703,2,0,P|422:309|443:207,1,170,0|8,0:0|0:0,0:0:0:0:
154,253,177369,6,0,P|94:237|85:132,1,170,0|8,1:0|0:0,0:0:0:0:
254,321,178036,1,2,0:0:0:0:
322,265,178203,1,0,1:0:0:0:
338,190,178369,1,8,0:0:0:0:
303,121,178536,1,0,2:0:0:0:
203,97,178703,6,0,L|27:79,1,170,0|8,1:0|0:0,0:0:0:0:
195,298,179369,2,0,P|217:245|203:195,1,85,0|0,0:0|1:0,0:0:0:0:
135,149,179703,1,8,0:0:0:0:
276,331,180036,6,0,P|336:315|345:210,1,170,0|8,1:0|0:0,0:0:0:0:
275,208,180536,1,0,0:0:0:0:
199,196,180702,1,2,2:0:0:0:
369,78,181036,1,8,0:0:0:0:
215,321,181369,6,0,L|193:137,1,170,0|8,1:0|0:0,0:0:0:0:
376,362,182036,2,0,L|398:178,1,170,2|8,2:0|0:0,0:0:0:0:
136,264,182703,6,0,P|88:223|133:124,1,170,0|8,1:0|2:0,0:0:0:0:
290,322,183369,1,2,0:0:0:0:
340,264,183536,1,0,1:0:0:0:
348,187,183703,1,8,0:0:0:0:
320,115,183869,1,0,0:0:0:0:
245,95,184036,6,0,P|167:82|149:-1,1,170,0|8,1:0|0:0,0:0:0:0:
269,102,184619,1,8,0:0:0:0:
171,215,184869,2,0,P|118:204|88:241,2,85,0|8|2,1:0|0:0|1:0,0:0:0:0:
322,291,185369,6,0,P|386:244|339:152,1,170,4|8,0:0|0:0,0:0:0:0:
299,147,185869,1,2,0:0:0:0:
234,126,186036,1,2,0:0:0:0:
88,176,186369,1,8,0:0:0:0:
360,350,186703,6,0,P|424:303|377:211,1,170,4|8,0:0|0:0,0:0:0:0:
328,206,187203,1,0,0:0:0:0:
255,181,187370,1,2,0:0:0:0:
114,240,187703,1,8,0:0:0:0:
440,272,188036,6,0,P|455:209|377:135,1,170,4|8,0:0|0:0,0:0:0:0:
312,130,188536,1,2,0:0:0:0:
235,124,188703,1,0,0:0:0:0:
382,85,189036,1,8,0:0:0:0:
122,305,189369,6,0,P|94:253|154:170,1,170,4|8,0:0|0:0,0:0:0:0:
217,131,189869,1,0,0:0:0:0:
149,94,190036,1,0,0:0:0:0:
16,116,190369,1,8,0:0:0:0:
278,271,190703,6,0,L|458:259,1,170,4|8,0:0|0:0,0:0:0:0:
377,229,191203,1,0,0:0:0:0:
307,198,191369,1,2,0:0:0:0:
166,241,191703,1,8,0:0:0:0:
426,337,192036,6,0,L|446:147,1,170,4|8,0:0|2:0,0:0:0:0:
368,153,192536,1,0,0:0:0:0:
292,140,192702,1,0,0:0:0:0:
109,307,193036,1,8,0:0:0:0:
394,274,193369,6,0,P|438:226|368:147,1,170,4|8,0:0|0:0,0:0:0:0:
305,141,193869,1,0,0:0:0:0:
219,136,194036,1,4,0:0:0:0:
332,76,194369,1,8,0:0:0:0:
64,304,194703,6,0,P|40:248|132:196,1,170,4|8,0:0|0:0,0:0:0:0:
251,188,195286,1,8,0:0:0:0:
124,232,195537,1,0,1:0:0:0:
52,232,195703,1,10,0:0:0:0:
368,191,196036,5,4,0:0:0:0:
256,192,206703,12,0,207703,0:0:0:0:
329,348,208036,6,0,P|387:314|387:177,1,187.000005706787,4|8,1:3|0:0,0:0:0:0:
319,194,208536,1,0,0:0:0:0:
235,186,208703,1,2,0:0:0:0:
112,354,209036,2,0,L|101:255,1,93.5000028533936,8|0,0:0|0:0,0:0:0:0:
205,217,209370,6,0,P|271:184|286:98,2,140.25000428009,2|0|0,0:0|0:0|0:0,0:0:0:0:
101,209,210036,2,0,P|52:182|115:92,1,187.000005706787,2|8,0:0|0:0,0:0:0:0:
328,252,210703,6,0,L|128:216,1,187.000005706787,4|8,0:2|0:0,0:0:0:0:
228,213,211203,1,2,0:0:0:0:
311,208,211369,1,2,0:0:0:0:
448,279,211703,2,0,L|472:173,1,93.5000028533936,8|0,0:0|0:0,0:0:0:0:
375,178,212036,6,0,P|307:149|291:67,2,140.25000428009,0|0|8,1:0|0:0|0:0,0:0:0:0:
473,180,212703,1,2,2:0:0:0:
291,355,213036,2,0,L|268:256,1,93.5000028533936,2|8,0:0|0:0,0:0:0:0:
431,233,213369,6,0,P|476:188|411:97,1,187.000005706787,4|8,0:0|0:0,0:0:0:0:
328,101,213869,1,0,0:0:0:0:
243,104,214036,1,2,0:0:0:0:
67,206,214369,1,8,0:0:0:0:
216,280,214703,6,0,P|282:247|297:161,2,140.25000428009,2|2|0,2:0|2:0|0:0,0:0:0:0:
112,272,215369,2,0,P|63:245|126:155,1,187.000005706787,0|8,2:0|0:0,0:0:0:0:
360,351,216036,6,2,P|400:287|331:198,1,187.000005706787,4|8,2:2|0:0,0:0:0:0:
261,200,216536,1,0,0:0:0:0:
176,198,216703,1,2,0:0:0:0:
301,348,217036,1,8,0:0:0:0:
316,258,217203,1,0,0:0:0:0:
224,215,217369,5,2,2:2:0:0:
123,238,217619,1,2,0:0:0:0:
225,256,217869,1,2,0:0:0:0:
97,313,218036,2,0,P|27:279|7:177,1,187.000005706787,2|0,0:0|1:0,0:0:0:0:
285,156,218703,6,0,P|361:132|459:194,1,195.500003728867,4|8,1:3|0:0,0:0:0:0:
381,212,219203,1,0,0:0:0:0:
308,240,219369,1,2,0:0:0:0:
260,358,219703,1,8,0:0:0:0:
202,292,219869,1,0,0:0:0:0:
257,223,220036,5,2,0:0:0:0:
391,228,220286,1,2,0:0:0:0:
239,217,220536,1,2,0:0:0:0:
158,232,220703,2,0,P|112:170|184:93,1,195.500003728867,2|8,0:0|0:0,0:0:0:0:
415,327,221369,6,0,P|438:265|334:175,1,195.500003728867,6|8,0:0|0:0,0:0:0:0:
273,177,221869,1,0,0:0:0:0:
184,178,222036,1,2,0:0:0:0:
311,342,222369,1,8,0:0:0:0:
326,255,222536,1,0,0:0:0:0:
338,169,222703,5,2,0:0:0:0:
220,134,222953,1,2,0:0:0:0:
344,104,223203,1,2,0:0:0:0:
412,77,223369,1,2,0:0:0:0:
275,167,223703,1,10,0:0:0:0:
207,140,223869,1,2,0:0:0:0:
340,162,224036,6,0,P|421:139|447:29,1,195.500003728867,4|8,0:0|0:0,0:0:0:0:
382,35,224536,1,0,0:0:0:0:
314,26,224703,1,2,0:0:0:0:
136,172,225036,1,8,0:0:0:0:
304,334,225369,6,0,P|365:316|392:218,2,146.62500279665,2|2|2,0:0|0:0|0:0,0:0:0:0:
215,349,226036,2,0,P|156:307|230:222,1,195.500003728867,2|8,0:0|0:0,0:0:0:0:
428,253,226703,6,0,P|473:190|380:117,1,195.500003728867,4|8,0:0|0:0,0:0:0:0:
335,115,227203,1,0,0:0:0:0:
266,118,227369,1,2,0:0:0:0:
85,264,227703,2,0,L|64:159,1,97.7500018644333,8|0,0:0|0:0,0:0:0:0:
179,227,228036,6,0,P|239:203|268:112,1,146.62500279665,4|2,0:0|0:0,0:0:0:0:
170,30,228536,1,2,0:0:0:0:
259,79,228703,2,0,L|460:152,1,195.500003728867,2|8,0:0|0:0,0:0:0:0:
138,279,229369,6,0,P|82:211|154:163,1,170,4|8,1:3|0:0,0:0:0:0:
206,151,229869,1,0,0:0:0:0:
311,165,230203,2,0,L|330:71,1,85,0|8,1:0|0:0,0:0:0:0:
200,288,230703,5,0,1:0:0:0:
119,256,230869,2,0,P|57:218|48:127,1,170,0|0,0:0|0:0,0:0:0:0:
128,79,231369,1,2,0:0:0:0:
279,74,231703,1,8,0:0:0:0:
108,276,232036,6,0,P|92:204|188:160,1,170,0|8,1:0|0:0,0:0:0:0:
244,156,232536,1,0,0:0:0:0:
411,164,232869,1,0,1:0:0:0:
422,87,233036,1,8,0:0:0:0:
250,305,233369,5,0,1:0:0:0:
171,270,233536,2,0,P|143:205|245:150,1,170,0|0,0:0|0:0,0:0:0:0:
290,144,234036,1,2,0:0:0:0:
426,145,234369,1,8,0:0:0:0:
258,326,234703,6,0,P|182:300|160:188,1,170,0|8,1:0|0:0,0:0:0:0:
227,149,235203,1,0,0:0:0:0:
390,151,235536,2,0,L|420:54,1,85,0|8,1:0|2:0,0:0:0:0:
222,347,236036,5,0,1:0:0:0:
141,315,236202,2,0,P|79:277|70:186,1,170,0|0,0:0|0:0,0:0:0:0:
150,138,236702,1,2,0:0:0:0:
307,137,237036,1,8,0:0:0:0:
151,316,237369,6,0,P|91:281|68:177,1,170,0|8,1:0|0:0,0:0:0:0:
159,141,237869,1,0,2:0:0:0:
317,146,238203,1,0,1:0:0:0:
339,53,238370,1,8,0:0:0:0:
156,333,238703,5,0,1:0:0:0:
115,268,238869,1,2,0:0:0:0:
149,199,239036,1,8,0:0:0:0:
313,189,239369,1,0,1:0:0:0:
375,123,239535,1,2,0:0:0:0:
313,57,239702,1,8,0:0:0:0:
52,110,240036,5,4,0:0:0:0:
165,201,240369,1,8,0:0:0:0:
49,300,240703,1,2,0:0:0:0:
49,300,240870,1,0,1:0:0:0:
49,300,241037,1,8,0:0:0:0:
176,309,241369,5,0,1:0:0:0:
242,286,241536,1,2,0:0:0:0:
136,201,241869,1,0,0:0:0:0:
67,142,242036,2,0,P|39:90|125:32,1,170,2|8,0:0|0:0,0:0:0:0:
259,80,242703,5,0,1:0:0:0:
133,168,243036,1,8,0:0:0:0:
277,262,243369,1,2,0:0:0:0:
342,238,243535,1,0,1:0:0:0:
409,214,243702,1,8,0:0:0:0:
243,340,244036,5,0,1:0:0:0:
219,258,244202,1,2,0:0:0:0:
362,205,244536,1,2,2:0:0:0:
288,192,244702,1,0,1:0:0:0:
152,180,245036,1,8,0:0:0:0:
442,300,245369,6,0,P|479:229|424:137,1,170,4|8,2:0|0:0,0:0:0:0:
369,149,245869,1,0,0:0:0:0:
292,148,246036,1,2,0:0:0:0:
137,203,246369,1,8,0:0:0:0:
401,319,246703,6,0,P|438:248|383:156,1,170,4|8,2:0|0:0,0:0:0:0:
328,168,247203,1,0,0:0:0:0:
251,167,247370,1,2,0:0:0:0:
402,95,247703,1,8,0:0:0:0:
138,264,248036,6,0,P|120:199|206:124,1,170,0|8,1:0|0:0,0:0:0:0:
311,184,248703,2,0,P|329:119|243:44,1,170,2|8,0:0|0:0,0:0:0:0:
412,73,249369,5,2,1:2:0:0:
281,73,249703,1,8,0:0:0:0:
431,110,250036,1,2,2:0:0:0:
300,110,250369,1,8,0:0:0:0:
32,48,250703,5,4,1:3:0:0:
256,192,251036,12,0,253369,0:0:0:0:
