osu file format v14

[General]
AudioFilename: audio.mp3
AudioLeadIn: 0
PreviewTime: 174619
Countdown: 0
SampleSet: Soft
StackLeniency: 0.7
Mode: 2
LetterboxInBreaks: 0
WidescreenStoryboard: 1

[Editor]
Bookmarks: 22703,44036,62703,65369,86703,117369,132036,164036,185369,208036,218703,229369
DistanceSpacing: 1
BeatDivisor: 4
GridSize: 4
TimelineZoom: 2.2

[Metadata]
Title:Tokei no Heya to Seishin Sekai
TitleUnicode:時計の部屋と精神世界
Artist:a_hisa
ArtistUnicode:a_hisa
Creator:Spectator
Version:Platter
Source:
Tags:kyuare -wwwww Fii spiritual core artcore collab
BeatmapID:1383534
BeatmapSetID:639409

[Difficulty]
HPDrainRate:5
CircleSize:3.5
OverallDifficulty:8
ApproachRate:8
SliderMultiplier:1.9
SliderTickRate:2

[Events]
//Background and Video events
0,0,"Tokei no Heya to Seishin Sekai BG.png",0,0
//Break Periods
2,121369,131286
//Storyboard Layer 0 (Background)
//Storyboard Layer 1 (Fail)
//Storyboard Layer 2 (Pass)
//Storyboard Layer 3 (Foreground)
//Storyboard Sound Samples

[TimingPoints]
1370,333.333333333333,4,2,1,30,1,0
1370,-142.857142857143,4,2,1,30,0,0
22036,-76.9230769230769,4,2,1,30,0,0
22703,-100,4,2,1,60,0,1
22786,-100,4,2,1,70,0,0
44036,-142.857142857143,4,2,1,35,0,0
44203,-142.857142857143,4,2,2,55,0,0
54703,-133.333333333333,4,2,1,60,0,0
64703,-125,4,2,1,55,0,0
65369,-100,4,2,1,65,0,0
76036,-100,4,2,1,70,0,0
86703,-111.111111111111,4,2,1,70,0,0
94703,-100,4,2,1,70,0,0
98203,-100,4,2,21,60,0,0
98286,-100,4,2,1,70,0,0
98369,-100,4,2,20,70,0,0
98453,-100,4,2,1,70,0,0
100869,-100,4,2,21,60,0,0
100953,-100,4,2,1,60,0,0
101036,-100,4,2,20,60,0,0
101119,-100,4,2,1,60,0,0
103536,-100,4,2,21,60,0,0
103619,-100,4,2,1,70,0,0
103703,-100,4,2,20,70,0,0
103786,-100,4,2,1,70,0,0
105369,-100,4,2,1,70,0,1
116036,-142.857142857143,4,2,1,30,0,0
117369,-142.857142857143,4,2,1,60,0,0
144369,-142.857142857143,4,2,1,40,0,0
147369,-142.857142857143,4,2,1,50,0,0
148036,-111.111111111111,4,2,1,50,0,0
148703,-111.111111111111,4,2,1,55,0,0
162036,-200,4,2,2,40,0,0
164036,-111.111111111111,4,2,1,50,0,0
172036,-111.111111111111,4,2,1,10,0,0
172536,-111.111111111111,4,2,1,14,0,0
172869,-111.111111111111,4,2,1,27,0,0
173036,-111.111111111111,4,2,1,30,0,0
173203,-111.111111111111,4,2,1,35,0,0
173369,-90.9090909090909,4,2,1,42,0,0
173703,-90.9090909090909,4,2,1,45,0,0
174036,-90.9090909090909,4,2,1,50,0,0
174369,-90.9090909090909,4,2,1,58,0,0
174703,-100,4,2,1,70,0,0
185369,-100,4,2,1,75,0,0
196036,-111.111111111111,4,2,1,45,0,0
200036,-111.111111111111,4,2,1,47,0,0
200703,-111.111111111111,4,2,1,49,0,0
201369,-111.111111111111,4,2,1,52,0,0
202036,-111.111111111111,4,2,1,54,0,0
204036,-111.111111111111,4,2,1,50,0,0
205369,-111.111111111111,4,2,1,54,0,0
206703,-111.111111111111,4,2,1,50,0,0
207036,-111.111111111111,4,2,1,54,0,0
207369,-111.111111111111,4,2,1,60,0,0
207703,-111.111111111111,4,2,1,64,0,0
208036,-90.9090909090909,4,2,1,70,0,1
218703,-86.9565217391304,4,2,1,70,0,1
229369,-100,4,2,1,70,0,0
250703,-100,4,2,1,70,0,1
250786,-100,4,2,1,30,0,0

[Colours]
Combo1 : 240,166,111
Combo2 : 162,126,235
Combo3 : 90,220,198
Combo4 : 132,183,244

[HitObjects]
266,236,1370,6,0,L|351:235,2,66.4999979705811,0|0|0,1:3|0:0|0:0,0:0:0:0:
151,234,1870,2,0,L|66:233,2,66.4999979705811,2|0|0,2:0|0:0|0:0,0:0:0:0:
249,232,2370,1,2,2:0:0:0:
151,234,2537,1,0,0:0:0:0:
321,278,2869,6,0,P|369:235|377:140,1,132.999995941162,2|0,2:0|0:0,0:0:0:0:
278,139,3369,1,2,0:0:0:0:
152,142,3703,1,2,0:0:0:0:
365,275,4036,6,0,L|450:274,2,66.4999979705811,2|0|0,0:0|0:0|0:0,0:0:0:0:
250,273,4536,2,0,L|165:272,2,66.4999979705811,2|2|0,0:0|0:0|0:0,0:0:0:0:
345,272,5036,1,2,0:0:0:0:
250,273,5203,1,2,0:0:0:0:
127,318,5536,6,0,L|266:315,1,132.999995941162,0|0,0:0|0:0,0:0:0:0:
360,312,6036,1,2,0:0:0:0:
135,250,6369,2,0,L|110:167,1,66.4999979705811,2|2,0:0|0:0,0:0:0:0:
289,115,6703,6,0,L|374:115,2,66.4999979705811,2|0|0,0:0|0:0|0:0,0:0:0:0:
182,118,7203,2,0,L|97:118,2,66.4999979705811,2|0|0,0:0|0:0|0:0,0:0:0:0:
289,206,7703,1,2,0:0:0:0:
434,344,8036,5,0,0:0:0:0:
339,346,8203,2,0,P|286:317|318:250,1,132.999995941162,2|0,0:0|0:0,0:0:0:0:
394,243,8703,1,2,0:0:0:0:
448,184,8869,1,0,0:0:0:0:
427,106,9036,1,2,0:0:0:0:
350,83,9203,1,2,0:0:0:0:
174,115,9369,6,0,L|78:115,2,66.4999979705811,2|0|0,0:0|0:0|0:0,0:0:0:0:
283,117,9869,2,0,L|379:117,2,66.4999979705811,2|0|0,0:0|0:0|0:0,0:0:0:0:
120,125,10369,1,2,0:0:0:0:
304,310,10703,5,2,0:0:0:0:
355,249,10869,1,0,0:0:0:0:
373,171,11036,1,2,0:0:0:0:
333,101,11203,1,0,0:0:0:0:
257,76,11369,1,2,0:0:0:0:
105,263,11703,1,2,0:0:0:0:
94,188,11869,1,2,0:0:0:0:
269,275,12036,6,0,P|322:249|364:169,1,132.999995941162,2|0,0:0|0:0,0:0:0:0:
269,170,12536,2,0,P|216:144|174:64,1,132.999995941162,2|0,0:0|0:0,0:0:0:0:
253,33,13036,1,2,0:0:0:0:
385,354,13369,5,2,0:0:0:0:
445,301,13536,1,0,0:0:0:0:
453,221,13703,1,0,0:0:0:0:
409,154,13869,1,0,0:0:0:0:
255,124,14036,2,0,P|295:105|383:123,1,132.999995941162,2|2,0:0|0:0,0:0:0:0:
295,115,14536,1,0,0:0:0:0:
116,64,14703,6,0,L|37:66,2,66.4999979705811,2|0|0,0:0|0:0|0:0,0:0:0:0:
226,129,15203,2,0,L|305:131,2,66.4999979705811,2|0|0,0:0|0:0|0:0,0:0:0:0:
123,178,15703,1,2,0:0:0:0:
329,339,16203,6,0,P|377:295|395:232,1,132.999995941162,2|2,0:0|0:0,0:0:0:0:
310,200,16703,1,2,0:0:0:0:
142,203,17036,1,2,0:0:0:0:
394,203,17369,5,0,1:0:0:0:
227,202,17703,1,0,1:0:0:0:
396,312,18036,1,0,1:0:0:0:
226,306,18370,1,0,1:0:0:0:
485,216,18703,5,0,1:0:0:0:
304,216,19037,1,0,1:0:0:0:
485,216,19369,1,0,1:0:0:0:
304,216,19703,1,0,1:0:0:0:
208,214,19869,1,0,1:0:0:0:
350,254,20036,5,0,1:0:0:0:
400,196,20203,1,0,1:0:0:0:
349,133,20369,1,0,1:0:0:0:
219,250,20536,1,0,1:0:0:0:
164,195,20703,1,0,1:0:0:0:
214,135,20870,1,0,1:0:0:0:
378,132,21036,1,0,1:0:0:0:
381,52,21203,1,0,1:0:0:0:
280,271,21369,5,0,1:0:0:0:
275,237,21453,1,0,1:0:0:0:
270,204,21536,1,0,1:0:0:0:
175,133,21703,1,0,1:0:0:0:
180,99,21787,1,0,1:0:0:0:
185,66,21870,1,0,1:0:0:0:
344,148,22036,2,0,P|393:120|417:177,1,123.499994346619,2|0,0:0|1:0,0:0:0:0:
171,102,22369,1,4,1:3:0:0:
144,335,22703,6,0,P|103:281|191:211,1,190,0|8,1:0|0:0,0:0:0:0:
265,202,23203,2,0,P|306:148|218:78,1,190,2|0,2:2|1:0,0:0:0:0:
375,207,23703,6,0,P|416:153|327:83,1,190,8|0,2:0|1:0,0:0:0:0:
256,99,24203,2,0,L|58:75,1,190,0|0,0:0|0:0,0:0:0:0:
152,88,24703,1,2,0:0:0:0:
352,84,25036,1,8,0:0:0:0:
120,348,25369,6,0,P|100:280|197:215,1,190,0|8,1:2|0:0,0:0:0:0:
325,340,25869,2,0,L|342:138,1,190,2|0,0:0|1:0,0:0:0:0:
193,154,26369,6,0,P|173:86|270:21,1,190,8|0,0:0|1:0,0:0:0:0:
335,48,26869,2,0,L|119:49,1,190,0|2,0:0|0:0,0:0:0:0:
221,48,27369,1,0,0:0:0:0:
351,48,27703,1,8,0:0:0:0:
81,342,28036,6,0,P|64:280|168:216,1,190,4|8,1:2|0:0,0:0:0:0:
232,208,28536,2,0,P|148:176|51:224,1,190,2|0,0:0|1:0,0:0:0:0:
135,205,29036,6,0,P|152:143|59:79,1,190,8|0,0:0|1:0,0:0:0:0:
138,78,29536,2,0,P|236:64|342:87,1,190,2|0,0:0|0:0,0:0:0:0:
251,74,30036,1,2,0:0:0:0:
114,115,30369,1,8,0:0:0:0:
408,344,30703,6,0,L|392:240,1,95,0|2,1:0|0:0,0:0:0:0:
306,226,31036,2,0,P|256:225|222:195,1,95,8|2,0:0|0:0,0:0:0:0:
325,156,31369,2,0,P|375:155|409:125,2,95,0|0|8,0:0|1:0|0:0,0:0:0:0:
422,336,32036,6,0,P|453:290|433:229,1,95,0|0,1:0|0:0,0:0:0:0:
365,236,32369,1,8,0:0:0:0:
275,256,32536,1,0,0:0:0:0:
359,161,32703,2,0,P|409:179|481:159,2,95,2|0|8,0:0|1:0|0:0,0:0:0:0:
117,324,33369,6,0,L|218:330,1,95,4|2,1:2|0:0,0:0:0:0:
298,240,33703,2,0,L|174:253,1,95,8|2,0:0|0:0,0:0:0:0:
112,162,34036,2,0,L|213:168,1,95,0|2,0:0|1:2,0:0:0:0:
297,63,34370,2,0,L|173:75,1,95,8|2,0:0|0:0,0:0:0:0:
127,140,34703,6,0,L|120:235,1,95,2|0,0:0|1:0,0:0:0:0:
273,216,35036,2,0,L|286:311,1,95,8|2,0:0|0:0,0:0:0:0:
200,291,35369,1,0,1:0:0:0:
142,227,35536,1,2,0:0:0:0:
154,142,35703,1,8,0:0:0:0:
226,97,35869,1,2,0:0:0:0:
383,110,36036,6,0,P|432:122|499:113,2,95,0|0|8,1:0|0:0|0:0,0:0:0:0:
293,174,36536,2,0,P|240:187|168:177,2,95,2|0|0,0:0|0:0|1:0,0:0:0:0:
379,208,37036,1,10,0:0:0:0:
380,298,37203,1,0,0:0:0:0:
229,298,37369,5,2,2:0:0:0:
180,227,37536,1,0,1:0:0:0:
196,142,37703,1,8,0:0:0:0:
273,105,37869,1,2,0:0:0:0:
357,117,38036,2,0,P|307:134|240:120,1,95,0|2,1:0|2:0,0:0:0:0:
179,106,38369,2,0,L|167:209,1,95,8|2,0:0|0:0,0:0:0:0:
413,312,38703,6,0,P|465:331|523:315,2,95,4|2|8,0:0|0:0|0:0,0:0:0:0:
331,258,39203,2,0,P|285:240|220:261,2,95,2|0|0,0:0|0:0|1:0,0:0:0:0:
413,141,39703,1,10,0:0:0:0:
423,237,39869,1,0,0:0:0:0:
144,313,40036,6,0,L|34:317,2,95,0|2|8,1:0|0:0|0:0,0:0:0:0:
234,251,40536,2,0,L|345:255,2,95,2|0|0,0:0|0:0|1:0,0:0:0:0:
134,141,41036,1,10,0:0:0:0:
116,240,41202,1,2,0:0:0:0:
355,285,41369,6,0,P|391:232|374:185,1,95,4|0,0:0|0:0,0:0:0:0:
296,167,41703,1,8,0:0:0:0:
210,210,41869,1,0,0:0:0:0:
330,337,42036,2,0,P|366:284|349:237,1,95,2|0,2:0|1:0,0:0:0:0:
274,224,42370,1,8,0:0:0:0:
250,135,42536,1,0,0:0:0:0:
384,124,42703,5,0,1:0:0:0:
452,174,42869,1,2,0:0:0:0:
465,258,43036,1,8,0:0:0:0:
422,332,43203,1,0,0:0:0:0:
325,302,43369,2,0,P|278:322|215:302,1,95,2|0,0:0|1:0,0:0:0:0:
323,203,43703,2,0,P|369:223|423:200,1,95,8|0,0:0|0:0,0:0:0:0:
154,180,44036,5,4,0:3:0:0:
150,238,44703,1,2,0:3:0:0:
331,331,45369,5,2,0:3:0:0:
184,328,45703,1,0,0:0:0:0:
350,252,46036,1,2,0:3:0:0:
202,251,46370,1,0,0:3:0:0:
88,316,46703,6,0,P|77:258|134:206,1,132.999995941162,2|0,0:3|0:0,0:0:0:0:
296,269,47369,1,2,0:3:0:0:
340,202,47536,1,0,0:0:0:0:
314,126,47703,1,0,0:0:0:0:
243,89,47869,1,0,0:0:0:0:
143,234,48036,5,2,0:3:0:0:
99,167,48203,1,0,0:0:0:0:
125,91,48370,1,0,0:0:0:0:
196,54,48536,1,0,0:0:0:0:
296,117,48703,2,0,L|147:118,1,132.999995941162,2|0,0:3|0:3,0:0:0:0:
352,168,49369,5,2,0:3:0:0:
140,168,50036,1,2,0:3:0:0:
240,297,50703,5,2,0:3:0:0:
379,195,51036,1,0,0:0:0:0:
240,297,51369,1,2,0:3:0:0:
106,192,51702,1,0,0:0:0:0:
282,275,52036,6,0,P|364:266|390:202,1,132.999995941162,2|0,0:3|0:0,0:0:0:0:
266,209,52703,2,0,P|184:200|158:136,1,132.999995941162,2|0,0:3|0:0,0:0:0:0:
224,119,53203,1,0,0:0:0:0:
318,188,53369,6,0,L|329:257,1,66.4999979705811,2|0,0:3|0:0,0:0:0:0:
248,308,53703,2,0,L|232:219,1,66.4999979705811,2|0,0:0|0:0,0:0:0:0:
328,253,54036,2,0,P|410:244|436:180,1,132.999995941162,2|2,0:3|0:0,0:0:0:0:
205,90,54703,6,0,P|157:139|172:206,1,142.500005435944,4|2,0:0|0:0,0:0:0:0:
258,205,55203,1,0,0:0:0:0:
395,181,55369,2,0,L|412:251,1,71.2500027179719,8|0,0:0|0:0,0:0:0:0:
315,54,55703,2,0,L|299:124,1,71.2500027179719,0|0,0:0|1:0,0:0:0:0:
152,213,56036,6,0,P|85:180|76:127,2,106.875004076958,0|0|0,1:0|1:0|1:0,0:0:0:0:
239,211,56703,1,8,0:0:0:0:
62,314,57036,1,2,0:0:0:0:
306,90,57369,6,0,P|353:139|338:206,1,142.500005435944,0|2,1:0|0:0,0:0:0:0:
247,207,57869,1,0,1:0:0:0:
96,210,58036,2,0,L|80:280,1,71.2500027179719,8|0,0:0|0:0,0:0:0:0:
170,75,58369,2,0,L|187:145,1,71.2500027179719,2|0,0:0|1:0,0:0:0:0:
335,165,58703,6,0,P|402:132|411:79,2,106.875004076958,0|0|0,1:0|0:0|1:0,0:0:0:0:
255,206,59369,2,0,P|218:220|166:207,1,71.2500027179719,8|0,0:0|0:0,0:0:0:0:
271,137,59703,1,0,2:0:0:0:
121,345,60036,6,0,P|97:282|169:230,1,142.500005435944,0|2,1:0|0:0,0:0:0:0:
221,227,60536,1,0,0:0:0:0:
364,229,60703,2,0,L|189:227,1,142.500005435944,8|2,2:0|0:0,0:0:0:0:
112,176,61369,6,0,P|45:143|36:90,2,106.875004076958,0|0|0,1:0|0:0|2:0,0:0:0:0:
190,173,62036,1,8,0:0:0:0:
46,177,62369,1,2,0:0:0:0:
329,207,62703,6,0,P|388:182|416:85,1,142.500005435944,0|2,1:0|0:0,0:0:0:0:
162,158,63369,2,0,P|142:111|220:51,1,142.500005435944,8|2,0:0|2:2,0:0:0:0:
287,52,63869,1,0,2:0:0:0:
197,115,64036,6,0,P|166:133|109:123,1,71.2500027179719,0|8,1:2|1:2,0:0:0:0:
239,192,64369,2,0,P|274:209|327:200,1,71.2500027179719,0|8,1:2|1:2,0:0:0:0:
208,303,64703,2,0,P|152:263|195:182,1,152,8|0,2:2|1:0,0:0:0:0:
257,171,65203,1,0,1:0:0:0:
440,200,65369,6,0,L|446:104,1,95,4|0,0:0|1:0,0:0:0:0:
350,108,65703,2,0,P|301:114|222:111,1,95,8|2,0:0|0:0,0:0:0:0:
158,117,66036,2,0,P|172:70|216:23,1,95,0|0,0:0|1:0,0:0:0:0:
282,37,66369,1,8,0:0:0:0:
382,234,66703,6,0,P|428:258|487:246,2,95,0|0|8,1:0|0:0|0:0,0:0:0:0:
299,246,67203,1,0,0:0:0:0:
215,253,67369,2,0,P|140:216|162:116,1,190,2|8,0:0|0:0,0:0:0:0:
231,122,67869,1,2,0:0:0:0:
403,278,68036,6,0,L|429:182,1,95,0|0,1:0|0:0,0:0:0:0:
341,178,68369,2,0,P|302:141|320:93,1,95,8|0,0:0|0:0,0:0:0:0:
400,150,68703,2,0,P|438:100|356:2,1,190,2|8,0:0|0:0,0:0:0:0:
292,13,69203,1,2,0:0:0:0:
113,192,69369,6,0,P|104:140|223:63,1,190,0|8,1:0|0:0,0:0:0:0:
343,244,70036,2,0,L|371:138,1,95,2|0,0:0|1:0,0:0:0:0:
282,145,70369,2,0,P|241:109|231:45,1,95,8|0,0:0|0:0,0:0:0:0:
401,205,70703,6,0,P|442:169|452:105,1,95,4|0,0:0|0:0,0:0:0:0:
365,117,71036,1,8,0:0:0:0:
95,362,71369,2,0,P|54:326|44:262,1,95,2|0,0:0|1:0,0:0:0:0:
132,272,71703,2,0,P|173:236|183:172,1,95,8|0,0:0|0:0,0:0:0:0:
268,229,72036,5,0,1:0:0:0:
382,152,72369,2,0,L|284:142,1,95,8|2,0:0|0:0,0:0:0:0:
122,311,72703,2,0,P|48:274|98:177,1,190,2|8,0:0|2:0,0:0:0:0:
157,198,73203,1,2,0:0:0:0:
310,200,73369,6,0,P|313:109|227:74,1,190,0|8,1:0|2:0,0:0:0:0:
160,115,73869,1,0,0:0:0:0:
76,136,74036,2,0,P|49:84|71:48,1,95,2|0,0:0|1:0,0:0:0:0:
160,88,74369,2,0,P|205:62|255:74,1,95,8|0,0:0|0:0,0:0:0:0:
401,121,74703,5,0,1:0:0:0:
466,176,74869,1,0,0:0:0:0:
398,236,75036,1,8,0:0:0:0:
255,236,75203,2,0,P|199:190|269:112,1,190,0|0,0:0|1:0,0:0:0:0:
357,143,75703,2,0,P|407:156|464:158,1,95,8|2,0:0|0:0,0:0:0:0:
160,307,76036,6,0,P|107:268|138:139,1,190,4|8,0:0|0:0,0:0:0:0:
201,143,76536,1,0,0:0:0:0:
309,199,76703,2,0,L|340:99,1,95,2|0,0:0|1:0,0:0:0:0:
261,55,77036,1,8,0:0:0:0:
104,352,77369,6,0,P|66:308|57:246,1,95,0|0,1:0|0:0,0:0:0:0:
144,270,77703,1,8,0:0:0:0:
226,270,77869,1,0,0:0:0:0:
146,240,78036,2,0,P|74:220|95:109,1,190,0|8,0:0|0:0,0:0:0:0:
157,118,78536,1,2,0:0:0:0:
300,170,78703,6,0,P|347:126|267:45,1,190,4|8,0:0|0:0,0:0:0:0:
97,171,79369,2,0,P|75:105|192:54,1,190,2|8,0:0|0:0,0:0:0:0:
246,41,79869,1,0,0:0:0:0:
391,233,80036,6,0,P|440:185|387:87,1,190,0|8,1:0|0:0,0:0:0:0:
122,204,80703,2,0,P|95:150|193:91,1,190,2|8,0:0|0:0,0:0:0:0:
324,362,81369,5,4,0:0:0:0:
388,310,81536,1,0,0:0:0:0:
411,230,81703,1,8,0:0:0:0:
374,157,81869,1,0,0:0:0:0:
289,179,82036,2,0,P|269:135|267:71,1,95,2|0,0:0|1:0,0:0:0:0:
366,162,82369,2,0,P|386:118|388:54,1,95,8|0,0:0|0:0,0:0:0:0:
239,288,82703,6,0,P|185:253|210:137,1,190,0|8,1:0|0:0,0:0:0:0:
282,141,83203,1,0,0:0:0:0:
202,141,83369,1,2,0:0:0:0:
35,144,83703,1,8,0:0:0:0:
432,325,84036,6,0,P|472:276|380:200,1,190,4|8,0:0|0:0,0:0:0:0:
318,193,84536,1,0,0:0:0:0:
400,269,84703,2,0,P|433:220|434:149,1,95,2|0,0:0|1:0,0:0:0:0:
406,150,84953,1,0,0:0:0:0:
363,131,85036,1,8,0:0:0:0:
272,130,85203,1,0,0:0:0:0:
128,132,85369,6,0,P|71:99|28:91,2,95,0|0|8,1:0|2:0|0:0,0:0:0:0:
215,173,85869,2,0,L|65:220,2,142.5,0|0|8,0:0|0:0|2:0,0:0:0:0:
165,349,86703,6,0,L|88:304,2,85.4999973907472,2|0|0,0:0|0:0|0:0,0:0:0:0:
264,316,87203,2,0,L|279:224,1,85.4999973907472,2|0,0:0|0:0,0:0:0:0:
171,151,87536,6,0,L|91:93,2,85.4999973907472,2|0|0,0:0|0:0|0:0,0:0:0:0:
256,98,88036,2,0,L|337:36,1,85.4999973907472,2|0,0:0|0:0,0:0:0:0:
216,198,88369,2,0,L|136:134,1,85.4999973907472,2|0,0:0|0:0,0:0:0:0:
297,351,88703,6,0,P|341:308|286:214,1,170.999994781494,2|0,0:0|0:0,0:0:0:0:
206,245,89203,2,0,P|171:199|160:141,1,85.4999973907472,2|0,0:0|0:0,0:0:0:0:
258,145,89536,6,0,P|293:99|304:41,1,85.4999973907472,2|0,0:0|0:0,0:0:0:0:
299,1,89869,1,0,0:0:0:0:
178,255,90036,2,0,L|120:184,1,85.4999973907472,2|0,0:0|0:0,0:0:0:0:
246,140,90369,2,0,L|312:48,1,85.4999973907472,2|0,0:0|0:0,0:0:0:0:
111,289,90703,6,0,P|71:301|14:296,2,85.4999973907472,4|0|2,1:3|0:0|0:0,0:0:0:0:
200,213,91203,2,0,L|218:311,1,85.4999973907472,4|0,0:2|0:0,0:0:0:0:
105,219,91536,6,0,P|65:232|19:212,2,85.4999973907472,4|0|2,2:2|0:0|0:0,0:0:0:0:
215,297,92036,2,0,L|192:196,1,85.4999973907472,4|0,0:2|0:0,0:0:0:0:
114,167,92369,2,0,L|137:66,1,85.4999973907472,4|0,0:0|0:0,0:0:0:0:
301,89,92703,6,0,P|347:78|394:57,2,85.4999973907472,4|0|2,0:0|0:0|0:0,0:0:0:0:
216,122,93203,2,0,P|181:92|188:23,1,85.4999973907472,4|0,0:0|0:0,0:0:0:0:
356,200,93536,6,0,P|402:189|449:168,2,85.4999973907472,4|0|2,0:0|0:0|0:0,0:0:0:0:
271,233,94036,2,0,P|236:203|243:134,1,85.4999973907472,4|2,0:0|0:0,0:0:0:0:
319,134,94369,2,0,L|424:111,1,85.4999973907472,0|0,1:0|1:0,0:0:0:0:
99,314,94703,6,0,P|32:266|104:238,1,190,4|8,0:0|0:0,0:0:0:0:
175,264,95203,1,2,0:0:0:0:
247,224,95369,1,0,0:0:0:0:
390,259,95703,1,8,0:0:0:0:
236,152,96036,6,0,P|189:167|144:132,1,95,0|0,1:0|2:0,0:0:0:0:
48,251,96369,2,0,P|95:264|128:220,1,95,8|0,0:0|0:0,0:0:0:0:
225,328,96703,2,0,P|257:268|161:188,1,190,2|8,0:0|0:0,0:0:0:0:
416,299,97369,6,0,P|472:247|380:187,1,190,0|8,1:0|0:0,0:0:0:0:
332,177,97869,1,0,0:0:0:0:
189,188,98036,2,0,P|120:160|91:93,2,142.5,2|0|0,0:0|0:0|0:0,0:0:0:0:
284,220,98703,6,0,P|350:168|259:103,1,190,0|8,1:0|0:0,0:0:0:0:
208,125,99203,1,2,0:0:0:0:
193,79,99286,1,0,0:0:0:0:
178,33,99369,1,2,0:0:0:0:
341,196,99703,2,0,L|366:91,1,95,8|0,0:0|2:0,0:0:0:0:
213,214,100036,6,0,P|182:132|259:92,1,190,0|8,1:0|0:0,0:0:0:0:
343,91,100536,1,2,0:0:0:0:
430,97,100703,2,0,L|277:86,2,142.5,0|0|0,0:0|0:0|0:0,0:0:0:0:
277,318,101369,6,0,P|198:289|189:189,1,190,0|8,1:0|2:0,0:0:0:0:
268,172,101869,1,0,0:0:0:0:
413,173,102036,2,0,L|434:80,1,95,2|0,0:0|1:0,0:0:0:0:
348,36,102369,1,8,0:0:0:0:
84,176,102703,6,0,P|63:125|165:58,1,190,0|8,1:0|0:0,0:0:0:0:
243,56,103203,1,2,0:0:0:0:
387,133,103369,2,0,P|457:110|473:34,2,142.5,2|0|0,0:0|0:0|0:0,0:0:0:0:
152,325,104036,6,0,P|123:277|136:209,1,95,0|0,1:0|1:0,0:0:0:0:
211,229,104369,2,0,P|283:189|291:109,2,142.5,8|8|8,0:0|0:0|0:0,0:0:0:0:
117,200,105036,2,0,P|77:223|16:227,1,95,8|8,0:0|0:0,0:0:0:0:
278,75,105369,6,0,L|503:68,1,190,4|8,1:3|0:0,0:0:0:0:
383,147,105869,1,0,0:0:0:0:
295,251,106036,2,0,P|268:210|258:143,1,95,0|0,0:0|1:0,0:0:0:0:
365,163,106369,2,0,P|387:118|383:52,1,95,8|0,0:0|0:0,0:0:0:0:
205,104,106703,6,0,L|47:101,2,142.5,0|0|2,1:0|0:0|0:0,0:0:0:0:
308,161,107369,2,0,L|324:261,1,95,0|0,0:0|1:0,0:0:0:0:
212,207,107703,1,8,0:0:0:0:
419,341,108036,6,0,P|445:284|345:210,1,190,0|8,1:0|0:0,0:0:0:0:
267,194,108536,1,0,0:0:0:0:
283,149,108619,1,0,0:0:0:0:
298,103,108703,1,0,0:0:0:0:
389,101,108869,1,0,1:0:0:0:
290,102,109036,2,0,P|252:66|234:-1,1,95,8|2,0:0|0:0,0:0:0:0:
371,277,109369,6,0,P|449:238|464:186,2,142.5,0|0|8,1:0|0:0|0:0,0:0:0:0:
240,345,110036,2,0,L|137:347,1,95,0|0,0:0|0:0,0:0:0:0:
298,185,110369,2,0,L|412:189,1,95,8|0,0:0|1:3,0:0:0:0:
110,288,110703,6,0,P|59:232|139:166,1,190,4|8,0:0|0:0,0:0:0:0:
228,156,111203,2,0,L|266:96,2,47.5,0|0|2,0:0|0:0|0:0,0:0:0:0:
130,236,111536,1,0,1:0:0:0:
221,234,111703,2,0,L|232:124,1,95,8|0,0:0|0:0,0:0:0:0:
155,68,112036,6,0,L|41:152,2,142.5,0|2|2,1:0|0:0|0:0,0:0:0:0:
304,344,112703,2,0,P|339:307|347:249,1,95,2|0,0:0|1:0,0:0:0:0:
268,240,113036,2,0,P|233:203|225:145,1,95,8|0,0:0|0:0,0:0:0:0:
422,99,113369,6,0,P|474:160|393:247,1,190,0|8,1:0|0:0,0:0:0:0:
326,274,113869,1,2,0:0:0:0:
314,227,113953,1,0,0:0:0:0:
302,181,114036,1,0,2:0:0:0:
354,111,114203,1,0,1:0:0:0:
452,108,114369,2,0,P|453:52|412:4,1,95,8|2,0:0|0:0,0:0:0:0:
285,171,114703,6,0,P|211:170|182:240,2,142.5,0|0|0,1:0|0:0|0:0,0:0:0:0:
383,167,115369,2,0,L|398:59,1,95,0|0,0:0|1:0,0:0:0:0:
142,55,115703,1,8,0:0:0:0:
262,348,116036,5,2,0:0:0:0:
311,302,116203,1,0,0:0:0:0:
320,236,116369,1,2,0:0:0:0:
279,184,116536,1,0,0:0:0:0:
215,166,116703,1,2,0:0:0:0:
178,111,116870,1,0,0:0:0:0:
195,46,117036,1,2,0:0:0:0:
258,12,117203,1,0,0:0:0:0:
490,18,117369,5,4,1:3:0:0:
340,296,132036,6,0,P|408:268|304:216,1,265.999991882324,2|2,0:0|0:0,0:0:0:0:
123,329,133369,2,0,P|106:273|161:234,1,132.999995941162,2|0,0:0|0:0,0:0:0:0:
309,259,134036,2,0,P|391:252|481:98,2,265.999991882324,2|0|2,0:0|0:0|0:0,0:0:0:0:
97,325,136036,6,0,L|252:326,1,132.999995941162,2|0,0:0|0:0,0:0:0:0:
384,259,136703,2,0,P|376:204|300:156,1,132.999995941162,2|0,0:0|0:0,0:0:0:0:
140,163,137369,2,0,P|148:108|224:60,1,132.999995941162,2|0,0:0|0:0,0:0:0:0:
365,302,138036,2,0,P|231:254|197:136,2,265.999991882324,2|0|2,0:0|0:0|0:0,0:0:0:0:
98,328,140036,5,2,0:0:0:0:
368,332,140703,1,2,0:0:0:0:
110,331,141369,2,0,P|64:291|60:217,1,132.999995941162,2|0,0:0|0:0,0:0:0:0:
222,250,142036,2,0,P|312:253|378:98,2,265.999991882324,2|0|2,0:0|0:0|0:0,0:0:0:0:
40,250,144036,6,0,P|106:250|177:251,1,132.999995941162,2|0,0:0|0:0,0:0:0:0:
310,248,144703,1,2,0:0:0:0:
167,249,145036,1,0,0:0:0:0:
320,272,145369,1,2,0:0:0:0:
182,276,145702,1,0,0:0:0:0:
438,258,146036,6,0,P|477:214|352:123,1,265.999991882324,2|2,0:0|0:0,0:0:0:0:
176,122,147036,1,0,0:0:0:0:
381,247,147369,2,0,P|450:233|430:119,1,199.499993911743,0|0,0:0|0:0,0:0:0:0:
316,125,148036,5,4,0:0:0:0:
161,329,148703,2,0,P|119:298|141:192,1,170.999994781494,0|0,0:0|0:0,0:0:0:0:
288,193,149369,1,2,0:0:0:0:
121,191,149703,1,0,0:0:0:0:
368,257,150036,6,0,P|428:229|467:121,1,170.999994781494,2|0,0:0|0:0,0:0:0:0:
293,261,150703,2,0,P|233:233|194:125,1,170.999994781494,2|0,0:0|0:0,0:0:0:0:
341,136,151369,1,2,0:0:0:0:
185,137,151703,1,0,0:0:0:0:
410,284,152036,6,0,P|468:232|348:176,1,256.499992172241,2|0,0:0|0:0,0:0:0:0:
140,216,153036,1,2,0:0:0:0:
329,333,153369,1,2,0:0:0:0:
404,255,153536,1,0,0:0:0:0:
327,177,153703,1,0,0:0:0:0:
166,212,154036,6,0,P|115:165|245:117,1,256.499992172241,2|0,0:0|0:0,0:0:0:0:
393,160,155036,1,2,0:0:0:0:
144,196,155369,1,2,0:0:0:0:
280,264,155703,1,0,0:0:0:0:
151,337,156036,6,0,P|63:309|11:153,1,256.499992172241,2|0,0:0|0:0,0:0:0:0:
225,224,157036,1,2,0:0:0:0:
120,155,157369,1,2,0:0:0:0:
222,93,157703,1,0,0:0:0:0:
328,243,158036,6,0,P|397:202|420:108,1,170.999994781494,2|0,0:0|0:0,0:0:0:0:
256,243,158703,2,0,P|187:202|164:108,1,170.999994781494,2|0,0:0|0:0,0:0:0:0:
311,115,159369,1,2,0:0:0:0:
144,114,159703,1,0,0:0:0:0:
429,293,160036,6,0,P|471:225|404:167,1,170.999994781494,2|2,0:0|0:0,0:0:0:0:
332,164,160536,1,0,0:0:0:0:
416,167,160703,1,2,0:0:0:0:
149,165,161036,1,2,0:0:0:0:
356,262,161369,1,2,0:0:0:0:
429,199,161536,1,0,0:0:0:0:
357,126,161703,1,0,0:0:0:0:
159,168,162036,5,2,0:0:0:0:
256,192,162203,12,0,163703,0:0:0:0:
336,305,164036,6,0,P|418:260|336:206,1,170.999994781494,2|0,0:0|0:0,0:0:0:0:
305,176,164536,1,0,0:0:0:0:
203,205,164703,1,2,0:0:0:0:
119,333,165036,2,0,L|204:333,1,85.4999973907472,0|0,0:0|0:0,0:0:0:0:
336,324,165369,5,2,0:0:0:0:
403,270,165536,1,0,0:0:0:0:
418,185,165703,1,0,0:0:0:0:
380,108,165869,1,0,0:0:0:0:
282,163,166036,2,0,P|225:110|307:51,1,170.999994781494,0|2,0:0|0:0,0:0:0:0:
414,329,166703,6,0,P|461:297|453:184,1,170.999994781494,2|0,0:0|0:0,0:0:0:0:
279,314,167369,1,2,0:0:0:0:
343,257,167536,1,0,0:0:0:0:
358,172,167703,1,0,0:0:0:0:
328,92,167869,1,0,0:0:0:0:
240,218,168036,6,0,L|210:100,1,85.4999973907472,2|0,0:0|0:0,0:0:0:0:
333,130,168369,2,0,L|358:28,1,85.4999973907472,0|0,0:0|0:0,0:0:0:0:
200,315,168703,2,0,P|112:286|75:186,1,170.999994781494,2|2,0:0|0:0,0:0:0:0:
377,271,169369,6,0,P|419:236|347:164,1,170.999994781494,2|0,0:0|0:0,0:0:0:0:
253,138,169869,1,0,0:0:0:0:
360,176,170036,2,0,P|396:120|332:44,1,170.999994781494,2|0,0:0|0:0,0:0:0:0:
133,273,170703,5,2,0:0:0:0:
124,188,170869,1,0,0:0:0:0:
169,115,171036,1,2,0:0:0:0:
251,91,171203,1,0,0:0:0:0:
341,96,171369,1,2,0:0:0:0:
184,224,171703,2,0,L|201:308,1,85.4999973907472,2|0,0:0|0:0,0:0:0:0:
296,300,172036,5,0,1:0:0:0:
428,216,172369,1,0,1:0:0:0:
200,312,172703,1,0,1:0:0:0:
162,235,172869,1,0,1:0:0:0:
187,153,173036,1,0,1:0:0:0:
268,126,173203,1,0,1:0:0:0:
394,266,173369,5,0,1:0:0:0:
399,180,173536,1,0,1:0:0:0:
270,300,173703,1,0,1:0:0:0:
232,264,173786,1,0,1:0:0:0:
218,213,173869,1,0,1:0:0:0:
237,164,173953,1,0,1:0:0:0:
278,133,174036,2,0,L|383:179,1,104.500003189087,2|0,0:0|1:0,0:0:0:0:
475,117,174369,1,4,1:3:0:0:
75,339,174703,6,0,L|68:150,1,190,0|8,1:0|2:0,0:0:0:0:
174,167,175203,1,0,0:0:0:0:
270,178,175369,2,0,P|318:200|364:187,2,95,2|0|8,0:0|1:0|0:0,0:0:0:0:
72,214,176036,6,0,P|55:154|80:102,1,95,0|0,1:0|0:0,0:0:0:0:
166,313,176369,2,0,P|183:253|158:201,1,95,8|2,0:0|0:0,0:0:0:0:
72,214,176703,2,0,P|55:154|80:102,1,95,0|0,0:0|1:0,0:0:0:0:
170,240,177036,2,0,P|208:221|259:222,1,95,8|0,0:0|0:0,0:0:0:0:
409,243,177369,6,0,P|431:188|345:113,1,190,0|8,1:0|0:0,0:0:0:0:
96,336,178036,2,0,P|144:349|190:338,1,95,2|0,0:0|1:0,0:0:0:0:
288,252,178369,2,0,P|242:264|183:248,1,95,8|0,0:0|2:0,0:0:0:0:
108,329,178703,5,0,1:0:0:0:
67,254,178869,1,0,0:0:0:0:
109,180,179036,1,8,0:0:0:0:
193,172,179203,1,2,0:0:0:0:
71,164,179369,2,0,P|15:113|90:39,1,190,0|8,0:0|0:0,0:0:0:0:
318,344,180036,6,0,P|390:317|428:207,1,190,0|8,1:0|0:0,0:0:0:0:
353,154,180536,1,0,0:0:0:0:
252,176,180702,2,0,L|158:185,2,95,2|0|8,2:0|1:0|0:0,0:0:0:0:
429,266,181369,6,0,P|446:206|421:154,1,95,0|0,1:0|0:0,0:0:0:0:
343,337,181702,2,0,P|326:277|351:225,1,95,8|0,0:0|0:0,0:0:0:0:
429,266,182036,2,0,P|446:206|421:154,1,95,2|0,2:0|1:0,0:0:0:0:
339,211,182369,2,0,P|279:228|227:203,1,95,8|0,0:0|0:0,0:0:0:0:
95,250,182703,6,0,P|39:161|95:119,1,190,0|8,1:0|2:0,0:0:0:0:
260,204,183369,2,0,P|308:220|376:193,1,95,2|0,0:0|1:0,0:0:0:0:
434,120,183703,2,0,P|386:132|325:112,1,95,8|0,0:0|0:0,0:0:0:0:
426,181,184036,6,0,P|465:140|456:74,1,95,0|2,1:0|0:0,0:0:0:0:
383,65,184369,1,8,0:0:0:0:
283,95,184536,1,0,0:0:0:0:
283,95,184619,1,8,0:0:0:0:
283,95,184703,1,0,0:0:0:0:
378,134,184869,2,0,P|400:88|379:30,1,95,0|8,1:0|0:0,0:0:0:0:
298,42,185203,1,2,1:0:0:0:
56,232,185369,6,0,L|41:122,1,95,4|0,0:0|0:0,0:0:0:0:
141,181,185703,2,0,P|189:153|194:86,1,95,8|2,0:0|0:0,0:0:0:0:
189,71,185953,1,0,0:0:0:0:
148,46,186036,1,2,0:0:0:0:
56,62,186203,1,0,1:0:0:0:
148,46,186369,1,8,0:0:0:0:
418,351,186703,6,0,L|446:254,1,95,4|0,0:0|0:0,0:0:0:0:
335,245,187036,2,0,P|292:207|310:148,1,95,8|0,0:0|0:0,0:0:0:0:
322,135,187286,1,0,0:0:0:0:
361,108,187369,1,2,0:0:0:0:
454,106,187536,1,0,1:0:0:0:
361,108,187703,1,8,0:0:0:0:
98,241,188036,6,0,P|76:156|153:113,1,190,4|8,0:0|0:0,0:0:0:0:
235,118,188536,1,2,0:0:0:0:
342,144,188703,2,0,L|238:127,1,95,0|0,0:0|1:0,0:0:0:0:
158,163,189036,1,8,0:0:0:0:
404,74,189369,6,0,L|514:65,2,95,4|0|8,0:0|1:0|0:0,0:0:0:0:
316,47,189869,1,0,0:0:0:0:
405,173,190036,2,0,P|479:149|442:47,1,190,0|8,0:0|0:0,0:0:0:0:
201,297,190703,6,0,P|156:315|99:294,2,95,4|0|8,0:0|0:0|0:0,0:0:0:0:
294,310,191203,1,0,0:0:0:0:
307,264,191286,1,0,0:0:0:0:
320,218,191369,1,2,0:0:0:0:
202,191,191703,2,0,P|169:152|179:92,1,95,8|0,0:0|0:0,0:0:0:0:
353,116,192036,6,0,P|399:130|447:118,2,95,4|0|8,0:0|0:0|2:0,0:0:0:0:
253,117,192536,1,0,0:0:0:0:
214,128,192619,1,0,0:0:0:0:
175,137,192703,1,2,0:0:0:0:
372,334,193036,2,0,L|394:218,1,95,8|2,0:0|0:0,0:0:0:0:
120,280,193369,6,0,P|76:216|176:200,1,190,4|8,0:0|0:0,0:0:0:0:
257,178,193869,1,0,0:0:0:0:
257,178,193953,1,0,0:0:0:0:
257,178,194036,1,4,0:0:0:0:
77,178,194369,1,8,0:0:0:0:
361,250,194703,6,0,L|455:248,2,95,4|0|8,0:0|1:0|0:0,0:0:0:0:
262,207,195203,1,0,0:0:0:0:
278,167,195286,1,8,0:0:0:0:
374,148,195536,1,0,1:0:0:0:
260,160,195703,2,0,L|236:64,1,95,10|0,0:0|0:0,0:0:0:0:
398,231,196036,6,0,P|438:185|309:122,1,256.499992172241,4|0,0:0|0:0,0:0:0:0:
217,114,196703,1,2,0:0:0:0:
331,255,197036,2,0,L|353:147,1,85.4999973907472,0|2,0:0|0:0,0:0:0:0:
202,237,197369,6,0,P|135:211|131:140,2,128.249996086121,2|0|0,0:0|0:0|0:0,0:0:0:0:
297,235,198036,1,2,0:0:0:0:
416,231,198369,1,2,0:0:0:0:
186,338,198703,6,0,P|116:307|94:206,1,170.999994781494,2|2,0:0|0:0,0:0:0:0:
108,183,199119,1,0,0:0:0:0:
116,140,199203,1,0,0:0:0:0:
110,97,199286,1,0,0:0:0:0:
95,57,199369,1,2,0:0:0:0:
319,82,199703,1,0,0:0:0:0:
110,322,200036,6,0,P|40:286|36:215,2,128.249996086121,2|0|0,0:0|0:0|0:0,0:0:0:0:
267,253,200703,2,0,P|337:217|341:146,2,128.249996086121,2|0|0,0:0|0:0|0:0,0:0:0:0:
133,252,201369,5,2,0:0:0:0:
269,79,201703,1,0,0:0:0:0:
316,101,201786,1,0,0:0:0:0:
336,149,201869,1,0,0:0:0:0:
311,194,201953,1,0,0:0:0:0:
265,224,202036,2,0,L|103:227,2,128.249996086121,0|2|2,0:0|0:0|0:0,0:0:0:0:
415,221,202703,1,2,0:0:0:0:
198,283,203036,5,2,0:0:0:0:
323,349,203203,1,0,0:0:0:0:
351,306,203286,1,0,0:0:0:0:
328,259,203369,1,2,0:0:0:0:
209,205,203619,1,0,0:0:0:0:
317,129,203869,1,0,0:0:0:0:
156,335,204036,6,0,P|113:302|145:198,1,170.999994781494,2|0,0:0|0:0,0:0:0:0:
227,200,204536,1,0,0:0:0:0:
139,202,204703,5,2,0:0:0:0:
250,204,204953,1,0,0:0:0:0:
364,199,205203,1,0,0:0:0:0:
160,262,205369,5,2,0:0:0:0:
67,196,205619,1,0,0:0:0:0:
163,132,205869,1,0,0:0:0:0:
314,228,206036,2,0,P|382:180|402:84,1,170.999994781494,2|2,0:0|0:0,0:0:0:0:
331,307,206703,6,0,L|373:187,1,85.4999973907472,4|0,0:0|0:0,0:0:0:0:
251,187,207036,2,0,L|209:67,1,85.4999973907472,8|0,2:2|2:0,0:0:0:0:
351,339,207369,1,0,1:0:0:0:
399,320,207453,1,0,1:0:0:0:
429,278,207536,1,0,1:0:0:0:
440,228,207619,1,0,1:0:0:0:
430,177,207703,1,0,1:0:0:0:
369,96,207869,1,0,1:0:0:0:
94,301,208036,6,0,L|82:187,1,104.500003189087,4|0,1:3|0:0,0:0:0:0:
183,133,208369,1,8,0:0:0:0:
97,192,208536,1,0,0:0:0:0:
210,184,208703,2,0,P|255:164|319:188,1,104.500003189087,2|0,0:0|1:0,0:0:0:0:
217,203,209036,1,8,0:0:0:0:
139,247,209203,1,0,0:0:0:0:
388,218,209369,6,0,P|462:185|471:96,2,156.750004783631,0|2|2,1:0|0:0|0:0,0:0:0:0:
277,236,210036,2,0,P|247:243|222:235,2,52.2500015945435,2|0|0,0:0|0:0|1:1,0:0:0:0:
384,317,210369,1,8,0:0:0:0:
163,340,210703,6,0,P|110:311|94:247,1,104.500003189087,4|2,0:0|0:0,0:0:0:0:
188,209,211036,1,8,0:0:0:0:
97,166,211203,1,2,0:0:0:0:
202,245,211369,2,0,P|255:216|271:152,1,104.500003189087,2|0,0:0|1:0,0:0:0:0:
183,103,211703,2,0,P|131:122|44:104,1,104.500003189087,8|0,0:0|0:0,0:0:0:0:
292,345,212036,6,0,P|337:308|358:241,1,104.500003189087,0|0,1:0|1:0,0:0:0:0:
233,173,212369,1,8,0:0:0:0:
141,172,212536,1,8,0:0:0:0:
129,134,212619,1,0,0:0:0:0:
264,132,212869,2,0,P|311:159|379:135,1,104.500003189087,0|2,1:0|0:0,0:0:0:0:
449,112,213203,1,8,0:0:0:0:
184,359,213369,6,0,P|132:325|101:269,1,104.500003189087,4|0,0:0|0:0,0:0:0:0:
198,242,213703,1,8,0:0:0:0:
304,269,213869,1,0,0:0:0:0:
214,227,214036,2,0,P|185:171|183:117,1,104.500003189087,2|0,0:0|1:0,0:0:0:0:
278,135,214369,2,0,P|307:79|309:25,1,104.500003189087,8|0,0:0|0:0,0:0:0:0:
155,64,214703,5,0,1:0:0:0:
30,67,214953,1,2,2:0:0:0:
155,64,215203,1,2,0:0:0:0:
326,217,215369,1,2,2:0:0:0:
334,154,215453,1,0,2:0:0:0:
342,91,215536,1,0,1:0:0:0:
231,118,215703,2,0,P|179:95|150:28,1,104.500003189087,8|0,0:0|0:0,0:0:0:0:
323,119,216036,6,0,P|375:140|436:122,1,104.500003189087,4|0,2:2|0:0,0:0:0:0:
323,208,216369,1,8,0:0:0:0:
223,168,216536,1,0,0:0:0:0:
311,316,216703,2,0,P|341:269|345:180,1,104.500003189087,2|0,0:0|1:0,0:0:0:0:
243,202,217036,1,8,0:0:0:0:
152,234,217203,1,0,0:0:0:0:
249,265,217369,6,0,P|205:288|141:265,2,104.500003189087,0|0|8,1:2|1:2|0:0,0:0:0:0:
337,320,217869,1,0,0:0:0:0:
360,267,217953,1,8,0:0:0:0:
251,218,218119,1,0,0:0:0:0:
228,165,218203,1,8,0:0:0:0:
347,142,218369,2,0,P|383:98|374:38,1,104.500003189087,0|0,1:0|1:0,0:0:0:0:
76,360,218703,6,0,L|52:228,1,109.250002083778,4|0,1:3|0:0,0:0:0:0:
148,235,219036,1,8,0:0:0:0:
240,222,219203,1,0,0:0:0:0:
401,299,219370,2,0,P|440:256|452:192,1,109.250002083778,2|0,0:0|1:0,0:0:0:0:
362,169,219703,1,8,0:0:0:0:
446,123,219870,1,0,0:0:0:0:
281,120,220036,6,0,P|207:87|191:-4,2,163.875003125668,0|2|2,1:2|0:0|0:0,0:0:0:0:
384,148,220703,2,0,L|441:157,2,54.6250010418892,2|0|0,0:0|0:0|1:0,0:0:0:0:
286,183,221036,1,8,0:0:0:0:
47,246,221369,6,0,P|27:186|43:115,1,109.250002083778,6|0,0:0|0:0,0:0:0:0:
122,100,221703,1,8,0:0:0:0:
216,140,221869,1,0,0:0:0:0:
216,140,221953,1,0,0:0:0:0:
216,140,222036,1,2,0:0:0:0:
121,169,222203,1,0,1:0:0:0:
216,184,222369,2,0,P|259:150|289:106,1,109.250002083778,8|0,0:0|0:0,0:0:0:0:
127,185,222703,6,0,P|96:138|107:73,1,109.250002083778,0|0,1:0|0:0,0:0:0:0:
182,90,223036,1,8,2:0:0:0:
264,92,223203,1,0,1:0:0:0:
363,128,223369,2,0,P|307:134|279:79,1,109.250002083778,2|0,2:0|1:0,0:0:0:0:
360,184,223703,2,0,P|415:193|483:184,1,109.250002083778,8|0,0:0|1:0,0:0:0:0:
171,337,224036,6,0,P|115:305|85:220,1,109.250002083778,4|0,0:0|0:0,0:0:0:0:
176,199,224369,1,8,0:0:0:0:
63,186,224536,1,0,0:0:0:0:
54,132,224619,1,0,0:0:0:0:
45,77,224703,1,2,0:0:0:0:
148,49,224869,1,0,1:0:0:0:
245,137,225036,2,0,P|184:148|114:134,1,109.250002083778,8|0,0:0|0:0,0:0:0:0:
324,286,225369,6,0,P|394:255|408:165,2,163.875003125668,2|2|2,0:0|0:0|0:0,0:0:0:0:
216,355,226036,1,2,0:0:0:0:
209,301,226119,1,0,0:0:0:0:
200,246,226203,1,0,1:0:0:0:
292,183,226369,2,0,P|346:201|421:175,1,109.250002083778,8|0,0:0|0:0,0:0:0:0:
176,312,226703,6,0,P|116:288|80:236,1,109.250002083778,4|0,0:0|0:0,0:0:0:0:
174,212,227036,1,8,0:0:0:0:
256,161,227203,1,0,0:0:0:0:
256,161,227286,1,0,0:0:0:0:
256,161,227369,1,2,0:0:0:0:
150,135,227536,2,0,P|90:111|61:56,1,109.250002083778,0|8,1:0|0:0,0:0:0:0:
162,33,227869,1,0,0:0:0:0:
392,83,228036,6,0,P|443:103|511:83,2,109.250002083778,4|0|8,0:0|0:0|0:0,0:0:0:0:
240,188,228536,1,0,0:0:0:0:
198,154,228619,1,8,0:0:0:0:
176,103,228703,1,0,0:0:0:0:
269,39,228869,1,8,0:0:0:0:
441,82,229036,1,8,0:0:0:0:
455,199,229203,1,8,0:0:0:0:
144,229,229369,6,0,P|116:177|229:107,1,190,4|8,1:3|0:0,0:0:0:0:
293,95,229869,2,0,P|198:87|104:98,1,190,0|0,0:0|1:0,0:0:0:0:
187,93,230369,1,8,0:0:0:0:
95,345,230703,6,0,P|61:303|76:227,1,95,0|0,1:0|0:0,0:0:0:0:
154,249,231036,1,8,0:0:0:0:
79,187,231203,1,0,0:0:0:0:
173,228,231369,2,0,P|198:183|184:115,1,95,2|0,0:0|1:0,0:0:0:0:
93,141,231703,2,0,P|124:131|187:141,1,95,8|0,0:0|0:0,0:0:0:0:
347,226,232036,6,0,P|401:213|441:85,1,190,0|8,1:0|0:0,0:0:0:0:
341,95,232536,2,0,P|298:120|224:108,2,95,0|2|0,0:0|0:0|1:0,0:0:0:0:
439,68,233036,1,8,0:0:0:0:
158,248,233369,6,0,P|118:203|129:143,1,95,0|0,1:0|0:0,0:0:0:0:
209,142,233703,2,0,P|240:96|226:44,1,95,8|0,0:0|0:0,0:0:0:0:
164,10,234036,1,2,0:0:0:0:
332,74,234369,1,8,0:0:0:0:
57,333,234703,6,0,P|53:298|166:202,1,190,0|8,1:0|0:0,0:0:0:0:
256,221,235203,2,0,P|209:238|156:220,1,95,0|2,0:0|0:0,0:0:0:0:
73,226,235536,1,0,1:0:0:0:
166,227,235703,1,8,2:0:0:0:
445,334,236036,6,0,P|478:289|468:228,1,95,0|0,1:0|0:0,0:0:0:0:
379,217,236369,1,8,0:0:0:0:
476,217,236536,1,0,0:0:0:0:
369,239,236703,2,0,P|284:192|275:88,1,190,2|8,0:0|0:0,0:0:0:0:
358,101,237203,1,0,0:0:0:0:
204,95,237369,6,0,P|160:112|97:98,2,95,0|0|8,1:0|0:0|0:0,0:0:0:0:
292,154,237869,2,0,P|340:172|399:157,2,95,0|2|0,2:0|0:0|1:0,0:0:0:0:
203,190,238369,1,8,0:0:0:0:
333,356,238703,6,0,L|368:257,1,95,0|2,1:0|0:0,0:0:0:0:
279,249,239036,2,0,L|244:150,1,95,8|0,2:0|0:0,0:0:0:0:
400,189,239369,2,0,P|441:208|500:193,2,95,0|2|8,1:0|0:0|2:2,0:0:0:0:
213,314,240036,6,0,P|168:274|182:206,1,95,4|0,0:0|0:0,0:0:0:0:
254,196,240369,1,8,0:0:0:0:
371,175,240536,2,0,P|318:198|267:177,2,95,0|2|0,0:0|0:0|1:0,0:0:0:0:
269,115,241036,2,0,P|223:139|145:113,1,95,8|0,0:0|0:0,0:0:0:0:
317,299,241369,6,0,P|346:259|329:194,1,95,0|0,1:0|0:0,0:0:0:0:
251,215,241703,1,8,0:0:0:0:
158,214,241869,1,2,0:0:0:0:
256,158,242036,2,0,P|309:168|360:149,1,95,0|0,0:0|1:0,0:0:0:0:
234,242,242369,2,0,P|185:260|114:229,1,95,8|0,0:0|0:0,0:0:0:0:
294,324,242703,6,0,P|344:284|284:187,1,190,0|8,1:0|0:0,0:0:0:0:
184,104,243203,2,0,P|233:122|300:105,2,95,0|2|0,0:0|0:0|1:0,0:0:0:0:
285,254,243703,2,0,L|314:136,1,95,8|0,0:0|0:0,0:0:0:0:
216,159,244036,6,2,P|169:123|156:52,1,95,0|0,1:0|0:0,0:0:0:0:
250,89,244369,1,8,0:0:0:0:
342,88,244536,1,0,0:0:0:0:
264,187,244703,2,0,L|136:185,1,95,2|0,0:0|1:0,0:0:0:0:
282,180,245036,1,8,0:0:0:0:
94,295,245369,6,0,P|88:231|209:158,1,190,0|8,1:0|0:0,0:0:0:0:
284,191,245869,1,2,0:0:0:0:
195,246,246036,2,0,P|251:254|318:247,1,95,0|0,0:0|1:0,0:0:0:0:
394,209,246369,1,8,0:0:0:0:
108,358,246703,6,0,L|76:248,1,95,0|0,1:0|0:0,0:0:0:0:
181,278,247036,2,0,P|231:291|280:255,1,95,8|0,0:0|0:0,0:0:0:0:
372,213,247369,2,0,P|324:228|269:188,1,95,2|0,0:0|1:0,0:0:0:0:
208,183,247703,1,8,0:0:0:0:
461,254,248036,6,0,P|471:177|365:113,1,190,0|8,1:0|0:0,0:0:0:0:
304,130,248536,2,0,P|210:159|98:135,1,190,2|0,0:0|1:0,0:0:0:0:
199,135,249036,2,0,P|249:90|266:23,1,95,8|0,0:0|0:0,0:0:0:0:
114,214,249369,6,0,P|83:175|85:107,1,95,2|0,1:2|0:0,0:0:0:0:
162,118,249703,1,8,0:0:0:0:
74,115,249869,1,0,0:0:0:0:
308,254,250036,2,0,L|426:244,1,95,2|0,2:0|1:0,0:0:0:0:
502,163,250369,2,0,L|394:163,1,95,8|0,0:0|0:0,0:0:0:0:
111,157,250703,5,4,1:3:0:0:
256,192,250869,12,0,253369,0:0:0:0:
