osu file format v14

[General]
AudioFilename: audio.mp3
AudioLeadIn: 0
PreviewTime: 174619
Countdown: 0
SampleSet: Soft
StackLeniency: 0.7
Mode: 2
LetterboxInBreaks: 0
WidescreenStoryboard: 1

[Editor]
Bookmarks: 21703,22703,44036,65369,86703,117369,132036,164036,185369,208036,218703,229369
DistanceSpacing: 1
BeatDivisor: 4
GridSize: 4
TimelineZoom: 2.2

[Metadata]
Title:Tokei no Heya to Seishin Sekai
TitleUnicode:時計の部屋と精神世界
Artist:a_hisa
ArtistUnicode:a_hisa
Creator:Spectator
Version:Kyuare Spec's Overdose
Source:
Tags:kyuare -wwwww Fii spiritual core artcore collab
BeatmapID:1356120
BeatmapSetID:639409

[Difficulty]
HPDrainRate:6
CircleSize:4
OverallDifficulty:9.5
ApproachRate:9.5
SliderMultiplier:2
SliderTickRate:2

[Events]
//Background and Video events
0,0,"Tokei no Heya to Seishin Sekai BG.png",0,0
//Break Periods
2,121369,131511
//Storyboard Layer 0 (Background)
//Storyboard Layer 1 (Fail)
//Storyboard Layer 2 (Pass)
//Storyboard Layer 3 (Foreground)
Sprite,Foreground,Centre,"SB\Spectator.png",320,240 S,0,1370,,0.5345457 M,0,1370,22369,531.7818,416.2909 M,0,22369,,531.7818,416.2909
Sprite,Foreground,Centre,"SB\Spectator.png",320,240 S,0,44036,,0.5345457 M,0,44036,65369,531.7818,416.2909
Sprite,Foreground,Centre,"SB\Kyuare.png",320,240 S,0,65369,,0.5345458 M,0,65369,86702,532.9454,415.7091
Sprite,Foreground,Centre,"SB\Kyuare.png",320,240 S,0,22703,,0.5345458 M,0,22703,44036,532.9454,415.7091 M,0,44036,,532.9454,415.7091
Sprite,Foreground,Centre,"SB\Spectator.png",320,240 S,0,86703,,0.5345457 M,0,86703,117369,531.7818,416.2909
Sprite,Foreground,Centre,"SB\Kyuare.png",320,240 S,0,131869,,0.5345458 F,0,131869,132036,0,1 M,0,131869,153202,532.9454,415.7091 F,0,132036,162036,1 M,0,153202,162036,532.9454,415.7091 F,0,162036,163369,1 F,0,163369,163703,1,0
Sprite,Foreground,Centre,"SB\Spectator.png",320,240 F,0,163869,164036,0,1 S,0,164036,,0.5345457 M,0,164036,185369,531.7818,416.2909
Sprite,Foreground,Centre,"SB\Kyuare.png",320,240 S,0,185369,,0.5345458 M,0,185369,206702,532.9454,415.7091 M,0,206702,208036,532.9454,415.7091
Sprite,Foreground,Centre,"SB\Spectator.png",320,240 S,0,208036,,0.5345457 M,0,208036,218703,531.7818,416.2909 M,0,218703,,531.7818,416.2909
Sprite,Foreground,Centre,"SB\Kyuare.png",320,240 S,0,218703,,0.5345458 M,0,218703,229369,532.9454,415.7091
Sprite,Foreground,Centre,"SB\Spectator.png",320,240 S,0,229369,,0.5345457 M,0,229369,250702,531.7818,416.2909
//Storyboard Sound Samples

[TimingPoints]
1370,333.333333333333,4,2,1,30,1,0
1370,-125,4,2,1,30,0,0
22036,-76.9230769230769,4,2,1,30,0,0
22703,-100,4,2,1,60,0,1
22786,-100,4,2,1,70,0,0
44036,-125,4,2,1,35,0,0
44203,-125,4,2,2,55,0,0
54703,-111.111111111111,4,2,1,60,0,0
64703,-100,4,2,1,55,0,0
65369,-100,4,2,1,65,0,0
76036,-100,4,2,1,70,0,0
98203,-100,4,2,21,60,0,0
98286,-100,4,2,1,70,0,0
98369,-100,4,2,20,70,0,0
98453,-100,4,2,1,70,0,0
103536,-100,4,2,21,60,0,0
103619,-100,4,2,1,70,0,0
105369,-100,4,2,1,70,0,1
116036,-100,4,2,1,30,0,0
117369,-100,4,2,1,60,0,0
132036,-100,4,2,1,35,0,0
144369,-100,4,2,1,40,0,0
147369,-100,4,2,1,50,0,0
148703,-100,4,2,1,55,0,0
162036,-156.25,4,2,2,40,0,0
164036,-111.111111111111,4,2,1,50,0,0
172036,-111.111111111111,4,2,1,10,0,0
172536,-111.111111111111,4,2,1,14,0,0
172869,-111.111111111111,4,2,1,27,0,0
173036,-111.111111111111,4,2,1,30,0,0
173203,-111.111111111111,4,2,1,35,0,0
173369,-83.3333333333333,4,2,1,42,0,0
173703,-83.3333333333333,4,2,1,45,0,0
174036,-83.3333333333333,4,2,1,50,0,0
174369,-83.3333333333333,4,2,1,58,0,0
174703,-100,4,2,1,70,0,0
185369,-100,4,2,1,75,0,0
196036,-100,4,2,1,45,0,0
200036,-100,4,2,1,47,0,0
200703,-100,4,2,1,49,0,0
201369,-100,4,2,1,52,0,0
202036,-100,4,2,1,54,0,0
204036,-100,4,2,1,50,0,0
205369,-100,4,2,1,54,0,0
206703,-100,4,2,1,50,0,0
207036,-100,4,2,1,54,0,0
207369,-100,4,2,1,60,0,0
207703,-100,4,2,1,64,0,0
208036,-83.3333333333333,4,2,1,70,0,1
218703,-80,4,2,1,70,0,1
229369,-100,4,2,1,70,0,0
250703,-100,4,2,1,70,0,1
250786,-100,4,2,1,30,0,0

[Colours]
Combo1 : 240,166,111
Combo2 : 162,126,235
Combo3 : 90,220,198
Combo4 : 132,183,244

[HitObjects]
211,321,1370,6,0,L|128:322,2,80,0|0|0,1:3|0:0|0:0,0:0:0:0:
325,223,1869,2,0,L|408:224,2,80,2|0|0,2:0|0:0|0:0,0:0:0:0:
178,172,2369,2,0,L|95:173,2,80,2|0|0,2:0|0:0|0:0,0:0:0:0:
292,74,2869,2,0,L|375:75,2,80,2|0|0,2:0|0:0|0:0,0:0:0:0:
142,162,3369,2,2,P|134:102|215:56,1,160
325,58,3869,1,0,0:0:0:0:
170,375,4036,6,0,L|71:373,2,80,2|0|0,0:0|0:0|0:0,0:0:0:0:
287,273,4536,1,2,0:0:0:0:
143,92,4703,2,0,L|230:91,2,80,2|0|2,0:0|0:0|0:0,0:0:0:0:
288,193,5203,2,0,P|333:146|268:78,1,160,2|0,0:0|0:0,0:0:0:0:
105,135,5703,2,0,L|103:36,1,80,2|0,0:0|0:0,0:0:0:0:
241,80,6036,2,0,L|333:80,1,80,2|0,0:0|0:0,0:0:0:0:
240,195,6369,1,2,0:0:0:0:
363,196,6536,1,2,0:0:0:0:
123,365,6703,6,0,L|97:262,1,80,2|0,0:0|0:0,0:0:0:0:
221,291,7036,1,0,0:0:0:0:
381,367,7203,2,0,L|407:277,1,80,2|0,0:0|0:0,0:0:0:0:
291,291,7536,1,0,0:0:0:0:
113,218,7703,2,0,L|91:137,1,80,2|0,0:0|0:0,0:0:0:0:
203,151,8036,1,0,0:0:0:0:
362,225,8203,2,0,L|386:142,1,80,2|0,0:0|0:0,0:0:0:0:
273,151,8536,1,0,0:0:0:0:
127,268,8703,2,0,L|209:269,1,80,2|0,0:0|0:0,0:0:0:0:
368,206,9036,2,0,L|460:207,1,80,2|2,0:0|0:0,0:0:0:0:
319,350,9369,6,0,L|227:348,2,80,2|0|0,0:0|0:0|0:0,0:0:0:0:
182,273,9869,2,0,L|171:191,1,80,2|0,0:0|0:0,0:0:0:0:
248,137,10203,1,0,0:0:0:0:
474,158,10369,2,0,L|394:150,1,80,2|0,0:0|0:0,0:0:0:0:
287,69,10703,2,0,L|379:57,1,80,2|0,0:0|0:0,0:0:0:0:
291,201,11036,2,0,L|275:121,1,80,2|0,0:0|0:0,0:0:0:0:
404,288,11369,2,0,L|315:288,1,80,2|0,0:0|0:0,0:0:0:0:
214,192,11703,1,2,0:0:0:0:
338,236,11869,1,2,0:0:0:0:
98,339,12036,6,0,L|119:251,1,80,2|0,0:0|0:0,0:0:0:0:
229,267,12369,1,0,0:0:0:0:
80,158,12536,2,0,L|56:246,1,80,2|0,0:0|0:0,0:0:0:0:
216,116,12869,1,0,0:0:0:0:
74,274,13036,2,0,L|52:183,1,80,2|0,0:0|0:0,0:0:0:0:
180,350,13369,6,0,L|188:299,4,40,2|0|0|0|0,0:0|0:0|0:0|0:0|0:0,0:0:0:0:
42,348,13869,1,0,0:0:0:0:
211,253,14036,2,0,L|299:238,1,80,2|0,0:0|0:0,0:0:0:0:
128,178,14369,2,0,L|40:163,1,80,2|0,0:0|0:0,0:0:0:0:
218,345,14703,6,0,L|308:347,2,80,2|0|0,0:0|0:0|0:0,0:0:0:0:
366,274,15203,2,0,L|387:187,1,80,2|0,0:0|0:0,0:0:0:0:
277,134,15536,1,0,0:0:0:0:
116,173,15703,2,0,L|95:86,1,80,2|0,0:0|0:0,0:0:0:0:
242,233,16036,6,0,L|158:233,1,80,0|2,0:0|0:0,0:0:0:0:
306,139,16369,2,0,L|400:140,1,80,0|2,0:0|0:0,0:0:0:0:
124,367,16703,2,2,L|105:279,1,80,2|0,0:0|0:0,0:0:0:0:
356,254,17036,1,2,0:0:0:0:
76,362,17369,6,0,L|64:265,1,80,0|0,1:0|0:0,0:0:0:0:
199,354,17703,2,0,L|207:270,1,80,0|0,1:0|0:0,0:0:0:0:
338,350,18036,2,0,L|325:255,1,80,0|0,1:0|0:0,0:0:0:0:
473,176,18369,2,0,L|385:177,1,80,0|0,1:0|0:0,0:0:0:0:
234,126,18703,6,0,L|334:127,1,80,0|0,1:0|0:0,0:0:0:0:
467,279,19036,2,0,L|373:280,1,80,0|0,1:0|0:0,0:0:0:0:
230,246,19369,2,0,L|309:245,1,80,0|0,1:0|0:0,0:0:0:0:
436,242,19703,1,0,1:0:0:0:
300,246,19869,1,0,1:0:0:0:
24,325,20036,5,0,1:0:0:0:
148,325,20203,1,0,1:0:0:0:
24,325,20369,1,0,1:0:0:0:
257,140,20536,1,0,1:0:0:0:
130,137,20702,1,0,1:0:0:0:
257,140,20869,1,0,1:0:0:0:
488,327,21035,1,0,1:0:0:0:
372,326,21203,1,0,1:0:0:0:
138,348,21369,5,0,1:0:0:0:
83,333,21453,1,0,1:0:0:0:
42,296,21536,1,0,1:0:0:0:
25,243,21619,1,0,1:0:0:0:
303,347,21703,1,0,1:0:0:0:
358,332,21787,1,0,1:0:0:0:
399,295,21870,1,0,1:0:0:0:
416,242,21953,1,0,1:0:0:0:
148,136,22036,2,0,L|18:136,1,129.999994049073,2|0,0:0|1:0,0:0:0:0:
415,137,22369,1,4,1:3:0:0:
197,149,22703,6,0,P|181:101|205:61,1,100,0|0,1:0|0:0,0:0:0:0:
256,56,22953,1,0,0:0:0:0:
408,56,23036,1,8,0:0:0:0:
288,88,23203,1,2,2:2:0:0:
248,120,23286,1,0,0:0:0:0:
232,176,23369,1,0,0:0:0:0:
264,232,23453,1,0,0:0:0:0:
320,240,23536,1,0,1:0:0:0:
96,240,23703,2,0,L|88:136,1,100,8|0,2:0|0:0,0:0:0:0:
140,135,23953,1,0,0:0:0:0:
192,130,24036,5,0,1:0:0:0:
73,94,24203,1,0,0:0:0:0:
296,82,24369,2,0,L|304:186,1,100,8|0,0:0|0:0,0:0:0:0:
252,187,24619,1,0,0:0:0:0:
405,173,24703,1,2,0:0:0:0:
456,169,24786,1,0,0:0:0:0:
405,173,24869,1,0,1:0:0:0:
181,196,25036,2,0,L|173:96,1,100,8|0,0:0|0:0,0:0:0:0:
399,93,25369,6,0,P|415:141|391:181,1,100,0|0,1:2|0:0,0:0:0:0:
340,186,25619,1,0,0:0:0:0:
188,186,25702,1,8,0:0:0:0:
308,154,25869,1,2,0:0:0:0:
348,122,25952,1,0,0:0:0:0:
360,64,26035,1,0,0:0:0:0:
332,10,26119,1,0,0:0:0:0:
276,2,26202,1,0,1:0:0:0:
51,51,26369,2,0,L|38:152,1,100,8|0,0:0|0:0,0:0:0:0:
159,142,26703,6,0,L|172:243,1,100,0|0,1:0|0:0,0:0:0:0:
397,241,27036,1,8,0:0:0:0:
280,232,27203,1,2,0:0:0:0:
240,200,27286,1,0,0:0:0:0:
224,144,27369,1,0,0:0:0:0:
256,96,27453,1,0,0:0:0:0:
312,80,27536,1,0,1:0:0:0:
87,83,27703,1,8,0:0:0:0:
75,182,27869,1,0,1:0:0:0:
300,144,28036,6,0,L|312:244,1,100,4|0,1:2|0:0,0:0:0:0:
259,252,28286,1,0,0:0:0:0:
411,266,28369,1,8,0:0:0:0:
284,268,28536,2,0,P|270:173|345:113,1,200,2|0,0:0|1:0,0:0:0:0:
94,107,29036,2,0,L|192:123,2,100,8|0|0,0:0|0:0|1:0,0:0:0:0:
245,98,29536,5,2,0:0:0:0:
20,58,29703,1,8,0:0:0:0:
16,104,29786,1,0,0:0:0:0:
40,152,29869,1,0,0:0:0:0:
96,176,29953,1,0,0:0:0:0:
196,163,30036,1,2,0:0:0:0:
217,225,30119,1,0,0:0:0:0:
195,288,30203,1,0,1:0:0:0:
138,302,30286,1,0,0:0:0:0:
290,288,30369,2,0,L|298:188,1,100,8|0,0:0|0:0,0:0:0:0:
71,169,30703,5,0,1:0:0:0:
191,143,30869,2,0,L|194:89,1,50,2|0,0:0|0:0,0:0:0:0:
40,68,31036,1,8,0:0:0:0:
180,84,31203,2,0,L|279:95,1,100,2|0,0:0|0:0,0:0:0:0:
227,104,31453,1,0,0:0:0:0:
174,113,31536,1,0,1:0:0:0:
399,79,31703,2,0,L|406:182,1,100,8|0,0:0|0:0,0:0:0:0:
255,224,32036,6,0,L|354:217,1,100,0|0,1:0|0:0,0:0:0:0:
129,236,32369,1,8,0:0:0:0:
254,225,32536,1,0,0:0:0:0:
280,178,32619,1,0,0:0:0:0:
268,129,32703,1,2,0:0:0:0:
228,94,32786,1,0,0:0:0:0:
175,90,32869,1,0,1:0:0:0:
400,92,33036,2,0,P|439:122|426:166,1,100,8|2,0:0|0:0,0:0:0:0:
366,170,33286,1,0,0:0:0:0:
216,216,33369,5,4,1:2:0:0:
216,216,33536,1,2,0:0:0:0:
336,192,33703,1,8,0:0:0:0:
336,192,33870,1,2,0:0:0:0:
112,152,34036,5,0,0:0:0:0:
112,152,34203,1,2,1:2:0:0:
232,128,34369,1,8,0:0:0:0:
232,128,34537,1,2,0:0:0:0:
8,88,34703,5,2,0:0:0:0:
8,88,34870,1,0,1:0:0:0:
256,135,35036,1,8,0:0:0:0:
256,135,35203,1,2,0:0:0:0:
128,112,35369,1,0,1:0:0:0:
128,112,35536,1,2,0:0:0:0:
390,162,35703,1,8,0:0:0:0:
390,162,35870,1,2,0:0:0:0:
216,280,36036,5,0,1:0:0:0:
128,240,36203,1,0,0:0:0:0:
256,224,36369,1,8,0:0:0:0:
168,184,36536,1,2,0:0:0:0:
392,184,36703,5,0,0:0:0:0:
480,144,36870,1,0,1:0:0:0:
352,128,37036,1,10,0:0:0:0:
440,88,37203,1,0,0:0:0:0:
216,90,37369,5,2,2:0:0:0:
334,113,37536,1,0,1:0:0:0:
189,137,37703,1,8,0:0:0:0:
306,160,37870,1,2,0:0:0:0:
158,184,38036,1,0,1:0:0:0:
275,207,38203,1,2,2:0:0:0:
131,231,38370,1,8,0:0:0:0:
248,254,38537,1,2,0:0:0:0:
24,256,38703,5,4,0:0:0:0:
152,232,38869,1,2,0:0:0:0:
160,152,39036,1,8,0:0:0:0:
288,176,39203,1,2,0:0:0:0:
160,152,39369,1,0,0:0:0:0:
152,72,39536,1,0,1:0:0:0:
376,120,39703,1,10,0:0:0:0:
248,96,39869,1,0,0:0:0:0:
488,256,40036,5,0,1:0:0:0:
360,232,40202,1,2,0:0:0:0:
352,152,40369,1,8,0:0:0:0:
224,176,40536,1,2,0:0:0:0:
352,152,40702,1,0,0:0:0:0:
360,72,40869,1,0,1:0:0:0:
136,120,41036,1,10,0:0:0:0:
264,96,41203,2,0,L|268:44,1,50,2|0,0:0|0:0,0:0:0:0:
116,47,41369,6,0,L|108:151,1,100,4|0,0:0|0:0,0:0:0:0:
336,160,41703,2,0,L|344:264,1,100,8|0,0:0|0:0,0:0:0:0:
176,256,42036,2,0,L|168:152,1,100,2|0,2:0|1:0,0:0:0:0:
396,143,42369,2,0,L|404:39,1,100,8|0,0:0|0:0,0:0:0:0:
109,43,42703,5,0,1:0:0:0:
240,40,42869,1,2,0:0:0:0:
16,120,43036,1,8,0:0:0:0:
147,117,43202,1,0,0:0:0:0:
376,120,43369,5,2,0:0:0:0:
245,117,43536,1,0,1:0:0:0:
469,197,43702,1,8,0:0:0:0:
338,194,43868,1,0,0:0:0:0:
112,192,44036,6,0,P|91:147|177:115,1,160,4|2,0:3|0:0,0:0:0:0:
308,128,44536,1,0,0:0:0:0:
172,200,44703,2,0,L|339:200,1,160,2|0,0:3|0:0,0:0:0:0:
146,331,45369,6,0,L|241:331,2,80,2|0|0,0:3|0:0|0:0,0:0:0:0:
354,295,46036,2,0,L|371:213,1,80,2|0,0:3|0:0,0:0:0:0:
223,187,46369,2,0,L|206:105,1,80,0|0,0:3|0:0,0:0:0:0:
354,280,46703,5,2,0:3:0:0:
423,226,46869,1,0,0:0:0:0:
437,139,47036,1,0,0:0:0:0:
401,58,47203,1,0,0:0:0:0:
281,153,47369,2,0,L|201:152,1,80,2|0,0:3|0:0,0:0:0:0:
345,313,47703,2,0,L|448:314,1,80
158,280,48036,5,2,0:3:0:0:
89,226,48202,1,0,0:0:0:0:
75,139,48369,1,0,0:0:0:0:
111,58,48536,1,0,0:0:0:0:
255,138,48703,2,0,L|146:138,1,80,2|0,0:3|0:0,0:0:0:0:
49,145,49036,2,0,P|33:112|61:66,1,80,0|0,0:3|0:0,0:0:0:0:
275,192,49369,5,2,0:3:0:0:
438,97,49703,2,0,L|336:98,2,80,0|0|2,0:0|0:0|0:3,0:0:0:0:
196,215,50369,2,0,L|176:123,1,80
352,56,50703,5,2,0:3:0:0:
420,110,50869,1,0,0:0:0:0:
438,196,51036,1,0,0:0:0:0:
402,276,51203,1,0,0:0:0:0:
320,308,51369,1,2,0:3:0:0:
498,312,51703,1,0,0:0:0:0:
192,312,52036,5,2,0:3:0:0:
400,304,52369,1,0,0:0:0:0:
116,296,52703,2,0,P|103:240|207:209,1,160,2|0,0:3|0:0,0:0:0:0:
298,178,53203,1,0,0:0:0:0:
176,293,53369,5,2,0:3:0:0:
122,233,53536,1,0,0:0:0:0:
156,161,53703,1,2,0:0:0:0:
233,144,53869,1,0,0:0:0:0:
354,249,54036,2,0,L|370:156,1,80,2|0,0:3|0:0,0:0:0:0:
206,251,54369,2,0,L|195:170,1,80,2|0,0:0|0:0,0:0:0:0:
375,313,54703,6,0,P|442:281|475:179,1,179.999994506836,4|2,0:0|0:0,0:0:0:0:
332,138,55203,1,0,0:0:0:0:
189,284,55369,2,0,L|165:177,1,89.9999972534181,8|0,0:0|0:0,0:0:0:0:
311,141,55703,1,0,0:0:0:0:
184,68,55869,2,0,L|169:9,1,44.999998626709,0|0,1:0|0:0,0:0:0:0:
265,288,56036,6,0,P|327:274|368:194,1,134.999995880127,0|0,1:0|0:0,0:0:0:0:
288,150,56369,2,0,L|183:158,1,89.9999972534181,0|0,1:0|0:0,0:0:0:0:
372,346,56703,2,0,L|390:237,1,89.9999972534181,8|0,0:0|0:0,0:0:0:0:
117,235,57036,2,0,L|99:126,1,89.9999972534181,2|0,0:0|0:0,0:0:0:0:
286,136,57369,6,0,L|166:137,2,89.9999972534181,0|0|2,1:0|0:0|0:0,0:0:0:0:
438,63,57869,1,0,1:0:0:0:
197,351,58036,2,0,L|178:241,1,89.9999972534181,8|0,0:0|0:0,0:0:0:0:
351,256,58369,2,0,L|370:146,1,89.9999972534181,2|0,0:0|1:0,0:0:0:0:
297,147,58619,1,0,0:0:0:0:
94,338,58703,6,0,L|192:328,1,89.9999972534181,0|2,1:0|0:0,0:0:0:0:
312,220,59036,2,0,L|207:207,1,89.9999972534181,2|0,0:0|1:0,0:0:0:0:
377,311,59369,2,0,L|384:202,1,89.9999972534181,8|0,0:0|0:0,0:0:0:0:
240,183,59703,2,0,L|181:183,2,44.999998626709,0|0|0,2:0|0:0|1:0,0:0:0:0:
412,65,60036,6,0,L|308:68,1,89.9999972534181,0|0,1:0|0:0,0:0:0:0:
476,333,60369,2,0,L|506:223,1,89.9999972534181,2|0,0:0|0:0,0:0:0:0:
134,92,60703,2,0,L|238:95,1,89.9999972534181,8|0,2:0|0:0,0:0:0:0:
58,331,61036,2,0,L|28:221,1,89.9999972534181,2|0,0:0|1:0,0:0:0:0:
86,185,61286,1,0,0:0:0:0:
302,303,61369,6,0,P|351:270|374:181,1,134.999995880127,0|0,1:0|0:0,0:0:0:0:
305,166,61703,1,0,1:0:0:0:
149,166,61869,1,0,2:0:0:0:
438,327,62036,2,0,L|462:226,1,89.9999972534181,8|0,0:0|0:0,0:0:0:0:
159,167,62369,2,0,L|135:66,1,89.9999972534181,2|0,0:0|0:0,0:0:0:0:
463,153,62703,6,0,L|267:153,2,179.999994506836,0|2|8,1:0|0:0|0:0,0:0:0:0:
163,311,63703,2,0,P|121:273|118:224,1,89.9999972534181,2|0,2:2|2:0,0:0:0:0:
190,242,63953,1,0,0:0:0:0:
372,242,64036,5,0,1:2:0:0:
217,170,64203,1,8,1:2:0:0:
447,182,64369,1,0,1:2:0:0:
319,117,64536,1,8,1:2:0:0:
447,182,64703,2,0,L|456:290,1,100,8|0,2:2|2:0,0:0:0:0:
187,344,65036,2,0,L|122:345,1,50,0|0,1:0|1:0,1:0:0:0:
333,192,65203,2,0,L|397:190,1,50,0|0,1:0|1:0,1:0:0:0:
130,190,65369,6,0,L|116:91,1,100,4|0,0:0|1:0,0:0:0:0:
168,80,65619,1,0,0:0:0:0:
321,67,65703,2,0,P|368:83|381:127,1,100,8|2,0:0|0:0,0:0:0:0:
329,143,65953,1,0,0:0:0:0:
230,159,66036,1,0,0:0:0:0:
178,168,66119,1,0,0:0:0:0:
185,221,66203,1,0,1:0:0:0:
409,137,66369,2,0,L|423:236,1,100,8|0,0:0|2:0,0:0:0:0:
302,293,66703,5,0,1:0:0:0:
354,284,66786,1,0,0:0:0:0:
406,274,66869,1,0,0:0:0:0:
181,237,67036,2,0,P|196:190|241:173,1,100,8|0,0:0|0:0,0:0:0:0:
292,171,67286,1,0,0:0:0:0:
193,155,67369,1,2,0:0:0:0:
141,146,67452,1,0,0:0:0:0:
148,93,67536,1,0,1:0:0:0:
373,62,67703,2,0,L|272:62,1,100,8|2,0:0|0:0,0:0:0:0:
498,87,68036,6,0,P|488:136|447:159,1,100,0|0,1:0|0:0,0:0:0:0:
394,163,68286,1,0,0:0:0:0:
242,180,68369,2,0,P|200:204|190:252,1,100,8|0,0:0|0:0,0:0:0:0:
243,258,68619,1,0,0:0:0:0:
344,270,68703,1,2,0:0:0:0:
351,217,68787,1,0,0:0:0:0:
299,208,68870,1,0,1:0:0:0:
75,182,69036,2,0,L|164:137,1,100,8|2,0:0|0:0,0:0:0:0:
389,93,69369,6,0,L|408:192,1,100,0|0,1:0|0:0,0:0:0:0:
182,245,69703,2,0,L|281:226,1,100,8|0,0:0|0:0,0:0:0:0:
55,197,70036,2,0,L|36:98,1,100,2|0,0:0|1:0,0:0:0:0:
262,45,70370,2,0,L|163:64,1,100,8|0,0:0|0:0,0:0:0:0:
389,196,70703,6,0,L|488:177,1,100,4|0,0:0|0:0,0:0:0:0:
435,167,70953,1,0,0:0:0:0:
284,138,71036,2,0,L|185:119,1,100,8|0,0:0|0:0,0:0:0:0:
238,109,71286,1,0,0:0:0:0:
337,90,71369,1,2,0:0:0:0:
344,37,71453,1,0,0:0:0:0:
292,28,71536,1,0,1:0:0:0:
68,143,71703,2,0,L|167:124,1,100,8|0,0:0|0:0,0:0:0:0:
392,199,72036,6,0,L|293:218,1,100,0|0,1:0|2:0,0:0:0:0:
69,142,72369,1,8,0:0:0:0:
219,191,72536,1,2,0:0:0:0:
69,142,72703,1,2,0:0:0:0:
62,89,72786,1,0,0:0:0:0:
114,80,72870,1,0,1:0:0:0:
338,177,73036,1,8,2:0:0:0:
188,226,73203,1,2,0:0:0:0:
338,177,73369,6,0,L|357:78,1,100,0|0,1:0|0:0,0:0:0:0:
304,70,73619,1,0,0:0:0:0:
456,72,73703,2,0,L|357:53,1,100,8|0,2:0|0:0,0:0:0:0:
132,73,74036,2,0,L|231:54,3,100,2|0|8|0,0:0|1:0|0:0|0:0,0:0:0:0:
83,30,74703,5,0,1:0:0:0:
83,30,74869,1,0,0:0:0:0:
308,23,75036,2,0,L|407:42,1,100,8|0,0:0|0:0,0:0:0:0:
252,64,75286,2,0,L|153:83,1,100,8|0,0:0|0:0,0:0:0:0:
233,118,75536,1,0,1:0:0:0:
83,210,75703,2,0,P|87:162|126:132,1,100,8|2,0:0|0:0,0:0:0:0:
153,126,75925,1,0,0:0:0:0:
204,126,75981,1,0,0:0:0:0:
369,124,76036,6,0,P|407:153|411:201,1,100,4|0,0:0|0:0,0:0:0:0:
359,214,76286,1,0,0:0:0:0:
207,237,76369,1,8,0:0:0:0:
337,248,76536,1,0,0:0:0:0:
112,272,76703,2,0,L|96:168,1,100,2|0,0:0|1:0,0:0:0:0:
322,166,77036,2,0,L|338:62,1,100,8|0,0:0|0:0,0:0:0:0:
207,87,77369,6,0,L|108:102,1,100,0|0,1:0|0:0,0:0:0:0:
337,67,77703,1,8,0:0:0:0:
207,87,77869,1,0,0:0:0:0:
177,132,77953,1,0,0:0:0:0:
170,186,78036,1,0,0:0:0:0:
209,232,78119,1,0,0:0:0:0:
256,247,78203,1,0,1:0:0:0:
32,281,78369,2,0,L|130:265,1,100,8|2,0:0|0:0,0:0:0:0:
357,224,78703,6,0,P|396:159|367:98,1,150,4|0,0:0|0:0,0:0:0:0:
212,113,79036,2,0,L|310:97,1,100,8|0,0:0|0:0,0:0:0:0:
168,124,79369,2,0,L|115:133,2,50,2|0|0,0:0|0:0|1:0,0:0:0:0:
409,113,79703,2,0,L|311:97,1,100,8|0,0:0|0:0,0:0:0:0:
442,120,80036,6,0,L|495:129,2,50,0|0|0,1:0|0:0|0:0,0:0:0:0:
215,164,80369,2,0,L|162:173,2,50,8|0|0,0:0|0:0|0:0,0:0:0:0:
346,176,80703,2,0,L|399:185,2,50,2|0|0,0:0|0:0|1:0,0:0:0:0:
121,172,81036,2,0,L|68:181,2,50,8|0|0,0:0|0:0|0:0,0:0:0:0:
390,161,81369,5,4,0:0:0:0:
390,161,81536,1,0,0:0:0:0:
165,172,81703,1,8,0:0:0:0:
165,172,81870,1,0,0:0:0:0:
294,227,82036,1,2,0:0:0:0:
294,227,82203,1,0,1:0:0:0:
69,238,82370,1,8,0:0:0:0:
69,238,82537,1,0,0:0:0:0:
294,227,82703,6,0,P|329:160|291:105,1,150,0|0,1:0|0:0,0:0:0:0:
136,96,83036,2,0,L|234:80,1,100,8|0,0:0|0:0,0:0:0:0:
365,64,83369,1,2,0:0:0:0:
290,62,83453,1,0,0:0:0:0:
216,60,83536,1,0,1:0:0:0:
445,98,83703,2,0,L|429:196,1,100,8|2,0:0|0:0,0:0:0:0:
200,158,84036,6,0,P|161:218|196:280,1,150,4|0,0:0|0:0,0:0:0:0:
348,309,84369,2,0,L|250:293,1,100,8|0,0:0|0:0,0:0:0:0:
381,315,84703,2,0,L|434:324,2,50,2|0|0,0:0|0:0|1:0,0:0:0:0:
293,300,84981,1,2,0:0:0:0:
382,251,85036,2,0,L|482:251,1,100,8|0,0:0|0:0,0:0:0:0:
256,240,85369,5,0,1:0:0:0:
256,240,85536,1,0,2:0:0:0:
32,168,85703,2,0,L|51:69,1,100,8|0,0:0|0:0,0:0:0:0:
205,72,85953,2,0,L|224:171,1,100,8|0,2:0|0:0,0:0:0:0:
149,176,86203,1,0,1:0:0:0:
299,170,86369,2,0,L|318:269,1,100,8|0,2:0|0:0,0:0:0:0:
86,270,86703,5,2,0:0:0:0:
195,270,86869,1,0,0:0:0:0:
86,270,87036,1,0,0:0:0:0:
330,182,87203,1,2,0:0:0:0:
220,182,87369,1,0,0:0:0:0:
445,280,87536,5,2,0:0:0:0:
338,280,87702,1,0,0:0:0:0:
445,280,87869,1,0,0:0:0:0:
201,253,88036,1,2,0:0:0:0:
311,252,88203,1,0,0:0:0:0:
39,140,88369,1,2,0:0:0:0:
146,140,88536,1,0,0:0:0:0:
370,321,88703,6,0,P|434:263|351:203,1,200,2|0,0:0|0:0,0:0:0:0:
483,202,89203,1,2,0:0:0:0:
367,199,89369,1,0,0:0:0:0:
142,195,89536,5,2,0:0:0:0:
32,196,89702,1,0,0:0:0:0:
142,195,89869,1,0,0:0:0:0:
428,305,90036,1,2,0:0:0:0:
317,305,90203,1,0,0:0:0:0:
62,53,90369,1,2,0:0:0:0:
172,53,90536,1,0,0:0:0:0:
470,79,90703,5,4,1:3:0:0:
350,80,90869,1,0,0:0:0:0:
470,79,91036,1,2,0:0:0:0:
195,209,91203,1,4,0:2:0:0:
317,210,91369,1,0,0:0:0:0:
42,79,91536,5,4,2:2:0:0:
162,80,91702,1,0,0:0:0:0:
42,79,91869,1,2,0:0:0:0:
317,209,92036,1,4,0:2:0:0:
195,210,92202,1,0,0:0:0:0:
466,109,92369,1,4,0:0:0:0:
342,108,92536,1,0,0:0:0:0:
30,213,92703,5,4,0:0:0:0:
156,215,92869,1,0,0:0:0:0:
30,213,93036,1,2,0:0:0:0:
305,221,93203,1,4,0:0:0:0:
178,219,93369,1,0,0:0:0:0:
467,134,93536,5,4,0:0:0:0:
343,134,93703,1,0,0:0:0:0:
467,134,93869,1,2,0:0:0:0:
189,309,94036,1,4,0:0:0:0:
65,308,94203,1,2,0:0:0:0:
331,249,94369,2,0,L|388:248,1,50,0|0,1:0|1:0,1:0:0:0:
169,151,94536,2,0,L|117:150,1,50,0|0,1:0|1:0,1:0:0:0:
348,141,94703,6,0,P|404:116|328:33,1,200,4|8,0:0|0:0,0:0:0:0:
216,101,95203,2,0,L|160:97,2,50,2|0|0,0:0|0:0|0:0,0:0:0:0:
96,184,95536,1,0,1:0:0:0:
458,77,95703,2,0,L|468:192,1,100,8|0,0:0|0:0,0:0:0:0:
154,314,96036,5,0,1:0:0:0:
30,313,96203,1,0,2:0:0:0:
267,214,96369,1,8,0:0:0:0:
144,213,96536,1,0,0:0:0:0:
370,117,96703,1,2,0:0:0:0:
255,115,96870,1,0,1:0:0:0:
385,130,97036,2,0,L|489:150,1,100,8|0,0:0|0:0,0:0:0:0:
128,272,97369,5,0,1:0:0:0:
364,332,97536,2,0,L|375:196,1,100,2|8,0:0|0:0,0:0:0:0:
231,188,97869,1,0,0:0:0:0:
463,183,98036,2,0,L|312:183,2,150,2|0|0,0:0|0:0|0:0,0:0:0:0:
187,114,98703,6,0,L|317:113,2,100,0|0|8,1:0|0:0|0:0,0:0:0:0:
367,330,99203,2,0,L|283:319,1,50,2|0,0:0|0:0,0:0:0:0:
135,328,99369,2,0,P|110:277|109:211,1,100,2|0,0:0|1:0,0:0:0:0:
332,176,99703,2,0,P|357:125|358:59,1,100,8|0,0:0|2:0,0:0:0:0:
24,177,100036,6,0,L|133:170,1,100,0|0,1:0|0:0,0:0:0:0:
276,288,100369,2,0,L|162:281,1,100,8|2,0:0|0:0,0:0:0:0:
407,33,100703,2,0,L|473:33,2,50,0|0|0,0:0|0:0|1:0,0:0:0:0:
253,145,101036,2,0,L|360:141,1,100,8|0,0:0|0:0,0:0:0:0:
88,343,101369,6,0,L|73:241,1,100,0|0,1:0|0:0,0:0:0:0:
424,343,101703,2,0,L|439:241,1,100,8|0,2:0|0:0,0:0:0:0:
176,232,102036,1,2,0:0:0:0:
425,232,102203,1,0,1:0:0:0:
67,225,102369,2,0,L|44:113,1,100,8|0,0:0|0:0,0:0:0:0:
197,129,102703,5,0,1:0:0:0:
465,146,102869,2,0,L|487:90,2,50,2|0|8,0:0|0:0|0:0,0:0:0:0:
186,267,103203,2,0,L|124:267,1,50,2|0,0:0|0:0,0:0:0:0:
320,241,103369,2,0,P|385:230|411:137,1,150,2|0,0:0|0:0,0:0:0:0:
220,123,103703,2,0,L|120:123,1,100,8|0,0:0|0:0,0:0:0:0:
389,297,104036,5,0,1:0:0:0:
232,219,104203,1,0,1:0:0:0:
389,297,104369,2,0,L|433:171,1,100,8|0,0:0|0:0,0:0:0:0:
252,208,104619,2,0,L|208:82,1,100,8|0,0:0|0:0,0:0:0:0:
284,72,104869,1,8,0:0:0:0:
175,32,105036,2,8,L|103:32,1,50
331,164,105203,2,8,L|394:165,1,50
220,317,105369,6,0,L|91:315,1,100,4|0,1:3|0:0,0:0:0:0:
449,314,105703,2,0,P|464:264|421:210,1,100,8|0,0:0|0:0,0:0:0:0:
379,190,105953,1,0,0:0:0:0:
220,197,106036,2,0,L|170:197,2,50,0|0|0,0:0|0:0|1:0,0:0:0:0:
107,82,106369,2,0,L|207:83,1,100,8|0,0:0|0:0,0:0:0:0:
464,273,106703,5,0,1:0:0:0:
352,256,106869,1,0,0:0:0:0:
406,246,106953,1,0,0:0:0:0:
459,236,107036,1,8,0:0:0:0:
280,234,107203,1,2,0:0:0:0:
238,209,107286,1,0,0:0:0:0:
228,161,107369,1,0,0:0:0:0:
258,123,107452,1,0,0:0:0:0:
307,120,107536,1,0,1:0:0:0:
470,38,107703,2,0,L|347:35,1,100,8|0,0:0|0:0,0:0:0:0:
109,193,108036,5,0,1:0:0:0:
248,188,108203,2,0,L|258:120,1,50
94,266,108369,2,0,P|42:215|60:173,1,100,8|0,0:0|0:0,0:0:0:0:
98,133,108619,1,0,0:0:0:0:
307,256,108703,2,0,L|321:179,1,50
252,152,108869,1,0,1:0:0:0:
115,167,109036,2,0,L|96:35,1,100,8|2,0:0|0:0,0:0:0:0:
451,125,109369,5,0,1:0:0:0:
313,126,109536,1,0,1:0:0:0:
451,125,109703,1,8,0:0:0:0:
173,344,109869,2,0,L|151:275,1,50,8|0,0:0|0:0,0:0:0:0:
298,261,110119,2,0,L|320:192,1,50,8|0,0:0|0:0,0:0:0:0:
32,160,110369,1,8,0:0:0:0:
170,160,110536,1,0,1:3:0:0:
451,236,110703,6,0,L|331:236,1,100,4|0,0:0|0:0,0:0:0:0:
479,315,111036,1,8,0:0:0:0:
198,343,111203,1,0,0:0:0:0:
253,345,111286,1,0,0:0:0:0:
308,347,111369,1,2,0:0:0:0:
42,246,111536,1,0,1:0:0:0:
180,210,111703,1,8,0:0:0:0:
42,246,111869,1,0,0:0:0:0:
330,266,112036,6,0,P|359:226|325:163,1,100,0|0,1:0|0:0,0:0:0:0:
285,142,112286,1,0,0:0:0:0:
123,134,112369,2,0,L|241:125,1,100,8|2,0:0|0:0,0:0:0:0:
374,157,112703,1,2,0:0:0:0:
382,102,112786,1,0,0:0:0:0:
390,47,112869,1,0,1:0:0:0:
68,153,113036,2,0,L|45:16,1,100,8|0,0:0|0:0,0:0:0:0:
392,286,113369,5,0,1:0:0:0:
261,279,113536,1,0,0:0:0:0:
392,286,113703,1,8,0:0:0:0:
150,277,113869,2,0,L|70:271,2,50,2|0|0,0:0|0:0|2:0,0:0:0:0:
292,230,114203,1,0,1:0:0:0:
47,215,114369,2,0,L|29:90,1,100,8|2,0:0|0:0,0:0:0:0:
358,162,114703,5,0,1:0:0:0:
219,161,114869,1,0,1:0:0:0:
358,162,115036,1,8,0:0:0:0:
129,267,115203,2,0,L|68:266,2,50,0|8|0,0:0|0:0|0:0,0:0:0:0:
283,199,115536,1,0,1:0:0:0:
49,191,115703,2,0,L|24:67,1,100,8|0,0:0|0:0,0:0:0:0:
348,344,116036,5,2,0:0:0:0:
416,285,116203,1,0,0:0:0:0:
434,197,116369,1,2,0:0:0:0:
392,116,116536,1,0,0:0:0:0:
123,279,116703,5,2,0:0:0:0:
55,220,116870,1,0,0:0:0:0:
37,132,117036,1,2,0:0:0:0:
79,51,117203,1,0,0:0:0:0:
365,51,117369,1,4,1:3:0:0:
304,240,132036,6,0,L|464:120,3,200,2|0|2|0,0:0|0:0|0:0|0:0,0:0:0:0:
264,120,133369,2,0,P|192:192|224:272,1,200,2|0,0:0|0:0,0:0:0:0:
480,272,134036,6,0,P|464:80|288:32,1,400,2|0,0:0|0:0,0:0:0:0:
160,168,135036,1,0,0:0:0:0:
32,272,135369,2,0,P|48:80|224:32,1,400,2|2,0:0|0:0,0:0:0:0:
384,160,136369,5,0,0:0:0:0:
224,96,136703,1,2,0:0:0:0:
384,224,137036,1,0,0:0:0:0:
184,192,137369,2,0,P|96:144|104:56,1,200,2|0,0:0|0:0,0:0:0:0:
304,56,138036,6,0,P|472:144|480:336,1,400,2|0,0:0|0:0,0:0:0:0:
352,336,139036,1,0,0:0:0:0:
224,336,139369,2,0,L|408:256,1,200,2|0,0:0|0:0,0:0:0:0:
208,240,140036,6,0,L|48:120,3,200,2|0|2|0,0:0|0:0|0:0|0:0,0:0:0:0:
248,120,141369,2,0,P|320:192|288:272,1,200,2|0,0:0|0:0,0:0:0:0:
32,272,142036,6,0,P|48:80|224:32,1,400,2|0,0:0|0:0,0:0:0:0:
352,152,143036,1,0,0:0:0:0:
480,272,143369,2,0,P|464:80|288:32,1,400,2|2,0:0|0:0,0:0:0:0:
88,160,144369,5,0,0:0:0:0:
288,96,144703,1,2,0:0:0:0:
88,224,145036,1,0,0:0:0:0:
328,192,145369,2,0,P|416:144|408:56,1,200,2|0,0:0|0:0,0:0:0:0:
208,56,146036,6,0,P|40:144|32:336,1,400,2|2,0:0|0:0,0:0:0:0:
192,336,147036,1,0,0:0:0:0:
256,192,147369,12,4,148036,0:0:0:0:
322,120,148703,5,0,0:0:0:0:
122,120,149036,1,2,0:0:0:0:
322,41,149369,2,0,L|425:41,2,100,2|0|0,0:0|0:0|0:0,0:0:0:0:
96,40,150036,6,0,P|40:120|96:192,1,200,2|0,0:0|0:0,0:0:0:0:
395,191,150703,2,0,P|451:271|395:343,1,200,2|0,0:0|0:0,0:0:0:0:
200,344,151369,2,0,P|145:267|202:192,1,200,2|0,0:0|0:0,0:0:0:0:
321,32,151953,5,2,0:0:0:0:
232,32,152036,2,0,P|120:112|168:248,1,300,2|0,0:0|0:0,0:0:0:0:
272,248,152703,1,0,0:0:0:0:
472,248,153036,1,2,0:0:0:0:
192,184,153369,2,0,L|304:184,2,100,2|0|0,0:0|0:0|0:0,0:0:0:0:
472,184,154036,5,2,0:0:0:0:
144,32,154703,2,0,L|136:232,1,200,0|2,0:0|0:0,0:0:0:0:
336,96,155369,2,0,L|344:296,1,200,2|0,0:0|0:0,0:0:0:0:
229,33,155953,5,0,0:0:0:0:
304,32,156036,2,0,P|416:112|368:248,1,300,2|0,0:0|0:0,0:0:0:0:
272,248,156703,1,0,0:0:0:0:
472,248,157036,1,2,0:0:0:0:
192,184,157369,2,0,L|304:184,2,100,2|0|0,0:0|0:0|0:0,0:0:0:0:
472,248,158036,6,0,L|480:48,1,200,2|0,0:0|0:0,0:0:0:0:
280,248,158703,2,0,L|272:48,1,200,2|0,0:0|0:0,0:0:0:0:
72,248,159369,2,0,L|80:48,1,200,2|0,0:0|0:0,0:0:0:0:
276,50,159953,5,0,0:0:0:0:
184,48,160036,2,0,P|120:120|152:208,1,200,2|2,0:0|0:0,0:0:0:0:
372,160,160703,2,0,P|436:232|404:320,1,200,2|2,0:0|0:0,0:0:0:0:
104,320,161369,2,0,L|208:320,2,100,2|0|0,0:0|0:0|0:0,0:0:0:0:
308,320,162036,6,2,B|404:319|404:319|308:319,1,192
256,192,162703,12,0,163703,0:0:0:0:
327,318,164036,6,0,P|372:288|296:198,1,179.999994506836,2|0,0:0|0:0,0:0:0:0:
183,194,164536,1,0,0:0:0:0:
317,195,164703,2,0,L|415:196,1,89.9999972534181,2|0,0:0|0:0,0:0:0:0:
262,195,165036,2,0,L|237:90,1,89.9999972534181
390,291,165369,5,2,0:0:0:0:
453,240,165536,1,0,0:0:0:0:
466,159,165703,1,0,0:0:0:0:
428,87,165869,1,0,0:0:0:0:
284,157,166036,2,0,L|272:52,1,89.9999972534181
418,235,166369,2,0,P|374:225|331:234,1,89.9999972534181,2|0,0:0|0:0,0:0:0:0:
188,359,166703,5,2,0:0:0:0:
262,327,166869,1,0,0:0:0:0:
286,249,167036,1,0,0:0:0:0:
261,171,167203,1,0,0:0:0:0:
123,192,167369,2,0,L|146:92,1,89.9999972534181,2|0,0:0|0:0,0:0:0:0:
288,42,167703,2,0,L|194:39,1,89.9999972534181
333,127,168036,6,0,P|376:124|443:133,3,89.9999972534181,2|0|0|0,0:0|0:0|0:0|0:0,0:0:0:0:
277,192,168703,2,0,P|194:207|79:176,1,179.999994506836,2|2,0:0|0:0,0:0:0:0:
400,325,169369,5,2,0:0:0:0:
455,265,169536,1,0,0:0:0:0:
435,186,169703,1,0,0:0:0:0:
365,145,169869,1,0,0:0:0:0:
224,256,170036,1,2,0:0:0:0:
169,196,170203,1,0,0:0:0:0:
189,117,170370,1,0,0:0:0:0:
259,76,170536,1,0,0:0:0:0:
398,147,170703,6,2,L|205:147,1,179.999994506836
354,216,171369,2,0,L|377:310,1,89.9999972534181,2|0,0:0|0:0,0:0:0:0:
232,286,171703,2,0,L|209:380,1,89.9999972534181,2|0,0:0|0:0,0:0:0:0:
392,333,172036,5,0,1:0:0:0:
308,297,172203,1,0,1:0:0:0:
273,214,172369,1,0,1:0:0:0:
307,130,172536,1,0,1:0:0:0:
394,107,172703,5,0,1:0:0:0:
166,229,172869,1,0,1:0:0:0:
65,148,173036,1,0,1:0:0:0:
172,71,173203,1,0,1:0:0:0:
433,351,173369,5,0,1:0:0:0:
470,304,173453,1,0,1:0:0:0:
446,249,173536,1,0,1:0:0:0:
387,236,173619,1,0,1:0:0:0:
167,245,173703,1,0,1:0:0:0:
129,198,173787,1,0,1:0:0:0:
154,143,173870,1,0,1:0:0:0:
212,130,173953,1,0,1:0:0:0:
464,71,174036,2,0,L|334:72,1,119.999996337891,2|0,0:0|1:0,0:0:0:0:
36,69,174369,1,4,1:3:0:0:
429,348,174703,6,0,P|460:296|445:228,1,100,0|0,1:0|0:0,0:0:0:0:
407,192,174953,1,0,0:0:0:0:
215,192,175036,2,0,P|184:140|199:72,1,100,8|0,2:0|0:0,0:0:0:0:
355,284,175369,2,0,L|215:286,1,100,2|0,0:0|1:0,0:0:0:0:
316,208,175619,1,0,0:0:0:0:
136,167,175703,2,0,P|151:98|205:94,1,100,8|0,0:0|0:0,0:0:0:0:
441,172,176036,6,0,L|329:172,2,100,0|0|8,1:0|0:0|0:0,0:0:0:0:
103,328,176536,1,2,0:0:0:0:
65,295,176619,1,0,0:0:0:0:
56,245,176703,1,0,0:0:0:0:
84,204,176786,1,0,0:0:0:0:
132,194,176869,1,0,1:0:0:0:
421,169,177036,2,0,L|402:63,1,100,8|0,0:0|0:0,0:0:0:0:
113,114,177369,5,0,1:0:0:0:
218,153,177536,1,0,0:0:0:0:
472,206,177703,1,8,0:0:0:0:
366,246,177869,1,0,0:0:0:0:
142,163,178036,2,0,L|30:171,1,100,2|0,0:0|1:0,0:0:0:0:
183,268,178369,2,0,L|295:276,1,100,8|0,0:0|2:0,0:0:0:0:
31,211,178703,6,0,L|163:206,2,100,0|0|8,1:0|0:0|0:0,0:0:0:0:
137,249,179203,1,2,0:0:0:0:
182,232,179286,1,0,0:0:0:0:
201,187,179369,1,0,0:0:0:0:
181,143,179453,1,0,0:0:0:0:
135,128,179536,1,0,1:0:0:0:
287,131,179703,2,0,L|386:131,1,100,8|0,0:0|0:0,0:0:0:0:
61,326,180036,5,0,1:0:0:0:
333,268,180203,1,2,0:0:0:0:
283,264,180286,1,0,0:0:0:0:
233,262,180369,1,8,0:0:0:0:
113,194,180536,1,0,0:0:0:0:
408,308,180703,1,2,2:0:0:0:
179,268,180870,1,0,1:0:0:0:
187,218,180953,1,0,0:0:0:0:
194,168,181036,1,8,0:0:0:0:
334,172,181203,1,0,0:0:0:0:
71,321,181369,6,0,L|54:206,1,100,0|0,1:0|0:0,0:0:0:0:
232,110,181703,2,0,L|107:110,1,100,8|0,0:0|0:0,0:0:0:0:
461,278,182036,2,0,L|478:163,1,100,2|0,2:0|1:0,0:0:0:0:
237,69,182369,2,0,L|362:69,1,100,8|0,0:0|0:0,0:0:0:0:
28,303,182703,5,0,1:0:0:0:
148,289,182869,1,0,2:0:0:0:
411,168,183036,1,8,2:0:0:0:
293,153,183202,1,0,2:0:0:0:
51,263,183369,1,2,0:0:0:0:
45,207,183453,1,0,0:0:0:0:
39,152,183536,1,0,1:0:0:0:
180,128,183703,2,0,L|188:21,1,100,8|0,0:0|0:0,0:0:0:0:
37,167,184036,6,0,L|155:166,1,100,0|2,1:0|0:0,0:0:0:0:
426,202,184369,2,0,L|318:202,1,100,8|0,0:0|0:0,0:0:0:0:
167,205,184619,2,0,P|171:147|213:109,1,100,8|0,0:0|0:0,0:0:0:0:
273,114,184869,1,0,1:0:0:0:
416,114,185036,1,8,0:0:0:0:
169,33,185203,1,2,1:0:0:0:
480,72,185369,6,0,P|465:123|425:140,1,100,4|0,0:0|0:0,0:0:0:0:
193,141,185703,2,0,L|292:155,1,100,8|2,0:0|0:0,0:0:0:0:
229,191,185953,1,0,0:0:0:0:
381,180,186036,2,0,L|395:279,1,100,2|0,0:0|1:0,0:0:0:0:
165,204,186369,2,0,L|264:218,1,100,8|2,0:0|0:0,0:0:0:0:
32,72,186703,6,0,P|47:123|87:140,1,100,4|0,0:0|0:0,0:0:0:0:
319,141,187036,2,0,L|220:155,1,100,8|0,0:0|0:0,0:0:0:0:
283,191,187287,1,0,0:0:0:0:
131,180,187370,2,0,L|117:279,1,100,2|0,0:0|1:0,0:0:0:0:
347,204,187703,2,0,L|248:218,1,100,8|0,0:0|0:0,0:0:0:0:
473,184,188036,6,0,L|487:85,1,100,4|0,0:0|0:0,0:0:0:0:
434,82,188286,1,0,0:0:0:0:
282,68,188369,1,8,0:0:0:0:
412,71,188536,1,2,0:0:0:0:
348,68,188619,1,0,0:0:0:0:
282,68,188703,2,0,L|292:168,1,100,0|0,0:0|1:0,0:0:0:0:
68,171,189036,2,0,L|82:270,1,100,8|0,0:0|0:0,0:0:0:0:
307,62,189369,5,4,0:0:0:0:
177,85,189536,1,0,1:0:0:0:
402,87,189703,2,0,L|416:186,1,100,8|0,0:0|0:0,0:0:0:0:
263,161,189953,2,0,L|249:260,1,100,8|0,0:0|0:0,0:0:0:0:
334,97,190203,1,0,1:0:0:0:
178,97,190369,2,0,L|259:157,1,100,8|0,0:0|0:0,0:0:0:0:
32,72,190703,6,0,P|47:123|87:140,1,100,4|0,0:0|0:0,0:0:0:0:
319,141,191036,2,0,L|220:155,1,100,8|0,0:0|0:0,0:0:0:0:
283,191,191287,1,0,0:0:0:0:
131,180,191369,2,0,L|117:279,1,100,2|0,0:0|1:0,0:0:0:0:
347,204,191703,2,0,L|248:218,1,100,8|0,0:0|0:0,0:0:0:0:
480,72,192037,6,0,P|465:123|425:140,1,100,4|0,0:0|0:0,0:0:0:0:
193,141,192369,2,0,L|292:155,1,100,8|0,2:0|0:0,0:0:0:0:
229,191,192619,1,0,0:0:0:0:
381,180,192704,2,0,L|395:279,1,100,2|0,0:0|1:0,0:0:0:0:
165,204,193037,2,0,L|264:218,1,100,8|2,0:0|0:0,0:0:0:0:
40,292,193369,6,0,L|139:306,1,100,4|0,0:0|0:0,0:0:0:0:
191,314,193619,1,0,0:0:0:0:
344,295,193703,2,0,L|245:281,1,100,8|0,0:0|0:0,0:0:0:0:
193,273,193953,1,0,0:0:0:0:
345,258,194036,1,4,0:0:0:0:
396,265,194119,1,0,0:0:0:0:
345,258,194203,1,0,1:0:0:0:
121,221,194369,2,0,L|107:122,1,100,8|0,0:0|0:0,0:0:0:0:
334,88,194703,5,4,0:0:0:0:
204,111,194870,1,0,1:0:0:0:
428,203,195036,2,0,L|329:189,1,100,8|0,0:0|0:0,0:0:0:0:
176,154,195286,2,0,L|275:140,1,100,8|0,0:0|0:0,0:0:0:0:
353,185,195536,1,0,1:0:0:0:
203,264,195703,2,0,L|302:250,1,100,10|0,0:0|0:0,0:0:0:0:
77,298,196036,6,0,P|35:155|130:57,1,300,4|0,0:0|0:0,0:0:0:0:
262,54,196703,1,2,0:0:0:0:
262,54,197036,2,0,L|149:57,1,100,0|2,0:0|0:0,0:0:0:0:
387,50,197369,6,0,P|456:75|480:145,2,150,2|0|0,0:0|0:0|0:0,0:0:0:0:
257,54,198036,1,2,0:0:0:0:
417,158,198369,1,2,0:0:0:0:
217,127,198703,6,0,P|153:193|201:274,1,200,2|2,0:0|0:0,0:0:0:0:
300,192,199119,2,0,L|364:192,2,50
142,190,199369,1,2,0:0:0:0:
294,187,199703,1,0,0:0:0:0:
95,148,200036,6,0,L|256:148,2,150,2|0|0,0:0|0:0|0:0,0:0:0:0:
345,97,200703,2,0,L|184:97,2,150,2|0|0,0:0|0:0|0:0,0:0:0:0:
95,148,201369,5,2,0:0:0:0:
256,208,201703,1,0,0:0:0:0:
250,253,201786,1,0,0:0:0:0:
218,290,201870,1,0,0:0:0:0:
168,304,201953,1,0,0:0:0:0:
320,304,202036,2,0,P|388:279|411:210,2,150,0|2|2,0:0|0:0|0:0,0:0:0:0:
93,304,202703,5,2,0:0:0:0:
319,303,203036,1,2,0:0:0:0:
394,290,203203,2,0,L|339:291,1,50
192,304,203369,2,0,P|123:279|100:210,2,150,2|0|0,0:0|0:0|0:0,0:0:0:0:
419,304,204036,5,2,0:0:0:0:
193,303,204369,1,0,0:0:0:0:
118,290,204536,2,0,L|173:291,1,50
320,304,204703,2,0,P|388:279|411:210,2,150,2|0|0,0:0|0:0|0:0,0:0:0:0:
95,189,205369,6,0,P|163:213|186:282,2,150,2|0|0,0:0|0:0|0:0,0:0:0:0:
320,304,206036,1,2,0:0:0:0:
116,182,206369,1,2,0:0:0:0:
396,182,206703,6,0,L|404:76,1,100,4|0,0:0|0:0,0:0:0:0:
116,182,207036,2,0,L|108:76,1,100,8|0,2:2|2:0,1:0:0:0:
396,182,207369,6,0,L|445:187,1,50,0|0,1:0|1:0,1:0:0:0:
293,160,207536,2,0,L|244:165,1,50,0|0,1:0|1:0,1:0:0:0:
405,251,207703,2,0,L|454:256,1,50,0|0,1:0|1:0,1:0:0:0:
165,176,207870,2,0,L|116:181,1,50,0|0,1:0|1:0,1:0:0:0:
410,355,208036,6,0,P|456:307|438:229,1,119.999996337891,4|0,1:3|0:0,0:0:0:0:
382,241,208286,1,0,0:0:0:0:
135,286,208369,2,0,P|83:240|65:174,1,119.999996337891,8|0,0:0|0:0,0:0:0:0:
144,155,208619,1,0,0:0:0:0:
339,110,208703,1,2,0:0:0:0:
212,109,208869,1,0,1:0:0:0:
449,61,209036,2,0,L|460:192,1,119.999996337891,8|0,0:0|0:0,0:0:0:0:
235,339,209369,6,0,P|173:309|152:232,1,119.999996337891,0|0,1:0|0:0,0:0:0:0:
307,206,209619,2,0,P|369:176|390:99,1,119.999996337891,2|0,0:0|0:0,0:0:0:0:
319,86,209869,1,2,0:0:0:0:
70,100,210036,1,2,0:0:0:0:
70,100,210119,1,0,0:0:0:0:
70,100,210203,1,0,1:1:0:0:
328,182,210369,2,0,P|385:163|442:183,1,119.999996337891,8|0,0:0|0:0,0:0:0:0:
142,133,210703,6,0,L|136:271,1,119.999996337891,4|2,0:0|0:0,0:0:0:0:
206,250,210953,1,0,0:0:0:0:
406,234,211036,2,0,P|457:194|474:110,1,119.999996337891,8|2,0:0|0:0,0:0:0:0:
399,114,211286,1,0,0:0:0:0:
189,45,211369,2,0,L|99:46,2,59.9999981689454,2|0|0,0:0|0:0|1:0,0:0:0:0:
450,330,211703,2,0,L|463:184,1,119.999996337891,8|0,0:0|0:0,0:0:0:0:
189,115,212036,5,0,1:0:0:0:
323,116,212203,1,0,1:0:0:0:
189,115,212369,1,8,0:0:0:0:
427,271,212536,2,0,L|413:196,1,59.9999981689454,8|0,0:0|0:0,0:0:0:0:
187,179,212703,1,2,2:0:0:0:
36,179,212869,1,0,1:0:0:0:
347,122,213036,1,2,0:0:0:0:
480,127,213203,1,8,0:0:0:0:
59,348,213369,6,0,L|43:217,1,119.999996337891,4|0,0:0|0:0,0:0:0:0:
306,250,213703,2,0,L|179:236,1,119.999996337891,8|0,0:0|0:0,0:0:0:0:
245,200,213953,1,0,0:0:0:0:
426,198,214036,2,0,P|453:153|416:93,1,119.999996337891,2|0,0:0|1:0,0:0:0:0:
163,324,214369,1,8,0:0:0:0:
307,326,214536,1,0,0:0:0:0:
59,344,214703,6,0,P|29:290|75:244,1,119.999996337891,0|0,1:0|0:0,0:0:0:0:
203,237,214953,2,0,P|233:183|187:137,1,119.999996337891,2|0,2:0|0:0,0:0:0:0:
113,141,215203,2,0,L|102:58,1,59.9999981689454
286,308,215369,1,0,2:0:0:0:
337,276,215453,1,0,2:0:0:0:
388,245,215536,1,0,1:0:0:0:
230,348,215703,2,0,L|91:346,1,119.999996337891,8|0,0:0|0:0,0:0:0:0:
454,350,216036,6,0,L|476:215,1,119.999996337891,4|0,2:2|0:0,0:0:0:0:
405,190,216286,1,0,0:0:0:0:
231,338,216369,2,0,P|178:295|178:221,1,119.999996337891,8|0,0:0|0:0,0:0:0:0:
236,199,216619,1,0,0:0:0:0:
390,261,216703,1,2,0:0:0:0:
406,136,216869,1,0,1:0:0:0:
110,91,217036,2,0,L|242:70,1,119.999996337891,8|0,0:0|0:0,0:0:0:0:
477,247,217369,5,0,1:2:0:0:
347,244,217536,1,0,1:2:0:0:
82,351,217703,2,0,P|41:301|78:231,1,119.999996337891,8|0,0:0|0:0,0:0:0:0:
236,251,217953,2,0,P|277:201|240:131,1,119.999996337891,8|0,0:0|0:0,0:0:0:0:
78,208,218203,1,8,0:0:0:0:
304,209,218369,2,0,L|389:217,1,59.9999981689454,0|0,1:0|1:0,1:0:0:0:
152,312,218536,2,0,L|67:320,1,59.9999981689454,0|0,1:0|1:0,1:0:0:0:
432,260,218703,6,0,L|312:292,1,125,4|0,1:3|0:0,0:0:0:0:
72,192,219036,2,0,L|192:160,1,125,8|0,0:0|0:0,0:0:0:0:
120,176,219286,1,0,0:0:0:0:
335,206,219369,2,0,L|215:174,1,125,2|0,0:0|1:0,0:0:0:0:
490,130,219703,2,0,L|370:98,1,125,8|0,0:0|0:0,0:0:0:0:
94,106,220036,6,0,P|58:158|74:214,1,125,0|0,1:2|0:0,0:0:0:0:
258,186,220286,2,0,P|294:238|278:294,1,125,2|0,0:0|0:0,0:0:0:0:
94,294,220536,2,0,L|90:230,1,62.5,2|0,0:0|0:0,0:0:0:0:
275,223,220703,1,2,0:0:0:0:
214,207,220786,1,0,0:0:0:0:
154,190,220869,1,0,1:0:0:0:
430,221,221036,2,0,P|466:169|450:113,1,125,8|0,0:0|0:0,0:0:0:0:
174,82,221369,6,0,P|138:134|154:190,1,125,6|0,0:0|0:0,0:0:0:0:
214,207,221619,1,0,0:0:0:0:
395,255,221703,2,0,L|275:223,1,125,8|0,0:0|0:0,0:0:0:0:
335,239,221953,1,0,0:0:0:0:
154,255,222036,2,0,P|106:215|116:160,1,125,2|0,0:0|1:0,0:0:0:0:
395,255,222369,1,8,0:0:0:0:
229,210,222536,1,0,0:0:0:0:
489,199,222703,6,0,P|498:140|451:103,1,125,0|0,1:0|0:0,0:0:0:0:
266,143,222953,2,0,P|256:201|303:238,1,125,8|0,0:0|0:0,0:0:0:0:
489,199,223203,2,0,L|464:138,1,62.5,0|0,1:0|0:0,0:0:0:0:
282,150,223369,2,0,L|402:118,1,125,2|0,2:0|1:0,0:0:0:0:
126,114,223703,1,8,0:0:0:0:
303,100,223870,1,0,1:0:0:0:
34,126,224036,6,0,P|22:188|64:228,1,125,4|0,0:0|0:0,0:0:0:0:
336,228,224369,2,0,P|377:184|364:126,1,125,8|0,0:0|0:0,0:0:0:0:
308,99,224619,1,0,0:0:0:0:
124,96,224703,2,0,L|60:96,2,62.5,2|0|0,0:0|0:0|1:0,0:0:0:0:
400,56,225036,2,0,L|276:56,1,125,8|0,0:0|0:0,0:0:0:0:
244,100,225286,1,0,0:0:0:0:
427,105,225369,6,0,P|463:157|447:213,1,125,2|0,0:0|0:0,0:0:0:0:
263,185,225619,2,0,P|227:237|243:293,1,125,2|0,0:0|0:0,0:0:0:0:
427,293,225869,2,0,L|431:229,1,62.5,2|0,0:0|0:0,0:0:0:0:
246,222,226036,1,2,0:0:0:0:
307,206,226119,1,0,0:0:0:0:
367,189,226202,1,0,1:0:0:0:
92,220,226369,2,0,P|56:168|72:112,1,125,8|0,0:0|0:0,0:0:0:0:
347,81,226702,6,0,P|383:133|367:189,1,125,4|0,0:0|0:0,0:0:0:0:
307,206,226952,1,0,0:0:0:0:
120,228,227036,2,0,P|79:184|92:126,1,125,8|0,0:0|0:0,0:0:0:0:
148,99,227286,1,0,0:0:0:0:
332,96,227370,2,0,L|396:96,2,62.5,2|0|0,0:0|0:0|0:0,0:0:0:0:
92,125,227703,1,8,0:0:0:0:
332,160,227869,1,0,0:0:0:0:
56,164,228036,6,0,P|82:111|142:67,1,125,4|0,0:0|0:0,0:0:0:0:
383,305,228369,2,0,P|436:275|465:221,1,125,8|0,0:0|0:0,0:0:0:0:
256,309,228619,2,0,P|201:278|174:223,1,125,8|0,0:0|0:0,0:0:0:0:
364,160,228869,2,0,L|432:162,1,62.5,8|0,0:0|0:0,0:0:0:0:
196,80,229036,2,0,L|128:82,1,62.5,8|0,0:0|0:0,0:0:0:0:
304,232,229203,2,0,L|372:234,1,62.5,8|0,0:0|0:0,0:0:0:0:
76,268,229369,6,0,P|47:218|79:151,1,100,4|0,1:3|0:0,0:0:0:0:
116,130,229619,1,0,0:0:0:0:
278,132,229703,1,8,0:0:0:0:
165,308,229869,1,0,0:0:0:0:
151,259,229953,1,0,0:0:0:0:
137,210,230036,1,2,0:0:0:0:
276,211,230203,1,0,1:0:0:0:
22,147,230369,2,0,P|31:89|61:37,1,100,8|0,0:0|0:0,0:0:0:0:
296,87,230703,6,0,L|168:92,2,100,0|0|8,1:0|0:0|0:0,0:0:0:0:
430,191,231203,1,0,0:0:0:0:
430,191,231286,1,0,0:0:0:0:
430,191,231369,1,2,0:0:0:0:
166,289,231536,2,0,P|139:231|134:154,1,100,0|8,1:0|0:0,0:0:0:0:
273,70,231869,2,0,L|337:72,1,50
58,218,232036,6,0,P|32:166|50:103,1,100,0|0,1:0|0:0,0:0:0:0:
96,71,232286,1,0,0:0:0:0:
262,182,232369,2,0,L|404:177,1,100,8|0,0:0|0:0,0:0:0:0:
190,225,232703,1,2,0:0:0:0:
177,176,232786,1,0,0:0:0:0:
165,127,232869,1,0,1:0:0:0:
451,163,233036,2,0,L|486:26,1,100,8|0,0:0|0:0,0:0:0:0:
176,57,233369,6,0,L|310:54,1,100,0|0,1:0|0:0,0:0:0:0:
133,299,233703,2,0,P|90:256|95:190,1,100,8|0,0:0|0:0,0:0:0:0:
147,154,233953,1,0,0:0:0:0:
307,112,234036,2,0,L|375:114,2,50,2|0|0,0:0|0:0|1:0,0:0:0:0:
151,202,234369,2,0,L|137:87,1,100,8|0,0:0|0:0,0:0:0:0:
442,313,234703,6,0,P|487:255|475:197,1,100,0|0,1:0|0:0,0:0:0:0:
431,171,234953,1,0,0:0:0:0:
271,168,235036,1,8,0:0:0:0:
399,168,235203,1,0,0:0:0:0:
122,334,235369,2,0,L|79:213,1,100,2|0,0:0|1:0,0:0:0:0:
350,62,235703,2,0,L|383:156,1,100,8|0,2:0|2:0,0:0:0:0:
114,204,236036,6,0,L|244:197,1,100,0|0,1:0|0:0,0:0:0:0:
63,278,236369,2,0,P|27:222|31:166,1,100,8|0,0:0|0:0,0:0:0:0:
95,126,236619,1,0,0:0:0:0:
309,175,236703,2,0,L|324:102,1,50,2|0,0:0|0:0,0:0:0:0:
251,67,236869,1,0,1:0:0:0:
100,158,237036,2,0,L|221:155,1,100,8|0,0:0|0:0,0:0:0:0:
483,252,237369,5,0,1:0:0:0:
362,176,237536,1,0,0:0:0:0:
483,110,237703,1,8,0:0:0:0:
169,189,237869,1,0,2:0:0:0:
290,113,238036,1,2,0:0:0:0:
169,47,238203,1,0,1:0:0:0:
433,263,238369,2,0,L|440:140,1,100,8|0,0:0|0:0,0:0:0:0:
211,108,238703,6,0,L|336:104,3,100,0|2|8|0,1:0|0:0|2:0|0:0,0:0:0:0:
446,39,239369,2,0,L|337:32,1,100,0|2,1:0|0:0,0:0:0:0:
117,93,239703,2,0,L|106:207,1,100,8|0,2:2|0:0,0:0:0:0:
406,249,240036,6,0,P|455:200|466:135,1,100,4|0,0:0|0:0,0:0:0:0:
133,245,240369,2,0,P|84:196|73:131,1,100,8|0,0:0|0:0,0:0:0:0:
138,133,240619,1,0,0:0:0:0:
296,188,240703,2,0,L|376:182,2,50,2|0|0,0:0|0:0|1:0,0:0:0:0:
157,157,241036,2,0,L|147:271,1,100,8|0,0:0|0:0,0:0:0:0:
389,241,241369,6,0,L|501:235,2,100,0|0|8,1:0|0:0|0:0,0:0:0:0:
232,252,241869,1,2,0:0:0:0:
187,218,241953,1,0,0:0:0:0:
167,167,242036,1,0,0:0:0:0:
189,118,242119,1,0,0:0:0:0:
239,96,242203,1,0,1:0:0:0:
395,110,242369,2,0,L|405:230,1,100,8|0,0:0|0:0,0:0:0:0:
112,294,242703,6,0,L|228:276,1,100,0|0,1:0|0:0,0:0:0:0:
356,310,243036,2,0,L|364:188,1,100,8|0,0:0|0:0,0:0:0:0:
298,176,243286,1,0,0:0:0:0:
144,188,243369,2,0,L|68:200,2,50,2|0|0,0:0|0:0|1:0,0:0:0:0:
273,116,243703,2,0,L|139:96,1,100,8|0,0:0|0:0,0:0:0:0:
455,62,244036,5,0,1:0:0:0:
321,104,244203,1,0,0:0:0:0:
455,62,244369,1,8,0:0:0:0:
214,210,244536,2,0,L|276:195,1,50
459,174,244703,2,0,L|475:285,1,100,2|0,0:0|1:0,0:0:0:0:
147,47,245036,2,0,L|131:158,1,100,8|0,0:0|0:0,0:0:0:0:
391,198,245369,6,0,L|502:181,2,100,0|0|8,1:0|0:0|0:0,0:0:0:0:
249,247,245869,1,2,0:0:0:0:
207,217,245953,1,0,0:0:0:0:
191,169,246036,1,0,0:0:0:0:
213,124,246119,1,0,0:0:0:0:
258,103,246203,1,0,1:0:0:0:
403,175,246369,2,0,L|420:61,1,100,8|0,0:0|0:0,0:0:0:0:
73,306,246703,6,0,L|196:288,1,100,0|0,1:0|0:0,0:0:0:0:
335,326,247036,2,0,L|340:205,1,100,8|0,0:0|0:0,0:0:0:0:
276,186,247286,1,0,0:0:0:0:
125,174,247369,2,0,L|112:92,1,50,2|0,0:0|0:0,0:0:0:0:
176,67,247536,1,0,1:0:0:0:
323,138,247703,2,0,L|422:147,1,100,8|0,0:0|0:0,0:0:0:0:
73,296,248036,6,0,L|62:169,1,100,0|0,1:0|0:0,0:0:0:0:
201,176,248369,1,8,0:0:0:0:
59,186,248536,1,2,0:0:0:0:
324,199,248703,1,0,0:0:0:0:
380,148,248786,1,0,0:0:0:0:
324,92,248869,1,0,1:0:0:0:
68,131,249036,2,0,L|49:10,1,100,8|0,0:0|0:0,0:0:0:0:
361,297,249369,5,2,1:2:0:0:
491,297,249536,1,0,0:0:0:0:
239,204,249703,5,8,0:0:0:0:
376,204,249870,1,0,0:0:0:0:
126,298,250036,5,2,2:0:0:0:
268,297,250203,1,0,1:0:0:0:
9,204,250370,5,8,0:0:0:0:
154,204,250537,1,0,0:0:0:0:
480,216,250703,5,4,1:3:0:0:
256,192,250869,12,0,253369,0:0:0:0:
