osu file format v14

[General]
AudioFilename: audio.mp3
AudioLeadIn: 0
PreviewTime: 174619
Countdown: 0
SampleSet: Soft
StackLeniency: 0.7
Mode: 2
LetterboxInBreaks: 0
WidescreenStoryboard: 1

[Editor]
Bookmarks: 22703,44036,65369,86703,117369,132036,164036,185369,208036,218703,229369
DistanceSpacing: 0.9
BeatDivisor: 4
GridSize: 4
TimelineZoom: 2.2

[Metadata]
Title:Tokei no Heya to Seishin Sekai
TitleUnicode:時計の部屋と精神世界
Artist:a_hisa
ArtistUnicode:a_hisa
Creator:Spectator
Version:Collab Rain
Source:
Tags:kyuare -wwwww Fii spiritual core artcore collab
BeatmapID:1603341
BeatmapSetID:639409

[Difficulty]
HPDrainRate:6
CircleSize:4
OverallDifficulty:9
ApproachRate:9
SliderMultiplier:2
SliderTickRate:2

[Events]
//Background and Video events
0,0,"Tokei no Heya to Seishin Sekai BG.png",0,0
//Break Periods
2,121369,131436
//Storyboard Layer 0 (Background)
//Storyboard Layer 1 (Fail)
//Storyboard Layer 2 (Pass)
//Storyboard Layer 3 (Foreground)
Sprite,Foreground,Centre,"SB\Fii.png",320,240 S,0,1370,,0.5345457 M,0,1370,22369,531.7818,416.2909 M,0,22369,,531.7818,416.2909
Sprite,Foreground,Centre,"SB\Fii.png",320,240 S,0,44036,,0.5345457 M,0,44036,65369,531.7818,416.2909
Sprite,Foreground,Centre,"SB\Spectator.png",320,240 S,0,65369,,0.5345458 M,0,65369,86702,532.9454,415.7091
Sprite,Foreground,Centre,"SB\Spectator.png",320,240 S,0,22703,,0.5345458 M,0,22703,44036,532.9454,415.7091 M,0,44036,,532.9454,415.7091
Sprite,Foreground,Centre,"SB\Fii.png",320,240 S,0,86703,,0.5345457 M,0,86703,117369,531.7818,416.2909
Sprite,Foreground,Centre,"SB\Spectator.png",320,240 S,0,131869,,0.5345458 F,0,131869,132036,0,1 M,0,131869,153202,532.9454,415.7091 F,0,132036,162036,1 M,0,153202,162036,532.9454,415.7091 F,0,162036,163369,1 F,0,163369,163703,1,0
Sprite,Foreground,Centre,"SB\Fii.png",320,240 F,0,163869,164036,0,1 S,0,164036,,0.5345457 M,0,164036,185369,531.7818,416.2909
Sprite,Foreground,Centre,"SB\Spectator.png",320,240 S,0,185369,,0.5345458 M,0,185369,206702,532.9454,415.7091 M,0,206702,208036,532.9454,415.7091
Sprite,Foreground,Centre,"SB\Fii.png",320,240 S,0,208036,,0.5345457 M,0,208036,218703,531.7818,416.2909 M,0,218703,,531.7818,416.2909
Sprite,Foreground,Centre,"SB\Spectator.png",320,240 S,0,218703,,0.5345458 M,0,218703,229369,532.9454,415.7091
Sprite,Foreground,Centre,"SB\Fii.png",320,240 S,0,229369,,0.5345457 M,0,229369,250702,531.7818,416.2909
//Storyboard Sound Samples

[TimingPoints]
1370,333.333333333333,4,2,1,30,1,0
1370,-125,4,2,1,30,0,0
22036,-76.9230769230769,4,2,1,30,0,0
22703,-111.111111111111,4,2,1,60,0,1
22786,-111.111111111111,4,2,1,70,0,0
44036,-111.111111111111,4,2,1,35,0,0
44203,-111.111111111111,4,2,2,55,0,0
54703,-111.111111111111,4,2,1,60,0,0
64703,-111.111111111111,4,2,1,55,0,0
65369,-111.111111111111,4,2,1,65,0,0
76036,-111.111111111111,4,2,1,70,0,0
98203,-111.111111111111,4,2,21,60,0,0
98286,-111.111111111111,4,2,1,70,0,0
98369,-111.111111111111,4,2,20,70,0,0
98453,-111.111111111111,4,2,1,70,0,0
103536,-111.111111111111,4,2,21,60,0,0
103619,-111.111111111111,4,2,1,70,0,0
105369,-111.111111111111,4,2,1,70,0,1
116036,-111.111111111111,4,2,1,30,0,0
117369,-111.111111111111,4,2,1,60,0,0
132036,-125,4,2,1,60,0,0
144369,-125,4,2,1,40,0,0
147369,-125,4,2,1,50,0,0
148036,-111.111111111111,4,2,1,50,0,0
148703,-111.111111111111,4,2,1,55,0,0
162036,-111.111111111111,4,2,2,40,0,0
164036,-111.111111111111,4,2,1,50,0,0
172036,-111.111111111111,4,2,1,10,0,0
172536,-111.111111111111,4,2,1,14,0,0
172869,-111.111111111111,4,2,1,27,0,0
173036,-111.111111111111,4,2,1,30,0,0
173203,-111.111111111111,4,2,1,35,0,0
173369,-111.111111111111,4,2,1,42,0,0
173703,-111.111111111111,4,2,1,45,0,0
174036,-111.111111111111,4,2,1,50,0,0
174369,-111.111111111111,4,2,1,58,0,0
174703,-111.111111111111,4,2,1,70,0,0
185369,-111.111111111111,4,2,1,75,0,0
196036,-111.111111111111,4,2,1,45,0,0
200036,-111.111111111111,4,2,1,47,0,0
200703,-111.111111111111,4,2,1,49,0,0
201369,-111.111111111111,4,2,1,52,0,0
202036,-111.111111111111,4,2,1,54,0,0
204036,-111.111111111111,4,2,1,50,0,0
205369,-111.111111111111,4,2,1,54,0,0
206703,-111.111111111111,4,2,1,50,0,0
207036,-111.111111111111,4,2,1,54,0,0
207369,-111.111111111111,4,2,1,60,0,0
207703,-111.111111111111,4,2,1,64,0,0
208036,-111.111111111111,4,2,1,70,0,1
218703,-111.111111111111,4,2,1,70,0,1
229369,-111.111111111111,4,2,1,70,0,0
250703,-111.111111111111,4,2,1,70,0,1
250786,-111.111111111111,4,2,1,30,0,0

[Colours]
Combo1 : 240,166,111
Combo2 : 162,126,235
Combo3 : 90,220,198
Combo4 : 132,183,244

[HitObjects]
80,324,1370,6,0,L|64:228,1,80,0|0,1:3|0:0,0:0:0:0:
208,208,1703,1,0,0:0:0:0:
55,302,1869,2,0,L|56:205,1,80,2|0,2:0|0:0,0:0:0:0:
201,206,2202,1,0,0:0:0:0:
34,277,2369,6,0,L|52:182,1,80,2|0,2:0|0:0,0:0:0:0:
196,203,2702,1,0,0:0:0:0:
18,249,2869,2,0,L|52:158,1,80,2|0,2:0|0:0,0:0:0:0:
163,199,3202,1,0,0:0:0:0:
304,228,3369,6,0,L|338:137,1,80,2|0,0:0|0:0,0:0:0:0:
200,104,3703,2,0,L|166:13,1,80,2|0,0:0|0:0,0:0:0:0:
452,80,4036,6,0,L|488:184,1,80,2|0,0:0|0:0,0:0:0:0:
380,184,4369,1,0,0:0:0:0:
240,168,4536,2,0,L|204:272,1,80,2|2,0:0|0:0,0:0:0:0:
312,272,4869,1,0,0:0:0:0:
452,264,5036,6,0,L|488:368,1,80,2|2,0:0|0:0,0:0:0:0:
229,243,5536,2,0,P|221:195|317:123,1,160,0|0,0:0|0:0,0:0:0:0:
176,184,6036,6,0,L|156:96,1,80,2|0,0:0|0:0,0:0:0:0:
276,44,6369,2,0,L|368:60,1,80,2|2,0:0|0:0,0:0:0:0:
88,340,6703,6,0,L|40:256,1,80,2|0,0:0|0:0,0:0:0:0:
184,228,7036,1,0,0:0:0:0:
44,108,7203,2,0,L|144:96,2,80,2|0|0,0:0|0:0|0:0,0:0:0:0:
184,228,7703,6,0,L|232:144,1,80,2|0,0:0|0:0,0:0:0:0:
88,116,8036,1,0,0:0:0:0:
228,16,8203,2,0,L|128:0,2,80,2|0|0,0:0|0:0|0:0,0:0:0:0:
384,12,8703,5,2,0:0:0:0:
409,85,8869,1,0,0:0:0:0:
374,155,9036,1,2,0:0:0:0:
300,178,9202,1,2,0:0:0:0:
160,244,9369,6,0,L|172:344,1,80,2|0,0:0|0:0,0:0:0:0:
300,360,9703,1,0,0:0:0:0:
160,216,9869,2,0,L|68:200,2,80,2|0|0,0:0|0:0|0:0,0:0:0:0:
428,160,10369,6,0,P|472:216|396:264,1,160,2|2,0:0|0:0,0:0:0:0:
164,40,11036,2,0,L|176:132,1,80,2|0,0:0|0:0,0:0:0:0:
316,112,11369,2,0,L|328:204,1,80,2|0,0:0|0:0,0:0:0:0:
468,184,11703,2,0,L|480:276,1,80,2|2,0:0|0:0,0:0:0:0:
136,344,12036,6,0,P|108:292|204:232,1,160,2|0,0:0|0:0,0:0:0:0:
308,192,12536,2,0,L|400:176,2,80,2|0|0,0:0|0:0|0:0,0:0:0:0:
188,144,13036,6,0,L|180:56,1,80,2|0,0:0|0:0,0:0:0:0:
300,44,13369,1,2,0:0:0:0:
164,360,13536,2,0,L|72:344,2,80,0|0|0,0:0|0:0|0:0,0:0:0:0:
320,316,14036,6,0,L|328:228,1,80,2|0,0:0|0:0,0:0:0:0:
180,216,14369,2,0,L|172:128,1,80,2|0,0:0|0:0,0:0:0:0:
432,192,14703,6,0,P|460:140|364:80,1,160,2|0,0:0|0:0,0:0:0:0:
276,44,15203,2,0,L|372:40,1,80,2|0,0:0|0:0,0:0:0:0:
434,36,15536,1,0,0:0:0:0:
308,360,15703,6,0,L|404:352,2,80,2|0|0,0:0|0:0|0:0,0:0:0:0:
176,336,16203,2,0,L|196:248,1,80,2|0,0:0|0:0,0:0:0:0:
304,240,16536,1,2,0:0:0:0:
452,328,16703,6,0,L|356:308,1,80,2|0,0:0|0:0,0:0:0:0:
500,184,17036,2,0,L|404:204,1,80,2|0,0:0|0:0,0:0:0:0:
36,332,17369,5,0,1:0:0:0:
316,268,17703,1,0,1:0:0:0:
188,272,18036,1,0,1:0:0:0:
468,336,18370,1,0,1:0:0:0:
176,96,18703,5,0,1:0:0:0:
416,100,19036,1,0,1:0:0:0:
136,192,19369,1,0,1:0:0:0:
376,196,19703,2,0,L|292:212,1,80,0|0,1:0|1:0,0:0:0:0:
64,348,20036,6,0,L|160:336,1,80,0|0,1:0|1:0,0:0:0:0:
28,200,20369,2,0,L|16:292,1,80,0|0,1:0|1:0,0:0:0:0:
400,372,20703,2,0,L|304:360,1,80,0|0,1:0|1:0,0:0:0:0:
436,224,21036,2,0,L|448:316,1,80,0|0,1:0|1:0,0:0:0:0:
96,48,21369,5,0,1:0:0:0:
63,70,21452,1,0,1:0:0:0:
41,103,21535,1,0,1:0:0:0:
35,142,21618,1,0,1:0:0:0:
44,181,21702,1,0,1:0:0:0:
68,212,21785,1,0,0:0:0:0:
103,232,21868,1,0,0:0:0:0:
143,236,21952,1,0,1:0:0:0:
364,256,22036,5,2,0:0:0:0:
464,236,22203,1,0,1:0:0:0:
160,284,22369,1,4,1:3:0:0:
152,260,22703,6,0,L|257:242,1,89.9999972534181,0|0,1:0|0:0,0:0:0:0:
378,163,23036,1,8,0:0:0:0:
228,50,23203,1,2,2:2:0:0:
189,81,23286,1,0,0:0:0:0:
177,129,23369,1,0,0:0:0:0:
198,174,23453,1,0,0:0:0:0:
243,195,23536,1,0,1:0:0:0:
386,227,23703,2,0,L|405:125,1,89.9999972534181,8|0,2:0|0:0,0:0:0:0:
130,259,24036,6,0,P|76:249|24:270,2,89.9999972534181,0|0|8,1:0|0:0|0:0,0:0:0:0:
243,195,24536,2,0,L|304:199,2,44.999998626709,0|0|2,0:0|0:0|0:0,0:0:0:0:
117,216,24869,1,0,1:0:0:0:
425,226,25036,2,0,L|440:124,1,89.9999972534181,8|0,0:0|0:0,0:0:0:0:
193,324,25369,6,0,L|174:227,1,89.9999972534181,0|0,1:2|0:0,0:0:0:0:
287,197,25703,1,8,0:0:0:0:
158,67,25869,1,2,0:0:0:0:
123,95,25953,1,0,0:0:0:0:
107,136,26036,1,0,0:0:0:0:
124,177,26119,1,0,0:0:0:0:
162,201,26203,1,0,1:0:0:0:
308,208,26369,2,0,L|429:202,1,89.9999972534181,8|0,0:0|0:0,0:0:0:0:
167,300,26703,6,0,L|157:194,1,89.9999972534181,0|0,1:0|0:0,0:0:0:0:
276,172,27036,2,0,L|266:66,1,89.9999972534181,8|2,0:0|0:0,0:0:0:0:
131,68,27369,2,0,L|61:61,2,44.999998626709,0|0|0,0:0|0:0|1:0,0:0:0:0:
280,116,27703,2,0,L|395:108,1,89.9999972534181,8|0,0:0|1:0,0:0:0:0:
129,301,28036,6,0,L|116:187,1,89.9999972534181,4|0,1:2|0:0,0:0:0:0:
248,182,28369,1,8,0:0:0:0:
106,248,28536,2,0,L|93:134,1,89.9999972534181,2|0,0:0|0:0,0:0:0:0:
221,128,28869,1,0,1:0:0:0:
355,138,29036,2,0,L|231:129,1,89.9999972534181,8|0,0:0|0:0,0:0:0:0:
123,222,29369,6,0,L|134:120,1,89.9999972534181,0|2,1:0|0:0,0:0:0:0:
276,228,29703,2,0,L|372:232,1,89.9999972534181,8|0,0:0|0:0,0:0:0:0:
247,133,30036,2,0,L|174:141,2,44.999998626709,2|0|0,0:0|0:0|1:0,0:0:0:0:
402,158,30369,1,8,0:0:0:0:
109,80,30703,5,0,1:0:0:0:
99,169,30869,1,2,0:0:0:0:
230,171,31036,1,8,0:0:0:0:
240,260,31202,1,2,0:0:0:0:
110,251,31369,1,0,0:0:0:0:
100,340,31535,1,0,1:0:0:0:
252,341,31703,2,0,L|368:342,1,89.9999972534181,8|0,0:0|0:0,0:0:0:0:
78,307,32036,5,0,1:0:0:0:
87,226,32203,1,0,0:0:0:0:
131,158,32369,1,8,0:0:0:0:
210,139,32536,1,0,0:0:0:0:
447,148,32703,2,0,L|455:48,1,89.9999972534181,2|0,0:0|1:0,0:0:0:0:
326,60,33036,1,8,0:0:0:0:
172,104,33203,2,0,L|236:114,1,44.999998626709,2|0,0:0|0:0,0:0:0:0:
394,198,33369,5,4,1:2:0:0:
394,198,33536,1,2,0:0:0:0:
266,198,33703,1,8,0:0:0:0:
266,198,33869,1,2,0:0:0:0:
411,110,34036,5,0,0:0:0:0:
411,110,34203,1,2,1:2:0:0:
283,110,34370,1,8,0:0:0:0:
283,110,34536,1,2,0:0:0:0:
134,184,34703,5,2,0:0:0:0:
103,91,34869,1,0,1:0:0:0:
255,171,35036,1,8,0:0:0:0:
286,264,35202,1,2,0:0:0:0:
417,227,35369,5,0,1:0:0:0:
448,134,35535,1,2,0:0:0:0:
294,87,35702,1,8,0:0:0:0:
263,180,35868,1,0,0:0:0:0:
159,268,36036,5,0,1:0:0:0:
56,221,36203,1,0,0:0:0:0:
159,268,36369,1,8,0:0:0:0:
56,221,36536,1,2,0:0:0:0:
231,201,36703,5,0,0:0:0:0:
340,154,36870,1,0,1:0:0:0:
231,201,37036,1,10,0:0:0:0:
340,154,37203,1,0,0:0:0:0:
201,244,37369,5,2,2:0:0:0:
180,127,37536,1,0,1:0:0:0:
320,155,37703,1,8,0:0:0:0:
341,38,37870,1,2,0:0:0:0:
475,157,38036,5,0,1:0:0:0:
363,157,38203,1,2,2:0:0:0:
475,157,38369,1,8,0:0:0:0:
363,157,38536,1,2,0:0:0:0:
102,285,38703,5,4,0:0:0:0:
90,198,38869,1,2,0:0:0:0:
180,125,39036,1,8,0:0:0:0:
322,209,39203,1,2,0:0:0:0:
334,122,39369,1,0,0:0:0:0:
244,49,39536,1,0,1:0:0:0:
111,208,39703,1,10,0:0:0:0:
99,121,39869,1,0,0:0:0:0:
415,288,40036,5,0,1:0:0:0:
427,198,40202,1,2,0:0:0:0:
334,122,40369,1,8,0:0:0:0:
187,209,40536,1,2,0:0:0:0:
175,119,40702,1,0,0:0:0:0:
268,44,40869,1,0,1:0:0:0:
405,208,41036,1,10,0:0:0:0:
289,254,41203,2,0,L|214:267,1,44.999998626709,2|0,0:0|0:0,0:0:0:0:
441,323,41369,5,4,0:0:0:0:
445,242,41536,1,0,0:0:0:0:
318,213,41703,1,8,0:0:0:0:
314,132,41870,1,0,0:0:0:0:
169,109,42036,1,2,2:0:0:0:
64,111,42203,1,0,1:0:0:0:
181,165,42369,1,8,0:0:0:0:
76,167,42536,1,0,0:0:0:0:
367,247,42703,5,0,1:0:0:0:
386,151,42869,1,2,0:0:0:0:
257,152,43036,1,8,0:0:0:0:
238,56,43202,1,0,0:0:0:0:
87,143,43369,1,2,0:0:0:0:
203,143,43536,1,0,1:0:0:0:
87,143,43703,1,8,0:0:0:0:
203,143,43869,1,0,0:0:0:0:
468,48,44036,6,0,P|472:124|368:208,1,179.999994506836,4|2,0:3|0:0,0:0:0:0:
296,216,44536,1,0,0:0:0:0:
424,244,44703,1,2,0:3:0:0:
232,376,45036,2,0,L|340:352,1,89.9999972534181,0|0,0:0|0:0,0:0:0:0:
188,312,45369,6,0,L|-16:284,2,179.999994506836,2|0|2,0:3|0:0|0:3,0:0:0:0:
464,260,46369,2,0,L|352:272,1,89.9999972534181,0|0,0:3|0:0,0:0:0:0:
192,232,46703,6,0,P|152:188|240:108,1,179.999994506836,2|0,0:3|0:0,0:0:0:0:
480,36,47369,2,0,P|404:24|276:24,1,179.999994506836,2|0,0:3|0:0,0:0:0:0:
204,44,47869,1,0,0:0:0:0:
392,348,48036,6,0,P|432:292|336:216,1,179.999994506836,2|0,0:3|0:0,0:0:0:0:
280,200,48536,1,0,0:0:0:0:
184,188,48703,1,2,0:3:0:0:
408,124,49036,1,0,0:3:0:0:
80,228,49369,6,0,P|80:168|196:88,1,179.999994506836,2|0,0:3|0:0,0:0:0:0:
268,96,49869,1,0,0:0:0:0:
132,56,50036,1,2,0:3:0:0:
352,364,50369,2,0,L|364:264,1,89.9999972534181,0|0,0:0|0:0,0:0:0:0:
180,192,50703,6,0,L|376:164,2,179.999994506836,2|0|2,0:3|0:0|0:3,0:0:0:0:
376,352,51703,2,0,L|256:328,1,89.9999972534181,0|0,0:0|0:0,0:0:0:0:
108,232,52036,6,0,P|104:164|204:104,1,179.999994506836,2|0,0:3|0:0,0:0:0:0:
384,64,52703,2,0,L|396:256,1,179.999994506836,2|0,0:3|0:0,0:0:0:0:
272,260,53203,1,0,0:0:0:0:
152,240,53369,6,0,L|146:336,1,89.9999972534181,2|0,0:3|0:0,0:0:0:0:
280,156,53703,2,0,L|286:252,1,89.9999972534181,2|0,0:0|0:0,0:0:0:0:
144,72,54036,2,0,L|138:168,1,89.9999972534181,2|0,0:3|0:0,0:0:0:0:
272,72,54369,1,2,0:0:0:0:
100,180,54536,1,0,0:0:0:0:
432,344,54703,6,0,P|464:292|384:212,1,179.999994506836,4|2,0:0|0:0,0:0:0:0:
248,220,55203,1,0,0:0:0:0:
400,108,55369,2,0,L|184:88,1,179.999994506836,8|0,0:0|0:0,0:0:0:0:
86,123,55869,1,0,0:0:0:0:
328,364,56036,6,0,L|480:348,2,134.999995880127,0|0|0,1:0|1:0|1:0,1:0:0:0:
184,336,56703,1,8,0:0:0:0:
324,280,56869,1,0,0:0:0:0:
168,224,57036,1,2,0:0:0:0:
336,172,57203,1,0,0:0:0:0:
24,100,57369,6,0,P|12:156|100:236,1,179.999994506836,0|2,1:0|0:0,0:0:0:0:
234,335,57869,1,0,1:0:0:0:
80,348,58036,2,0,L|56:232,1,89.9999972534181,8|0,0:0|0:0,0:0:0:0:
196,204,58369,1,2,0:0:0:0:
70,120,58536,1,0,1:0:0:0:
348,48,58703,6,0,L|504:88,2,134.999995880127,0|0|0,1:0|0:0|1:0,0:0:0:0:
464,356,59369,1,8,0:0:0:0:
191,331,59703,1,0,2:0:0:0:
179,288,59786,1,0,0:0:0:0:
196,248,59870,1,0,1:0:0:0:
236,228,59953,1,0,0:0:0:0:
488,56,60036,6,0,P|500:112|412:192,1,179.999994506836,0|2,1:0|0:0,0:0:0:0:
280,180,60536,1,0,0:0:0:0:
147,231,60703,2,0,P|135:287|223:367,1,179.999994506836,8|2,2:0|0:0,0:0:0:0:
314,281,61203,1,0,1:0:0:0:
156,216,61369,6,0,L|4:200,2,134.999995880127,0|0|0,1:0|0:0|2:0,0:0:0:0:
296,272,62036,1,8,0:0:0:0:
156,216,62202,1,0,0:0:0:0:
312,160,62369,1,2,0:0:0:0:
144,108,62536,1,0,0:0:0:0:
452,40,62703,6,0,L|484:236,1,179.999994506836,0|2,1:0|0:0,0:0:0:0:
344,260,63203,1,0,0:0:0:0:
76,240,63369,2,0,L|56:340,1,89.9999972534181,8|0,0:0|0:0,0:0:0:0:
176,132,63703,1,2,2:2:0:0:
48,100,63869,1,0,2:0:0:0:
344,260,64036,5,0,1:2:0:0:
472,236,64203,2,0,L|488:132,1,89.9999972534181,8|0,1:2|1:2,0:0:0:0:
328,248,64536,1,8,1:2:0:0:
456,224,64703,2,0,L|472:120,1,89.9999972534181,8|0,2:2|2:0,0:0:0:0:
324,104,65036,2,0,L|264:96,1,44.999998626709,0|0,1:0|1:0,0:0:0:0:
472,108,65203,2,0,L|504:68,1,44.999998626709,0|0,1:0|1:0,0:0:0:0:
302,187,65369,6,0,L|101:199,1,179.999994506836,4|8,0:0|0:0,0:0:0:0:
261,115,65869,1,2,0:0:0:0:
298,140,65953,1,0,0:0:0:0:
310,183,66036,1,0,0:0:0:0:
297,225,66119,1,0,0:0:0:0:
261,253,66203,1,0,1:0:0:0:
96,287,66369,2,0,L|79:185,1,89.9999972534181,8|0,0:0|2:0,0:0:0:0:
351,303,66703,6,0,L|458:291,1,89.9999972534181,0|0,1:0|0:0,0:0:0:0:
299,231,67036,2,0,L|199:225,1,89.9999972534181,8|0,0:0|0:0,0:0:0:0:
365,338,67369,2,0,L|375:132,1,179.999994506836,2|8,0:0|0:0,0:0:0:0:
233,158,67869,1,2,0:0:0:0:
119,285,68036,6,0,L|103:174,1,89.9999972534181,0|0,1:0|0:0,0:0:0:0:
388,325,68369,2,0,L|404:214,1,89.9999972534181,8|0,0:0|0:0,0:0:0:0:
253,172,68703,2,0,L|354:155,1,89.9999972534181,2|0,0:0|1:0,0:0:0:0:
480,104,69036,1,8,0:0:0:0:
348,94,69203,1,2,0:0:0:0:
76,222,69369,6,0,L|272:204,1,179.999994506836,0|8,1:0|0:0,0:0:0:0:
436,222,70036,2,0,L|240:204,1,179.999994506836,2|8,0:0|0:0,0:0:0:0:
68,297,70703,2,0,L|59:184,1,89.9999972534181,4|0,0:0|0:0,0:0:0:0:
171,205,71036,2,0,P|224:173|154:93,1,179.999994506836,8|2,0:0|0:0,0:0:0:0:
68,90,71536,1,0,1:0:0:0:
213,266,71703,2,0,L|337:261,1,89.9999972534181,8|0,0:0|0:0,0:0:0:0:
434,262,72036,6,0,P|422:182|307:137,1,179.999994506836,0|8,1:0|0:0,0:0:0:0:
215,132,72536,1,2,0:0:0:0:
352,134,72703,2,0,P|395:182|333:280,1,179.999994506836,2|8,0:0|2:0,0:0:0:0:
218,273,73203,1,2,0:0:0:0:
341,273,73369,6,0,L|139:275,1,179.999994506836,0|8,1:0|2:0,0:0:0:0:
275,273,73869,1,0,0:0:0:0:
154,273,74036,2,0,L|141:161,1,89.9999972534181,2|0,0:0|1:0,0:0:0:0:
197,132,74286,1,0,0:0:0:0:
356,207,74369,2,0,L|462:192,1,89.9999972534181,8|0,0:0|0:0,0:0:0:0:
331,292,74703,6,0,L|211:278,1,89.9999972534181,0|0,1:0|0:0,0:0:0:0:
94,329,75036,1,8,0:0:0:0:
288,242,75286,1,8,0:0:0:0:
86,164,75536,1,0,1:0:0:0:
361,232,75703,2,0,L|454:222,1,89.9999972534181,8|2,0:0|0:0,0:0:0:0:
396,192,75953,1,0,0:0:0:0:
211,229,76036,6,0,P|153:178|231:124,1,179.999994506836,4|8,0:0|0:0,0:0:0:0:
331,119,76536,1,0,0:0:0:0:
199,124,76703,2,0,L|90:113,1,89.9999972534181,2|0,0:0|1:0,0:0:0:0:
233,253,77036,2,0,L|339:242,1,89.9999972534181,8|0,0:0|0:0,0:0:0:0:
53,311,77369,6,0,L|36:206,1,89.9999972534181,0|0,1:0|0:0,0:0:0:0:
180,278,77703,2,0,L|300:289,1,89.9999972534181,8|0,0:0|0:0,0:0:0:0:
402,276,78036,2,0,P|393:215|271:144,1,179.999994506836,0|8,0:0|0:0,0:0:0:0:
166,138,78536,1,2,0:0:0:0:
400,348,78703,6,0,L|409:150,1,179.999994506836,4|8,0:0|0:0,0:0:0:0:
125,349,79369,2,0,L|116:151,1,179.999994506836,2|8,0:0|0:0,0:0:0:0:
238,122,79869,1,0,0:0:0:0:
123,264,80036,2,0,L|24:248,1,89.9999972534181,0|0,1:0|0:0,0:0:0:0:
146,178,80369,2,0,L|238:163,1,89.9999972534181,8|0,0:0|0:0,0:0:0:0:
465,248,80703,2,0,L|365:232,1,89.9999972534181,2|0,0:0|1:0,0:0:0:0:
230,344,81036,2,0,L|341:329,1,89.9999972534181,8|0,0:0|0:0,0:0:0:0:
66,296,81369,6,0,L|49:202,1,89.9999972534181,4|0,0:0|0:0,0:0:0:0:
162,164,81703,1,8,0:0:0:0:
45,150,81869,1,0,0:0:0:0:
361,271,82036,6,0,L|378:177,1,89.9999972534181,2|0,0:0|1:0,0:0:0:0:
237,143,82370,1,8,0:0:0:0:
382,125,82536,1,0,0:0:0:0:
130,223,82703,6,0,P|82:167|161:105,1,179.999994506836,0|8,1:0|0:0,0:0:0:0:
273,102,83203,1,0,0:0:0:0:
153,148,83369,2,0,L|270:138,1,89.9999972534181,2|0,0:0|1:0,0:0:0:0:
389,142,83703,1,8,0:0:0:0:
245,141,83869,1,2,0:0:0:0:
469,233,84036,6,0,L|259:212,1,179.999994506836,4|8,0:0|0:0,0:0:0:0:
159,278,84536,1,0,0:0:0:0:
287,223,84703,1,2,0:0:0:0:
147,196,84869,2,0,L|130:132,1,44.999998626709,0|0,1:0|0:0,0:0:0:0:
300,145,85036,2,0,L|426:159,1,89.9999972534181,8|0,0:0|0:0,0:0:0:0:
237,153,85369,6,0,L|116:170,1,89.9999972534181,0|0,1:0|2:0,0:0:0:0:
255,240,85703,1,8,0:0:0:0:
463,239,85953,1,8,2:0:0:0:
229,320,86203,1,0,1:0:0:0:
476,261,86369,1,8,2:0:0:0:
212,56,86703,6,0,L|80:72,2,89.9999972534181,2|0|0,0:0|0:0|0:0,0:0:0:0:
332,104,87203,2,0,L|352:204,1,89.9999972534181,2|0,0:0|0:0,0:0:0:0:
208,192,87536,2,0,L|188:292,1,89.9999972534181,2|0,0:0|0:0,0:0:0:0:
316,320,87869,1,0,0:0:0:0:
52,356,88036,6,0,L|32:256,1,89.9999972534181,2|0,0:0|0:0,0:0:0:0:
172,248,88369,2,0,L|220:156,1,89.9999972534181,2|0,0:0|0:0,0:0:0:0:
444,44,88703,6,0,P|480:132|408:180,1,179.999994506836,2|0,0:0|0:0,0:0:0:0:
296,192,89203,2,0,L|272:296,1,89.9999972534181,2|0,0:0|0:0,0:0:0:0:
408,372,89536,2,0,L|304:360,2,89.9999972534181,2|0|0,0:0|0:0|0:0,0:0:0:0:
268,120,90036,6,0,L|384:112,1,89.9999972534181,2|0,0:0|0:0,0:0:0:0:
484,24,90369,2,0,L|368:16,1,89.9999972534181,2|0,0:0|0:0,0:0:0:0:
136,360,90703,6,0,L|48:336,2,89.9999972534181,4|0|2,1:3|0:0|0:0,0:0:0:0:
256,332,91203,2,0,L|344:308,1,89.9999972534181,4|0,0:2|0:0,0:0:0:0:
188,268,91536,2,0,L|108:216,2,89.9999972534181,4|0|2,2:2|0:0|0:0,0:0:0:0:
464,32,92036,6,0,L|488:132,1,89.9999972534181,4|0,0:2|0:0,0:0:0:0:
348,200,92369,2,0,L|436:224,1,89.9999972534181,4|0,0:0|0:0,0:0:0:0:
168,196,92703,6,0,L|152:96,1,89.9999972534181,4|0,0:0|0:0,0:0:0:0:
256,68,93036,1,2,0:0:0:0:
132,132,93203,2,0,L|148:32,1,89.9999972534181,4|0,0:0|0:0,0:0:0:0:
280,364,93536,2,0,L|264:264,1,89.9999972534181,4|0,0:0|0:0,0:0:0:0:
152,260,93869,1,2,0:0:0:0:
420,264,94036,6,0,L|520:248,1,89.9999972534181,4|2,0:0|0:0,0:0:0:0:
392,360,94369,2,0,L|320:352,1,44.999998626709,0|0,1:0|1:0,0:0:0:0:
188,260,94536,2,0,L|128:272,1,44.999998626709,0|0,1:0|1:0,0:0:0:0:
400,88,94703,6,0,P|428:148|344:240,1,179.999994506836,4|8,0:0|0:0,0:0:0:0:
236,252,95203,2,0,L|156:252,2,44.999998626709,2|0|0,0:0|0:0|0:0,0:0:0:0:
372,368,95536,1,0,1:0:0:0:
283,352,95703,1,8,0:0:0:0:
412,340,95869,1,0,0:0:0:0:
136,364,96036,6,0,L|24:376,2,89.9999972534181,0|0|8,1:0|2:0|0:0,0:0:0:0:
276,348,96536,1,0,0:0:0:0:
291,306,96619,1,0,0:0:0:0:
286,262,96702,1,2,0:0:0:0:
262,224,96785,1,0,0:0:0:0:
223,203,96869,1,0,1:0:0:0:
52,176,97036,2,0,L|140:160,1,89.9999972534181,8|0,0:0|0:0,0:0:0:0:
428,84,97369,6,0,L|224:52,1,179.999994506836,0|8,1:0|0:0,0:0:0:0:
384,48,97869,1,0,0:0:0:0:
140,192,98036,2,0,L|-12:220,2,134.999995880127,2|0|0,0:0|0:0|0:0,0:0:0:0:
264,288,98703,6,0,L|384:308,2,89.9999972534181,0|0|8,1:0|0:0|0:0,0:0:0:0:
128,304,99203,2,0,L|68:316,2,44.999998626709,2|0|2,0:0|0:0|0:0,0:0:0:0:
252,276,99536,1,0,1:0:0:0:
112,216,99703,2,0,L|88:108,1,89.9999972534181,8|0,0:0|2:0,0:0:0:0:
408,96,100036,6,0,P|444:144|336:200,1,179.999994506836,0|8,1:0|0:0,0:0:0:0:
244,180,100536,1,2,0:0:0:0:
239,224,100619,1,0,0:0:0:0:
235,269,100702,1,0,0:0:0:0:
120,80,100869,2,0,L|160:192,1,89.9999972534181,0|8,1:0|0:0,0:0:0:0:
264,208,101203,1,0,0:0:0:0:
36,24,101369,6,0,L|24:124,1,89.9999972534181,0|0,1:0|0:0,0:0:0:0:
168,368,101703,2,0,L|140:256,1,89.9999972534181,8|0,2:0|0:0,0:0:0:0:
288,24,102036,2,0,L|172:40,1,89.9999972534181,2|0,0:0|1:0,0:0:0:0:
356,88,102369,2,0,L|504:108,1,134.999995880127,8|0,0:0|0:0,0:0:0:0:
244,156,102703,6,0,L|152:168,2,89.9999972534181,0|2|8,1:0|0:0|0:0,0:0:0:0:
376,372,103203,1,2,0:0:0:0:
381,327,103286,1,0,0:0:0:0:
368,285,103369,1,2,0:0:0:0:
338,251,103452,1,0,0:0:0:0:
297,233,103536,1,0,0:0:0:0:
152,260,103703,2,0,L|140:360,1,89.9999972534181,8|0,0:0|0:0,0:0:0:0:
404,44,104036,6,0,L|416:144,1,89.9999972534181,0|0,1:0|1:0,0:0:0:0:
280,132,104369,2,0,L|120:152,2,134.999995880127,8|8|8,0:0|0:0|0:0,0:0:0:0:
328,144,104952,1,0,0:0:0:0:
128,284,105036,5,8,0:0:0:0:
120,240,105119,1,8,0:0:0:0:
139,199,105202,1,8,0:0:0:0:
178,178,105285,1,0,0:0:0:0:
400,340,105369,6,0,L|500:328,2,89.9999972534181,4|0|8,1:3|0:0|0:0,0:0:0:0:
268,316,105869,2,0,L|280:264,1,44.999998626709,0|0,0:0|0:0,0:0:0:0:
372,248,106036,2,0,L|384:196,1,44.999998626709,0|0,0:0|0:0,0:0:0:0:
292,160,106203,2,0,L|196:152,1,89.9999972534181,0|8,1:0|0:0,0:0:0:0:
352,100,106536,1,0,0:0:0:0:
104,36,106703,6,0,L|-8:56,2,89.9999972534181,0|0|8,1:0|0:0|0:0,0:0:0:0:
248,48,107203,1,2,0:0:0:0:
266,88,107286,1,0,0:0:0:0:
264,133,107369,1,0,0:0:0:0:
241,171,107452,1,0,0:0:0:0:
203,195,107536,1,0,1:0:0:0:
52,224,107703,2,0,L|40:340,1,89.9999972534181,8|0,0:0|0:0,0:0:0:0:
388,120,108036,6,0,L|400:236,1,89.9999972534181,0|0,1:0|0:0,0:0:0:0:
280,244,108369,1,8,0:0:0:0:
160,280,108536,2,0,L|140:344,2,44.999998626709,0|0|0,0:0|0:0|0:0,0:0:0:0:
288,240,108869,1,0,1:0:0:0:
144,144,109036,2,0,L|40:128,1,89.9999972534181,8|2,0:0|0:0,0:0:0:0:
364,352,109369,6,0,L|484:332,2,89.9999972534181,0|0|8,1:0|1:0|0:0,0:0:0:0:
248,332,109869,2,0,L|188:320,1,44.999998626709,8|0,0:0|0:0,0:0:0:0:
348,272,110119,2,0,L|408:260,1,44.999998626709,8|0,0:0|0:0,0:0:0:0:
276,188,110369,2,0,L|384:168,1,89.9999972534181,8|0,0:0|1:3,0:0:0:0:
108,76,110703,6,0,L|4:60,2,89.9999972534181,4|0|8,0:0|0:0|0:0,0:0:0:0:
236,52,111203,2,0,L|264:116,1,44.999998626709,0|0,0:0|0:0,0:0:0:0:
164,148,111369,2,0,L|136:212,1,44.999998626709,2|0,0:0|0:0,0:0:0:0:
256,248,111536,2,0,L|376:236,1,89.9999972534181,0|8,1:0|0:0,0:0:0:0:
444,224,111869,1,0,0:0:0:0:
188,352,112036,6,0,L|64:372,2,89.9999972534181,0|0|8,1:0|0:0|0:0,0:0:0:0:
320,332,112536,1,2,0:0:0:0:
360,315,112619,1,0,0:0:0:0:
381,276,112702,1,2,0:0:0:0:
371,233,112785,1,0,0:0:0:0:
336,206,112869,1,0,1:0:0:0:
208,172,113036,1,8,0:0:0:0:
352,132,113203,1,0,0:0:0:0:
84,52,113369,6,0,L|76:168,1,89.9999972534181,0|0,1:0|0:0,0:0:0:0:
200,132,113703,1,8,0:0:0:0:
328,112,113869,2,0,L|392:100,2,44.999998626709,2|0|0,0:0|0:0|2:0,0:0:0:0:
200,132,114203,1,0,1:0:0:0:
80,148,114369,2,0,L|72:264,1,89.9999972534181,8|2,0:0|0:0,0:0:0:0:
360,316,114703,6,0,L|472:300,2,89.9999972534181,0|0|8,1:0|1:0|0:0,0:0:0:0:
232,300,115203,2,0,L|176:292,1,44.999998626709,0|8,0:0|0:0,0:0:0:0:
312,232,115453,2,0,L|368:224,1,44.999998626709,0|0,0:0|1:0,0:0:0:0:
216,176,115703,2,0,L|116:160,1,89.9999972534181,8|0,0:0|0:0,0:0:0:0:
312,16,116036,5,2,0:0:0:0:
374,75,116202,1,0,0:0:0:0:
357,160,116369,1,2,0:0:0:0:
276,190,116536,1,0,0:0:0:0:
144,328,116703,5,2,0:0:0:0:
81,268,116869,1,0,0:0:0:0:
98,183,117036,1,2,0:0:0:0:
179,153,117203,1,0,0:0:0:0:
404,256,117369,5,4,1:3:0:0:
351,326,132036,6,0,P|400:274|345:217,1,160,2|0,0:0|0:0,0:0:0:0:
159,335,132703,2,0,P|54:237|168:136,1,320,2|2,0:0|0:0,0:0:0:0:
299,129,133703,1,0,0:0:0:0:
113,146,134036,6,0,L|450:193,2,320,2|0|2,0:0|0:0|0:0,0:0:0:0:
396,340,136036,6,0,L|404:176,1,160,2|0,0:0|0:0,0:0:0:0:
267,216,136703,2,0,L|259:52,1,160,2|0,0:0|0:0,0:0:0:0:
404,57,137369,1,2,0:0:0:0:
253,57,137703,1,0,0:0:0:0:
436,186,138036,6,0,L|126:340,2,320,2|0|2,0:0|0:0|0:0,0:0:0:0:
180,327,140036,6,0,L|157:148,1,160,2|0,0:0|0:0,0:0:0:0:
326,249,140703,2,0,P|387:208|238:90,1,320,2|2,0:0|0:0,0:0:0:0:
128,67,141703,1,0,0:0:0:0:
354,123,142036,6,0,L|14:89,2,320,2|0|2,0:0|0:0|0:0,0:0:0:0:
166,83,144036,6,0,P|140:140|172:235,1,160,2|0,0:0|0:0,0:0:0:0:
315,222,144703,2,0,L|479:299,1,160,2|0,0:0|0:0,0:0:0:0:
256,323,145369,1,2,0:0:0:0:
75,317,145703,1,0,0:0:0:0:
361,169,146036,6,0,L|12:169,2,320,2|2|0,0:0|0:0|0:0,0:0:0:0:
30,162,148036,5,4,0:0:0:0:
397,265,149036,1,0,0:0:0:0:
230,261,149369,1,2,0:0:0:0:
68,263,149703,1,0,0:0:0:0:
277,322,150036,6,0,P|339:285|261:230,1,179.999994506836,2|0,0:0|0:0,0:0:0:0:
135,240,150703,2,0,P|73:203|151:148,1,179.999994506836,2|0,0:0|0:0,0:0:0:0:
295,108,151369,1,2,0:0:0:0:
100,105,151703,1,0,0:0:0:0:
413,108,152036,5,2,0:0:0:0:
153,53,152536,1,0,0:0:0:0:
447,268,153036,2,0,P|436:204|325:137,1,179.999994506836,2|2,0:0|0:0,0:0:0:0:
236,138,153536,1,0,0:0:0:0:
355,134,153703,1,0,0:0:0:0:
108,139,154036,5,2,0:0:0:0:
356,138,154536,1,0,0:0:0:0:
98,226,155036,1,2,0:0:0:0:
216,266,155369,2,0,L|225:70,1,179.999994506836,2|0,0:0|0:0,0:0:0:0:
383,87,156036,5,2,0:0:0:0:
103,201,156369,2,0,L|80:11,1,179.999994506836,0|0,0:0|0:0,0:0:0:0:
233,120,157036,2,0,P|290:138|414:107,2,179.999994506836,2|2|0,0:0|0:0|0:0,0:0:0:0:
414,326,158036,6,0,L|426:126,1,179.999994506836,2|0,0:0|0:0,0:0:0:0:
254,240,158703,2,0,L|242:40,1,179.999994506836,2|0,0:0|0:0,0:0:0:0:
62,74,159369,1,2,0:0:0:0:
256,76,159703,1,0,0:0:0:0:
50,113,160036,5,2,0:0:0:0:
352,264,160369,2,0,L|360:153,1,89.9999972534181,2|0,0:0|0:0,0:0:0:0:
252,340,160703,2,0,P|330:320|460:355,1,179.999994506836,2|2,0:0|0:0,0:0:0:0:
193,230,161369,1,2,0:0:0:0:
121,223,161536,1,0,0:0:0:0:
193,230,161703,1,0,0:0:0:0:
439,225,162036,5,2,0:0:0:0:
256,192,162203,12,0,163703,0:0:0:0:
156,344,164036,6,0,P|120:292|196:216,1,179.999994506836,2|0,0:0|0:0,0:0:0:0:
300,224,164536,2,0,L|316:124,1,89.9999972534181,0|2,0:0|0:0,0:0:0:0:
136,132,165036,2,0,L|184:32,1,89.9999972534181,0|0,0:0|0:0,0:0:0:0:
400,348,165369,5,2,0:0:0:0:
444,272,165535,1,0,0:0:0:0:
417,189,165702,1,0,0:0:0:0:
336,155,165868,1,0,0:0:0:0:
176,288,166036,5,0,0:0:0:0:
131,212,166202,1,0,0:0:0:0:
158,129,166369,1,2,0:0:0:0:
239,95,166535,1,0,0:0:0:0:
496,24,166703,6,0,L|480:124,1,89.9999972534181,2|0,0:0|0:0,0:0:0:0:
368,72,167036,2,0,L|352:172,1,89.9999972534181,0|0,0:0|0:0,0:0:0:0:
220,224,167369,5,2,0:0:0:0:
176,148,167535,1,0,0:0:0:0:
203,65,167702,1,0,0:0:0:0:
284,31,167868,1,0,0:0:0:0:
36,240,168036,6,0,L|16:368,1,89.9999972534181,2|0,0:0|0:0,0:0:0:0:
128,288,168369,2,0,L|240:312,1,89.9999972534181,0|0,0:0|0:0,0:0:0:0:
368,336,168703,2,0,P|424:304|352:232,1,179.999994506836,2|2,0:0|0:0,0:0:0:0:
100,188,169369,6,0,P|44:156|116:84,1,179.999994506836,2|0,0:0|0:0,0:0:0:0:
212,24,169869,2,0,L|120:24,1,89.9999972534181,0|2,0:0|0:0,0:0:0:0:
332,104,170369,2,0,L|356:192,1,89.9999972534181,0|0,0:0|0:0,0:0:0:0:
128,364,170703,5,2,0:0:0:0:
102,280,170869,1,0,0:0:0:0:
144,202,171036,1,2,0:0:0:0:
228,177,171202,1,0,0:0:0:0:
88,292,171369,5,2,0:0:0:0:
62,208,171535,1,0,0:0:0:0:
104,130,171702,1,2,0:0:0:0:
188,105,171868,1,0,0:0:0:0:
456,236,172036,6,0,L|472:340,1,89.9999972534181,0|0,1:0|1:0,0:0:0:0:
332,148,172369,2,0,L|316:252,1,89.9999972534181,0|0,1:0|1:0,0:0:0:0:
184,288,172703,2,0,L|200:392,1,89.9999972534181,0|0,1:0|1:0,0:0:0:0:
336,336,173036,2,0,P|388:332|436:352,1,89.9999972534181,0|0,1:0|1:0,0:0:0:0:
100,328,173369,5,0,1:0:0:0:
61,306,173452,1,0,1:0:0:0:
44,266,173535,1,0,1:0:0:0:
59,224,173619,1,0,1:0:0:0:
136,156,173703,5,0,1:0:0:0:
175,178,173786,1,0,1:0:0:0:
192,218,173869,1,0,1:0:0:0:
177,260,173953,1,0,1:0:0:0:
64,120,174036,6,0,L|120:20,1,89.9999972534181,2|0,0:0|1:0,0:0:0:0:
444,72,174369,1,4,1:3:0:0:
212,356,174703,6,0,L|108:340,1,89.9999972534181,0|0,1:0|0:0,0:0:0:0:
76,336,174953,1,0,0:0:0:0:
124,240,175036,2,0,L|240:224,1,89.9999972534181,8|0,2:0|0:0,0:0:0:0:
352,92,175369,1,2,0:0:0:0:
307,85,175452,1,0,0:0:0:0:
262,79,175535,1,0,1:0:0:0:
148,60,175703,1,8,0:0:0:0:
280,44,175869,1,0,0:0:0:0:
32,48,176036,6,0,L|16:156,1,89.9999972534181,0|0,1:0|0:0,0:0:0:0:
156,116,176369,1,8,0:0:0:0:
292,248,176536,1,2,0:0:0:0:
318,283,176619,1,0,0:0:0:0:
318,327,176702,1,0,0:0:0:0:
290,362,176786,1,0,0:0:0:0:
247,372,176869,1,0,1:0:0:0:
112,264,177036,2,0,L|96:372,1,89.9999972534181,8|0,0:0|0:0,0:0:0:0:
420,104,177369,6,0,L|456:212,1,89.9999972534181,0|0,1:0|0:0,0:0:0:0:
292,32,177703,2,0,L|276:140,1,89.9999972534181,8|0,0:0|0:0,0:0:0:0:
432,352,178036,1,2,0:0:0:0:
440,263,178202,1,0,1:0:0:0:
396,187,178369,1,8,0:0:0:0:
315,151,178535,1,0,2:0:0:0:
464,56,178703,5,0,1:0:0:0:
340,20,178869,1,0,0:0:0:0:
480,196,179036,2,0,L|492:296,1,89.9999972534181,8|2,0:0|0:0,0:0:0:0:
336,364,179369,1,0,0:0:0:0:
291,368,179452,1,0,0:0:0:0:
246,372,179535,1,0,1:0:0:0:
388,284,179703,2,0,P|432:280|504:296,1,89.9999972534181,8|0,0:0|0:0,0:0:0:0:
152,120,180036,6,0,L|284:104,2,89.9999972534181,0|2|8,1:0|0:0|0:0,0:0:0:0:
288,360,180536,1,0,0:0:0:0:
284,315,180619,1,0,0:0:0:0:
267,274,180703,1,2,2:0:0:0:
237,240,180786,1,0,0:0:0:0:
198,219,180869,1,0,1:0:0:0:
60,352,181036,2,0,L|164:336,1,89.9999972534181,8|0,0:0|0:0,0:0:0:0:
452,104,181369,6,0,L|468:224,1,89.9999972534181,0|0,1:0|0:0,0:0:0:0:
328,40,181703,2,0,L|312:160,1,89.9999972534181,8|0,0:0|0:0,0:0:0:0:
180,128,182036,1,2,2:0:0:0:
185,172,182119,1,0,0:0:0:0:
191,217,182202,1,0,1:0:0:0:
64,32,182369,2,0,L|48:152,1,89.9999972534181,8|0,0:0|0:0,0:0:0:0:
336,360,182703,6,0,L|448:344,1,89.9999972534181,0|0,1:0|2:0,0:0:0:0:
284,272,183036,2,0,L|172:256,1,89.9999972534181,8|0,2:0|2:0,0:0:0:0:
60,336,183369,1,2,0:0:0:0:
52,255,183535,1,0,1:0:0:0:
97,187,183702,1,8,0:0:0:0:
174,163,183868,1,0,0:0:0:0:
48,88,184036,6,0,L|156:76,1,89.9999972534181,0|2,1:0|0:0,0:0:0:0:
460,340,184369,2,0,L|472:240,1,89.9999972534181,8|0,0:0|0:0,0:0:0:0:
392,232,184619,1,8,0:0:0:0:
312,216,184703,2,0,L|300:116,1,89.9999972534181,0|0,0:0|1:0,0:0:0:0:
452,36,185036,2,0,L|340:16,1,89.9999972534181,8|2,0:0|1:0,0:0:0:0:
111,279,185369,6,0,L|316:245,1,179.999994506836,4|8,0:0|0:0,0:0:0:0:
168,196,185869,1,2,0:0:0:0:
168,196,185953,1,0,0:0:0:0:
168,196,186036,1,2,0:0:0:0:
303,132,186203,1,0,1:0:0:0:
148,188,186369,2,0,L|35:161,1,89.9999972534181,8|2,0:0|0:0,0:0:0:0:
311,296,186703,6,0,P|366:268|299:194,1,179.999994506836,4|8,0:0|0:0,0:0:0:0:
186,161,187203,1,0,0:0:0:0:
186,161,187286,1,0,0:0:0:0:
186,161,187369,1,2,0:0:0:0:
312,113,187536,1,0,1:0:0:0:
162,78,187703,2,0,L|57:69,1,89.9999972534181,8|0,0:0|0:0,0:0:0:0:
204,232,188036,6,0,L|424:209,1,179.999994506836,4|8,0:0|0:0,0:0:0:0:
256,144,188536,1,2,0:0:0:0:
256,144,188619,1,0,0:0:0:0:
256,144,188703,2,0,L|351:132,1,89.9999972534181,0|0,0:0|1:0,0:0:0:0:
196,56,189036,2,0,L|101:44,1,89.9999972534181,8|0,0:0|0:0,0:0:0:0:
377,79,189369,5,4,0:0:0:0:
485,145,189536,1,0,1:0:0:0:
382,200,189703,1,8,0:0:0:0:
271,308,189869,1,0,0:0:0:0:
324,308,189953,1,8,0:0:0:0:
135,179,190203,1,0,1:0:0:0:
243,245,190370,1,8,0:0:0:0:
134,299,190537,1,0,0:0:0:0:
394,92,190703,6,0,L|410:294,1,179.999994506836,4|8,0:0|0:0,0:0:0:0:
275,306,191203,1,0,0:0:0:0:
275,306,191286,1,0,0:0:0:0:
275,306,191369,1,2,0:0:0:0:
142,244,191536,1,0,1:0:0:0:
383,147,191703,2,0,L|394:242,1,89.9999972534181,8|0,0:0|0:0,0:0:0:0:
141,206,192036,6,0,L|325:211,1,179.999994506836,4|8,0:0|2:0,0:0:0:0:
201,153,192536,1,0,0:0:0:0:
201,153,192619,1,0,0:0:0:0:
201,153,192703,1,2,0:0:0:0:
335,89,192869,1,0,0:0:0:0:
69,181,193036,2,0,L|169:178,1,89.9999972534181,8|2,0:0|0:0,0:0:0:0:
423,73,193369,6,0,L|436:258,1,179.999994506836,4|8,0:0|0:0,0:0:0:0:
323,331,193869,2,0,L|254:326,1,44.999998626709,0|0,0:0|0:0,0:0:0:0:
106,335,194036,2,0,L|98:227,1,89.9999972534181,4|0,0:0|1:0,0:0:0:0:
239,205,194369,2,0,L|247:97,1,89.9999972534181,8|0,0:0|0:0,0:0:0:0:
376,84,194703,5,4,0:0:0:0:
268,150,194870,1,0,1:0:0:0:
371,205,195037,1,8,0:0:0:0:
260,304,195203,1,0,0:0:0:0:
304,299,195286,1,8,0:0:0:0:
348,294,195369,1,0,0:0:0:0:
457,279,195536,1,0,1:0:0:0:
167,251,195703,2,0,L|156:140,1,89.9999972534181,10|0,0:0|0:0,0:0:0:0:
396,91,196036,6,0,P|437:139|295:262,1,269.999991760254,4|0,0:0|0:0,0:0:0:0:
222,323,196703,2,0,P|296:299|400:344,1,179.999994506836,2|0,0:0|0:0,0:0:0:0:
280,328,197203,1,2,0:0:0:0:
171,323,197369,5,2,0:0:0:0:
334,274,197619,1,0,0:0:0:0:
160,320,197869,1,0,0:0:0:0:
303,290,198036,2,0,P|359:237|294:167,1,179.999994506836,2|2,0:0|0:0,0:0:0:0:
88,267,198703,6,0,P|94:199|195:145,1,179.999994506836,2|2,0:0|0:0,0:0:0:0:
223,162,199119,1,0,0:0:0:0:
245,201,199203,1,0,0:0:0:0:
227,242,199286,1,0,0:0:0:0:
186,261,199369,1,2,0:0:0:0:
368,258,199703,1,0,0:0:0:0:
195,265,200036,6,0,L|34:234,2,134.999995880127,2|0|0,0:0|0:0|0:0,0:0:0:0:
354,206,200703,1,2,0:0:0:0:
173,171,200953,1,0,0:0:0:0:
372,202,201203,1,0,0:0:0:0:
82,313,201369,6,0,P|81:256|189:187,1,179.999994506836,2|0,0:0|0:0,0:0:0:0:
210,208,201786,1,0,0:0:0:0:
226,249,201869,1,0,0:0:0:0:
209,291,201953,1,0,0:0:0:0:
168,309,202036,1,0,0:0:0:0:
324,237,202286,1,2,0:0:0:0:
156,167,202536,1,2,0:0:0:0:
424,165,202703,5,2,0:0:0:0:
256,326,203036,2,0,L|268:223,1,89.9999972534181,2|0,0:0|0:0,0:0:0:0:
311,233,203286,1,0,0:0:0:0:
355,229,203369,1,2,0:0:0:0:
205,162,203619,1,0,0:0:0:0:
351,97,203869,1,0,0:0:0:0:
71,329,204036,6,0,P|83:263|187:203,1,179.999994506836,2|0,0:0|0:0,0:0:0:0:
329,194,204536,1,0,0:0:0:0:
284,188,204619,1,0,0:0:0:0:
238,182,204703,1,2,0:0:0:0:
420,258,204953,1,0,0:0:0:0:
436,138,205203,1,0,0:0:0:0:
181,258,205369,5,2,0:0:0:0:
327,198,205619,1,0,0:0:0:0:
158,145,205869,1,0,0:0:0:0:
439,80,206036,2,0,P|472:147|422:252,1,179.999994506836,2|2,0:0|0:0,0:0:0:0:
198,219,206703,6,0,L|179:323,1,89.9999972534181,4|0,0:0|0:0,0:0:0:0:
322,216,207036,2,0,L|339:329,1,89.9999972534181,8|0,2:2|2:0,0:0:0:0:
175,362,207369,5,0,1:0:0:0:
134,333,207453,1,0,1:0:0:0:
136,283,207536,1,0,1:0:0:0:
185,251,207619,1,0,1:0:0:0:
333,251,207703,2,0,L|402:251,1,44.999998626709,0|0,1:0|1:0,0:0:0:0:
208,153,207869,2,0,L|139:153,1,44.999998626709,0|0,1:0|1:0,0:0:0:0:
428,36,208036,6,0,L|468:148,1,89.9999972534181,4|0,1:3|0:0,0:0:0:0:
419,143,208286,1,0,0:0:0:0:
380,166,208369,1,8,0:0:0:0:
244,128,208536,2,0,L|184:116,1,44.999998626709,0|0,0:0|0:0,0:0:0:0:
408,340,208703,2,0,L|512:316,1,89.9999972534181,2|0,0:0|1:0,0:0:0:0:
356,284,209036,1,8,0:0:0:0:
496,312,209203,1,0,0:0:0:0:
144,336,209369,6,0,L|-16:312,1,134.999995880127,0|2,1:0|0:0,0:0:0:0:
80,300,209703,1,8,2:2:0:0:
216,272,209869,1,2,0:0:0:0:
235,232,209952,1,0,0:0:0:0:
230,188,210035,1,2,0:0:0:0:
200,155,210119,1,0,0:0:0:0:
156,145,210202,1,0,1:1:0:0:
24,80,210369,2,0,L|12:176,1,89.9999972534181,8|0,0:0|0:0,0:0:0:0:
384,12,210703,6,0,L|496:24,1,89.9999972534181,4|2,0:0|0:0,0:0:0:0:
336,80,211036,2,0,L|224:92,1,89.9999972534181,8|2,0:0|0:0,0:0:0:0:
228,132,211286,1,0,0:0:0:0:
452,208,211369,1,2,0:0:0:0:
460,248,211452,1,0,0:0:0:0:
428,284,211535,1,0,1:0:0:0:
320,352,211703,1,8,0:0:0:0:
472,380,211869,1,0,0:0:0:0:
160,348,212036,6,0,P|160:280|240:240,1,134.999995880127,0|0,1:0|0:0,0:0:0:0:
280,232,212369,1,8,0:0:0:0:
420,168,212536,1,8,0:0:0:0:
375,162,212619,1,0,0:0:0:0:
112,40,212703,2,0,L|92:152,1,89.9999972534181,2|0,2:0|1:0,0:0:0:0:
204,188,213036,1,8,0:0:0:0:
48,260,213203,1,2,0:0:0:0:
320,352,213369,6,0,L|428:343,1,89.9999972534181,4|0,0:0|0:0,0:0:0:0:
456,276,213619,2,0,L|392:264,1,44.999998626709,0|8,0:0|0:0,0:0:0:0:
296,324,213869,2,0,L|232:336,1,44.999998626709,0|0,0:0|0:0,0:0:0:0:
36,368,214036,2,0,L|20:268,1,89.9999972534181,2|0,0:0|1:0,0:0:0:0:
164,212,214369,2,0,L|180:112,1,89.9999972534181,8|0,0:0|0:0,0:0:0:0:
480,40,214703,6,0,L|328:64,1,134.999995880127,0|2,1:0|2:0,0:0:0:0:
300,68,215036,1,8,0:0:0:0:
444,144,215203,1,0,0:0:0:0:
456,186,215286,1,0,0:0:0:0:
448,231,215369,1,0,2:0:0:0:
423,267,215453,1,0,2:0:0:0:
385,290,215536,1,0,1:0:0:0:
236,352,215703,2,0,L|368:368,1,89.9999972534181,8|0,0:0|0:0,0:0:0:0:
40,124,216036,6,0,L|28:220,1,89.9999972534181,4|0,2:2|0:0,0:0:0:0:
164,184,216369,2,0,L|176:280,1,89.9999972534181,8|0,0:0|0:0,0:0:0:0:
240,320,216619,1,0,0:0:0:0:
448,56,216703,1,2,0:0:0:0:
496,68,216786,1,0,0:0:0:0:
448,56,216869,1,0,1:0:0:0:
336,188,217036,1,8,0:0:0:0:
472,156,217203,1,0,0:0:0:0:
168,96,217369,6,0,L|12:116,1,134.999995880127,0|0,1:2|0:0,0:0:0:0:
100,136,217703,1,8,0:0:0:0:
240,176,217869,2,0,L|320:164,2,44.999998626709,0|8|0,0:0|0:0|0:0,0:0:0:0:
120,192,218203,1,8,0:0:0:0:
268,272,218369,1,0,1:0:0:0:
112,336,218536,1,0,1:0:0:0:
383,257,218703,6,0,P|438:221|363:151,1,179.999994506836,4|8,1:3|0:0,0:0:0:0:
238,120,219203,1,0,0:0:0:0:
238,120,219286,1,0,0:0:0:0:
238,120,219369,1,2,0:0:0:0:
384,63,219536,1,0,1:0:0:0:
152,200,219703,2,0,L|28:190,1,89.9999972534181,8|0,0:0|0:0,0:0:0:0:
364,317,220036,6,0,P|407:279|348:212,1,134.999995880127,0|2,1:2|0:0,0:0:0:0:
302,183,220369,2,0,L|420:159,1,89.9999972534181,0|2,0:0|0:0,0:0:0:0:
144,268,220703,1,2,0:0:0:0:
139,223,220786,1,0,0:0:0:0:
134,178,220869,1,0,1:0:0:0:
261,97,221036,2,0,L|155:87,1,89.9999972534181,8|0,0:0|0:0,0:0:0:0:
425,231,221369,6,0,P|478:182|404:96,1,179.999994506836,6|8,0:0|0:0,0:0:0:0:
280,191,221869,1,0,0:0:0:0:
234,187,221953,1,0,0:0:0:0:
189,183,222036,1,2,0:0:0:0:
326,278,222203,1,0,1:0:0:0:
85,287,222369,2,0,L|66:161,1,89.9999972534181,8|0,0:0|0:0,0:0:0:0:
333,120,222703,6,0,L|442:103,1,89.9999972534181,0|0,1:0|1:0,0:0:0:0:
291,57,223036,1,8,0:0:0:0:
446,193,223203,2,0,L|457:256,1,44.999998626709,0|0,1:0|0:0,0:0:0:0:
272,335,223369,2,0,L|147:318,1,89.9999972534181,0|0,2:0|1:0,0:0:0:0:
324,308,223703,1,8,0:0:0:0:
468,286,223869,1,0,1:0:0:0:
136,200,224036,6,0,L|336:184,1,179.999994506836,4|8,0:0|0:0,0:0:0:0:
185,136,224536,1,0,0:0:0:0:
185,136,224619,1,0,0:0:0:0:
185,136,224703,1,2,0:0:0:0:
320,89,224869,1,0,1:0:0:0:
74,209,225036,2,0,L|48:91,1,89.9999972534181,8|0,0:0|0:0,0:0:0:0:
348,301,225369,6,0,P|396:266|360:185,1,134.999995880127,2|2,0:0|0:0,0:0:0:0:
307,167,225703,2,0,L|183:149,1,89.9999972534181,8|2,0:0|0:0,0:0:0:0:
75,193,226036,1,2,0:0:0:0:
75,193,226119,1,0,0:0:0:0:
75,193,226203,1,0,1:0:0:0:
338,109,226369,1,8,0:0:0:0:
178,250,226703,6,0,L|401:232,1,179.999994506836,4|8,0:0|0:0,0:0:0:0:
238,156,227203,1,0,0:0:0:0:
238,156,227286,1,0,0:0:0:0:
238,156,227369,1,2,0:0:0:0:
360,98,227536,1,0,1:0:0:0:
130,131,227703,2,0,L|27:117,1,89.9999972534181,8|0,0:0|0:0,0:0:0:0:
337,232,228036,6,0,L|434:222,2,89.9999972534181,4|0|8,0:0|0:0|0:0,0:0:0:0:
203,280,228536,2,0,L|129:267,1,44.999998626709,0|8,0:0|0:0,0:0:0:0:
362,320,228703,2,0,L|470:306,1,89.9999972534181,0|8,0:0|0:0,0:0:0:0:
158,160,229036,1,8,0:0:0:0:
436,24,229369,6,0,L|464:144,1,89.9999972534181,4|0,1:3|0:0,0:0:0:0:
344,108,229703,1,8,0:0:0:0:
188,152,229869,1,0,0:0:0:0:
165,190,229952,1,0,0:0:0:0:
168,234,230035,1,2,0:0:0:0:
195,269,230119,1,0,0:0:0:0:
237,284,230202,1,0,1:0:0:0:
380,296,230369,2,0,L|396:192,1,89.9999972534181,8|0,0:0|0:0,0:0:0:0:
244,160,230703,6,0,L|228:56,1,89.9999972534181,0|0,1:0|0:0,0:0:0:0:
364,320,231036,2,0,L|264:312,1,89.9999972534181,8|0,0:0|0:0,0:0:0:0:
412,28,231369,1,2,0:0:0:0:
360,32,231452,1,0,0:0:0:0:
308,36,231535,1,0,1:0:0:0:
152,196,231703,1,8,0:0:0:0:
132,235,231786,1,0,0:0:0:0:
141,278,231869,1,0,0:0:0:0:
175,307,231953,1,0,0:0:0:0:
376,336,232036,6,0,L|472:324,2,89.9999972534181,0|0|8,1:0|0:0|0:0,0:0:0:0:
232,228,232536,1,0,0:0:0:0:
276,234,232619,1,0,0:0:0:0:
321,241,232702,1,2,0:0:0:0:
365,247,232786,1,0,0:0:0:0:
410,254,232869,1,0,1:0:0:0:
296,56,233036,2,0,L|276:152,1,89.9999972534181,8|0,0:0|0:0,0:0:0:0:
140,92,233369,6,0,L|120:188,1,89.9999972534181,0|0,1:0|0:0,0:0:0:0:
232,332,233703,2,0,L|104:320,1,89.9999972534181,8|0,0:0|0:0,0:0:0:0:
280,92,234036,1,2,0:0:0:0:
264,136,234119,1,0,0:0:0:0:
232,168,234202,1,0,1:0:0:0:
68,188,234369,2,0,L|52:248,1,44.999998626709,8|0,0:0|0:0,0:0:0:0:
108,304,234536,2,0,L|164:312,1,44.999998626709,0|0,0:0|0:0,0:0:0:0:
344,72,234703,6,0,L|456:56,2,89.9999972534181,0|0|8,1:0|0:0|0:0,0:0:0:0:
212,104,235203,1,0,0:0:0:0:
189,142,235286,1,0,0:0:0:0:
192,186,235369,1,2,0:0:0:0:
219,221,235453,1,0,0:0:0:0:
261,236,235536,1,0,1:0:0:0:
400,348,235703,2,0,L|300:332,1,89.9999972534181,8|0,2:0|2:0,0:0:0:0:
176,256,236036,6,0,L|276:240,1,89.9999972534181,0|0,1:0|0:0,0:0:0:0:
132,152,236369,2,0,L|232:136,1,89.9999972534181,8|0,0:0|0:0,0:0:0:0:
356,44,236703,1,2,0:0:0:0:
348,88,236786,1,0,0:0:0:0:
320,120,236869,1,0,1:0:0:0:
148,360,237036,2,0,L|136:300,1,44.999998626709,8|0,0:0|0:0,0:0:0:0:
232,284,237203,2,0,L|244:224,1,44.999998626709,0|0,0:0|0:0,0:0:0:0:
52,228,237369,6,0,L|30:117,1,89.9999972534181,0|0,1:0|0:0,0:0:0:0:
144,104,237703,1,8,0:0:0:0:
276,368,237869,1,0,2:0:0:0:
281,323,237952,1,0,0:0:0:0:
268,280,238035,1,2,0:0:0:0:
239,246,238119,1,0,0:0:0:0:
199,227,238202,1,0,1:0:0:0:
56,208,238369,2,0,L|40:104,1,89.9999972534181,8|0,0:0|0:0,0:0:0:0:
344,84,238703,6,0,L|228:68,1,89.9999972534181,0|2,1:0|0:0,0:0:0:0:
388,180,239036,2,0,L|504:164,1,89.9999972534181,8|0,2:0|0:0,0:0:0:0:
340,276,239369,2,0,L|288:268,2,44.999998626709,0|0|2,1:0|0:0|0:0,0:0:0:0:
480,152,239703,2,0,L|391:164,1,89.9999972534181,8|0,2:2|0:0,0:0:0:0:
76,56,240036,6,0,L|165:68,1,89.9999972534181,4|0,0:0|0:0,0:0:0:0:
256,80,240369,1,8,0:0:0:0:
120,312,240536,1,0,0:0:0:0:
123,267,240619,1,0,0:0:0:0:
141,226,240702,1,2,0:0:0:0:
173,195,240786,1,0,0:0:0:0:
214,177,240869,1,0,1:0:0:0:
348,92,241036,2,0,L|240:108,1,89.9999972534181,8|0,0:0|0:0,0:0:0:0:
392,224,241369,6,0,L|284:240,1,89.9999972534181,0|0,1:0|0:0,0:0:0:0:
168,332,241703,2,0,L|276:348,1,89.9999972534181,8|2,0:0|0:0,0:0:0:0:
380,224,242036,1,0,0:0:0:0:
335,230,242119,1,0,0:0:0:0:
290,237,242202,1,0,1:0:0:0:
136,200,242369,1,8,0:0:0:0:
119,159,242452,1,0,0:0:0:0:
131,116,242535,1,0,0:0:0:0:
166,90,242619,1,0,0:0:0:0:
408,40,242703,6,0,L|428:136,1,89.9999972534181,0|0,1:0|0:0,0:0:0:0:
312,112,243036,1,8,0:0:0:0:
180,364,243203,1,0,0:0:0:0:
225,358,243286,1,0,0:0:0:0:
270,352,243369,1,2,0:0:0:0:
314,347,243453,1,0,0:0:0:0:
359,341,243536,1,0,1:0:0:0:
232,272,243703,2,0,L|358:256,1,89.9999972534181,8|0,0:0|0:0,0:0:0:0:
444,160,244036,6,0,L|318:144,1,89.9999972534181,0|0,1:0|0:0,0:0:0:0:
240,256,244369,2,0,L|114:272,1,89.9999972534181,8|0,0:0|0:0,0:0:0:0:
284,152,244703,2,0,L|296:72,1,44.999998626709,2|0,0:0|0:0,0:0:0:0:
296,72,244869,1,0,1:0:0:0:
448,352,245036,1,8,0:0:0:0:
461,309,245119,1,0,0:0:0:0:
444,268,245202,1,0,0:0:0:0:
405,248,245286,1,0,0:0:0:0:
204,64,245369,6,0,L|100:76,1,89.9999972534181,0|0,1:0|0:0,0:0:0:0:
19,82,245703,1,8,0:0:0:0:
156,360,245869,1,2,0:0:0:0:
193,335,245952,1,0,0:0:0:0:
199,292,246035,1,0,0:0:0:0:
171,259,246119,1,0,0:0:0:0:
127,258,246202,1,0,1:0:0:0:
240,176,246369,2,0,L|136:164,1,89.9999972534181,8|0,0:0|0:0,0:0:0:0:
288,96,246703,6,0,L|392:84,1,89.9999972534181,0|0,1:0|0:0,0:0:0:0:
240,24,247036,2,0,L|136:12,1,89.9999972534181,8|0,0:0|0:0,0:0:0:0:
280,312,247369,2,0,L|348:292,1,44.999998626709,2|0,0:0|0:0,0:0:0:0:
268,288,247536,1,0,1:0:0:0:
128,224,247703,2,0,L|60:204,1,44.999998626709,8|0,0:0|0:0,0:0:0:0:
128,224,247870,2,0,L|196:204,1,44.999998626709,0|0,0:0|0:0,0:0:0:0:
388,356,248036,6,0,L|496:336,2,89.9999972534181,0|0|8,1:0|0:0|0:0,0:0:0:0:
280,312,248536,1,2,0:0:0:0:
235,306,248619,1,0,0:0:0:0:
190,300,248702,1,0,0:0:0:0:
146,295,248786,1,0,0:0:0:0:
101,289,248869,1,0,1:0:0:0:
212,184,249036,2,0,L|104:204,1,89.9999972534181,8|0,0:0|0:0,0:0:0:0:
444,36,249369,6,0,L|464:140,1,89.9999972534181,2|0,1:2|0:0,0:0:0:0:
328,136,249703,2,0,L|308:240,1,89.9999972534181,8|0,0:0|0:0,0:0:0:0:
176,40,250036,1,2,2:0:0:0:
184,84,250119,1,0,0:0:0:0:
192,128,250202,1,0,1:0:0:0:
480,216,250369,2,0,L|460:320,1,89.9999972534181,8|0,0:0|0:0,0:0:0:0:
108,368,250703,5,4,1:3:0:0:
256,192,250869,12,0,253369,0:0:0:0:
