osu file format v14

[General]
AudioFilename: 05.mp3
AudioLeadIn: 1000
PreviewTime: 174284
Countdown: 0
SampleSet: Soft
StackLeniency: 0.7
Mode: 0
LetterboxInBreaks: 0
WidescreenStoryboard: 1

[Editor]
Bookmarks: 1370,22703,54703,65369,86703,132035,174700,196033,229367,253367
DistanceSpacing: 1
BeatDivisor: 4
GridSize: 32
TimelineZoom: 1.899999

[Metadata]
Title:Tokei no Heya to Seishin Sekai
TitleUnicode:時計の部屋と精神世界
Artist:a_hisa
ArtistUnicode:a_hisa
Creator:Asahina Momoko
Version:wring's Hyper
Source:
Tags:After the End SpiritualCore sing toybot wring Fuccho mokori m_o_k_o_r_i
BeatmapID:1207717
BeatmapSetID:508947

[Difficulty]
HPDrainRate:6
CircleSize:4
OverallDifficulty:7
ApproachRate:9
SliderMultiplier:1.6
SliderTickRate:1

[Events]
//Background and Video events
0,0,"bg.jpg",0,0
//Break Periods
2,44236,54103
2,118901,131435
//Storyboard Layer 0 (Background)
//Storyboard Layer 1 (Fail)
//Storyboard Layer 2 (Pass)
//Storyboard Layer 3 (Foreground)
//Storyboard Sound Samples

[TimingPoints]
1370,333.333333333333,4,2,1,30,1,0
1370,-133.333333333333,4,2,1,30,0,0
12036,-133.333333333333,4,2,1,40,0,0
17369,-133.333333333333,4,2,2,50,0,0
22369,-83.3333333333333,4,2,2,50,0,0
22703,-100,4,2,1,50,0,0
33369,-100,4,2,2,60,0,0
34036,-100,4,2,2,50,0,0
34369,-100,4,2,2,40,0,0
34703,-100,4,2,2,60,0,0
35203,-100,4,2,2,50,0,0
35703,-100,4,2,2,40,0,0
36036,-100,4,2,2,60,0,0
36536,-100,4,2,2,50,0,0
37036,-100,4,2,2,40,0,0
37369,-100,4,2,2,50,0,0
37703,-100,4,2,2,60,0,0
38036,-100,4,2,2,70,0,0
38369,-100,4,2,2,50,0,0
38703,-100,4,2,2,60,0,0
39203,-100,4,2,2,50,0,0
39703,-100,4,2,2,40,0,0
40036,-100,4,2,2,60,0,0
40536,-100,4,2,2,50,0,0
41036,-100,4,2,2,40,0,0
41369,-100,4,2,2,60,0,0
42036,-100,4,2,2,50,0,0
42369,-100,4,2,2,40,0,0
42703,-100,4,2,2,30,0,0
43036,-100,4,2,2,50,0,0
43369,-100,4,2,2,70,0,0
43703,-100,4,2,2,50,0,0
44036,-100,4,2,1,40,0,0
54703,-200,4,2,2,40,0,0
55369,-200,4,2,2,60,0,0
55453,-200,4,2,2,5,0,0
55536,-200,4,2,2,40,0,0
58036,-200,4,2,2,60,0,0
58119,-200,4,2,2,5,0,0
58203,-200,4,2,2,40,0,0
60703,-200,4,2,2,60,0,0
60786,-200,4,2,2,5,0,0
60869,-200,4,2,2,40,0,0
64036,-100,4,2,2,50,0,0
64203,-100,4,2,1,50,0,0
64369,-100,4,2,2,60,0,0
64536,-100,4,2,1,60,0,0
64703,-100,4,2,2,40,0,0
65036,-100,4,2,1,30,0,0
65119,-100,4,2,1,50,0,0
65203,-100,4,2,1,70,0,0
65286,-100,4,2,1,90,0,0
65369,-100,4,2,1,60,0,0
65703,-100,4,2,2,60,0,0
66369,-100,4,2,2,50,0,0
66703,-100,4,2,2,40,0,0
70703,-100,4,2,2,30,0,0
71369,-100,4,2,2,40,0,0
72036,-100,4,2,2,50,0,0
72703,-100,4,2,2,60,0,0
73369,-100,4,2,2,70,0,0
74036,-100,4,2,2,60,0,0
74703,-86.9565217391304,4,2,2,50,0,0
75036,-100,4,2,2,70,0,0
76036,-100,4,2,2,70,0,0
79036,-100,4,2,2,60,0,0
79369,-100,4,2,2,50,0,0
79703,-100,4,2,2,40,0,0
80369,-100,4,2,2,50,0,0
80703,-100,4,2,2,60,0,0
81036,-100,4,2,2,70,0,0
81369,-100,4,2,2,40,0,0
82036,-100,4,2,2,50,0,0
82703,-100,4,2,2,60,0,0
83369,-100,4,2,2,70,0,0
85369,-100,4,2,2,70,0,0
86703,333.333333333333,6,2,1,50,1,0
86703,-133.333333333333,6,2,1,50,0,0
90703,-100,6,2,2,60,0,0
94369,-100,6,2,1,80,0,0
94702,333.333333333333,4,2,2,70,1,0
105035,-100,4,2,1,70,0,0
105368,-100,4,2,2,80,0,1
116035,-100,4,2,1,70,0,1
116368,-100,4,2,1,60,0,1
116701,-100,4,2,1,50,0,1
117035,-100,4,2,1,40,0,1
117368,-100,4,2,1,60,0,0
118701,-100,4,2,1,10,0,0
132035,333.333333333333,6,2,1,40,1,0
132035,-200,4,2,1,40,0,0
147368,-200,4,2,0,40,0,0
148034,-200,4,2,3,50,0,0
149034,-200,4,2,3,40,0,0
162534,-200,4,2,3,30,0,0
164034,333.333333333333,4,2,2,40,1,0
164034,-133.333333333333,4,2,2,40,0,0
172700,-133.333333333333,4,2,2,50,0,0
173034,-133.333333333333,4,2,2,60,0,0
174117,-133.333333333333,4,2,2,10,0,0
174200,-66.6666666666667,4,2,2,60,0,0
174367,-100,4,2,1,60,0,0
179367,-66.6666666666667,4,2,1,60,0,0
179533,-100,4,2,1,60,0,0
196033,-133.333333333333,4,2,1,50,0,0
206700,-100,4,2,2,50,0,0
207033,-100,4,2,2,60,0,0
207367,-100,4,2,2,40,0,0
207533,-100,4,2,2,50,0,0
207700,-100,4,2,2,60,0,0
207867,-100,4,2,2,70,0,0
208033,-100,4,2,2,80,0,1
218367,-100,4,2,2,70,0,0
218700,-100,4,2,2,80,0,1
228367,-100,4,2,1,80,0,1
229367,-100,4,2,1,70,0,0
252033,-100,4,2,1,50,0,0
252367,-100,4,2,1,40,0,0
252700,-100,4,2,1,30,0,0
253033,-100,4,2,1,20,0,0
253367,-100,4,2,1,10,0,0

[Colours]
Combo1 : 244,153,91
Combo2 : 141,193,203
Combo3 : 180,222,12
Combo4 : 74,181,159
Combo5 : 77,36,236

[HitObjects]
202,134,1370,6,0,L|121:109,2,60.0000022888185,6|0|0,0:1|0:0|0:0,0:0:0:0:
287,188,1869,2,0,L|349:130,2,60.0000022888185,0|0|0,0:0|0:0|0:0,0:0:0:0:
194,230,2369,2,0,L|212:312,2,60.0000022888185,0|0|0,0:0|0:0|0:0,0:0:0:0:
278,83,2869,2,0,L|296:0,2,60.0000022888185,2|0|0,0:0|0:0|0:0,0:0:0:0:
192,170,3369,6,0,L|194:245,1,60.0000022888185,2|0,0:0|0:0,0:0:0:0:
309,265,3703,2,0,L|311:190,1,60.0000022888185,2|0,0:0|0:0,0:0:0:0:
202,134,4036,6,0,L|121:109,2,60.0000022888185,2|0|0,0:1|0:0|0:0,0:0:0:0:
287,188,4535,2,0,L|349:130,2,60.0000022888185,0|0|0,0:0|0:0|0:0,0:0:0:0:
194,230,5035,2,0,L|212:312,2,60.0000022888185,0|0|0,0:0|0:0|0:0,0:0:0:0:
366,73,5536,2,0,L|384:-9,2,60.0000022888185,2|0|2,0:0|0:0|0:0,0:0:0:0:
222,133,6036,6,0,L|298:129,1,60.0000022888184,2|0,0:0|0:0,0:0:0:0:
430,181,6369,2,0,L|354:177,1,60.0000022888184,2|0,0:0|0:0,0:0:0:0:
496,244,6703,6,0,P|467:265|428:271,1,60.0000022888184,2|0,0:1|0:0,0:0:0:0:
315,242,7036,1,0,0:0:0:0:
340,328,7203,2,0,P|306:331|272:321,1,60.0000022888184,0|0,0:0|0:0,0:0:0:0:
183,236,7536,1,0,0:0:0:0:
157,322,7703,2,0,P|122:304|103:277,1,60.0000022888184,0|0,0:0|0:0,0:0:0:0:
105,156,8036,1,0,0:0:0:0:
25,199,8203,6,0,P|16:165|20:126,2,60.0000022888184,2|2|2,0:0|0:0|0:0,0:0:0:0:
129,246,8703,1,0,0:0:0:0:
165,87,8869,5,2,0:0:0:0:
105,156,9036,1,2,0:0:0:0:
192,176,9203,1,0,0:0:0:0:
165,87,9369,6,0,P|168:54|189:20,1,60.0000022888184,2|0,0:1|0:0,0:0:0:0:
252,85,9703,1,0,0:0:0:0:
263,240,9869,2,0,P|232:253|192:252,1,60.0000022888184,0|0,0:0|0:0,0:0:0:0:
210,164,10203,1,0,0:0:0:0:
341,88,10369,2,0,P|368:107|387:142,1,60.0000022888184,0|0,0:0|0:0,0:0:0:0:
299,164,10703,6,0,P|270:142|257:110,2,60.0000022888184,0|2|2,0:0|0:0|0:0,0:0:0:0:
414,43,11203,1,0,0:0:0:0:
423,231,11369,6,0,P|399:254|361:265,1,60.0000022888184,2|0,0:0|0:0,0:0:0:0:
445,141,11703,2,0,P|477:138|511:146,1,60.0000022888184,2|0,0:0|0:0,0:0:0:0:
259,121,12036,6,0,P|305:165|369:167,1,120.000004577637,2|0,0:1|0:0,0:0:0:0:
260,232,12536,2,0,P|214:270|153:264,1,120.000004577637
99,187,13036,1,0,0:0:0:0:
99,187,13203,2,0,P|66:181|31:190,1,60.0000022888184,0|0,0:0|0:0,0:0:0:0:
69,267,13536,6,0,B|69:298|49:342|49:342|86:338|110:327,1,120.000004577637,2|0,0:0|0:0,0:0:0:0:
234,336,14036,2,0,L|225:260,1,60.0000022888184,2|0,0:0|0:0,0:0:0:0:
366,220,14369,2,0,L|357:296,1,60.0000022888184,2|0,0:0|0:0,0:0:0:0:
279,192,14703,6,0,P|213:185|152:211,1,120.000004577637,2|0,0:1|0:0,0:0:0:0:
346,128,15203,2,0,P|412:135|473:109,1,120.000004577637,0|0,0:0|0:0,0:0:0:0:
264,103,15703,1,0,0:0:0:0:
264,103,15869,2,0,P|258:137|270:175,1,60.0000022888184,0|0,0:0|0:0,0:0:0:0:
346,128,16203,2,0,P|339:60|293:23,1,120.000004577637,2|2,0:0|0:0,0:0:0:0:
183,111,16703,2,0,L|257:108,1,60.0000022888184,2|0,0:0|0:0,0:0:0:0:
337,202,17036,2,0,L|263:199,1,60.0000022888184,2|0,0:0|0:0,0:0:0:0:
100,52,17369,6,0,P|86:106|101:173,1,120.000004577637,2|0,1:0|1:0,0:0:0:0:
163,230,17869,2,0,P|177:284|162:351,1,120.000004577637,0|0,0:0|0:0,0:0:0:0:
31,294,18369,2,0,L|108:290,1,60.0000022888184,0|0,1:0|0:0,0:0:0:0:
257,281,18703,2,0,L|334:277,1,60.0000022888184,0|0,1:0|0:0,0:0:0:0:
469,183,19036,2,0,P|413:197|350:187,1,120.000004577637,2|0,1:2|1:0,0:0:0:0:
172,68,19536,5,2,0:0:0:0:
129,147,19703,1,2,1:2:0:0:
160,230,19869,1,2,1:2:0:0:
242,265,20036,6,0,P|278:267|315:257,1,60.0000022888184,2|0,1:0|1:0,0:0:0:0:
353,188,20369,1,0,0:0:0:0:
263,180,20536,2,0,P|258:144|257:101,1,60.0000022888184,2|0,1:0|1:0,0:0:0:0:
200,49,20869,1,0,0:0:0:0:
129,105,21036,2,0,P|134:141|135:184,1,60.0000022888184,2|0,1:0|1:0,0:0:0:0:
77,256,21369,5,0,1:0:0:0:
98,266,21453,1,0,1:0:0:0:
119,275,21536,1,0,1:0:0:0:
141,283,21619,1,0,1:0:0:0:
163,292,21703,1,2,1:2:0:0:
186,293,21786,1,0,1:0:0:0:
209,288,21869,1,0,1:0:0:0:
230,277,21953,1,0,1:0:0:0:
246,259,22036,6,0,P|248:235|245:209,1,30.0000011444092,2|0,0:0|0:0,0:0:0:0:
282,126,22203,2,0,P|280:150|283:176,1,30.0000011444092,0|0,1:0|0:0,0:0:0:0:
325,222,22369,2,0,B|351:226|376:219|376:219|402:231|430:228,1,95.9999970703126,8|0,0:0|0:0,0:0:0:0:
203,168,22703,6,0,L|110:184,1,80,6|0,1:0|0:0,0:0:0:0:
104,177,22953,1,0,0:0:0:0:
85,170,23036,1,8,0:0:0:0:
232,88,23203,2,0,L|226:253,1,160,2|0,0:2|1:0,0:0:0:0:
318,324,23703,2,0,L|322:232,1,80,10|0,0:0|0:0,0:0:0:0:
397,185,24036,5,0,1:0:0:0:
459,113,24203,2,0,P|384:90|318:130,1,160,2|0,0:2|1:0,0:0:0:0:
365,267,24703,2,0,B|402:280|402:280|440:263,1,80,2|0,0:0|1:0,0:0:0:0:
231,235,25036,2,0,B|195:224|195:224|155:240,1,80,10|0,0:2|0:0,0:0:0:0:
200,320,25369,6,0,P|239:332|280:321,1,80,2|0,1:2|0:0,0:0:0:0:
364,269,25703,1,8,0:0:0:0:
283,160,25869,2,0,P|244:148|203:159,1,80,2|0,0:0|0:0,0:0:0:0:
119,211,26203,1,0,1:0:0:0:
240,243,26369,2,0,L|326:232,1,80,10|0,0:0|0:0,0:0:0:0:
180,162,26703,5,0,1:0:0:0:
180,162,26869,2,0,L|190:321,1,160,2|0,0:0|1:0,0:0:0:0:
327,240,27369,2,0,L|332:152,1,80,2|0,0:0|1:0,0:0:0:0:
217,203,27703,2,0,L|222:291,1,80,10|0,0:0|0:0,0:0:0:0:
238,95,28036,6,0,L|233:7,1,80,6|0,1:0|0:0,0:0:0:0:
214,11,28286,1,0,0:0:0:0:
194,6,28369,1,8,0:0:0:0:
134,152,28536,2,0,L|297:133,1,160,2|0,0:0|1:0,0:0:0:0:
361,200,29036,2,0,P|361:249|369:296,1,80,10|0,0:0|0:0,0:0:0:0:
255,320,29369,5,0,1:0:0:0:
211,234,29536,2,0,P|222:154|211:38,1,160,2|0,0:2|1:0,0:0:0:0:
383,116,30036,2,0,P|345:129|286:126,1,80,2|0,0:0|1:0,0:0:0:0:
63,144,30369,2,0,P|109:149|148:168,1,80,10|0,0:0|0:0,0:0:0:0:
314,300,30703,6,0,L|219:314,1,80,2|0,1:2|0:0,0:0:0:0:
142,285,31036,1,8,0:0:0:0:
205,153,31203,2,0,L|300:139,1,80,2|0,0:0|0:0,0:0:0:0:
377,168,31536,1,0,1:0:0:0:
256,228,31703,2,0,B|179:239|179:239|100:201,1,160,10|2,0:0|1:2,0:0:0:0:
15,103,32203,1,2,1:2:0:0:
207,73,32369,6,0,L|192:156,1,80,10|0,0:0|0:0,0:0:0:0:
288,163,32703,2,0,L|313:250,1,80,0|2,1:0|1:2,0:0:0:0:
402,213,33036,2,0,L|467:273,1,80,10|0,0:1|0:0,0:0:0:0:
475,280,33286,1,2,0:1:0:0:
490,291,33369,5,6,1:0:0:0:
402,329,33536,1,0,0:0:0:0:
313,291,33703,1,8,0:1:0:0:
224,326,33869,1,2,1:0:0:0:
215,203,34036,6,0,L|225:287,1,80,0|0,0:1|1:0,0:0:0:0:
389,307,34369,2,0,L|379:221,1,80,10|0,0:1|1:0,0:0:0:0:
316,71,34703,5,0,1:1:0:0:
180,141,34869,1,2,1:1:0:0:
185,146,35036,1,8,0:1:0:0:
190,151,35203,1,0,1:1:0:0:
332,179,35369,5,2,0:1:0:0:
210,57,35536,1,0,1:1:0:0:
236,221,35703,1,10,0:1:0:0:
318,64,35869,1,0,1:1:0:0:
165,151,36036,6,0,L|79:156,1,80,2|0,1:1|0:1,0:0:0:0:
121,66,36369,1,8,0:1:0:0:
236,221,36536,2,0,L|322:226,1,80,2|0,1:1|0:1,0:0:0:0:
283,135,36869,1,0,1:1:0:0:
150,245,37036,2,0,P|149:286|158:327,1,80,10|0,0:1|1:1,0:0:0:0:
390,273,37369,6,0,P|399:234|396:194,1,80,0|2,1:1|1:1,0:0:0:0:
393,69,37703,2,0,P|354:80|321:102,1,80,8|0,0:1|1:1,0:0:0:0:
221,165,38036,2,0,P|250:192|285:210,1,80,2|0,0:1|1:1,0:0:0:0:
512,180,38369,2,0,P|482:152|447:134,1,80,10|0,0:1|1:1,0:0:0:0:
351,147,38703,5,6,1:1:0:0:
166,113,38869,1,0,1:1:0:0:
171,120,39036,1,8,0:1:0:0:
174,128,39203,1,2,1:1:0:0:
218,212,39369,5,0,0:1:0:0:
318,65,39536,1,0,1:1:0:0:
320,229,39703,1,10,0:1:0:0:
229,49,39869,1,0,1:0:0:0:
364,146,40036,6,0,P|324:154|276:149,1,80,4|2,1:0|1:1,0:0:0:0:
223,225,40369,1,8,0:1:0:0:
291,293,40536,2,0,P|291:338|296:389,1,80,0|2,1:1|1:1,0:0:0:0:
201,318,40869,1,0,1:1:0:0:
131,251,41036,2,0,P|131:206|126:155,1,80,10|2,0:1|1:1,0:0:0:0:
112,158,41286,1,2,1:1:0:0:
95,146,41369,6,0,L|183:137,1,80,6|0,1:1|0:1,0:0:0:0:
229,58,41703,2,0,L|305:99,1,80,8|2,0:1|1:0,0:0:0:0:
351,176,42036,1,0,0:1:0:0:
441,143,42203,2,0,P|457:106|473:34,2,80,0|10|2,1:1|0:1|1:1,0:0:0:0:
384,264,42703,5,2,1:0:0:0:
404,368,42869,1,2,1:0:0:0:
299,275,43036,1,10,0:1:0:0:
268,350,43203,1,2,1:0:0:0:
231,225,43369,1,2,1:0:0:0:
94,280,43536,1,2,1:0:0:0:
217,142,43703,1,10,0:1:0:0:
217,142,43869,1,2,1:0:0:0:
100,117,44036,1,6,0:1:0:0:
187,280,54703,6,0,P|229:271|274:267,1,80,6|0,1:0|1:0,0:0:0:0:
346,277,55203,1,0,0:0:0:0:
346,277,55369,2,0,L|342:231,1,40,8|0,0:0|1:0,0:0:0:0:
430,153,55869,5,0,1:0:0:0:
434,133,55953,1,0,0:0:0:0:
449,120,56036,2,0,P|416:122|376:118,1,60,0|0,1:0|0:0,0:0:0:0:
354,83,56369,2,0,P|320:84|283:75,1,60,2|0,1:0|0:0,0:0:0:0:
251,105,56703,2,0,P|207:103|163:118,1,80,8|0,0:0|1:0,0:0:0:0:
93,202,57369,6,0,L|100:298,1,80,2|0,1:0|1:0,0:0:0:0:
164,328,57869,1,0,0:0:0:0:
164,328,58036,2,0,P|188:323|211:321,1,40,8|0,0:0|1:0,0:0:0:0:
365,274,58369,2,0,P|344:268|320:267,1,40,0|0,0:2|1:2,0:0:0:0:
307,259,58619,1,0,0:0:0:0:
294,242,58703,6,0,L|297:177,1,60,0|0,1:2|0:0,0:0:0:0:
268,141,59036,2,0,P|242:133|214:134,1,40,0|0,1:2|0:0,0:0:0:0:
176,192,59369,2,0,P|136:194|96:222,1,80,10|2,0:1|1:0,0:0:0:0:
63,189,59786,1,0,0:0:0:0:
54,170,59869,1,2,1:0:0:0:
62,151,59953,1,0,0:0:0:0:
56,132,60036,6,0,P|57:91|46:51,1,80,2|0,1:0|1:0,0:0:0:0:
112,7,60536,1,0,0:0:0:0:
173,58,60703,2,0,P|200:59|225:53,1,40,8|0,0:0|1:0,0:0:0:0:
394,171,61203,5,0,1:0:0:0:
390,190,61286,1,0,0:0:0:0:
399,207,61369,2,0,P|401:243|405:285,1,60,0|0,1:0|0:0,0:0:0:0:
360,294,61703,2,0,P|330:313|296:320,1,60,2|0,1:0|0:0,0:0:0:0:
265,290,62036,2,0,P|239:286|215:288,1,40,8|2,0:0|0:1,0:0:0:0:
156,245,62369,2,0,P|133:254|113:272,1,40,0|0,1:2|1:0,0:0:0:0:
215,139,62703,6,0,P|243:144|265:157,1,40,2|0,1:0|0:0,0:0:0:0:
332,135,63036,2,0,P|351:151|364:180,1,40,0|0,1:0|0:0,0:0:0:0:
396,234,63369,5,10,0:1:0:0:
319,256,63536,1,0,0:0:0:0:
244,225,63703,1,0,1:2:0:0:
168,251,63869,1,2,1:0:0:0:
168,251,63953,1,0,0:0:0:0:
168,251,64036,6,0,P|122:249|72:263,1,80,0|10,1:0|0:1,0:0:0:0:
122,165,64369,2,0,P|127:120|103:69,1,80,0|10,1:0|0:1,0:0:0:0:
213,89,64703,2,0,P|253:74|284:36,1,80,0|0,1:0|1:0,0:0:0:0:
291,164,65036,6,0,P|292:192|302:222,1,40,0|0,1:0|1:0,0:0:0:0:
321,243,65203,2,0,P|344:262|373:267,1,40,0|0,1:0|1:0,0:0:0:0:
400,272,65369,6,0,P|461:219|457:146,1,160,4|8,1:0|0:2,0:0:0:0:
383,82,65869,1,0,1:0:0:0:
383,82,66036,2,0,P|342:91|294:95,1,80,2|0,0:2|1:0,0:0:0:0:
211,70,66369,2,0,P|201:115|196:169,1,80,10|0,0:0|1:0,0:0:0:0:
164,333,66703,6,0,P|224:306|223:235,1,120,2|0,1:2|0:0,0:0:0:0:
190,236,67036,2,0,P|142:241|88:245,1,80,8|0,0:0|1:0,0:0:0:0:
36,127,67369,2,0,P|83:132|138:136,1,80,0|0,0:0|1:0,0:0:0:0:
220,68,67703,5,10,0:0:0:0:
314,54,67869,1,2,1:2:0:0:
349,143,68036,2,0,B|367:181|349:222|349:222|373:209|407:225,1,120,2|0,1:2|0:0,0:0:0:0:
373,256,68369,2,0,B|388:294|388:294|433:305,1,80,10|0,0:0|1:0,0:0:0:0:
265,190,68703,2,0,B|256:229|256:229|270:270,1,80,2|0,0:0|1:0,0:0:0:0:
215,86,69036,2,0,B|180:111|180:111|169:153,1,80,10|2,0:0|1:2,0:0:0:0:
216,320,69369,6,0,P|265:281|264:188,1,160,2|10,1:2|0:0,0:0:0:0:
120,304,69869,1,0,1:0:0:0:
180,231,70036,1,2,0:0:0:0:
180,231,70203,1,0,1:0:0:0:
94,188,70369,2,0,P|97:146|95:89,1,80,10|0,0:0|1:0,0:0:0:0:
220,82,70703,6,0,B|217:50|195:24|195:24|239:51|304:47,1,160,2|10,1:2|0:0,0:0:0:0:
412,39,71203,1,0,1:0:0:0:
412,39,71369,2,0,L|406:134,1,80,2|0,0:0|1:0,0:0:0:0:
444,246,71703,2,0,L|438:341,1,80,10|0,0:0|0:0,0:0:0:0:
333,211,72036,6,0,P|259:218|208:286,1,160,2|10,1:2|0:0,0:0:0:0:
208,282,72536,1,2,1:2:0:0:
241,191,72703,2,0,P|218:118|150:70,1,160,2|10,0:0|0:0,0:0:0:0:
152,70,73203,1,2,1:2:0:0:
244,93,73369,6,0,P|303:93|355:62,1,120,2|0,1:2|0:0,0:0:0:0:
390,30,73703,2,0,L|383:131,1,80,10|2,0:0|1:2,0:0:0:0:
246,110,74036,2,0,L|259:208,1,80,0|2,0:0|1:2,0:0:0:0:
400,166,74369,2,0,L|393:267,1,80,8|2,0:0|1:2,0:0:0:0:
244,230,74703,6,0,L|250:285,1,46.0000008773804,0|0,1:0|0:0,0:0:0:0:
254,309,74869,1,0,1:0:0:0:
436,321,75036,6,0,P|379:329|325:294,1,120,10|10,0:2|0:2,0:0:0:0:
319,225,75369,2,0,P|274:223|203:215,1,80,0|0,0:0|1:2,0:0:0:0:
97,126,75703,2,0,P|145:123|198:118,1,80,10|0,0:2|1:0,0:0:0:0:
307,73,76036,6,0,B|305:51|327:38|327:38|314:73|331:131|388:137,1,160,4|8,1:0|0:0,0:0:0:0:
424,51,76536,1,0,1:0:0:0:
468,136,76703,2,0,L|461:226,1,80,2|0,0:0|1:0,0:0:0:0:
363,297,77036,2,0,L|356:207,1,80,10|0,0:0|1:0,0:0:0:0:
288,134,77369,6,0,P|210:122|143:167,1,160,2|8,1:2|0:0,0:0:0:0:
108,253,77869,1,0,1:0:0:0:
193,296,78036,2,0,L|202:339,2,40,0|0|0,0:0|0:0|1:0,0:0:0:0:
294,199,78369,2,0,L|285:244,2,40,10|0|2,0:2|0:0|1:2,0:0:0:0:
159,258,78703,6,0,L|169:346,1,80,2|0,1:2|0:0,0:0:0:0:
320,186,79036,2,0,L|310:276,1,80,10|0,0:2|1:0,0:0:0:0:
161,118,79369,2,0,P|243:134|310:85,1,160,2|8,1:2|0:0,0:0:0:0:
353,12,79869,1,2,1:2:0:0:
223,55,80036,6,0,P|229:123|245:237,1,160,2|10,1:2|0:2,0:0:0:0:
424,244,80536,1,0,1:0:0:0:
347,304,80703,2,0,P|261:295|153:296,1,160,2|10,0:2|0:2,0:0:0:0:
187,294,81203,1,0,0:0:0:0:
52,162,81369,6,0,P|135:169|216:171,1,160,2|10,1:2|0:2,0:0:0:0:
291,83,81869,1,0,1:0:0:0:
380,153,82036,2,0,L|371:200,2,40,2|0|0,0:2|0:0|1:0,0:0:0:0:
277,275,82369,2,0,L|265:227,2,40,10|0|0,0:2|0:0|1:0,0:0:0:0:
151,191,82703,6,0,P|194:160|194:88,1,120,2|0,1:2|0:0,0:0:0:0:
166,61,83036,2,0,L|83:67,1,80,10|2,0:0|1:2,0:0:0:0:
218,165,83369,2,0,P|310:147|329:86,1,160,2|10,1:2|0:0,0:0:0:0:
265,20,83869,1,0,0:0:0:0:
474,40,84036,6,0,B|428:12|378:30|378:30|407:52|409:94,1,160,2|8,1:2|0:0,0:0:0:0:
450,170,84536,1,2,1:2:0:0:
376,236,84703,1,0,0:0:0:0:
468,264,84869,1,2,1:2:0:0:
352,145,85036,5,10,0:0:0:0:
395,333,85203,1,0,1:0:0:0:
219,270,85369,2,0,P|197:307|177:351,1,80,2|0,1:2|1:0,0:0:0:0:
287,321,85703,2,0,P|307:269|279:207,1,120,8|8,0:0|0:0,0:0:0:0:
265,193,86036,5,0,0:0:0:0:
132,259,86203,1,0,1:0:0:0:
259,350,86369,1,8,0:0:0:0:
219,270,86536,1,0,1:0:0:0:
179,181,86703,6,0,P|176:142|175:103,2,60.0000022888184,0|0|0,0:0|0:0|0:0,0:0:0:0:
288,143,87203,1,0,0:0:0:0:
257,239,87369,1,0,0:0:0:0:
331,309,87536,6,0,P|366:307|406:305,2,60.0000022888184
164,266,88036,2,0,P|132:263|96:260,1,60.0000022888184,2|0,0:0|0:0,0:0:0:0:
257,239,88369,2,0,P|258:275|250:312,1,60.0000022888184,2|0,0:0|0:0,0:0:0:0:
272,148,88703,6,0,P|258:86|253:17,1,120.000004577637,0|0,0:0|0:0,0:0:0:0:
361,87,89203,1,0,0:0:0:0:
261,158,89369,1,0,0:0:0:0:
144,188,89536,6,0,P|113:184|60:173,2,60.0000022888184
271,265,90036,2,0,P|303:259|336:254,1,60.0000022888184,2|0,0:0|0:0,0:0:0:0:
358,352,90369,2,0,P|393:347|434:346,1,60.0000022888184,2|0,0:0|0:0,0:0:0:0:
460,215,90703,6,0,P|457:129|454:26,1,160,12|2,0:0|0:0,0:0:0:0:
303,90,91203,2,0,P|305:133|305:178,1,80,8|0,0:0|0:0,0:0:0:0:
333,261,91536,2,0,L|158:255,1,160,12|2,0:0|0:0,0:0:0:0:
63,149,92036,6,0,P|108:152|155:153,1,80,8|0,0:0|0:0,0:0:0:0:
244,69,92369,2,0,P|287:71|333:70,1,80,8|0,0:0|0:0,0:0:0:0:
422,161,92703,6,0,P|415:247|410:348,1,160,12|2,0:0|0:0,0:0:0:0:
243,285,93203,2,0,P|288:288|339:294,1,80,8|0,0:0|0:0,0:0:0:0:
200,178,93536,2,0,P|121:193|33:200,1,160,12|2,0:0|0:0,0:0:0:0:
132,334,94036,6,0,P|169:308|198:278,1,80,12|2,0:0|0:0,0:0:0:0:
331,336,94369,2,0,P|308:302|288:251,1,80,2|2,1:2|1:2,0:0:0:0:
454,142,94702,6,0,B|394:133|394:133|367:167|367:167|308:170,1,160,4|8,1:0|0:0,0:0:0:0:
310,73,95202,1,2,1:2:0:0:
310,73,95285,1,2,1:2:0:0:
310,73,95368,2,0,B|262:43|203:108|150:72,1,160,2|10,1:2|0:0,0:0:0:0:
70,29,95868,1,0,0:0:0:0:
33,117,96035,6,0,B|14:181|52:212|52:212|43:186|55:171,1,120,2|0,1:2|0:0,0:0:0:0:
93,180,96368,2,0,P|133:166|171:173,1,80,10|0,0:0|1:0,0:0:0:0:
233,253,96702,2,0,P|312:263|396:266,1,160,2|10,1:2|0:0,0:0:0:0:
462,238,97118,1,0,0:0:0:0:
469,210,97202,1,0,0:0:0:0:
477,183,97285,1,0,0:0:0:0:
484,155,97368,6,0,P|489:114|485:64,1,80,2|0,1:2|0:0,0:0:0:0:
307,30,97702,2,0,P|347:40|384:72,1,80,8|2,0:0|1:2,0:0:0:0:
271,176,98035,6,0,P|220:213|150:203,1,120,2|2,1:0|1:0,0:0:0:0:
195,135,98368,2,0,P|150:172|96:138,1,120,8|0,0:0|0:0,0:0:0:0:
104,99,98702,6,0,B|141:78|141:78|178:92,1,80,0|0,1:0|1:0,0:0:0:0:
307,108,99035,1,8,0:0:0:0:
256,230,99202,1,2,1:2:0:0:
256,230,99285,1,2,1:2:0:0:
256,230,99368,2,0,P|258:271|265:312,1,80,2|0,0:0|1:0,0:0:0:0:
352,269,99702,1,8,0:0:0:0:
165,226,99868,1,0,1:0:0:0:
330,161,100035,6,0,P|345:70|289:18,1,160,2|8,1:2|0:0,0:0:0:0:
162,101,100535,1,2,1:2:0:0:
228,171,100702,6,0,P|282:175|354:165,1,120,2|2,1:0|1:0,0:0:0:0:
382,133,101035,2,0,P|383:202|401:261,1,120,8|0,0:0|0:0,0:0:0:0:
433,281,101368,6,0,P|389:279|339:289,1,80,0|0,1:0|1:0,0:0:0:0:
236,259,101702,2,0,P|166:249|88:260,1,120,10|0,0:0|1:2,0:0:0:0:
72,272,102035,1,2,0:2:0:0:
224,177,102201,1,0,1:0:0:0:
49,195,102368,1,10,0:0:0:0:
160,336,102535,1,0,0:0:0:0:
224,177,102701,6,0,P|220:99|161:40,1,160,2|8,1:2|0:0,0:0:0:0:
109,120,103201,1,2,1:2:0:0:
129,145,103285,1,0,0:0:0:0:
131,176,103368,2,0,P|97:222|29:204,1,120,2|2,1:2|1:2,0:0:0:0:
6,180,103701,2,0,P|0:138|18:90,1,80,8|2,0:0|1:2,0:0:0:0:
187,210,104035,6,0,P|115:239|41:215,1,160,0|8,1:2|0:0,0:0:0:0:
109,120,104535,1,0,0:0:0:0:
208,232,104701,6,0,L|201:282,2,40,0|0|0,0:0|0:0|1:0,0:0:0:0:
262,81,105035,1,2,1:2:0:0:
262,81,105118,1,0,1:0:0:0:
262,81,105201,2,0,L|269:140,1,40,0|0,1:0|1:0,0:0:0:0:
296,159,105368,6,0,P|371:181|450:142,1,160,6|8,1:2|0:1,0:0:0:0:
421,283,105868,1,2,1:2:0:0:
393,289,105951,1,2,1:2:0:0:
365,295,106035,2,0,P|351:257|358:205,1,80,2|0,1:2|1:0,0:0:0:0:
358,18,106368,2,0,P|369:58|366:100,1,80,10|2,0:0|1:2,0:0:0:0:
256,147,106701,6,0,P|200:123|132:128,2,120,2|2|2,1:2|1:2|1:2,0:0:0:0:
229,240,107368,2,0,P|225:280|237:350,1,80,2|0,0:0|1:0,0:0:0:0:
393,289,107701,2,0,P|353:289|289:307,1,80,10|0,0:1|1:0,0:0:0:0:
130,281,108035,6,0,P|69:220|70:143,1,160,2|8,1:2|0:0,0:0:0:0:
185,112,108535,1,2,1:2:0:0:
185,112,108618,1,2,1:2:0:0:
185,112,108701,2,0,P|203:71|204:19,1,80,2|0,1:2|0:0,0:0:0:0:
294,76,109035,1,10,0:0:0:0:
387,56,109201,1,2,1:2:0:0:
453,125,109368,6,0,L|458:260,2,120,2|2|2,1:2|0:0|1:2,0:0:0:0:
456,97,109951,1,0,1:0:0:0:
466,70,110035,2,0,P|424:74|361:74,1,80,2|2,0:0|1:0,0:0:0:0:
278,44,110368,2,0,P|231:46|176:52,1,80,10|2,0:1|0:0,0:0:0:0:
73,212,110701,6,0,L|241:197,1,160,2|8,1:2|0:0,0:0:0:0:
347,285,111201,1,2,1:2:0:0:
347,285,111285,1,2,1:2:0:0:
347,285,111368,2,0,L|245:275,1,80,2|0,0:0|1:0,0:0:0:0:
67,118,111701,2,0,L|169:128,1,80,10|0,0:0|0:0,0:0:0:0:
272,193,112035,6,0,P|211:197|127:212,2,120,2|2|2,1:2|0:0|1:0,0:0:0:0:
327,114,112701,2,0,L|418:123,1,80,0|2,0:0|1:0,0:0:0:0:
179,284,113035,2,0,L|88:275,1,80,10|0,0:1|1:0,0:0:0:0:
217,185,113368,6,0,P|298:205|382:233,1,160,2|8,1:2|0:0,0:0:0:0:
210,95,113868,1,2,1:2:0:0:
210,95,113951,1,2,1:2:0:0:
210,95,114035,2,0,P|165:100|115:111,1,80,2|0,1:2|0:0,0:0:0:0:
280,247,114368,1,10,0:0:0:0:
349,151,114535,1,2,1:2:0:0:
173,196,114701,6,0,P|115:204|32:205,2,120,0|2|2,1:2|0:0|1:0,0:0:0:0:
276,272,115368,2,0,L|375:289,1,80,0|2,0:0|1:0,0:0:0:0:
454,159,115701,2,0,L|355:176,1,80,10|0,0:1|0:0,0:0:0:0:
283,50,116035,6,0,L|294:134,1,80,0|0,0:0|0:0,0:0:0:0:
295,225,116368,2,0,P|247:214|193:203,1,80,0|0,0:0|0:0,0:0:0:0:
127,138,116701,2,0,P|171:130|207:126,1,80,0|0,0:0|0:0,0:0:0:0:
117,305,117035,2,0,L|128:221,1,80,0|0,0:0|0:0,0:0:0:0:
206,126,117368,5,4,0:1:0:0:
256,192,117451,12,0,118701,0:0:0:0:
139,104,132035,6,0,P|218:93|302:97,2,160,0|0|0,0:0|0:0|0:0,0:0:0:0:
353,177,133701,1,0,0:0:0:0:
232,232,134035,2,0,P|247:138|255:69,2,160,0|0|0,0:0|0:0|0:0,0:0:0:0:
91,352,135701,1,0,0:0:0:0:
132,253,136035,6,0,P|90:251|42:262,1,80,0|0,0:0|0:0,0:0:0:0:
264,355,136701,2,0,P|275:318|300:268,1,80,0|0,0:0|0:0,0:0:0:0:
434,183,137368,2,0,P|391:172|353:152,1,80,0|0,0:0|0:0,0:0:0:0:
168,43,138035,2,0,L|181:216,2,160,0|0|0,0:0|0:0|0:0,0:0:0:0:
89,231,140035,6,0,P|36:211|39:296,1,160,0|0,0:0|0:0,0:0:0:0:
235,289,141035,2,0,P|196:301|145:302,1,80,0|0,0:0|0:0,0:0:0:0:
179,202,141701,1,0,0:0:0:0:
275,338,142035,2,0,P|282:258|305:170,2,160,0|0|0,0:0|0:0|0:0,0:0:0:0:
205,53,143701,1,0,0:0:0:0:
265,143,144035,6,0,P|264:188|258:233,1,80,0|0,0:0|0:0,0:0:0:0:
135,170,144701,2,0,P|131:124|131:78,1,80,0|0,0:0|0:0,0:0:0:0:
383,117,145368,6,0,P|426:115|469:106,1,80,0|0,0:0|0:0,0:0:0:0:
411,273,146035,2,0,P|368:275|325:284,1,80,0|0,0:0|0:0,0:0:0:0:
212,296,146701,5,0,0:0:0:0:
110,232,147034,1,0,0:0:0:0:
143,116,147368,2,0,P|185:113|230:108,1,80,0|0,0:0|0:0,0:0:0:0:
332,34,148034,6,0,P|320:113|311:199,1,160,4|0,1:0|0:0,0:0:0:0:
336,310,149034,1,0,0:0:0:0:
216,296,149368,2,0,P|173:300|128:305,1,80,0|0,0:0|0:0,0:0:0:0:
176,191,150034,2,0,L|82:204,1,80,0|0,0:0|0:0,0:0:0:0:
206,86,150701,6,0,P|163:82|118:77,1,80,0|0,0:0|0:0,0:0:0:0:
104,196,151368,2,0,L|10:183,1,80,0|0,0:0|0:0,0:0:0:0:
216,290,152034,6,0,P|259:250|333:238,1,120,2|0,0:0|0:0,0:0:0:0:
377,242,152701,1,0,0:0:0:0:
255,80,153034,2,0,P|252:127|244:171,1,80,0|0,0:0|0:0,0:0:0:0:
161,197,153534,1,0,0:0:0:0:
161,197,153701,2,0,P|158:217|156:245,1,40,0|0,0:0|0:0,0:0:0:0:
62,319,154034,6,0,P|51:240|38:161,1,160,2|0,0:0|0:0,0:0:0:0:
153,49,155034,1,0,0:0:0:0:
238,186,155368,2,0,P|278:189|326:185,1,80,0|0,0:0|0:0,0:0:0:0:
443,69,156034,6,0,P|360:74|276:76,1,160,2|0,0:0|0:0,0:0:0:0:
172,168,157034,1,0,0:0:0:0:
300,233,157368,1,0,0:0:0:0:
410,140,157701,1,0,0:0:0:0:
289,60,158034,6,0,P|249:62|203:65,1,80,0|0,0:0|0:0,0:0:0:0:
17,18,158701,2,0,L|96:10,1,80,0|0,0:0|0:0,0:0:0:0:
189,138,159368,2,0,L|105:147,1,80,0|0,0:0|0:0,0:0:0:0:
55,286,160034,6,0,L|148:275,1,80,2|0,0:0|0:0,0:0:0:0:
134,276,160534,1,0,0:0:0:0:
278,217,160701,2,0,P|274:259|270:309,2,80,0|2|2,0:0|0:0|0:0,0:0:0:0:
337,350,161534,1,0,0:0:0:0:
337,350,161701,1,2,0:0:0:0:
426,158,162034,6,0,L|337:165,1,80,2|0,0:0|0:0,0:0:0:0:
275,125,162534,1,2,0:0:0:0:
205,84,162701,2,0,L|116:91,1,80,0|0,0:0|0:0,0:0:0:0:
296,53,163368,6,0,P|219:75|201:138,1,140,0|0,0:0|0:0,0:0:0:0:
199,125,164034,6,0,L|207:255,1,120.000004577637,0|0,0:0|0:0,0:0:0:0:
270,308,164534,1,0,0:0:0:0:
298,222,164700,2,0,L|423:228,1,120.000004577637,0|0,0:0|0:0,0:0:0:0:
476,159,165200,1,0,0:0:0:0:
275,125,165367,6,0,L|150:131,1,120.000004577637,0|0,0:0|0:0,0:0:0:0:
86,72,165867,1,0,0:0:0:0:
5,163,166034,5,0,0:0:0:0:
5,163,166200,1,0,0:0:0:0:
77,273,166367,1,0,0:0:0:0:
77,273,166534,1,0,0:0:0:0:
161,181,166700,6,0,L|282:197,1,120.000004577637,0|0,0:0|0:0,0:0:0:0:
279,196,167200,1,0,0:0:0:0:
263,284,167367,2,0,P|230:289|194:286,1,60.0000022888184,0|0,0:0|0:0,0:0:0:0:
256,111,167700,2,0,P|289:106|325:109,1,60.0000022888184,0|0,0:0|0:0,0:0:0:0:
275,304,168034,5,0,0:0:0:0:
263,134,168200,1,2,0:0:0:0:
178,217,168367,2,0,L|94:230,1,60.0000022888184,2|2,0:0|0:0,0:0:0:0:
355,232,168700,2,0,L|486:209,1,120.000004577637,2|2,0:0|0:0,0:0:0:0:
473,211,169200,1,2,0:0:0:0:
336,88,169367,6,0,P|274:100|209:109,1,120.000004577637,2|0,0:0|0:0,0:0:0:0:
67,87,169867,1,0,0:0:0:0:
27,168,170034,2,0,P|93:174|149:176,1,120.000004577637,2|0,0:0|0:0,0:0:0:0:
225,281,170534,1,0,0:0:0:0:
412,227,170700,6,0,P|349:222|274:219,1,120.000004577637,2|0,0:0|0:0,0:0:0:0:
292,219,171200,1,0,0:0:0:0:
211,130,171367,5,0,0:0:0:0:
211,130,171534,1,0,0:0:0:0:
275,25,171700,1,0,0:0:0:0:
275,25,171867,1,0,0:0:0:0:
382,101,172034,6,0,L|451:97,1,60.0000022888184,0|0,0:0|0:0,0:0:0:0:
351,307,172367,2,0,L|282:311,1,60.0000022888184,2|0,1:2|1:0,0:0:0:0:
354,85,172700,5,2,1:2:0:0:
379,289,172867,1,0,1:0:0:0:
379,67,173034,1,2,1:2:0:0:
351,271,173200,1,2,1:2:0:0:
299,165,173367,5,0,1:2:0:0:
263,166,173450,1,0,1:0:0:0:
226,164,173534,1,0,1:0:0:0:
190,160,173617,1,0,1:0:0:0:
163,183,173700,5,2,1:2:0:0:
174,148,173784,1,0,1:0:0:0:
174,112,173867,1,0,1:0:0:0:
163,77,173950,1,0,1:0:0:0:
138,50,174034,6,0,B|137:43|134:37|134:37|138:31|138:20,1,30.0000011444092
42,43,174200,6,0,B|41:57|30:70|30:70|39:83|38:101,1,60.0000022888184,0|0,1:0|0:0,0:0:0:0:
34,175,174367,6,0,P|29:230|71:293,1,120,8|0,0:0|0:0,0:0:0:0:
128,319,174700,6,0,P|207:298|295:313,1,160,6|8,1:2|0:0,0:0:0:0:
371,239,175200,1,0,0:0:0:0:
314,142,175367,2,0,P|269:146|202:153,1,80,2|0,0:0|1:0,0:0:0:0:
127,184,175700,1,8,0:0:0:0:
141,72,175867,1,0,0:0:0:0:
231,143,176034,6,0,P|225:184|225:261,1,80,2|0,1:2|0:0,0:0:0:0:
275,321,176367,1,10,0:2:0:0:
235,215,176534,1,0,1:0:0:0:
361,203,176700,6,0,P|416:198|451:200,1,80,2|0,0:2|1:0,0:0:0:0:
167,299,177034,2,0,P|112:304|77:302,1,80,10|0,0:0|0:0,0:0:0:0:
267,335,177367,6,0,P|271:259|255:176,1,160,2|10,1:2|0:0,0:0:0:0:
255,176,177867,1,0,0:0:0:0:
183,33,178034,2,0,L|189:124,1,80,2|2,0:0|1:2,0:0:0:0:
346,66,178367,2,0,L|340:151,1,80,10|2,0:0|0:0,0:0:0:0:
177,122,178700,6,0,L|182:208,1,80,0|2,1:0|1:2,0:0:0:0:
349,293,179033,2,0,L|353:213,1,80,10|2,0:0|1:2,0:0:0:0:
176,210,179367,6,0,L|183:290,1,60.0000022888184,2|0,0:0|0:0,0:0:0:0:
186,322,179533,1,0,1:0:0:0:
274,209,179700,1,10,0:0:0:0:
202,85,179867,1,0,0:0:0:0:
343,69,180033,6,0,P|424:77|512:96,1,160,6|8,1:2|0:0,0:0:0:0:
441,194,180533,1,0,0:0:0:0:
330,173,180700,2,0,P|291:177|246:189,1,80,2|0,0:0|1:0,0:0:0:0:
58,124,181033,2,0,P|94:136|160:141,1,80,8|0,0:0|0:0,0:0:0:0:
225,67,181367,5,2,1:2:0:0:
246,176,181533,1,0,0:0:0:0:
159,247,181700,1,10,0:0:0:0:
227,336,181867,1,0,1:0:0:0:
334,305,182033,6,0,P|328:266|331:215,1,80,2|0,0:0|1:0,0:0:0:0:
226,79,182367,2,0,P|238:121|240:169,1,80,10|0,0:0|0:0,0:0:0:0:
346,117,182700,6,0,L|441:107,1,80,2|0,1:2|0:0,0:0:0:0:
175,257,183033,2,0,L|80:247,1,80,10|0,0:0|0:0,0:0:0:0:
202,116,183367,6,0,P|202:74|218:37,1,80,2|2,0:0|1:2,0:0:0:0:
311,250,183700,2,0,P|311:292|295:329,1,80,10|2,0:0|0:0,0:0:0:0:
184,323,184033,5,0,1:0:0:0:
65,241,184200,1,2,1:2:0:0:
206,214,184367,1,10,0:1:0:0:
267,84,184533,1,2,1:0:0:0:
131,33,184700,5,0,0:0:0:0:
109,56,184783,1,10,0:1:0:0:
102,87,184867,1,10,0:1:0:0:
253,164,185033,1,10,0:1:0:0:
274,139,185117,1,0,0:0:0:0:
282,108,185200,1,0,1:0:0:0:
190,103,185367,6,0,B|160:157|160:157|156:192|156:192|118:257,1,160,6|8,1:2|0:0,0:0:0:0:
236,237,185867,1,2,1:2:0:0:
236,237,185950,1,2,0:0:0:0:
236,237,186033,2,0,P|316:224|394:256,1,160,2|8,0:0|0:0,0:0:0:0:
452,343,186533,1,2,0:0:0:0:
222,317,186700,6,0,P|144:316|70:364,1,160,2|8,1:2|0:0,0:0:0:0:
82,247,187200,1,2,1:2:0:0:
82,247,187283,1,2,0:0:0:0:
82,247,187367,2,0,P|49:182|69:81,1,160,2|8,0:0|0:0,0:0:0:0:
134,14,187867,1,2,1:2:0:0:
240,47,188033,6,0,B|302:40|302:40|338:63|338:63|398:56,1,160,2|8,1:2|0:0,0:0:0:0:
261,150,188533,1,2,1:2:0:0:
261,150,188617,1,2,0:0:0:0:
261,150,188700,2,0,B|239:206|239:206|259:273,1,120,2|0,0:0|0:0,0:0:0:0:
283,310,189033,2,0,L|371:318,1,80,10|0,0:0|0:0,0:0:0:0:
416,205,189367,6,0,L|328:213,1,80,2|0,1:2|1:0,0:0:0:0:
162,215,189700,1,10,0:0:0:0:
86,131,189867,1,2,1:2:0:0:
176,66,190033,2,0,P|183:45|186:17,2,40,0|0|2,0:0|1:0|1:2,0:0:0:0:
269,128,190367,2,0,P|282:147|291:169,2,40,10|0|0,0:0|0:0|0:0,0:0:0:0:
191,215,190700,6,0,P|110:210|29:228,1,160,6|8,1:2|0:0,0:0:0:0:
207,118,191200,1,2,1:2:0:0:
207,118,191283,1,2,0:0:0:0:
207,118,191367,2,0,P|299:131|372:129,1,160,2|10,0:0|0:0,0:0:0:0:
407,341,191867,1,2,0:0:0:0:
295,291,192033,6,0,P|290:222|294:112,1,160,2|8,1:2|0:0,0:0:0:0:
179,28,192533,1,2,1:2:0:0:
179,28,192617,1,2,0:0:0:0:
179,28,192700,2,0,P|184:97|180:207,1,160,2|10,0:0|0:0,0:0:0:0:
49,231,193200,1,2,0:0:0:0:
231,291,193367,6,0,P|148:289|77:324,1,160,2|8,1:2|0:0,0:0:0:0:
343,313,193867,1,2,1:2:0:0:
343,313,193950,1,2,0:0:0:0:
343,313,194033,2,0,P|327:272|317:222,1,80,2|0,0:0|1:0,0:0:0:0:
276,31,194367,2,0,P|270:66|253:118,1,80,10|0,0:0|0:0,0:0:0:0:
430,174,194700,5,0,1:0:0:0:
338,108,194867,1,0,1:0:0:0:
259,187,195033,2,0,L|171:199,1,80,10|0,0:1|1:0,0:0:0:0:
186,141,195283,2,0,B|149:123|149:123|111:155,1,80,10|0,0:1|1:0,0:0:0:0:
84,192,195533,2,0,L|80:277,1,80,0|10,1:0|0:1,0:0:0:0:
156,354,195867,1,0,0:0:0:0:
241,278,196033,6,0,P|312:275|381:268,1,120.000004577637,0|0,0:0|0:0,0:0:0:0:
447,206,196533,1,0,0:0:0:0:
447,206,196617,1,0,0:0:0:0:
447,206,196700,2,0,B|441:185|423:171|423:171|443:130|424:70,1,120.000004577637,0|0,0:0|0:0,0:0:0:0:
336,42,197200,1,0,0:0:0:0:
232,73,197367,6,0,B|208:59|208:59|142:68,2,90.0000034332277,0|0|0,0:0|0:0|0:0,0:0:0:0:
191,188,198033,2,0,P|230:189|263:182,1,60.0000022888184,0|0,0:0|0:0,0:0:0:0:
340,295,198367,2,0,P|308:296|266:286,1,60.0000022888184,2|0,0:0|0:0,0:0:0:0:
100,317,198700,6,0,P|69:264|73:195,1,120.000004577637,2|0,0:0|0:0,0:0:0:0:
91,157,199117,1,0,0:0:0:0:
93,139,199200,1,0,0:0:0:0:
96,121,199283,1,0,0:0:0:0:
99,103,199367,2,0,P|133:104|172:90,1,60.0000022888184,2|0,0:0|0:0,0:0:0:0:
250,41,199700,2,0,P|289:46|329:61,1,60.0000022888184,0|0,0:0|0:0,0:0:0:0:
380,132,200033,6,0,B|365:161|365:161|381:238,2,90.0000034332277,2|2|2,0:0|0:0|0:0,0:0:0:0:
253,204,200700,2,0,L|155:194,2,90.0000034332277,2|2|2,0:0|0:0|0:0,0:0:0:0:
399,113,201367,6,0,P|336:108|272:100,1,120.000004577637,2|0,0:0|0:0,0:0:0:0:
236,69,201783,1,0,0:0:0:0:
217,69,201867,1,0,0:0:0:0:
199,69,201950,1,0,0:0:0:0:
181,70,202033,2,0,P|161:120|123:146,1,90.0000034332277,0|2,0:0|0:0,0:0:0:0:
91,176,202367,2,0,L|97:236,1,60.0000022888184,0|2,0:0|0:0,0:0:0:0:
310,356,202700,6,0,P|305:297|301:216,1,120.000004577637,0|0,0:0|0:0,0:0:0:0:
237,149,203200,1,0,0:0:0:0:
237,149,203283,1,0,0:0:0:0:
237,149,203367,2,0,P|204:186|196:233,1,90.0000034332277,0|2,0:0|0:0,0:0:0:0:
203,279,203700,2,0,P|173:300|142:308,1,60.0000022888184,0|2,0:0|0:0,0:0:0:0:
67,184,204033,6,0,P|76:136|59:63,1,120.000004577637,0|0,0:0|0:0,0:0:0:0:
206,32,204533,1,0,0:0:0:0:
206,32,204617,1,0,0:0:0:0:
206,32,204700,2,0,B|243:39|270:54|270:54|267:42|270:33,1,90.0000034332277,0|2,0:0|0:0,0:0:0:0:
326,15,205033,2,0,P|321:46|329:85,1,60.0000022888184,0|2,0:0|0:0,0:0:0:0:
397,223,205367,6,0,L|297:233,2,90.0000034332277,0|2|2,0:0|0:0|0:0,0:0:0:0:
111,180,206033,2,0,L|236:168,1,120.000004577637,2|2,0:0|0:0,0:0:0:0:
439,131,206700,5,0,1:0:0:0:
439,131,206867,1,0,1:0:0:0:
365,310,207033,1,0,1:0:0:0:
365,310,207200,1,0,1:0:0:0:
256,160,207367,1,0,1:0:0:0:
236,146,207450,1,0,1:0:0:0:
217,131,207533,1,0,1:0:0:0:
197,117,207617,1,0,1:0:0:0:
179,101,207700,6,0,P|163:79|158:55,1,40,2|2,1:0|1:0,0:0:0:0:
98,14,207867,2,0,P|84:37|78:62,1,40,2|2,1:0|1:0,0:0:0:0:
103,160,208033,6,0,B|109:144|106:124|106:124|140:192|69:227,1,160,6|8,1:2|0:1,0:0:0:0:
222,324,208533,1,2,1:2:0:0:
222,324,208617,1,2,1:2:0:0:
222,324,208700,2,0,B|188:304|144:310|144:310|103:335|68:334,1,160,2|10,1:2|0:0,0:0:0:0:
217,208,209200,1,2,0:2:0:0:
179,101,209367,6,0,B|116:96|116:96|92:42,2,120,2|2|2,1:2|1:2|1:2,0:0:0:0:
283,165,210033,2,0,P|295:190|322:213,2,40,2|0|0,0:0|0:1|1:0,0:0:0:0:
302,45,210367,2,0,P|306:28|302:0,2,40,8|0|0,0:1|0:0|1:0,0:0:0:0:
191,92,210700,6,0,B|169:90|150:102|150:102|161:161|126:218,1,160,2|8,1:2|0:0,0:0:0:0:
182,324,211200,1,2,1:2:0:0:
182,324,211283,1,2,1:2:0:0:
182,324,211367,2,0,L|312:314,1,120,2|0,1:2|0:0,0:0:0:0:
350,280,211700,2,0,L|436:288,1,80,10|2,0:0|1:2,0:0:0:0:
409,134,212033,6,0,B|385:159|385:159|292:163,1,120,2|2,1:2|0:0,0:0:0:0:
251,124,212367,1,8,0:0:0:0:
181,26,212533,1,2,1:2:0:0:
70,73,212700,2,0,P|66:114|74:175,1,80,2|0,0:0|1:0,0:0:0:0:
33,267,213033,2,0,P|72:257|130:251,1,80,10|2,0:0|0:0,0:0:0:0:
227,217,213367,6,0,P|241:306|210:374,1,160,2|8,1:2|0:0,0:0:0:0:
363,337,213867,1,2,1:2:0:0:
363,337,213950,1,2,1:2:0:0:
363,337,214033,2,0,P|407:324|456:322,1,80,2|0,0:0|1:0,0:0:0:0:
495,179,214367,2,0,P|455:175|408:158,1,80,10|0,0:0|0:0,0:0:0:0:
292,74,214700,6,0,B|313:36|313:36|399:27,2,120,2|2|2,1:2|0:0|1:2,0:0:0:0:
174,144,215367,1,2,0:0:0:0:
203,276,215533,1,0,1:0:0:0:
394,167,215700,1,8,0:1:0:0:
338,291,215867,1,0,1:0:0:0:
275,196,216033,6,0,B|232:187|206:226|206:226|171:188|130:201,1,160,2|8,1:2|0:0,0:0:0:0:
137,319,216533,1,2,1:2:0:0:
137,319,216617,1,2,1:2:0:0:
137,319,216700,2,0,B|173:336|173:336|230:303|203:215,1,160,2|10,1:2|0:0,0:0:0:0:
263,105,217200,1,2,1:2:0:0:
105,53,217367,6,0,P|85:107|107:185,1,120,0|0,1:2|0:0,0:0:0:0:
133,213,217700,2,0,L|213:206,1,80,10|0,0:0|1:0,0:0:0:0:
261,241,217950,1,2,1:2:0:0:
261,241,218033,2,0,P|305:235|351:234,1,80,0|0,0:0|1:0,0:0:0:0:
340,112,218367,2,0,P|386:105|430:102,1,80,10|2,0:0|0:0,0:0:0:0:
185,34,218700,6,0,B|152:50|143:82|143:82|161:107|161:107|145:136|160:170,1,160,6|8,1:2|0:1,0:0:0:0:
113,287,219200,1,2,1:2:0:0:
113,287,219283,1,2,1:2:0:0:
113,287,219367,2,0,P|157:279|214:275,1,80,2|0,1:2|1:0,0:0:0:0:
393,211,219700,2,0,P|352:212|280:197,1,80,10|2,0:0|1:2,0:0:0:0:
206,35,220033,6,0,P|193:92|206:151,1,120,2|2,1:2|1:2,0:0:0:0:
246,195,220367,1,8,0:1:0:0:
310,94,220533,1,2,1:2:0:0:
108,137,220700,2,0,P|94:178|95:221,1,80,2|0,0:0|1:0,0:0:0:0:
101,334,221033,2,0,P|62:320|12:316,1,80,10|0,0:1|1:0,0:0:0:0:
212,371,221367,6,0,P|275:323|365:331,1,160,2|8,1:2|0:0,0:0:0:0:
485,246,221867,1,2,1:2:0:0:
485,246,221950,1,2,1:2:0:0:
485,246,222033,2,0,P|428:241|353:224,1,120,2|0,1:2|0:0,0:0:0:0:
388,170,222367,2,0,P|388:126|376:82,1,80,10|2,0:0|1:2,0:0:0:0:
221,29,222700,6,0,P|159:28|97:36,1,120,2|2,1:2|0:0,0:0:0:0:
129,89,223033,1,8,0:0:0:0:
74,196,223200,1,2,1:2:0:0:
206,273,223367,2,0,P|203:229|193:192,1,80,2|2,0:0|1:0,0:0:0:0:
108,324,223700,1,10,0:1:0:0:
215,378,223867,1,2,0:0:0:0:
320,321,224033,6,0,B|369:298|383:241|383:241|382:279|398:320,1,160,2|8,1:2|0:0,0:0:0:0:
329,146,224533,1,2,1:2:0:0:
329,146,224617,1,2,1:2:0:0:
329,146,224700,2,0,P|316:108|321:59,1,80,2|0,0:0|1:0,0:0:0:0:
176,114,225033,2,0,P|143:96|92:93,1,80,10|0,0:0|0:0,0:0:0:0:
49,218,225367,6,0,P|33:283|66:355,1,120,2|2,1:2|0:0,0:0:0:0:
96,368,225700,2,0,L|175:355,1,80,8|2,0:0|1:0,0:0:0:0:
337,299,226033,1,0,0:0:0:0:
227,253,226200,1,2,1:0:0:0:
330,330,226367,1,10,0:1:0:0:
464,287,226533,1,0,1:0:0:0:
397,161,226700,6,0,P|323:174|236:151,1,160,2|8,1:2|0:0,0:0:0:0:
127,115,227200,1,2,1:2:0:0:
127,115,227283,1,2,1:2:0:0:
127,115,227367,2,0,L|133:204,1,80,2|0,1:2|0:0,0:0:0:0:
231,339,227700,1,10,0:0:0:0:
120,290,227867,1,2,1:2:0:0:
221,227,228033,6,0,P|282:229|347:195,1,120,0|0,1:2|0:0,0:0:0:0:
378,161,228367,2,0,L|341:259,1,80,10|2,0:1|1:0,0:0:0:0:
483,351,228700,2,0,P|408:325|316:330,1,160,0|2,0:0|1:1,0:0:0:0:
90,268,229367,6,0,L|81:179,1,80,6|0,1:0|0:0,0:0:0:0:
116,98,229700,1,8,0:0:0:0:
174,174,229867,2,0,L|263:159,1,80,2|0,0:2|0:0,0:0:0:0:
287,127,230117,2,0,L|280:183,1,40,0|0,0:0|1:0,0:0:0:0:
277,262,230367,2,0,L|366:247,1,80,10|0,0:0|0:0,0:0:0:0:
244,150,230700,5,0,1:0:0:0:
167,233,230867,2,0,L|158:326,1,80,2|8,0:2|0:0,0:0:0:0:
277,262,231200,1,0,1:0:0:0:
243,132,231367,6,0,L|230:84,2,40,2|0|0,0:0|0:0|1:0,0:0:0:0:
147,229,231700,2,0,L|191:219,2,40,10|0|0,0:2|0:0|0:0,0:0:0:0:
283,269,232033,6,0,L|369:263,1,80,2|0,1:2|0:0,0:0:0:0:
212,339,232366,1,8,0:0:0:0:
184,246,232533,2,0,L|214:157,1,80,2|0,0:0|0:0,0:0:0:0:
246,138,232783,2,0,L|178:146,1,40,0|0,0:0|1:0,0:0:0:0:
60,68,233033,2,0,L|139:77,1,80,10|0,0:0|0:0,0:0:0:0:
255,31,233367,5,0,1:0:0:0:
373,77,233533,2,0,L|452:68,1,80,2|8,0:0|0:0,0:0:0:0:
502,151,233867,1,0,1:0:0:0:
407,162,234033,6,0,P|407:188|411:221,1,40,2|0,0:0|0:0,0:0:0:0:
475,257,234200,1,0,1:0:0:0:
310,210,234367,2,0,P|299:229|289:250,1,40,10|0,0:0|0:0,0:0:0:0:
323,322,234533,1,0,0:0:0:0:
234,136,234700,6,0,L|144:157,1,80,6|0,1:0|0:0,0:0:0:0:
38,307,235033,1,8,0:0:0:0:
119,256,235200,2,0,L|209:277,1,80,2|0,0:0|0:0,0:0:0:0:
242,290,235450,2,0,L|221:249,1,40,0|0,0:0|1:0,0:0:0:0:
310,210,235700,2,0,L|400:231,1,80,10|0,0:0|0:0,0:0:0:0:
473,183,236033,5,0,1:0:0:0:
406,324,236200,2,0,L|318:340,1,80,2|8,0:2|0:0,0:0:0:0:
242,290,236533,1,0,1:0:0:0:
72,234,236700,6,0,L|9:247,2,40,2|0|0,0:0|0:0|1:0,0:0:0:0:
138,344,237033,2,0,L|144:304,2,40,10|0|0,0:0|0:0|0:0,0:0:0:0:
194,224,237367,6,0,L|208:128,1,80,2|0,1:2|0:0,0:0:0:0:
235,107,237617,2,0,L|195:118,1,40,0|8,0:0|0:0,0:0:0:0:
62,31,237867,2,0,L|76:127,1,80,2|0,0:0|0:0,0:0:0:0:
103,148,238117,2,0,L|63:137,1,40,0|0,0:0|1:0,0:0:0:0:
117,245,238367,2,0,L|216:217,1,80,10|0,0:0|0:0,0:0:0:0:
354,88,238700,5,2,1:2:0:0:
428,148,238867,1,2,1:2:0:0:
352,207,239033,2,0,P|354:250|368:292,1,80,10|0,0:0|0:0,0:0:0:0:
228,150,239367,2,0,P|218:190|220:237,1,80,0|2,1:0|1:2,0:0:0:0:
143,48,239700,2,0,P|117:82|99:131,1,80,10|0,0:1|0:0,0:0:0:0:
72,322,240033,6,0,P|115:318|162:313,1,80,6|0,1:0|0:0,0:0:0:0:
272,307,240367,1,8,0:0:0:0:
450,226,240533,2,0,P|411:222|357:215,1,80,2|0,0:2|0:0,0:0:0:0:
289,188,240783,2,0,L|300:234,1,40,0|0,0:0|1:0,0:0:0:0:
201,107,241033,2,0,P|191:65|185:24,1,80,10|0,0:0|0:0,0:0:0:0:
165,214,241367,5,0,1:0:0:0:
283,198,241533,2,0,P|290:237|299:285,1,80,2|8,0:2|0:0,0:0:0:0:
161,208,241867,1,0,1:0:0:0:
282,117,242033,1,2,0:0:0:0:
282,117,242117,1,0,0:0:0:0:
282,117,242200,1,0,1:0:0:0:
142,57,242367,1,10,0:2:0:0:
142,57,242450,1,0,0:0:0:0:
142,57,242533,1,0,0:0:0:0:
155,201,242700,6,0,P|119:212|65:218,1,80,2|0,1:2|0:0,0:0:0:0:
17,322,243033,1,8,0:0:0:0:
208,359,243200,2,0,P|200:321|201:257,1,80,2|0,0:0|0:0,0:0:0:0:
275,215,243450,2,0,P|271:243|264:271,1,40,0|0,0:0|1:0,0:0:0:0:
443,127,243700,2,0,P|406:133|357:131,1,80,10|0,0:0|0:0,0:0:0:0:
276,49,244033,5,0,1:0:0:0:
184,126,244200,2,0,P|188:171|196:215,1,80,2|8,0:0|0:0,0:0:0:0:
245,313,244533,1,0,1:0:0:0:
362,339,244700,2,0,P|376:359|395:375,3,40,2|0|0|0,0:0|0:0|1:0|0:0,0:0:0:0:
432,307,245033,2,0,P|456:323|479:326,3,40,10|0|0|0,0:0|0:0|0:0|0:0,0:0:0:0:
484,248,245367,6,0,P|482:209|476:165,1,80,6|0,1:0|0:0,0:0:0:0:
404,71,245700,1,8,0:0:0:0:
404,71,245867,1,2,0:0:0:0:
347,176,246033,1,0,0:0:0:0:
347,176,246117,1,0,0:0:0:0:
347,176,246200,1,0,1:0:0:0:
204,199,246367,1,10,0:0:0:0:
258,79,246533,1,0,0:0:0:0:
311,298,246700,5,0,1:0:0:0:
339,177,246867,1,2,0:2:0:0:
184,271,247033,1,8,0:0:0:0:
204,148,247200,1,0,1:0:0:0:
103,253,247367,6,0,P|95:233|89:206,2,40,2|0|0,0:0|0:0|1:0,0:0:0:0:
224,297,247700,2,0,P|207:314|171:331,2,40,10|0|0,0:0|0:0|0:0,0:0:0:0:
199,164,248033,5,2,1:2:0:0:
307,111,248200,1,0,0:0:0:0:
292,230,248367,1,8,0:0:0:0:
401,189,248533,5,2,0:0:0:0:
401,189,248617,1,0,0:0:0:0:
401,189,248700,1,0,0:0:0:0:
401,189,248783,1,0,0:0:0:0:
401,189,248867,1,0,1:0:0:0:
281,261,249033,1,10,0:0:0:0:
281,116,249200,1,0,0:0:0:0:
161,193,249367,6,0,L|75:201,1,80,2|0,1:0|1:2,0:0:0:0:
209,39,249700,2,0,P|212:82|223:132,1,80,10|0,0:1|0:0,0:0:0:0:
306,236,250033,2,0,L|394:255,1,80,2|0,1:0|0:2,0:0:0:0:
222,267,250367,2,0,P|205:305|196:343,1,80,10|0,0:1|0:0,0:0:0:0:
305,146,250700,5,4,0:0:0:0:
256,192,250783,12,0,253367,0:0:0:0:
