osu file format v14

[General]
AudioFilename: 05.mp3
AudioLeadIn: 1000
PreviewTime: 174284
Countdown: 0
SampleSet: Soft
StackLeniency: 0.7
Mode: 0
LetterboxInBreaks: 0
WidescreenStoryboard: 1

[Editor]
Bookmarks: 1370,22703,54703,65369,86703,132035,174700,196033,229367,253367
DistanceSpacing: 1.3
BeatDivisor: 4
GridSize: 32
TimelineZoom: 1.899999

[Metadata]
Title:Tokei no Heya to Seishin Sekai
TitleUnicode:時計の部屋と精神世界
Artist:a_hisa
ArtistUnicode:a_hisa
Creator:Asahina Momoko
Version:toybot's Advanced
Source:
Tags:After the End SpiritualCore sing toybot wring Fuccho mokori m_o_k_o_r_i
BeatmapID:1090075
BeatmapSetID:508947

[Difficulty]
HPDrainRate:5
CircleSize:3.8
OverallDifficulty:6
ApproachRate:7.5
SliderMultiplier:1.3
SliderTickRate:1

[Events]
//Background and Video events
0,0,"bg.jpg",0,0
//Break Periods
2,44235,53878
2,121368,131210
//Storyboard Layer 0 (Background)
//Storyboard Layer 1 (Fail)
//Storyboard Layer 2 (Pass)
//Storyboard Layer 3 (Foreground)
//Storyboard Sound Samples

[TimingPoints]
1370,333.333333333333,4,2,1,30,1,0
1370,-133.333333333333,4,2,1,30,0,0
12036,-133.333333333333,4,2,1,40,0,0
17369,-133.333333333333,4,2,2,50,0,0
20036,-125,4,2,2,50,0,0
22036,-125,4,2,1,50,0,0
22703,-100,4,2,1,50,0,0
33369,-100,4,2,2,60,0,0
34036,-100,4,2,2,50,0,0
34369,-100,4,2,2,40,0,0
34703,-100,4,2,2,60,0,0
35203,-100,4,2,2,50,0,0
35703,-100,4,2,2,40,0,0
36036,-100,4,2,2,60,0,0
36536,-100,4,2,2,50,0,0
37036,-100,4,2,2,40,0,0
37369,-100,4,2,2,50,0,0
37703,-100,4,2,2,60,0,0
38036,-100,4,2,2,70,0,0
38369,-100,4,2,2,50,0,0
38703,-100,4,2,2,60,0,0
39203,-100,4,2,2,50,0,0
39703,-100,4,2,2,40,0,0
40036,-100,4,2,2,60,0,0
40536,-100,4,2,2,50,0,0
41036,-100,4,2,2,40,0,0
41369,-100,4,2,2,60,0,0
42036,-100,4,2,2,50,0,0
42369,-100,4,2,2,40,0,0
42703,-100,4,2,2,30,0,0
43036,-100,4,2,2,50,0,0
43369,-100,4,2,2,70,0,0
43703,-100,4,2,2,90,0,0
44036,-100,4,2,1,40,0,0
54703,-100,4,2,2,40,0,0
55369,-100,4,2,2,60,0,0
55453,-100,4,2,2,5,0,0
55536,-100,4,2,2,40,0,0
56703,-100,4,2,2,40,0,0
57369,-100,4,2,2,40,0,0
58036,-100,4,2,2,60,0,0
58119,-100,4,2,2,5,0,0
58203,-100,4,2,2,40,0,0
59369,-100,4,2,2,40,0,0
60036,-100,4,2,2,40,0,0
60703,-100,4,2,2,60,0,0
60786,-100,4,2,2,5,0,0
60869,-100,4,2,2,40,0,0
62036,-100,4,2,2,40,0,0
62703,-100,4,2,2,40,0,0
63369,-100,4,2,2,40,0,0
64036,-100,4,2,2,50,0,0
64203,-100,4,2,1,50,0,0
64369,-100,4,2,2,60,0,0
64536,-100,4,2,1,60,0,0
64703,-100,4,2,2,40,0,0
65036,-100,4,2,1,30,0,0
65119,-100,4,2,1,50,0,0
65203,-100,4,2,1,70,0,0
65286,-100,4,2,1,90,0,0
65369,-100,4,2,1,60,0,0
65703,-100,4,2,2,60,0,0
66369,-100,4,2,2,50,0,0
66703,-100,4,2,2,40,0,0
70703,-100,4,2,2,30,0,0
71369,-100,4,2,2,40,0,0
72036,-100,4,2,2,50,0,0
72703,-100,4,2,2,60,0,0
73369,-100,4,2,2,70,0,0
74036,-100,4,2,2,60,0,0
74703,-100,4,2,2,50,0,0
75036,-100,4,2,2,70,0,0
76036,-100,4,2,2,70,0,0
79036,-100,4,2,2,60,0,0
79369,-100,4,2,2,50,0,0
79703,-100,4,2,2,40,0,0
80369,-100,4,2,2,50,0,0
80703,-100,4,2,2,60,0,0
81036,-100,4,2,2,70,0,0
81369,-100,4,2,2,40,0,0
82036,-100,4,2,2,50,0,0
82703,-100,4,2,2,60,0,0
83369,-100,4,2,2,70,0,0
85369,-100,4,2,2,70,0,0
86703,333.333333333333,6,2,1,50,1,0
86703,-100,6,2,1,50,0,0
90703,-100,6,2,2,60,0,0
94369,-100,6,2,1,80,0,0
94702,333.333333333333,4,2,2,70,1,0
94702,-100,4,2,2,70,0,0
98035,-100,4,2,2,70,0,0
98702,-100,4,2,2,70,0,0
100702,-100,4,2,2,70,0,0
101368,-100,4,2,2,70,0,0
105035,-100,4,2,1,70,0,0
105368,-100,4,2,2,80,0,1
116035,-133.333333333333,4,2,1,70,0,1
116368,-133.333333333333,4,2,1,60,0,1
116701,-133.333333333333,4,2,1,50,0,1
117035,-133.333333333333,4,2,1,40,0,1
117368,-100,4,2,1,60,0,0
118701,-100,4,2,1,10,0,0
132035,333.333333333333,6,2,1,40,1,0
132035,-133.333333333333,4,2,1,40,0,0
147368,-100,4,2,0,40,0,0
147409,-100,4,2,0,10,0,0
147451,-100,4,2,0,20,0,0
147534,-100,4,2,0,30,0,0
147618,-100,4,2,0,40,0,0
147701,-100,4,2,0,50,0,0
147784,-100,4,2,0,60,0,0
147868,-100,4,2,0,70,0,0
147951,-100,4,2,0,80,0,0
148034,-133.333333333333,4,2,3,50,0,0
149034,-133.333333333333,4,2,3,40,0,0
162534,-100,4,2,3,30,0,0
163368,-100,4,2,0,10,0,0
163451,-100,4,2,0,20,0,0
163534,-100,4,2,0,30,0,0
163618,-100,4,2,0,40,0,0
163701,-100,4,2,0,50,0,0
163784,-100,4,2,0,60,0,0
163868,-100,4,2,0,70,0,0
163951,-100,4,2,0,80,0,0
164034,333.333333333333,4,2,2,40,1,0
164034,-100,4,2,2,40,0,0
172700,-100,4,2,2,50,0,0
173034,-100,4,2,2,60,0,0
174367,-100,4,2,1,60,0,0
174700,-100,4,2,1,60,0,0
185367,-100,4,2,1,60,0,0
185700,-100,4,2,1,60,0,0
186700,-100,4,2,1,60,0,0
187033,-100,4,2,1,60,0,0
188033,-100,4,2,1,60,0,0
188367,-100,4,2,1,60,0,0
190700,-100,4,2,1,60,0,0
191033,-100,4,2,1,60,0,0
192033,-100,4,2,1,60,0,0
192367,-100,4,2,1,60,0,0
193367,-100,4,2,1,60,0,0
193700,-100,4,2,1,60,0,0
196033,-133.333333333333,4,2,1,50,0,0
206700,-100,4,2,2,50,0,0
207033,-100,4,2,2,60,0,0
207367,-100,4,2,2,40,0,0
207533,-100,4,2,2,50,0,0
207700,-100,4,2,2,60,0,0
207867,-100,4,2,2,70,0,0
208033,-100,4,2,2,80,0,1
218367,-100,4,2,2,70,0,0
218700,-100,4,2,2,80,0,1
228367,-100,4,2,1,80,0,1
229033,-100,4,2,1,80,0,1
229367,-100,4,2,1,70,0,0
252033,-100,4,2,1,50,0,0
252367,-100,4,2,1,40,0,0
252700,-100,4,2,1,30,0,0
253033,-100,4,2,1,20,0,0
253367,-100,4,2,1,10,0,0

[Colours]
Combo1 : 244,153,91
Combo2 : 141,193,203
Combo3 : 180,222,12
Combo4 : 74,181,159
Combo5 : 77,36,236

[HitObjects]
80,160,1370,6,0,L|72:104,2,48.750001859665,6|0|0,0:1|0:0|0:0,0:0:0:0:
56,232,1869,2,0,P|98:254|145:248,1,97.50000371933,0|0,0:0|0:0,0:0:0:0:
216,212,2369,2,0,L|224:160,2,48.750001859665,0|0|0,0:0|0:0|0:0,0:0:0:0:
248,284,2869,2,0,L|352:268,1,97.50000371933,2|0,0:0|0:0,0:0:0:0:
416,300,3369,1,2,0:0:0:0:
344,160,3703,1,2,0:0:0:0:
416,300,4036,6,0,L|480:312,2,48.750001859665,2|0|0,0:1|0:0|0:0,0:0:0:0:
344,269,4536,2,0,L|248:284,1,97.50000371933,0|0,0:0|0:0,0:0:0:0:
216,212,5036,2,0,L|224:160,2,48.750001859665,0|0|0,0:0|0:0|0:0,0:0:0:0:
146,247,5536,2,0,P|98:254|55:232,1,97.50000371933,2|2,0:0|0:0,0:0:0:0:
80,160,6036,1,2,0:0:0:0:
8,24,6369,1,2,0:0:0:0:
140,112,6703,6,0,L|208:104,2,48.750001859665,2|0|0,0:1|0:0|0:0,0:0:0:0:
116,36,7203,2,0,P|160:16|224:24,1,97.50000371933,0|0,0:0|0:0,0:0:0:0:
276,60,7703,2,0,L|288:4,2,48.750001859665,0|0|0,0:0|0:0|0:0,0:0:0:0:
300,132,8203,2,0,P|343:151|392:149,1,97.50000371933,2|2,0:0|0:0,0:0:0:0:
464,116,8703,1,0,0:0:0:0:
464,116,8869,2,0,L|456:52,2,48.750001859665,2|2|0,0:0|0:0|0:0,0:0:0:0:
504,184,9369,6,0,L|492:304,1,97.50000371933,2|0,0:1|0:0,0:0:0:0:
416,296,9869,2,0,L|428:176,1,97.50000371933,0|0,0:0|0:0,0:0:0:0:
388,132,10369,2,0,P|340:116|268:172,1,146.250005578995,0|2,0:0|0:0,0:0:0:0:
244,244,11036,2,0,L|252:308,1,48.750001859665,2|0,0:0|0:0,0:0:0:0:
192,344,11369,1,2,0:0:0:0:
324,260,11703,1,2,0:0:0:0:
176,212,12036,6,0,L|116:200,2,48.750001859665,2|0|0,0:1|0:0|0:0,0:0:0:0:
244,176,12536,2,0,L|252:72,1,97.50000371933,0|0,0:0|0:0,0:0:0:0:
324,52,13036,2,0,L|312:0,2,48.750001859665,0|0|0,0:0|0:0|0:0,0:0:0:0:
360,120,13536,2,0,P|404:112|456:140,1,97.50000371933,2|0,0:0|0:0,0:0:0:0:
488,204,14036,1,2,0:0:0:0:
348,272,14369,1,2,0:0:0:0:
488,204,14703,6,0,L|496:264,2,48.750001859665,2|0|0,0:1|0:0|0:0,0:0:0:0:
450,133,15203,2,0,P|407:112|360:120,1,97.50000371933,0|0,0:0|0:0,0:0:0:0:
324,52,15703,2,0,L|313:4,2,48.750001859665,0|0|0,0:0|0:0|0:0,0:0:0:0:
251,78,16203,2,0,L|244:176,1,97.50000371933,2|2,0:0|0:0,0:0:0:0:
176,212,16703,2,0,L|128:202,1,48.750001859665,2|0,0:0|0:0,0:0:0:0:
60,240,17036,1,2,0:0:0:0:
60,240,17203,1,0,0:0:0:0:
60,240,17369,5,2,1:0:0:0:
84,84,17703,1,0,1:0:0:0:
236,60,18036,1,0,1:0:0:0:
212,216,18370,1,0,1:0:0:0:
84,84,18703,5,0,1:0:0:0:
229,138,19036,1,2,1:2:0:0:
374,192,19369,1,0,1:0:0:0:
328,128,19536,2,0,L|320:72,2,48.750001859665,2|2|2,0:0|1:2|1:2,0:0:0:0:
374,192,20036,6,0,L|432:184,2,52,2|0|0,1:0|1:0|0:0,0:0:0:0:
304,240,20536,2,0,L|246:232,2,52,2|0|0,1:0|1:0|0:0,0:0:0:0:
376,284,21036,1,2,1:0:0:0:
336,356,21203,1,0,1:0:0:0:
256,328,21369,6,0,L|220:336,3,26,0|0|0|0,1:0|1:0|1:0|1:0,0:0:0:0:
192,316,21703,2,0,L|166:310,3,26,2|0|0|0,1:2|0:0|0:0|1:0,0:0:0:0:
128,328,22036,2,0,L|52:336,1,52,2|0,0:0|1:0,0:0:0:0:
4,284,22369,2,0,P|-7:246|3:209,1,78,8|0,0:0|0:0,0:0:0:0:
20,192,22703,6,0,L|168:208,1,130,6|8,1:0|0:0,0:0:0:0:
224,168,23203,2,0,P|248:108|220:32,1,130,2|0,0:2|1:0,0:0:0:0:
160,4,23703,1,10,0:0:0:0:
16,96,24036,5,0,1:0:0:0:
92,132,24203,2,0,L|176:116,1,65,2|8,0:2|0:0,0:0:0:0:
224,168,24536,1,0,1:0:0:0:
224,168,24703,2,0,P|236:204|232:248,1,65,2|0,0:0|1:0,0:0:0:0:
168,280,25036,2,0,P|156:244|160:200,1,65,10|0,0:2|0:0,0:0:0:0:
304,152,25369,6,0,B|374:137|352:184|433:168,1,130,2|8,1:2|0:0,0:0:0:0:
496,116,25869,2,0,P|476:52|396:40,1,130,2|0,0:0|1:0,0:0:0:0:
344,68,26369,1,10,0:0:0:0:
320,236,26703,5,0,1:0:0:0:
320,236,26869,2,0,L|332:304,1,65,2|8,0:0|0:0,0:0:0:0:
268,356,27203,1,0,1:0:0:0:
196,308,27369,2,0,P|140:296|64:300,1,130,2|10,0:0|0:0,0:0:0:0:
16,136,28036,6,0,L|32:64,1,65,6|0,1:0|0:0,0:0:0:0:
100,24,28369,1,8,0:0:0:0:
160,84,28536,2,0,B|192:72|192:72|236:112|308:88,1,130,2|0,0:0|1:0,0:0:0:0:
359,64,29036,2,0,P|315:19|252:15,1,130,10|0,0:0|1:0,0:0:0:0:
281,94,29536,6,0,L|272:176,1,65,2|8,0:2|0:0,0:0:0:0:
227,229,29869,1,0,1:0:0:0:
226,229,30036,2,0,P|199:245|167:248,1,65,2|0,0:0|1:0,0:0:0:0:
113,183,30369,2,0,P|140:166|172:163,1,65,10|0,0:0|0:0,0:0:0:0:
312,240,30703,6,0,P|352:256|436:208,1,130,2|8,1:2|0:0,0:0:0:0:
468,148,31203,2,0,L|456:16,1,130,2|0,0:0|1:0,0:0:0:0:
380,52,31703,1,10,0:0:0:0:
216,8,32036,6,0,L|144:0,1,65,2|2,1:2|1:2,0:0:0:0:
80,44,32369,2,0,P|72:92|88:120,1,65,10|0,0:0|0:0,0:0:0:0:
148,152,32703,2,0,P|164:192|152:284,1,130,0|10,1:0|0:1,0:0:0:0:
84,324,33203,1,0,0:0:0:0:
84,324,33286,1,2,0:1:0:0:
84,324,33369,6,0,L|20:316,1,65,6|0,1:0|0:0,0:0:0:0:
8,232,33703,2,0,L|24:156,1,65,8|2,0:1|1:0,0:0:0:0:
104,192,34036,2,0,L|168:184,1,65,0|0,0:1|1:0,0:0:0:0:
180,100,34370,2,0,L|164:24,1,65,10|0,0:1|1:0,0:0:0:0:
248,16,34703,6,0,L|264:84,2,65,0|2|8,1:1|1:1|0:1,0:0:0:0:
332,0,35203,1,0,1:1:0:0:
392,60,35369,2,0,P|400:96|388:140,1,65,2|0,0:1|1:1,0:0:0:0:
316,148,35703,2,0,P|308:184|320:228,1,65,10|0,0:1|1:1,0:0:0:0:
356,284,36036,6,0,P|389:278|424:276,2,65,2|0|8,1:1|0:1|0:1,0:0:0:0:
284,328,36536,2,0,P|251:325|219:320,2,65,2|0|0,1:1|0:1|1:1,0:0:0:0:
260,248,37036,2,0,L|256:180,1,65,10|0,0:1|1:1,0:0:0:0:
300,112,37369,5,0,1:1:0:0:
376,152,37536,1,2,1:1:0:0:
432,88,37703,2,0,L|436:24,1,65,8|0,0:1|1:1,0:0:0:0:
356,0,38036,2,0,P|320:10|288:16,1,65,2|0,0:1|1:1,0:0:0:0:
224,68,38369,2,0,P|193:58|161:52,1,65,10|0,0:1|1:1,0:0:0:0:
80,84,38703,6,0,P|56:128|88:216,1,130,6|8,1:1|0:1,0:0:0:0:
156,220,39203,2,0,L|288:192,1,130,2|0,1:1|1:1,0:0:0:0:
360,228,39703,2,0,P|376:260|372:296,1,65,10|0,0:1|1:0,0:0:0:0:
308,344,40036,6,0,L|240:336,1,65,4|2,1:0|1:1,0:0:0:0:
184,280,40369,1,8,0:1:0:0:
116,332,40536,2,0,P|100:292|132:212,1,130,0|0,1:1|1:1,0:0:0:0:
200,168,41036,1,10,0:1:0:0:
160,92,41203,1,2,1:1:0:0:
160,92,41286,1,2,1:1:0:0:
160,92,41369,6,0,L|80:84,2,65,6|0|8,1:1|0:1|0:1,0:0:0:0:
236,52,41869,1,2,1:0:0:0:
308,100,42036,2,0,P|316:136|304:180,1,65,0|0,0:1|1:1,0:0:0:0:
239,208,42369,2,0,P|232:239|236:271,1,65,10|2,0:1|1:1,0:0:0:0:
312,308,42703,6,0,L|384:300,1,65,2|2,1:0|1:0,0:0:0:0:
440,244,43036,1,10,0:1:0:0:
396,172,43203,1,2,1:0:0:0:
460,120,43369,2,0,P|464:89|464:40,1,65,2|2,1:0|1:0,0:0:0:0:
400,4,43703,1,10,0:1:0:0:
328,44,43869,2,0,P|323:74|324:124,1,65,2|6,1:0|0:1,0:0:0:0:
322,108,54703,6,0,L|166:124,1,130,6|0,1:0|1:0,0:0:0:0:
112,92,55203,1,0,0:0:0:0:
112,92,55369,2,0,P|104:156|76:224,1,130,8|0,0:0|0:0,0:0:0:0:
136,280,55869,1,0,1:0:0:0:
196,219,56036,6,0,P|226:208|258:211,1,65,0|0,1:0|0:0,0:0:0:0:
304,140,56369,2,0,P|329:160|342:189,1,65,2|0,1:0|0:0,0:0:0:0:
360,272,56703,1,8,0:0:0:0:
412,112,57036,1,0,1:0:0:0:
360,272,57369,6,0,P|312:304|220:284,1,130,2|0,1:0|1:0,0:0:0:0:
116,188,58036,2,0,P|120:158|124:108,1,65,8|0,0:0|1:0,0:0:0:0:
192,76,58369,2,0,P|221:80|272:84,1,65,0|0,0:2|1:2,0:0:0:0:
320,140,58703,6,0,L|396:132,2,65,0|2|0,1:2|0:1|1:2,0:0:0:0:
252,188,59203,1,0,0:0:0:0:
251,188,59369,2,0,P|224:244|246:303,1,130,10|2,0:1|1:0,0:0:0:0:
320,344,59869,1,2,1:0:0:0:
320,344,60036,6,0,L|468:328,1,130,2|0,1:0|1:0,0:0:0:0:
496,260,60536,1,0,0:0:0:0:
496,260,60703,2,0,P|468:212|456:112,1,130,8|0,0:0|0:0,0:0:0:0:
476,60,61203,1,0,1:0:0:0:
400,20,61369,6,0,P|360:12|324:24,1,65,0|0,1:0|0:0,0:0:0:0:
304,96,61703,2,0,P|272:104|240:98,1,65,2|0,1:0|0:0,0:0:0:0:
180,40,62036,1,8,0:0:0:0:
96,184,62369,1,0,1:2:0:0:
180,40,62703,6,0,L|196:200,1,130,2|0,1:0|1:0,0:0:0:0:
248,236,63203,1,0,0:0:0:0:
248,236,63369,2,0,P|280:240|331:151,1,130,10|0,0:1|1:2,0:0:0:0:
308,92,63869,1,2,1:0:0:0:
384,52,64036,6,0,P|420:48|452:44,1,65,0|10,1:0|0:1,0:0:0:0:
492,116,64369,2,0,P|488:148|484:180,1,65,0|10,1:0|0:1,0:0:0:0:
428,244,64703,1,0,1:0:0:0:
448,324,64869,1,0,1:0:0:0:
364,344,65036,1,0,1:0:0:0:
344,264,65202,1,0,1:0:0:0:
268,300,65369,6,0,P|210:271|149:288,1,130,4|8,1:0|0:2,0:0:0:0:
82,340,65869,1,0,1:0:0:0:
82,340,66036,2,0,P|66:296|70:264,1,65,2|0,0:2|1:0,0:0:0:0:
117,210,66369,2,0,P|115:177|101:148,1,65,10|0,0:0|1:0,0:0:0:0:
42,86,66703,6,0,L|185:106,1,130,2|8,1:2|0:0,0:0:0:0:
249,73,67203,1,0,1:0:0:0:
312,127,67369,2,0,L|316:195,1,65,0|0,0:0|1:0,0:0:0:0:
366,260,67703,1,10,0:0:0:0:
437,303,67869,1,2,1:2:0:0:
505,252,68036,6,0,P|515:203|485:114,1,130,2|10,1:2|0:0,0:0:0:0:
494,127,68703,2,0,L|420:136,1,65,2|0,0:0|1:0,0:0:0:0:
363,187,69036,1,10,0:0:0:0:
288,146,69203,1,2,1:2:0:0:
212,183,69369,6,0,L|195:261,1,65,2|0,1:2|0:0,0:0:0:0:
128,295,69703,2,0,L|114:231,1,65,10|0,0:0|1:0,0:0:0:0:
46,181,70036,2,0,P|27:148|69:49,1,130,2|10,0:0|0:0,0:0:0:0:
128,35,70536,1,0,1:0:0:0:
203,72,70703,6,0,P|267:75|330:60,1,130,2|10,1:2|0:0,0:0:0:0:
231,196,71369,2,0,P|166:192|103:207,1,130,2|10,0:0|0:0,0:0:0:0:
59,280,71869,1,0,0:0:0:0:
123,334,72036,6,0,L|204:322,1,65,2|0,1:2|0:0,0:0:0:0:
262,285,72369,1,10,0:0:0:0:
262,285,72536,1,2,1:2:0:0:
342,312,72703,2,0,L|335:387,1,65,2|0,0:0|1:0,0:0:0:0:
417,354,73036,1,10,0:0:0:0:
417,354,73203,1,2,1:2:0:0:
498,372,73369,6,0,L|477:221,1,130,2|10,1:2|0:0,0:0:0:0:
499,160,73869,1,2,1:2:0:0:
499,160,74036,2,0,P|452:173|365:127,1,130,0|8,0:0|0:0,0:0:0:0:
322,81,74536,1,2,1:2:0:0:
247,122,74703,6,0,L|170:134,1,65,0|0,1:0|1:0,0:0:0:0:
99,115,75036,2,0,P|77:70|92:17,1,97.5,10|10,0:2|0:2,0:0:0:0:
122,3,75369,2,0,L|191:14,1,65,0|0,0:0|1:2,0:0:0:0:
263,48,75703,1,10,0:2:0:0:
339,12,75869,1,0,1:0:0:0:
339,12,75953,1,0,1:0:0:0:
339,12,76036,6,0,P|389:9|435:78,1,130,4|8,1:0|0:0,0:0:0:0:
379,131,76536,1,0,1:0:0:0:
437,191,76703,2,0,P|438:230|445:264,1,65,2|0,0:0|1:0,0:0:0:0:
364,285,77036,2,0,P|331:280|299:278,1,65,10|0,0:0|1:0,0:0:0:0:
226,321,77369,6,0,P|188:331|86:294,2,130,2|8|0,1:2|0:0|0:0,0:0:0:0:
182,247,78203,1,0,1:0:0:0:
182,247,78369,2,0,L|188:163,1,65,10|2,0:2|1:2,0:0:0:0:
254,130,78703,6,0,L|414:115,1,130,2|10,1:2|0:2,0:0:0:0:
234,37,79369,2,0,L|74:22,1,130,2|8,1:2|0:0,0:0:0:0:
110,109,79869,1,2,1:2:0:0:
39,155,80036,6,0,L|30:222,1,65,2|0,1:2|1:0,0:0:0:0:
99,268,80369,2,0,L|172:257,1,65,10|0,0:2|1:0,0:0:0:0:
229,205,80703,2,0,P|272:196|351:260,1,130,2|10,0:2|0:2,0:0:0:0:
370,318,81203,1,0,0:0:0:0:
446,281,81369,6,0,L|434:204,1,65,2|0,1:2|1:0,0:0:0:0:
507,170,81703,2,0,L|495:93,1,65,10|0,0:2|1:0,0:0:0:0:
481,22,82036,2,0,L|493:99,1,65,2|0,0:2|1:0,0:0:0:0:
420,133,82370,2,0,L|432:210,1,65,10|0,0:2|1:0,0:0:0:0:
347,176,82703,6,0,B|278:162|299:216|212:196,1,130,2|10,1:2|0:0,0:0:0:0:
147,161,83203,1,2,1:2:0:0:
86,219,83369,2,0,P|67:183|105:87,1,130,2|10,1:2|0:0,0:0:0:0:
170,78,83869,1,0,0:0:0:0:
242,121,84036,6,0,P|279:118|335:110,1,65,2|0,1:2|0:0,0:0:0:0:
381,75,84369,1,8,0:0:0:0:
438,137,84536,1,2,1:2:0:0:
387,205,84703,2,0,P|378:260|378:350,1,130,0|10,0:0|0:0,0:0:0:0:
452,371,85203,1,0,1:0:0:0:
500,301,85369,5,2,1:2:0:0:
500,301,85536,1,0,1:0:0:0:
471,221,85703,2,0,L|481:103,2,97.5,8|8|0,0:0|0:0|1:0,0:0:0:0:
387,205,86369,1,8,0:0:0:0:
319,255,86536,2,0,L|326:307,2,32.5,0|0|0,1:0|0:0|0:0,0:0:0:0:
240,224,86869,6,0,L|156:212,1,65,0|0,0:0|0:0,0:0:0:0:
96,244,87203,1,0,0:0:0:0:
224,136,87536,1,0,0:0:0:0:
72,64,87869,1,0,0:0:0:0:
72,64,88036,2,0,L|160:48,1,65,2|0,0:0|0:0,0:0:0:0:
208,8,88369,2,0,P|224:52|216:92,1,65,2|0,0:0|0:0,0:0:0:0:
252,148,88703,5,0,0:0:0:0:
328,112,88869,2,0,L|404:120,1,65,0|0,0:0|0:0,0:0:0:0:
468,80,89203,1,0,0:0:0:0:
364,216,89536,1,0,0:0:0:0:
496,324,89869,1,0,0:0:0:0:
496,324,90036,2,0,L|416:312,1,65,2|0,0:0|0:0,0:0:0:0:
348,292,90369,2,0,P|344:344|352:372,1,65,2|0,0:0|0:0,0:0:0:0:
260,364,90703,6,0,P|200:348|128:352,1,130,12|2,0:0|0:0,0:0:0:0:
60,308,91203,2,0,L|52:236,1,65,8|0,0:0|0:0,0:0:0:0:
120,192,91536,2,0,L|128:120,1,65,12|2,0:0|0:0,0:0:0:0:
284,64,92036,2,0,L|276:128,1,65,8|0,0:0|0:0,0:0:0:0:
340,184,92369,2,0,L|416:176,1,65,8|0,0:0|0:0,0:0:0:0:
480,140,92703,5,12,0:0:0:0:
508,220,92869,1,0,0:0:0:0:
444,276,93036,1,2,0:0:0:0:
472,356,93203,2,0,L|396:348,1,65,8|0,0:0|0:0,0:0:0:0:
324,372,93536,2,0,L|248:364,1,65,12|2,0:0|0:0,0:0:0:0:
188,320,93869,1,2,0:0:0:0:
112,356,94036,2,0,P|104:324|108:292,1,65,12|2,0:0|0:0,0:0:0:0:
184,256,94369,2,0,P|191:287|187:319,1,65,2|2,1:2|1:2,0:0:0:0:
24,336,94702,6,0,P|8:264|32:184,1,130,4|8,1:0|0:0,0:0:0:0:
76,148,95202,1,2,1:2:0:0:
76,148,95285,1,2,1:2:0:0:
76,148,95368,2,0,L|164:136,1,65,2|0,1:2|1:0,0:0:0:0:
212,188,95702,1,10,0:0:0:0:
292,156,95868,1,0,0:0:0:0:
360,208,96035,6,0,P|376:264|372:288,1,65,2|0,1:2|0:0,0:0:0:0:
452,308,96368,2,0,P|411:349|388:358,1,65,10|0,0:0|1:0,0:0:0:0:
324,336,96702,2,0,B|252:324|272:372|188:352,1,130,2|10,1:2|0:0,0:0:0:0:
124,316,97202,1,0,0:0:0:0:
52,356,97368,6,0,L|40:224,1,130,2|8,1:2|0:0,0:0:0:0:
112,180,97868,1,2,1:2:0:0:
92,100,98035,2,0,P|52:80|-4:88,2,97.5,2|2|2,1:0|1:0|1:0,0:0:0:0:
172,124,98702,6,0,P|214:126|296:64,1,130,0|8,1:0|0:0,0:0:0:0:
356,128,99202,2,0,L|348:176,2,32.5,2|2|2,1:2|1:2|0:0,0:0:0:0:
424,76,99535,1,0,1:0:0:0:
472,144,99702,2,0,L|484:232,1,65,8|0,0:0|1:0,0:0:0:0:
424,272,100035,6,0,P|372:252|292:256,1,130,2|8,1:2|0:0,0:0:0:0:
228,300,100535,1,2,1:2:0:0:
148,324,100702,2,0,P|128:280|136:216,2,97.5,2|2|2,1:0|1:0|1:0,0:0:0:0:
228,300,101368,6,0,L|208:208,1,65,0|0,1:0|1:0,0:0:0:0:
272,172,101702,2,0,L|292:80,1,65,10|0,0:0|1:0,0:0:0:0:
224,52,102035,2,0,P|185:58|160:60,1,65,2|0,0:2|1:0,0:0:0:0:
56,132,102368,2,0,P|94:138|120:140,1,65,10|0,0:0|0:0,0:0:0:0:
248,196,102701,6,0,P|196:200|120:240,1,130,2|8,1:2|0:0,0:0:0:0:
80,304,103201,1,2,1:2:0:0:
144,360,103368,2,0,P|196:368|248:340,1,97.5,2|2,1:2|1:2,0:0:0:0:
268,324,103701,2,0,L|336:332,1,65,8|2,0:0|1:2,0:0:0:0:
400,280,104035,6,0,L|388:208,1,65,0|0,1:2|1:0,0:0:0:0:
420,136,104368,1,8,0:0:0:0:
356,80,104535,1,0,0:0:0:0:
356,80,104618,2,0,L|292:92,1,65,8|0,0:0|0:0,0:0:0:0:
256,116,104868,2,0,L|184:104,1,65,0|2,1:0|1:2,0:0:0:0:
116,64,105201,1,0,1:0:0:0:
116,64,105285,1,0,1:0:0:0:
116,64,105368,6,0,P|148:132|124:200,1,130,6|8,1:2|0:1,0:0:0:0:
72,236,105868,2,0,L|28:240,2,32.5,2|2|2,1:2|1:2|1:2,0:0:0:0:
144,284,106201,1,0,1:0:0:0:
216,328,106368,2,0,L|308:316,1,65,10|2,0:0|1:2,0:0:0:0:
340,260,106701,6,0,P|356:220|352:176,1,65,2|0,1:2|0:0,0:0:0:0:
336,160,106951,1,2,1:2:0:0:
336,160,107035,2,0,L|328:72,1,65,8|2,0:1|1:2,0:0:0:0:
364,20,107368,2,0,P|312:60|236:52,1,130,2|10,0:0|0:1,0:0:0:0:
172,24,107868,1,0,1:0:0:0:
112,80,108035,6,0,P|92:140|144:208,1,130,2|8,1:2|0:0,0:0:0:0:
204,220,108535,2,0,L|264:212,2,32.5,2|2|2,1:2|1:2|1:2,0:0:0:0:
152,288,108868,1,0,0:0:0:0:
96,352,109035,2,0,L|24:360,1,65,10|2,0:0|1:2,0:0:0:0:
12,276,109368,6,0,L|24:152,1,97.5,2|2,1:2|0:0,0:0:0:0:
8,140,109701,1,8,0:0:0:0:
76,92,109868,2,0,L|64:32,2,32.5,2|0|2,1:2|1:0|0:0,0:0:0:0:
148,132,110201,1,2,1:0:0:0:
228,104,110368,2,0,P|272:96|312:104,1,65,10|2,0:1|0:0,0:0:0:0:
368,136,110701,6,0,B|388:176|388:176|364:220|380:268,1,130,2|8,1:2|0:0,0:0:0:0:
456,228,111201,2,0,L|500:220,2,32.5,2|2|2,1:2|1:2|0:0,0:0:0:0:
444,312,111535,1,0,1:0:0:0:
364,340,111701,2,0,L|280:328,1,65,10|0,0:0|0:0,0:0:0:0:
244,264,112035,6,0,L|236:192,1,65,2|0,1:2|1:0,0:0:0:0:
204,172,112285,1,2,0:0:0:0:
204,172,112368,2,0,L|132:184,1,65,8|2,0:0|1:0,0:0:0:0:
56,172,112701,2,0,P|24:124|52:48,1,130,0|10,0:0|0:1,0:0:0:0:
112,8,113201,1,0,1:0:0:0:
184,52,113368,6,0,P|218:53|252:48,1,65,2|0,1:2|0:0,0:0:0:0:
324,12,113701,1,8,0:0:0:0:
408,32,113868,1,2,1:2:0:0:
408,32,113951,1,2,1:2:0:0:
408,32,114035,2,0,P|444:92|424:152,1,130,2|10,1:2|0:0,0:0:0:0:
360,196,114535,1,2,1:2:0:0:
284,160,114701,6,0,L|208:152,1,65,0|0,1:2|1:0,0:0:0:0:
152,204,115035,2,0,L|160:288,1,65,10|2,0:1|1:0,0:0:0:0:
184,304,115285,2,0,P|136:332|80:316,1,97.5,2|2,1:0|1:0,0:0:0:0:
40,264,115701,1,10,0:1:0:0:
48,180,115868,1,0,0:0:0:0:
56,96,116035,6,0,L|112:92,1,48.750001859665,0|0,0:0|0:0,0:0:0:0:
176,128,116368,2,0,L|232:124,1,48.750001859665,0|0,0:0|0:0,0:0:0:0:
48,180,116701,2,0,L|104:176,1,48.750001859665,0|0,0:0|0:0,0:0:0:0:
168,212,117034,2,0,L|224:208,1,48.750001859665,0|0,0:0|0:0,0:0:0:0:
40,264,117368,5,4,0:1:0:0:
256,192,117451,12,0,118701,0:0:0:0:
106,280,132035,6,0,L|88:80,1,195.00000743866,0|0,0:0|0:0,0:0:0:0:
88,85,133368,1,0,0:0:0:0:
176,44,133701,1,0,0:0:0:0:
260,92,134035,6,0,L|248:196,1,97.50000371933,0|0,0:0|0:0,0:0:0:0:
304,268,134701,2,0,P|340:288|452:204,1,195.00000743866,0|0,0:0|0:0,0:0:0:0:
451,212,136035,6,0,L|440:116,1,97.50000371933,0|0,0:0|0:0,0:0:0:0:
364,56,136701,2,0,L|268:67,1,97.50000371933,0|0,0:0|0:0,0:0:0:0:
208,144,137368,2,0,L|112:133,1,97.50000371933,0|0,0:0|0:0,0:0:0:0:
36,72,138035,5,0,0:0:0:0:
52,200,138701,1,0,0:0:0:0:
68,328,139368,1,0,0:0:0:0:
68,328,140035,6,0,P|120:348|236:272,1,195.00000743866,0|0,0:0|0:0,0:0:0:0:
231,282,141368,1,0,0:0:0:0:
311,230,141701,1,0,0:0:0:0:
403,266,142035,6,0,P|431:294|439:354,1,97.50000371933,0|0,0:0|0:0,0:0:0:0:
344,344,142701,2,0,L|360:132,1,195.00000743866,0|0,0:0|0:0,0:0:0:0:
358,149,144035,6,0,L|256:160,1,97.50000371933,0|0,0:0|0:0,0:0:0:0:
180,212,144701,2,0,P|160:272|176:320,1,97.50000371933,0|0,0:0|0:0,0:0:0:0:
316,324,145368,2,0,P|336:264|320:216,1,97.50000371933,0|0,0:0|0:0,0:0:0:0:
248,268,146035,5,0,0:0:0:0:
208,88,146701,1,0,0:0:0:0:
383,143,147368,2,0,P|424:152|488:36,1,195,0|0,0:0|0:0,0:0:0:0:
420,74,148034,5,4,1:0:0:0:
420,74,149034,1,0,0:0:0:0:
437,229,149368,1,0,0:0:0:0:
310,138,149701,1,0,0:0:0:0:
327,293,150034,6,0,L|220:282,1,97.50000371933,0|0,0:0|0:0,0:0:0:0:
80,329,150701,1,0,0:0:0:0:
125,179,151034,2,0,P|144:220|140:291,2,97.50000371933,0|0|0,0:0|0:0|0:0,0:0:0:0:
58,132,152034,6,0,P|127:147|199:98,2,146.250005578995,2|0|0,0:0|0:0|0:0,0:0:0:0:
180,32,153368,2,0,L|236:20,1,48.750001859665,0|0,0:0|0:0,0:0:0:0:
300,56,153701,1,0,0:0:0:0:
451,24,154034,6,0,P|435:94|443:167,1,146.250005578995,2|0,0:0|0:0,0:0:0:0:
443,167,155034,1,0,0:0:0:0:
380,232,155368,1,0,0:0:0:0:
291,208,155701,1,0,0:0:0:0:
267,118,156034,5,2,0:0:0:0:
267,118,157034,1,0,0:0:0:0:
380,232,157368,1,0,0:0:0:0:
224,272,157701,1,0,0:0:0:0:
291,208,158034,6,0,P|310:252|310:300,1,97.50000371933,0|0,0:0|0:0,0:0:0:0:
156,332,158701,1,0,0:0:0:0:
200,184,159034,2,0,L|88:168,2,97.50000371933,0|0|0,0:0|0:0|0:0,0:0:0:0:
264,120,160034,5,2,0:0:0:0:
352,96,160368,2,0,L|408:84,2,48.750001859665,0|0|0,0:0|0:0|0:0,0:0:0:0:
264,120,161034,1,2,0:0:0:0:
288,208,161368,2,0,L|300:264,2,48.750001859665,2|0|2,0:0|0:0|0:0,0:0:0:0:
240,32,162034,5,2,0:0:0:0:
256,192,162201,12,0,164034,0:0:0:0:
140,160,164367,6,0,L|128:84,1,65
192,40,164700,2,0,L|328:52,1,130,2|0,0:0|0:0,0:0:0:0:
404,28,165200,1,0,0:0:0:0:
468,80,165367,6,0,P|496:136|480:208,1,130,2|0,0:0|0:0,0:0:0:0:
344,296,166034,2,0,P|316:240|332:168,1,130,0|0,0:0|0:0,0:0:0:0:
376,108,166534,1,0,0:0:0:0:
292,99,166700,6,0,P|228:109|163:108,1,130,0|0,0:0|0:0,0:0:0:0:
0,60,167367,2,0,L|8:128,1,65,0|0,0:0|0:0,0:0:0:0:
64,188,167700,2,0,L|56:256,1,65,0|0,0:0|0:0,0:0:0:0:
4,320,168034,5,0,0:0:0:0:
144,224,168367,2,0,P|188:216|216:220,1,65,2|2,0:0|0:0,0:0:0:0:
288,244,168700,2,0,P|314:263|333:289,1,65,2|0,0:0|0:0,0:0:0:0:
364,368,169034,1,2,0:0:0:0:
484,248,169367,6,0,L|464:112,1,130,2|0,0:0|0:0,0:0:0:0:
484,36,169867,1,0,0:0:0:0:
404,8,170034,2,0,P|360:4|304:68,1,130,0|0,0:0|0:0,0:0:0:0:
300,148,170534,1,0,0:0:0:0:
300,148,170700,6,0,P|263:199|200:202,2,130,0|0|0,0:0|0:0|0:0,0:0:0:0:
196,16,171700,1,0,0:0:0:0:
40,80,172034,6,0,L|52:156,1,65,0|0,0:0|0:0,0:0:0:0:
112,200,172367,2,0,L|100:276,1,65,2|0,1:2|1:0,0:0:0:0:
72,344,172700,2,0,P|103:348|135:341,1,65,2|0,1:2|1:0,0:0:0:0:
204,292,173034,1,2,1:2:0:0:
276,332,173200,1,2,1:2:0:0:
348,288,173367,6,0,L|356:232,3,32.5,0|0|0|0,1:2|1:0|1:0|1:0,0:0:0:0:
324,224,173700,2,0,L|316:168,3,32.5,2|0|0|0,1:2|1:0|1:0|1:0,0:0:0:0:
348,160,174034,2,0,L|424:140,1,65,2|0,1:2|1:0,0:0:0:0:
288,92,174367,2,0,L|194:65,1,97.5,8|0,0:0|0:0,0:0:0:0:
156,52,174700,6,0,P|120:104|144:184,1,130,6|8,1:2|0:0,0:0:0:0:
196,220,175200,1,0,0:0:0:0:
280,200,175367,2,0,P|328:192|360:196,1,65,2|0,0:0|1:0,0:0:0:0:
420,232,175700,1,8,0:0:0:0:
352,284,175867,1,0,0:0:0:0:
372,368,176034,6,0,P|324:376|292:372,1,65,2|0,1:2|0:0,0:0:0:0:
232,340,176367,2,0,L|244:260,1,65,10|0,0:2|1:0,0:0:0:0:
180,216,176700,2,0,P|136:200|52:204,1,130,2|10,0:2|0:0,0:0:0:0:
4,136,177200,1,0,0:0:0:0:
52,64,177367,6,0,P|116:70|178:51,1,130,2|10,1:2|0:0,0:0:0:0:
178,51,178034,1,2,0:0:0:0:
252,88,178200,1,2,1:2:0:0:
328,56,178367,2,0,L|320:-8,1,65,10|2,0:0|0:0,0:0:0:0:
400,96,178700,6,0,L|392:160,1,65,0|2,1:0|1:2,0:0:0:0:
448,224,179033,2,0,P|492:232|540:216,1,65,10|2,0:0|1:2,0:0:0:0:
384,280,179367,2,0,B|316:268|336:316|260:300,1,130,2|10,0:0|0:0,0:0:0:0:
188,256,179867,1,0,0:0:0:0:
120,308,180033,6,0,P|104:264|136:188,1,130,6|8,1:2|0:0,0:0:0:0:
212,160,180533,1,0,0:0:0:0:
268,96,180700,2,0,L|256:12,2,65,2|0|8,0:0|1:0|0:0,0:0:0:0:
336,148,181200,1,0,0:0:0:0:
416,120,181367,6,0,P|448:120|492:136,1,65,2|0,1:2|0:0,0:0:0:0:
508,208,181700,2,0,L|496:280,1,65,10|0,0:0|1:0,0:0:0:0:
456,344,182033,2,0,P|424:352|320:304,1,130,2|10,0:0|0:0,0:0:0:0:
280,256,182533,1,0,0:0:0:0:
224,190,182700,6,0,P|167:161|104:168,1,130,2|10,1:2|0:0,0:0:0:0:
103,168,183367,1,2,0:0:0:0:
32,120,183533,1,2,1:2:0:0:
28,204,183700,2,0,L|16:276,1,65,10|2,0:0|0:0,0:0:0:0:
80,328,184033,5,0,1:0:0:0:
156,292,184200,1,2,1:2:0:0:
240,300,184367,1,10,0:1:0:0:
308,348,184533,1,2,1:0:0:0:
380,304,184700,2,0,L|368:220,1,65,0|10,0:0|0:1,0:0:0:0:
444,200,185033,2,0,L|453:264,1,65,10|0,0:1|1:0,0:0:0:0:
368,220,185367,6,0,L|352:80,1,130,6|8,1:2|0:0,0:0:0:0:
280,48,185867,1,2,1:2:0:0:
280,48,185950,1,2,0:0:0:0:
280,48,186033,2,0,B|236:36|236:36|200:72|144:64,1,130,2|8,0:0|0:0,0:0:0:0:
80,40,186533,1,2,0:0:0:0:
24,104,186700,6,0,P|8:152|36:232,1,130,2|8,1:2|0:0,0:0:0:0:
112,252,187200,2,0,L|164:240,2,32.5,2|2|2,1:2|0:0|0:0,0:0:0:0:
68,324,187533,1,0,1:0:0:0:
152,336,187700,2,0,L|244:312,1,65,8|2,0:0|1:2,0:0:0:0:
280,264,188033,6,0,P|320:272|360:364,1,130,2|8,1:2|0:0,0:0:0:0:
448,328,188533,1,2,1:2:0:0:
448,328,188617,1,2,0:0:0:0:
448,328,188700,2,0,L|460:188,1,130,2|10,0:0|0:0,0:0:0:0:
412,128,189200,1,0,0:0:0:0:
455,54,189367,6,0,P|422:52|390:47,1,65,2|0,1:2|1:0,0:0:0:0:
321,95,189700,2,0,P|288:90|256:87,1,65,10|2,0:0|1:2,0:0:0:0:
233,97,189950,2,0,P|216:141|228:187,1,97.5,8|2,0:0|1:2,0:0:0:0:
302,229,190367,1,10,0:0:0:0:
245,290,190533,1,0,0:0:0:0:
245,290,190617,1,0,0:0:0:0:
245,290,190700,6,0,L|98:272,1,130,6|8,1:2|0:0,0:0:0:0:
48,222,191200,2,0,L|39:174,2,32.5,2|2|2,1:2|0:0|0:0,0:0:0:0:
124,185,191533,1,0,1:0:0:0:
179,120,191700,2,0,L|190:34,1,65,10|2,0:0|0:0,0:0:0:0:
262,15,192033,6,0,P|325:17|372:61,1,130,2|8,1:2|0:0,0:0:0:0:
316,124,192533,1,2,1:2:0:0:
316,124,192617,1,2,0:0:0:0:
316,124,192700,2,0,P|305:186|302:259,1,130,2|10,0:0|0:0,0:0:0:0:
365,309,193200,1,2,0:0:0:0:
440,271,193367,6,0,P|451:209|454:136,1,130,2|8,1:2|0:0,0:0:0:0:
391,86,193867,1,2,1:2:0:0:
391,86,193950,1,2,0:0:0:0:
391,86,194033,2,0,L|318:92,1,65,2|0,0:0|1:0,0:0:0:0:
254,137,194367,2,0,L|189:131,1,65,10|0,0:0|0:0,0:0:0:0:
118,84,194700,6,0,P|110:48|116:8,1,65,0|0,1:0|1:0,0:0:0:0:
54,144,195033,2,0,P|71:197|58:260,2,97.5,10|10|0,0:1|0:1|1:0,0:0:0:0:
8,72,195700,1,10,0:1:0:0:
147,167,196033,5,0,0:0:0:0:
147,167,196367,2,0,L|212:162,1,48.750001859665,0|0,0:0|0:0,0:0:0:0:
266,119,196700,2,0,P|312:125|384:131,1,97.50000371933,0|0,0:0|0:0,0:0:0:0:
442,107,197200,1,0,0:0:0:0:
442,107,197367,2,0,L|424:16,2,73.1250027894975,0|0|0,0:0|0:0|0:0,0:0:0:0:
492,172,198033,1,0,0:0:0:0:
343,247,198367,1,2,0:0:0:0:
481,338,198700,6,0,P|445:330|370:357,1,97.50000371933,2|0,0:0|0:0,0:0:0:0:
306,323,199200,1,0,0:0:0:0:
235,366,199367,2,0,L|174:362,1,48.750001859665,2|0,0:0|0:0,0:0:0:0:
126,304,199700,2,0,L|130:243,1,48.750001859665,0|0,0:0|0:0,0:0:0:0:
186,195,200033,2,0,L|279:200,2,73.1250027894975,2|2|2,0:0|0:0|0:0,0:0:0:0:
120,142,200700,2,0,L|27:147,2,73.1250027894975,2|2|2,0:0|0:0|0:0,0:0:0:0:
183,87,201367,5,2,0:0:0:0:
183,87,201700,2,0,L|250:84,1,48.750001859665,0|0,0:0|0:0,0:0:0:0:
313,97,202033,2,0,P|312:61|294:30,2,73.1250027894975,0|2|2,0:0|0:0|0:0,0:0:0:0:
280,173,202700,2,0,P|319:207|370:205,1,97.50000371933,0|0,0:0|0:0,0:0:0:0:
436,168,203200,1,0,0:0:0:0:
436,168,203367,2,0,L|446:90,2,73.1250027894975,0|2|2,0:0|0:0|0:0,0:0:0:0:
493,228,204033,6,0,L|481:338,1,97.50000371933,0|0,0:0|0:0,0:0:0:0:
406,358,204533,1,0,0:0:0:0:
329,322,204700,2,0,P|299:342|263:344,2,73.1250027894975,0|2|2,0:0|0:0|0:0,0:0:0:0:
342,239,205367,2,0,P|320:209|287:195,2,73.1250027894975,0|2|2,0:0|0:0|0:0,0:0:0:0:
273,269,206033,2,0,L|168:258,1,97.50000371933,2|2,0:0|0:0,0:0:0:0:
176,258,206700,6,0,P|180:223|181:193,1,65,0|0,1:0|1:0,0:0:0:0:
157,111,207033,2,0,P|191:115|222:116,1,65,0|0,1:0|1:0,0:0:0:0:
299,80,207367,2,0,L|345:75,3,32.5,0|0|0|0,1:0|1:0|1:0|1:0,0:0:0:0:
370,93,207700,2,0,L|411:99,3,32.5,2|2|2|2,1:0|1:0|1:0|1:0,0:0:0:0:
441,82,208033,6,0,P|475:123|451:206,1,130,6|8,1:2|0:1,0:0:0:0:
381,220,208533,1,2,1:2:0:0:
381,220,208617,1,2,1:2:0:0:
381,220,208700,2,0,L|289:211,1,65,2|0,1:2|1:0,0:0:0:0:
246,165,209033,1,10,0:0:0:0:
177,214,209200,1,2,1:2:0:0:
210,291,209367,6,0,L|319:301,2,97.5,2|2|2,1:2|1:2|1:2,0:0:0:0:
133,325,210033,2,0,P|97:332|61:325,1,65,2|0,0:0|1:0,0:0:0:0:
10,265,210367,2,0,L|20:193,1,65,8|0,0:1|1:0,0:0:0:0:
6,116,210700,6,0,P|48:98|138:111,1,130,2|8,1:2|0:0,0:0:0:0:
202,151,211200,2,0,L|208:201,2,32.5,2|2|2,1:2|1:2|1:2,0:0:0:0:
251,82,211533,1,0,0:0:0:0:
333,100,211700,2,0,P|373:104|410:95,1,65,10|2,0:0|1:2,0:0:0:0:
477,72,212033,6,0,L|463:205,1,130,2|8,1:2|0:0,0:0:0:0:
464,284,212533,1,2,1:2:0:0:
464,284,212700,2,0,P|427:298|387:290,1,65,2|0,0:0|0:0,0:0:0:0:
345,233,213033,1,10,0:0:0:0:
269,270,213200,1,2,0:0:0:0:
191,236,213367,6,0,B|123:227|139:272|51:257,1,130,2|8,1:2|0:0,0:0:0:0:
15,191,213867,1,2,1:2:0:0:
15,191,213950,1,2,1:2:0:0:
15,191,214033,2,0,L|20:122,1,65,2|0,0:0|1:0,0:0:0:0:
84,71,214367,2,0,L|153:76,1,65,10|0,0:0|0:0,0:0:0:0:
218,123,214700,6,0,L|329:115,2,97.5,2|2|2,1:2|0:0|1:2,0:0:0:0:
159,186,215367,2,0,P|154:217|163:248,1,65,2|0,0:0|1:0,0:0:0:0:
238,287,215700,2,0,L|303:290,1,65,8|0,0:1|1:0,0:0:0:0:
370,341,216033,6,0,P|386:300|344:217,1,130,2|8,1:2|0:0,0:0:0:0:
288,171,216533,1,2,1:2:0:0:
288,171,216617,1,2,1:2:0:0:
288,171,216700,2,0,L|293:98,1,65,2|0,1:2|0:0,0:0:0:0:
371,74,217033,1,10,0:0:0:0:
426,138,217200,1,2,1:2:0:0:
508,118,217367,6,0,L|498:15,2,97.5,2|2|2,1:2|0:0|1:2,0:0:0:0:
486,199,218033,2,0,P|457:225|352:204,1,130,0|10,0:0|0:0,0:0:0:0:
306,165,218533,1,2,0:0:0:0:
228,197,218700,6,0,B|154:183|178:242|98:223,1,130,6|8,1:2|0:1,0:0:0:0:
45,165,219200,2,0,L|38:106,2,32.5,2|2|2,1:2|1:2|1:2,0:0:0:0:
5,239,219533,1,0,1:0:0:0:
63,300,219700,2,0,L|53:382,1,65,10|2,0:0|1:2,0:0:0:0:
138,349,220033,6,0,P|197:339|250:342,2,97.5,2|2|2,1:2|1:2|1:2,0:0:0:0:
138,263,220700,2,0,L|145:198,1,65,2|0,0:0|1:0,0:0:0:0:
217,153,221033,1,10,0:1:0:0:
364,236,221367,6,0,L|344:87,1,130,2|8,1:2|0:0,0:0:0:0:
415,57,221867,2,0,L|455:62,2,32.5,2|2|2,1:2|1:2|1:2,0:0:0:0:
342,14,222200,1,0,0:0:0:0:
266,52,222367,1,10,0:0:0:0:
187,22,222533,1,2,1:2:0:0:
187,22,222700,6,0,P|163:70|179:128,2,97.5,2|2|2,1:2|0:0|1:2,0:0:0:0:
266,52,223367,2,0,L|274:136,1,65,2|2,0:0|1:0,0:0:0:0:
260,200,223700,1,10,0:1:0:0:
341,178,223867,1,2,0:0:0:0:
416,215,224033,6,0,P|441:245|426:347,1,130,2|8,1:2|0:0,0:0:0:0:
358,361,224533,1,2,1:2:0:0:
358,361,224617,1,2,1:2:0:0:
358,361,224700,2,0,L|279:352,1,65,2|0,0:0|1:0,0:0:0:0:
229,297,225033,2,0,L|164:304,1,65,10|0,0:0|0:0,0:0:0:0:
88,342,225367,6,0,L|77:238,2,97.5,2|2|2,1:2|0:0|1:0,0:0:0:0:
7,367,226033,2,0,L|0:291,1,65,0|2,0:0|1:0,0:0:0:0:
0,216,226367,1,10,0:1:0:0:
144,128,226700,6,0,P|192:114|266:157,1,130,2|8,1:2|0:0,0:0:0:0:
307,218,227200,1,2,1:2:0:0:
307,218,227283,1,2,1:2:0:0:
307,218,227367,2,0,L|379:216,1,65,2|0,1:2|0:0,0:0:0:0:
440,166,227700,1,10,0:0:0:0:
413,85,227867,1,2,1:2:0:0:
343,133,228033,6,0,L|216:138,1,97.5,0|0,1:2|0:0,0:0:0:0:
207,118,228367,2,0,L|216:50,1,65,10|2,0:1|1:0,0:0:0:0:
138,17,228700,2,0,P|101:40|99:125,1,130,0|2,0:0|1:1,0:0:0:0:
145,188,229200,1,0,1:0:0:0:
46,269,229367,6,0,P|98:263|185:300,1,130,6|8,1:0|0:0,0:0:0:0:
239,336,229867,2,0,P|298:359|363:355,1,130,2|0,0:2|1:0,0:0:0:0:
438,316,230367,1,10,0:0:0:0:
379,157,230700,5,0,1:0:0:0:
316,214,230867,2,0,L|325:286,1,65,2|8,0:2|0:0,0:0:0:0:
363,355,231200,1,0,1:0:0:0:
438,316,231367,2,0,L|447:244,1,65,2|0,0:0|1:0,0:0:0:0:
505,190,231700,1,10,0:2:0:0:
376,79,232033,6,0,P|318:64|262:105,1,130,2|8,1:2|0:0,0:0:0:0:
230,179,232533,2,0,P|168:193|117:156,1,130,2|0,0:0|1:0,0:0:0:0:
101,73,233033,1,10,0:0:0:0:
48,234,233367,5,0,1:0:0:0:
48,234,233533,2,0,P|57:269|62:315,1,65,2|8,0:0|0:0,0:0:0:0:
52,382,233867,1,0,1:0:0:0:
130,351,234033,2,0,L|283:342,1,130,2|10,0:0|0:0,0:0:0:0:
340,368,234533,1,0,0:0:0:0:
415,329,234700,6,0,P|425:280|399:185,1,130,6|8,1:0|0:0,0:0:0:0:
345,147,235200,2,0,P|296:137|201:163,1,130,2|0,0:0|1:0,0:0:0:0:
156,210,235700,2,0,L|72:204,1,65,10|0,0:0|0:0,0:0:0:0:
22,155,236033,5,0,1:0:0:0:
22,155,236200,2,0,L|32:79,1,65,2|8,0:2|0:0,0:0:0:0:
99,41,236533,1,0,1:0:0:0:
175,77,236700,2,0,P|204:77|246:70,1,65,2|0,0:0|1:0,0:0:0:0:
380,36,237033,2,0,P|347:36|315:41,1,65,10|0,0:0|0:0,0:0:0:0:
239,71,237367,6,0,P|227:139|263:207,1,130,2|8,1:2|0:0,0:0:0:0:
332,220,237867,2,0,P|396:204|416:268,1,130,2|0,0:0|1:0,0:0:0:0:
356,308,238367,2,0,L|216:320,1,130,10|2,0:0|1:2,0:0:0:0:
156,272,238867,5,2,1:2:0:0:
82,313,239033,2,0,P|70:282|72:250,1,65,10|0,0:0|0:0,0:0:0:0:
125,183,239367,2,0,P|127:150|115:120,1,65,0|2,1:0|1:2,0:0:0:0:
51,66,239700,1,10,0:1:0:0:
209,123,240033,6,0,P|271:126|342:107,1,130,6|8,1:0|0:0,0:0:0:0:
408,64,240533,2,0,L|395:-7,2,65,2|0|0,0:2|0:0|1:0,0:0:0:0:
469,121,241033,2,0,L|453:275,1,130,10|0,0:0|1:0,0:0:0:0:
504,319,241533,6,0,P|468:343|419:342,1,65,2|8,0:2|0:0,0:0:0:0:
365,318,241867,1,0,1:0:0:0:
365,318,242033,2,0,P|333:264|342:200,1,130,2|10,0:0|0:2,0:0:0:0:
363,118,242533,1,0,0:0:0:0:
363,118,242700,6,0,P|294:125|218:128,1,130,2|8,1:2|0:0,0:0:0:0:
152,103,243200,2,0,P|159:171|162:248,1,130,2|0,0:0|1:0,0:0:0:0:
88,274,243700,2,0,L|17:266,1,65,10|0,0:0|0:0,0:0:0:0:
147,340,244033,5,0,1:0:0:0:
147,340,244200,2,0,L|218:332,1,65,2|8,0:0|0:0,0:0:0:0:
273,275,244533,1,0,1:0:0:0:
334,332,244700,2,0,P|357:272|331:214,1,130,2|10,0:0|0:0,0:0:0:0:
198,113,245367,6,0,P|175:172|201:230,1,130,6|8,1:0|0:0,0:0:0:0:
273,275,245867,2,0,L|421:251,1,130,2|0,0:0|1:0,0:0:0:0:
482,278,246367,1,10,0:0:0:0:
506,110,246700,5,0,1:0:0:0:
431,150,246867,2,0,L|351:142,1,65,2|8,0:2|0:0,0:0:0:0:
303,86,247200,1,0,1:0:0:0:
239,28,247367,2,0,L|175:22,1,65,2|0,0:0|1:0,0:0:0:0:
109,76,247700,2,0,L|125:148,1,65,10|0,0:0|0:0,0:0:0:0:
187,193,248033,6,0,L|171:347,1,130,2|8,1:2|0:0,0:0:0:0:
247,363,248533,2,0,P|292:341|374:351,1,130,2|0,0:0|1:0,0:0:0:0:
391,268,249033,2,0,P|360:264|334:244,1,65,10|0,0:0|0:0,0:0:0:0:
276,180,249367,6,0,L|284:104,1,65,2|0,1:0|1:2,0:0:0:0:
196,152,249700,2,0,L|204:76,1,65,10|0,0:1|0:0,0:0:0:0:
268,260,250033,2,0,L|276:184,1,65,2|0,1:0|0:2,0:0:0:0:
188,232,250366,2,0,L|196:156,1,65,10|0,0:1|0:0,0:0:0:0:
260,340,250700,5,4,0:0:0:0:
256,192,250867,12,0,253367,0:0:0:0:
