osu file format v14

[General]
AudioFilename: 05.mp3
AudioLeadIn: 1000
PreviewTime: 174284
Countdown: 0
SampleSet: Soft
StackLeniency: 0.7
Mode: 0
LetterboxInBreaks: 0
WidescreenStoryboard: 0

[Editor]
Bookmarks: 1370,22703,54703,65369,86703,132035,174700,196033,229367,253367
DistanceSpacing: 0.5
BeatDivisor: 4
GridSize: 32
TimelineZoom: 1.899999

[Metadata]
Title:Tokei no Heya to Seishin Sekai
TitleUnicode:時計の部屋と精神世界
Artist:a_hisa
ArtistUnicode:a_hisa
Creator:Asahina Momoko
Version:Horologe
Source:
Tags:After the End SpiritualCore sing toybot wring Fuccho mokori m_o_k_o_r_i
BeatmapID:1082403
BeatmapSetID:508947

[Difficulty]
HPDrainRate:6.8
CircleSize:4
OverallDifficulty:8.5
ApproachRate:9.2
SliderMultiplier:1.84
SliderTickRate:1

[Events]
//Background and Video events
0,0,"bg.jpg",0,0
//Break Periods
2,44236,54036
2,121368,130701
//Storyboard Layer 0 (Background)
//Storyboard Layer 1 (Fail)
//Storyboard Layer 2 (Pass)
//Storyboard Layer 3 (Foreground)
//Storyboard Sound Samples

[TimingPoints]
1370,333.333333333333,4,2,1,30,1,0
1370,-200,4,2,1,30,0,0
12036,-166.666666666667,4,2,1,40,0,0
17369,-166.666666666667,4,2,2,50,0,0
20536,-125,4,2,2,50,0,0
21036,-100,4,2,2,50,0,0
22036,-71.4285714285714,4,2,1,50,0,0
22703,-100,4,2,1,50,0,0
33369,-100,4,2,2,60,0,0
34036,-100,4,2,2,50,0,0
34369,-100,4,2,2,40,0,0
34703,-100,4,2,2,60,0,0
35203,-100,4,2,2,50,0,0
35703,-100,4,2,2,40,0,0
36036,-100,4,2,2,60,0,0
36536,-100,4,2,2,50,0,0
37036,-100,4,2,2,40,0,0
37369,-100,4,2,2,50,0,0
37703,-100,4,2,2,60,0,0
38036,-100,4,2,2,70,0,0
38369,-100,4,2,2,50,0,0
38703,-100,4,2,2,60,0,0
39203,-100,4,2,2,50,0,0
39703,-100,4,2,2,40,0,0
40036,-100,4,2,2,60,0,0
40536,-100,4,2,2,50,0,0
41036,-100,4,2,2,40,0,0
41369,-100,4,2,2,60,0,0
42036,-100,4,2,2,50,0,0
42369,-100,4,2,2,40,0,0
42703,-100,4,2,2,30,0,0
43036,-100,4,2,2,50,0,0
43369,-100,4,2,2,70,0,0
43703,-100,4,2,2,90,0,0
44036,-100,4,2,1,40,0,0
54703,-200,4,2,2,40,0,0
55369,-100,4,2,2,60,0,0
55453,-100,4,2,2,5,0,0
55536,-200,4,2,2,40,0,0
56703,-100,4,2,2,40,0,0
57369,-200,4,2,2,40,0,0
58036,-100,4,2,2,60,0,0
58119,-100,4,2,2,5,0,0
58203,-200,4,2,2,40,0,0
59369,-100,4,2,2,40,0,0
60036,-200,4,2,2,40,0,0
60703,-100,4,2,2,60,0,0
60786,-100,4,2,2,5,0,0
60869,-200,4,2,2,40,0,0
62036,-100,4,2,2,40,0,0
62703,-200,4,2,2,40,0,0
63369,-100,4,2,2,40,0,0
64036,-100,4,2,2,50,0,0
64203,-100,4,2,1,50,0,0
64369,-100,4,2,2,60,0,0
64536,-100,4,2,1,60,0,0
64703,-100,4,2,2,40,0,0
65036,-100,4,2,1,30,0,0
65119,-100,4,2,1,50,0,0
65203,-100,4,2,1,70,0,0
65286,-100,4,2,1,90,0,0
65369,-83.3333333333333,4,2,1,60,0,0
65703,-100,4,2,2,60,0,0
66369,-100,4,2,2,50,0,0
66703,-100,4,2,2,40,0,0
70703,-100,4,2,2,30,0,0
71369,-100,4,2,2,40,0,0
72036,-100,4,2,2,50,0,0
74703,-83.3333333333333,4,2,2,50,0,0
75036,-83.3333333333333,4,2,2,70,0,0
76036,-83.3333333333333,4,2,2,70,0,0
79036,-83.3333333333333,4,2,2,60,0,0
79369,-83.3333333333333,4,2,2,50,0,0
79703,-83.3333333333333,4,2,2,40,0,0
80369,-83.3333333333333,4,2,2,50,0,0
80703,-83.3333333333333,4,2,2,60,0,0
81036,-83.3333333333333,4,2,2,70,0,0
81369,-83.3333333333333,4,2,2,40,0,0
82036,-83.3333333333333,4,2,2,50,0,0
82703,-83.3333333333333,4,2,2,60,0,0
83369,-83.3333333333333,4,2,2,70,0,0
85369,-71.4285714285714,4,2,2,70,0,0
86703,333.333333333333,6,2,1,50,1,0
86703,-166.666666666667,6,2,1,50,0,0
90703,-83.3333333333333,6,2,2,60,0,0
94369,-83.3333333333333,6,2,1,80,0,0
94702,333.333333333333,4,2,2,70,1,0
94702,-83.3333333333333,4,2,2,70,0,0
98035,-71.4285714285714,4,2,2,70,0,0
98702,-83.3333333333333,4,2,2,70,0,0
100702,-71.4285714285714,4,2,2,70,0,0
101368,-83.3333333333333,4,2,2,70,0,0
105035,-83.3333333333333,4,2,1,70,0,0
105368,-71.4285714285714,4,2,2,80,0,1
116035,-100,4,2,1,70,0,1
116368,-111.111111111111,4,2,1,60,0,1
116701,-125,4,2,1,50,0,1
117035,-142.857142857143,4,2,1,40,0,1
117368,-142.857142857143,4,2,1,60,0,0
118701,-142.857142857143,4,2,1,10,0,0
132035,333.333333333333,6,2,1,40,1,0
132035,-400,4,2,1,40,0,0
147368,-200,4,2,0,40,0,0
147409,-200,4,2,0,10,0,0
147451,-200,4,2,0,20,0,0
147534,-200,4,2,0,30,0,0
147618,-200,4,2,0,40,0,0
147701,-200,4,2,0,50,0,0
147784,-200,4,2,0,60,0,0
147868,-200,4,2,0,70,0,0
147951,-200,4,2,0,80,0,0
148034,-222.222222222222,4,2,3,50,0,0
149034,-222.222222222222,4,2,3,40,0,0
162534,-222.222222222222,4,2,3,30,0,0
163368,-222.222222222222,4,2,0,10,0,0
163451,-222.222222222222,4,2,0,20,0,0
163534,-222.222222222222,4,2,0,30,0,0
163618,-222.222222222222,4,2,0,40,0,0
163701,-222.222222222222,4,2,0,50,0,0
163784,-222.222222222222,4,2,0,60,0,0
163868,-222.222222222222,4,2,0,70,0,0
163951,-222.222222222222,4,2,0,80,0,0
164034,333.333333333333,4,2,2,40,1,0
164034,-133.333333333333,4,2,2,40,0,0
172700,-133.333333333333,4,2,2,50,0,0
173034,-133.333333333333,4,2,2,60,0,0
174367,-66.6666666666667,4,2,1,60,0,0
174700,-83.3333333333333,4,2,1,60,0,0
185367,-71.4285714285714,4,2,1,60,0,0
185700,-83.3333333333333,4,2,1,60,0,0
186700,-71.4285714285714,4,2,1,60,0,0
187033,-83.3333333333333,4,2,1,60,0,0
188033,-71.4285714285714,4,2,1,60,0,0
188367,-83.3333333333333,4,2,1,60,0,0
190700,-71.4285714285714,4,2,1,60,0,0
191033,-83.3333333333333,4,2,1,60,0,0
192033,-71.4285714285714,4,2,1,60,0,0
192367,-83.3333333333333,4,2,1,60,0,0
193367,-71.4285714285714,4,2,1,60,0,0
193700,-83.3333333333333,4,2,1,60,0,0
196033,-200,4,2,1,50,0,0
198367,-133.333333333333,4,2,1,50,0,0
198700,-200,4,2,1,50,0,0
199367,-133.333333333333,4,2,1,50,0,0
199700,-200,4,2,1,50,0,0
200283,-166.666666666667,4,2,1,50,0,0
200533,-100,4,2,1,50,0,0
200700,-142.857142857143,4,2,1,50,0,0
200950,-125,4,2,1,50,0,0
201200,-100,4,2,1,50,0,0
201367,-166.666666666667,4,2,1,50,0,0
206700,-166.666666666667,4,2,2,50,0,0
207033,-166.666666666667,4,2,2,60,0,0
207367,-83.3333333333334,4,2,2,40,0,0
207533,-83.3333333333334,4,2,2,50,0,0
207700,-83.3333333333333,4,2,2,60,0,0
207867,-83.3333333333334,4,2,2,70,0,0
208033,-71.4285714285714,4,2,2,80,0,1
218367,-71.4285714285714,4,2,2,70,0,0
218700,-66.6666666666667,4,2,2,80,0,1
228367,-66.6666666666667,4,2,1,80,0,1
229033,-66.6666666666667,4,2,1,80,0,1
229367,-83.3333333333333,4,2,1,70,0,0
252033,-83.3333333333333,4,2,1,50,0,0
252367,-83.3333333333333,4,2,1,40,0,0
252700,-83.3333333333333,4,2,1,30,0,0
253033,-83.3333333333333,4,2,1,20,0,0
253367,-83.3333333333333,4,2,1,10,0,0

[Colours]
Combo1 : 244,153,91
Combo2 : 141,193,203
Combo3 : 180,222,12
Combo4 : 74,181,159
Combo5 : 77,36,236

[HitObjects]
313,258,1370,5,6,0:1:0:0:
313,270,1536,1,0,0:0:0:0:
322,264,1703,1,0,0:0:0:0:
220,166,1869,6,0,L|217:227,1,46,0|0,0:0|0:0,0:0:0:0:
168,333,2203,1,0,0:0:0:0:
168,333,2369,6,0,L|165:272,1,46,0|0,0:0|0:0,0:0:0:0:
89,193,2703,1,0,0:0:0:0:
89,193,2869,6,0,L|86:254,2,46,2|0|0,0:0|0:0|0:0,0:0:0:0:
53,310,3369,2,0,P|92:292|160:294,1,92,2|2,0:0|0:0,0:0:0:0:
268,344,3869,1,0,0:0:0:0:
217,255,4036,6,0,P|247:242|275:239,2,46,2|0|0,0:1|0:0|0:0,0:0:0:0:
310,162,4536,2,0,P|331:187|342:212,2,46,0|0|0,0:0|0:0|0:0,0:0:0:0:
427,222,5036,2,0,P|409:250|388:268,2,46,0|0|0,0:0|0:0|0:0,0:0:0:0:
406,352,5536,6,0,P|373:344|350:330,1,46,2|0,0:0|0:0,0:0:0:0:
260,234,5869,1,2,0:0:0:0:
253,325,6036,2,0,L|260:219,1,92,2|2,0:0|0:0,0:0:0:0:
227,128,6703,5,2,0:1:0:0:
227,140,6869,1,0,0:0:0:0:
218,134,7036,1,0,0:0:0:0:
320,36,7202,6,0,L|323:97,1,46,0|0,0:0|0:0,0:0:0:0:
372,203,7536,1,0,0:0:0:0:
372,203,7702,6,0,L|375:142,1,46,0|0,0:0|0:0,0:0:0:0:
451,63,8036,1,0,0:0:0:0:
451,63,8202,6,0,L|454:124,2,46,2|2|2,0:0|0:0|0:0,0:0:0:0:
460,201,8703,1,0,0:0:0:0:
481,190,8869,5,2,0:0:0:0:
361,177,9036,1,2,0:0:0:0:
241,164,9203,1,0,0:0:0:0:
280,281,9369,6,0,P|289:248|287:221,2,46,2|0|0,0:1|0:0|0:0,0:0:0:0:
361,177,9869,2,0,P|333:158|306:151,2,46,0|0|0,0:0|0:0|0:0,0:0:0:0:
287,67,10369,2,0,P|260:87|245:110,2,46,0|0|0,0:0|0:0|0:0,0:0:0:0:
228,172,10869,5,2,0:0:0:0:
228,172,11036,2,0,L|118:159,2,92,2|2|2,0:0|0:0|0:0,0:0:0:0:
379,189,11869,1,0,0:0:0:0:
315,105,12036,6,0,P|305:135|305:170,1,55.1999983154297,2|0,0:1|0:0,0:0:0:0:
304,157,12369,1,0,0:0:0:0:
493,184,12536,6,0,P|471:160|441:143,1,55.1999983154297,0|0,0:0|0:0,0:0:0:0:
453,148,12869,1,0,0:0:0:0:
338,285,13036,6,0,P|369:277|399:260,1,55.1999983154297,0|0,0:0|0:0,0:0:0:0:
389,267,13369,1,0,0:0:0:0:
250,212,13536,2,0,L|237:343,1,110.399996630859,2|0,0:0|0:0,0:0:0:0:
239,321,14036,5,2,0:0:0:0:
47,223,14369,1,2,0:0:0:0:
116,174,14536,1,0,0:0:0:0:
101,339,14703,6,0,P|112:308|112:274,2,55.1999983154297,2|0|0,0:1|0:0|0:0,0:0:0:0:
206,236,15203,2,0,P|199:203|181:174,1,55.1999983154297,0|0,0:0|0:0,0:0:0:0:
256,345,15536,1,0,0:0:0:0:
306,236,15703,6,0,P|312:203|330:174,2,55.1999983154297,0|0|0,0:0|0:0|0:0,0:0:0:0:
411,339,16203,2,0,P|400:308|400:274,1,55.1999983154297,2|0,0:0|0:0,0:0:0:0:
439,168,16536,1,2,0:0:0:0:
223,220,16703,5,2,0:0:0:0:
439,168,17036,1,2,0:0:0:0:
376,329,17369,6,0,P|348:328|322:319,1,55.1999983154297,2|0,1:0|0:0,0:0:0:0:
322,349,17703,2,0,P|298:334|279:314,1,55.1999983154297,0|0,1:0|0:0,0:0:0:0:
139,296,18036,6,0,P|153:272|174:254,1,55.1999983154297,0|0,1:0|0:0,0:0:0:0:
148,239,18370,2,0,P|171:225|198:219,1,55.1999983154297,0|0,1:0|0:0,0:0:0:0:
301,105,18703,6,0,P|314:129|319:156,1,55.1999983154297,0|0,1:0|0:0,0:0:0:0:
345,141,19037,2,0,P|344:168|336:194,1,55.1999983154297,0|0,1:0|0:0,0:0:0:0:
242,319,19369,6,0,P|233:292|233:265,1,55.1999983154297,0|2,1:0|0:0,0:0:0:0:
196,177,19703,1,2,1:2:0:0:
196,177,19869,1,2,1:2:0:0:
196,177,20036,6,0,L|120:185,1,55.1999983154297,2|0,1:0|1:0,0:0:0:0:
296,278,20369,1,0,0:0:0:0:
296,278,20536,6,0,L|212:268,1,73.6,2|0,1:0|1:0,0:0:0:0:
378,146,20869,1,0,0:0:0:0:
378,146,21036,6,0,L|281:158,1,92,2|0,1:0|1:0,0:0:0:0:
73,292,21369,1,0,1:0:0:0:
76,304,21452,1,0,1:0:0:0:
82,315,21535,1,0,1:0:0:0:
92,324,21618,1,0,1:0:0:0:
103,331,21703,1,2,1:2:0:0:
116,334,21785,1,0,1:0:0:0:
129,334,21868,1,0,1:0:0:0:
142,331,21952,1,0,1:0:0:0:
154,326,22036,6,0,L|237:332,1,64.399998034668,2|0,0:0|0:0,0:0:0:0:
342,339,22203,1,0,1:0:0:0:
445,236,22369,1,10,0:0:0:0:
445,236,22453,2,0,L|305:252,1,128.799996069336,0|0,3:0|0:0,0:0:0:0:
317,134,22703,6,0,L|427:147,1,92,6|0,1:0|0:0,0:0:0:0:
486,152,22953,1,0,0:0:0:0:
505,154,23036,1,8,0:0:0:0:
246,60,23203,2,0,B|210:117|210:117|237:198,1,138,2|0,0:2|0:0,0:0:0:0:
273,290,23536,1,0,1:0:0:0:
70,267,23703,6,0,L|161:256,1,92,10|0,0:0|0:0,0:0:0:0:
188,245,23953,2,0,L|177:315,1,46,0|0,0:0|1:0,0:0:0:0:
93,143,24203,1,2,0:2:0:0:
37,292,24369,1,8,0:0:0:0:
39,283,24453,1,0,0:0:0:0:
41,274,24536,1,0,1:0:0:0:
187,164,24703,6,0,P|214:169|239:181,1,46,2|0,0:0|0:0,0:0:0:0:
322,260,24869,1,0,1:0:0:0:
414,131,25036,6,0,P|387:136|362:148,1,46,10|0,0:2|0:0,0:0:0:0:
282,230,25202,1,0,0:0:0:0:
438,372,25369,6,0,P|457:332|452:273,1,92,2|0,1:2|0:0,0:0:0:0:
426,218,25619,1,0,0:0:0:0:
416,209,25703,1,8,0:0:0:0:
290,335,25869,2,0,P|242:336|185:299,1,92,2|0,0:0|0:0,0:0:0:0:
103,314,26119,2,0,P|91:292|92:261,1,46,0|0,0:0|1:0,0:0:0:0:
149,59,26369,6,0,L|162:185,1,92,10|0,0:0|0:0,0:0:0:0:
169,226,26619,1,0,0:0:0:0:
171,239,26703,1,0,1:0:0:0:
48,147,26869,1,2,0:0:0:0:
264,51,27036,1,8,0:0:0:0:
266,60,27120,1,0,0:0:0:0:
268,69,27203,1,0,1:0:0:0:
345,254,27369,6,0,L|352:192,1,46,2|0,0:0|0:0,0:0:0:0:
425,100,27536,1,0,1:0:0:0:
327,270,27703,6,0,L|320:208,1,46,10|0,0:0|0:0,0:0:0:0:
247,116,27869,1,0,0:0:0:0:
441,229,28036,5,6,1:0:0:0:
278,345,28203,1,0,0:0:0:0:
287,343,28287,1,0,0:0:0:0:
296,341,28370,1,8,0:0:0:0:
177,329,28536,2,0,L|32:315,1,138,2|0,0:0|0:0,0:0:0:0:
39,315,28869,1,0,1:0:0:0:
222,234,29036,6,0,L|337:224,1,92,10|0,0:0|0:0,0:0:0:0:
401,202,29286,2,0,L|389:271,1,46,0|0,0:0|1:0,0:0:0:0:
200,126,29536,1,2,0:2:0:0:
272,324,29703,1,8,0:0:0:0:
274,315,29787,1,0,0:0:0:0:
276,306,29870,1,0,1:0:0:0:
99,240,30036,6,0,L|167:235,1,46,2|0,0:0|0:0,0:0:0:0:
313,226,30203,1,0,1:0:0:0:
207,34,30369,2,0,L|198:142,1,92,10|0,0:0|0:0,0:0:0:0:
190,138,30619,1,0,0:0:0:0:
181,150,30703,6,0,P|226:131|286:142,1,92,2|0,1:2|0:0,0:0:0:0:
367,161,30953,1,0,0:0:0:0:
386,172,31036,1,8,0:0:0:0:
225,341,31203,2,0,B|200:278|200:278|236:217,1,138,2|0,0:0|0:0,0:0:0:0:
235,217,31536,1,0,1:0:0:0:
387,302,31703,2,0,P|342:283|282:294,1,92,10|0,0:0|0:0,0:0:0:0:
154,149,32036,5,2,1:2:0:0:
225,341,32203,1,2,1:2:0:0:
25,267,32369,2,0,L|140:256,1,92,10|0,0:0|0:0,0:0:0:0:
160,241,32619,1,2,1:2:0:0:
158,254,32703,1,0,1:0:0:0:
157,267,32786,1,2,1:2:0:0:
156,280,32869,1,2,1:2:0:0:
25,267,33036,5,10,0:1:0:0:
256,351,33203,2,0,L|260:302,1,46,0|2,0:0|0:1,0:0:0:0:
391,157,33369,5,6,1:0:0:0:
160,241,33536,1,0,0:0:0:0:
367,345,33703,2,0,L|354:225,1,92,8|2,0:1|1:0,0:0:0:0:
301,34,34036,5,0,0:1:0:0:
280,207,34203,1,0,1:0:0:0:
274,192,34369,5,10,0:1:0:0:
253,365,34536,1,0,1:0:0:0:
357,253,34703,5,0,1:1:0:0:
193,277,34869,1,2,1:1:0:0:
29,299,35036,1,8,0:1:0:0:
273,343,35203,5,0,1:1:0:0:
280,338,35369,1,2,0:1:0:0:
273,333,35536,1,0,1:1:0:0:
183,368,35703,5,10,0:1:0:0:
193,277,35869,1,0,1:1:0:0:
114,135,36036,5,2,1:1:0:0:
45,208,36203,1,0,0:1:0:0:
95,298,36369,1,8,0:1:0:0:
206,177,36536,5,2,1:1:0:0:
216,186,36703,1,0,0:1:0:0:
203,188,36869,1,0,1:1:0:0:
250,273,37036,5,10,0:1:0:0:
359,258,37203,1,0,1:1:0:0:
467,243,37369,1,0,1:1:0:0:
426,332,37536,5,2,1:1:0:0:
250,273,37703,1,8,0:1:0:0:
76,213,37869,1,0,1:1:0:0:
35,349,38036,5,2,0:1:0:0:
177,319,38203,1,0,1:1:0:0:
192,339,38369,5,10,0:1:0:0:
100,306,38536,1,0,1:1:0:0:
366,341,38703,5,6,1:1:0:0:
386,188,38869,1,0,1:1:0:0:
241,240,39036,1,8,0:1:0:0:
329,265,39203,5,2,1:1:0:0:
336,260,39369,1,0,0:1:0:0:
329,255,39536,1,0,1:1:0:0:
386,188,39703,5,10,0:1:0:0:
182,120,39869,1,0,1:0:0:0:
24,172,40036,5,4,1:0:0:0:
191,132,40202,1,2,1:1:0:0:
352,96,40369,1,8,0:1:0:0:
246,38,40536,5,0,1:1:0:0:
241,31,40702,1,2,1:1:0:0:
236,38,40869,1,0,1:1:0:0:
181,241,41036,1,10,0:1:0:0:
261,131,41203,1,2,1:1:0:0:
270,129,41286,1,2,1:1:0:0:
279,127,41369,5,6,1:1:0:0:
43,185,41536,1,0,0:1:0:0:
251,326,41703,5,8,0:1:0:0:
104,293,41869,1,2,1:0:0:0:
230,229,42036,5,0,0:1:0:0:
237,224,42203,1,0,1:1:0:0:
230,219,42369,1,10,0:1:0:0:
321,357,42536,1,2,1:1:0:0:
354,242,42703,5,2,1:0:0:0:
202,304,42869,1,2,1:0:0:0:
154,181,43036,5,10,0:1:0:0:
357,259,43203,1,2,1:0:0:0:
392,121,43369,5,2,1:0:0:0:
152,196,43536,1,2,1:0:0:0:
115,51,43703,5,10,0:1:0:0:
394,134,43869,1,2,1:0:0:0:
256,318,44036,5,6,0:1:0:0:
383,189,54703,6,0,P|354:184|335:175,1,46,6|0,1:0|0:0,0:0:0:0:
228,157,55036,2,0,P|245:134|263:122,1,46,0|0,1:0|0:0,0:0:0:0:
329,35,55369,6,0,P|339:61|341:83,1,46,8|0,0:0|0:0,0:0:0:0:
305,198,55536,2,0,L|206:186,1,92,0|0,1:0|1:0,0:0:0:0:
80,299,56036,6,0,L|134:293,1,46,0|0,1:0|0:0,0:0:0:0:
252,348,56369,2,0,P|260:317|261:294,1,46,2|0,1:0|0:0,0:0:0:0:
247,360,56703,6,0,P|233:314|247:235,1,92,8|2,0:0|0:1,0:0:0:0:
407,185,57036,1,0,1:0:0:0:
407,185,57203,1,0,1:0:0:0:
461,258,57369,6,0,P|440:269|418:274,1,46,2|0,1:0|0:0,0:0:0:0:
317,187,57703,2,0,P|317:164|324:142,1,46,0|0,1:0|0:0,0:0:0:0:
479,129,58036,6,0,P|463:112|444:99,1,46,8|0,0:0|0:0,0:0:0:0:
303,50,58203,2,0,P|280:57|261:70,2,46,0|0|0,1:0|0:2|1:2,0:0:0:0:
407,185,58703,5,0,1:2:0:0:
266,143,58869,1,2,0:1:0:0:
145,294,59036,5,0,1:2:0:0:
162,203,59203,1,0,0:0:0:0:
194,360,59369,6,0,P|139:346|88:346,1,92,10|0,0:1|0:0,0:0:0:0:
284,277,59703,1,2,1:0:0:0:
284,277,59869,1,2,1:0:0:0:
208,202,60036,6,0,L|201:266,1,46,2|0,1:0|0:0,0:0:0:0:
308,102,60369,2,0,L|315:166,1,46,0|0,1:0|0:0,0:0:0:0:
289,322,60703,6,0,L|282:258,1,46,8|0,0:0|0:0,0:0:0:0:
199,157,60869,2,0,P|156:172|124:205,1,92,0|0,1:0|1:0,0:0:0:0:
123,337,61369,6,0,P|113:316|109:293,1,46,0|0,1:0|0:0,0:0:0:0:
35,199,61703,2,0,P|38:176|48:155,1,46,2|0,1:0|0:0,0:0:0:0:
24,218,62036,6,0,P|72:206|122:207,1,92,8|2,0:0|0:1,0:0:0:0:
292,309,62369,1,0,1:2:0:0:
292,309,62536,1,0,1:0:0:0:
340,224,62703,6,0,P|319:214|296:210,1,46,2|0,1:0|0:0,0:0:0:0:
178,153,63036,2,0,P|198:143|221:139,1,46,0|0,1:0|0:0,0:0:0:0:
349,23,63369,6,0,P|329:66|334:135,1,92,10|0,0:1|0:0,0:0:0:0:
423,256,63703,1,0,1:2:0:0:
437,250,63869,1,2,1:0:0:0:
444,236,64036,5,0,1:0:0:0:
353,329,64203,2,0,L|301:325,1,46,10|0,0:1|0:0,0:0:0:0:
257,267,64369,5,0,1:0:0:0:
166,174,64536,2,0,L|114:178,1,46,10|0,0:1|0:0,0:0:0:0:
67,333,64703,5,0,1:0:0:0:
72,337,64786,1,0,1:0:0:0:
78,338,64869,1,0,1:0:0:0:
84,337,64953,1,0,1:0:0:0:
89,333,65036,1,0,1:0:0:0:
92,327,65119,1,0,1:0:0:0:
91,321,65203,1,0,1:0:0:0:
88,315,65286,1,0,1:0:0:0:
52,309,65369,6,0,L|192:296,1,110.399996630859,4|0,1:0|0:0,0:0:0:0:
343,235,65703,1,8,0:2:0:0:
343,235,65869,2,0,L|337:291,1,46,0|0,1:0|0:0,0:0:0:0:
326,363,66036,1,2,0:2:0:0:
231,175,66203,2,0,L|293:169,1,46,0|0,1:0|0:0,0:0:0:0:
454,113,66369,2,0,L|346:98,1,92,10|0,0:0|1:0,0:0:0:0:
293,56,66619,1,0,0:0:0:0:
281,47,66703,5,2,1:2:0:0:
249,260,66869,1,0,1:0:0:0:
82,112,67036,1,8,0:0:0:0:
230,140,67203,5,0,1:0:0:0:
228,147,67286,1,0,1:0:0:0:
226,154,67369,1,0,0:0:0:0:
224,162,67452,1,0,1:0:0:0:
222,169,67536,2,0,L|175:164,1,46,0|0,1:0|0:0,0:0:0:0:
58,223,67703,5,10,0:0:0:0:
219,55,67869,1,2,1:2:0:0:
371,266,68036,6,0,P|327:246|279:247,1,92,2|0,1:2|0:0,0:0:0:0:
67,346,68369,2,0,P|112:345|153:325,1,92,10|0,0:0|1:0,0:0:0:0:
175,158,68619,1,0,0:0:0:0:
176,143,68703,2,0,P|196:183|199:229,1,92,2|0,0:0|1:0,0:0:0:0:
309,338,69036,1,10,0:0:0:0:
403,190,69203,1,2,1:2:0:0:
209,266,69369,6,0,L|326:258,1,92,2|0,1:2|0:0,0:0:0:0:
494,196,69703,2,0,L|377:188,1,92,10|0,0:0|1:0,0:0:0:0:
329,144,69953,1,0,1:0:0:0:
324,140,70036,6,0,L|320:202,1,46,2|0,0:0|1:0,0:0:0:0:
309,338,70203,1,0,1:0:0:0:
209,266,70369,6,0,L|205:204,1,46,10|0,0:0|0:0,0:0:0:0:
194,68,70536,1,0,1:0:0:0:
21,201,70703,6,0,L|138:193,1,92,2|0,1:2|0:0,0:0:0:0:
300,272,71036,2,0,L|183:264,1,92,10|0,0:0|1:0,0:0:0:0:
67,179,71286,1,0,0:0:0:0:
58,172,71369,6,0,L|175:180,1,92,2|0,0:0|1:0,0:0:0:0:
373,92,71703,2,0,L|256:100,1,92,10|0,0:0|0:0,0:0:0:0:
85,219,72036,6,0,L|202:211,1,92,2|0,1:2|0:0,0:0:0:0:
409,311,72369,1,10,0:0:0:0:
316,174,72536,2,0,P|301:191|288:211,1,46,2|0,1:2|1:0,0:0:0:0:
239,308,72703,2,0,P|244:330|252:351,2,46,2|0|0,0:0|1:0|1:0,0:0:0:0:
172,96,73036,1,10,0:0:0:0:
74,283,73203,1,2,1:2:0:0:
303,233,73369,6,0,B|246:197|246:197|156:232,1,138,2|0,1:2|0:0,0:0:0:0:
180,222,73703,1,10,0:0:0:0:
290,358,73869,1,2,1:2:0:0:
411,255,74036,2,0,L|398:134,1,92,0|2,0:0|1:2,0:0:0:0:
390,85,74286,1,2,0:0:0:0:
388,70,74369,1,8,0:0:0:0:
318,253,74536,1,2,1:2:0:0:
495,180,74703,5,0,1:0:0:0:
401,163,74869,1,0,1:0:0:0:
307,144,75036,2,0,L|321:278,1,110.399996630859,10|0,0:2|0:0,0:0:0:0:
386,346,75286,2,0,B|400:333|400:333|357:321|299:352,1,110.399996630859,10|0,0:2|0:0,0:0:0:0:
201,365,75536,6,0,L|208:308,1,55.1999983154297,0|0,1:2|0:0,0:0:0:0:
146,166,75703,2,0,P|117:152|87:152,1,55.1999983154297,10|0,0:2|0:0,0:0:0:0:
34,286,75869,1,0,1:0:0:0:
31,275,75953,1,0,1:0:0:0:
29,264,76036,6,0,L|154:254,1,110.399996630859,4|0,1:0|0:0,0:0:0:0:
311,345,76369,1,8,0:0:0:0:
398,167,76536,1,0,1:0:0:0:
401,174,76619,1,0,1:0:0:0:
404,181,76703,2,0,L|328:177,1,55.1999983154297,2|0,0:0|1:0,0:0:0:0:
194,100,76869,1,0,1:0:0:0:
274,231,77036,2,0,B|254:178|254:178|276:108,1,110.399996630859,10|0,0:0|1:0,0:0:0:0:
297,45,77286,1,0,1:0:0:0:
306,57,77369,5,2,1:2:0:0:
164,84,77536,1,0,1:0:0:0:
24,112,77703,1,8,0:0:0:0:
166,272,77869,1,0,1:0:0:0:
172,259,77952,1,0,1:0:0:0:
176,246,78035,1,0,0:0:0:0:
178,232,78118,1,0,1:0:0:0:
177,219,78202,1,0,1:0:0:0:
290,293,78369,5,10,0:2:0:0:
87,224,78536,1,2,1:2:0:0:
291,107,78703,6,0,L|279:229,1,110.399996630859,2|0,1:2|0:0,0:0:0:0:
446,351,79036,2,0,L|435:241,1,110.399996630859,10|0,0:2|1:0,0:0:0:0:
474,144,79286,1,0,0:0:0:0:
474,144,79369,2,0,B|416:129|416:129|352:171,1,110.399996630859,2|0,1:2|1:0,0:0:0:0:
227,287,79703,1,8,0:0:0:0:
141,117,79869,1,2,1:2:0:0:
45,264,80036,6,0,P|102:268|153:232,1,110.399996630859,2|0,1:2|1:0,0:0:0:0:
347,104,80369,2,0,P|300:76|246:81,1,110.399996630859,10|0,0:2|1:0,0:0:0:0:
238,86,80619,1,0,1:0:0:0:
233,93,80703,2,0,L|243:176,1,55.1999983154297,2|0,0:2|1:0,0:0:0:0:
255,338,80869,1,0,1:0:0:0:
389,257,81036,2,0,B|302:280|314:209|206:242,1,165.599994946289,10|0,0:2|0:0,0:0:0:0:
160,269,81369,5,2,1:2:0:0:
361,167,81536,1,0,1:0:0:0:
418,354,81703,5,10,0:2:0:0:
287,317,81869,1,0,1:0:0:0:
410,267,82036,5,2,0:2:0:0:
263,326,82203,1,0,1:0:0:0:
174,101,82369,5,10,0:2:0:0:
401,179,82536,1,0,1:0:0:0:
250,254,82703,6,0,L|267:135,1,110.399996630859,2|0,1:2|1:0,0:0:0:0:
296,59,82953,1,0,0:0:0:0:
296,59,83036,2,0,L|229:68,1,55.1999983154297,10|0,0:0|0:0,0:0:0:0:
59,87,83203,1,2,1:2:0:0:
142,273,83369,5,2,1:2:0:0:
145,280,83453,1,0,1:0:0:0:
149,287,83536,2,0,L|160:201,1,55.1999983154297,0|0,1:0|0:0,0:0:0:0:
265,144,83703,2,0,P|322:136|372:192,1,110.399996630859,10|0,0:0|0:0,0:0:0:0:
430,301,83953,1,0,0:0:0:0:
416,320,84036,6,0,L|297:304,1,110.399996630859,2|0,1:2|0:0,0:0:0:0:
142,127,84369,1,8,0:0:0:0:
63,260,84536,2,0,L|2:268,2,55.1999983154297,2|0|0,1:2|0:0|0:0,0:0:0:0:
243,244,84869,1,2,1:2:0:0:
80,224,85036,5,10,0:0:0:0:
226,280,85203,1,0,1:0:0:0:
126,355,85369,5,2,1:2:0:0:
126,355,85536,2,0,L|134:283,1,64.399998034668,0|0,1:0|0:0,0:0:0:0:
198,189,85703,2,0,B|296:208|296:208|268:171,1,128.799996069336,8|0,0:0|0:0,0:0:0:0:
114,136,85953,2,0,B|16:155|16:155|44:118,1,128.799996069336,8|0,0:0|0:0,0:0:0:0:
203,28,86203,6,0,L|215:129,1,64.399998034668,0|0,1:0|0:0,0:0:0:0:
240,311,86369,1,8,0:0:0:0:
424,174,86536,1,0,1:0:0:0:
278,184,86703,6,0,L|284:253,2,55.1999983154297,0|0|0,0:0|0:0|0:0,0:0:0:0:
359,340,87203,2,0,L|365:271,1,55.1999983154297,0|0,0:0|0:0,0:0:0:0:
424,174,87536,2,0,L|430:243,2,55.1999983154297,0|0|0,0:0|0:0|0:0,0:0:0:0:
363,285,88036,5,2,0:0:0:0:
487,315,88203,1,0,0:0:0:0:
369,323,88369,5,2,0:0:0:0:
464,346,88536,1,0,0:0:0:0:
262,246,88703,6,0,P|228:239|200:239,2,55.1999983154297,0|0|0,0:0|0:0|0:0,0:0:0:0:
152,169,89203,2,0,P|128:194|114:219,1,55.1999983154297,0|0,0:0|0:0,0:0:0:0:
65,348,89536,2,0,P|53:324|45:298,2,55.1999983154297,0|0|0,0:0|0:0|0:0,0:0:0:0:
42,188,90036,5,2,0:0:0:0:
64,181,90203,1,0,0:0:0:0:
164,265,90369,5,2,0:0:0:0:
186,272,90536,1,0,0:0:0:0:
327,228,90703,6,0,L|337:103,1,110.399996630859,12|0,0:0|0:0,0:0:0:0:
335,117,91036,1,2,0:0:0:0:
432,51,91203,2,0,L|442:176,1,110.399996630859,8|0,0:0|0:0,0:0:0:0:
407,358,91536,2,0,L|417:233,2,110.399996630859,12|2|2,0:0|0:0|0:0,0:0:0:0:
259,174,92036,5,8,0:0:0:0:
415,247,92203,1,0,0:0:0:0:
298,257,92369,5,8,0:0:0:0:
440,161,92536,1,0,0:0:0:0:
185,228,92703,6,0,L|175:103,1,110.399996630859,12|0,0:0|0:0,0:0:0:0:
176,117,93036,1,2,0:0:0:0:
80,51,93203,2,0,L|70:176,1,110.399996630859,8|0,0:0|0:0,0:0:0:0:
105,358,93536,2,0,L|95:233,2,110.399996630859,12|2|2,0:0|0:0|0:0,0:0:0:0:
71,161,94036,5,12,0:0:0:0:
320,66,94202,1,2,0:0:0:0:
291,316,94369,1,2,1:2:0:0:
304,277,94452,1,2,1:2:0:0:
337,252,94535,1,2,1:2:0:0:
377,249,94618,1,2,1:2:0:0:
413,270,94702,6,0,L|274:258,1,110.399996630859,4|0,1:0|0:0,0:0:0:0:
168,80,95035,1,8,0:0:0:0:
126,225,95202,1,2,1:2:0:0:
119,217,95285,1,2,1:2:0:0:
113,209,95368,2,0,L|48:217,2,55.1999983154297,2|0|0,1:2|0:0|1:0,0:0:0:0:
271,356,95702,2,0,P|207:310|248:219,1,165.599994946289,10|0,0:0|0:0,0:0:0:0:
300,142,96035,6,0,L|409:151,1,110.399996630859,2|0,1:2|0:0,0:0:0:0:
277,285,96368,2,0,L|167:294,1,110.399996630859,10|0,0:0|1:0,0:0:0:0:
88,354,96618,1,0,0:0:0:0:
90,341,96702,2,0,L|98:270,1,55.1999983154297,2|0,1:2|0:0,0:0:0:0:
65,109,96868,1,0,1:0:0:0:
338,173,97035,2,0,L|159:184,1,165.599994946289,10|0,0:0|0:0,0:0:0:0:
89,196,97368,6,0,L|206:208,1,110.399996630859,2|0,1:2|0:0,0:0:0:0:
384,260,97702,1,8,0:0:0:0:
255,355,97868,2,0,L|244:272,1,55.1999983154297,2|0,1:2|0:0,0:0:0:0:
338,173,98035,6,0,B|400:158|400:158|483:211,1,128.799996069336,2|0,1:0|0:0,0:0:0:0:
404,351,98285,1,2,1:0:0:0:
404,351,98368,2,0,B|368:350|368:350|318:327,1,64.399998034668,8|0,0:0|0:0,0:0:0:0:
189,245,98535,1,2,1:0:0:0:
97,346,98702,5,0,1:0:0:0:
303,237,98868,1,0,1:0:0:0:
100,120,99035,1,8,0:0:0:0:
189,245,99202,2,0,L|184:191,2,55.1999983154297,2|2|2,1:2|1:2|0:0,0:0:0:0:
198,354,99535,5,0,1:0:0:0:
58,249,99702,2,0,L|149:239,1,55.1999983154297,8|0,0:0|0:0,0:0:0:0:
266,162,99868,1,0,1:0:0:0:
198,354,100035,6,0,L|185:208,1,110.399996630859,2|0,1:2|0:0,0:0:0:0:
167,65,100368,1,8,0:0:0:0:
320,168,100535,2,0,L|229:158,1,55.1999983154297,2|0,1:2|0:0,0:0:0:0:
114,155,100702,6,0,L|268:139,1,128.799996069336,2|0,1:0|0:0,0:0:0:0:
399,228,100952,1,2,1:0:0:0:
399,228,101035,2,0,P|415:192|420:150,1,64.399998034668,8|0,0:0|0:0,0:0:0:0:
438,48,101202,1,2,1:0:0:0:
259,256,101368,6,0,P|231:251|207:238,1,55.1999983154297,0|0,1:0|0:0,0:0:0:0:
114,155,101535,1,0,1:0:0:0:
270,67,101702,2,0,L|255:218,1,110.399996630859,10|0,0:0|1:0,0:0:0:0:
260,177,101951,1,0,1:2:0:0:
260,177,102035,1,2,0:2:0:0:
82,60,102201,2,0,L|89:136,1,55.1999983154297,0|0,1:0|0:0,0:0:0:0:
47,264,102368,2,0,B|87:239|87:239|225:263,1,165.599994946289,10|0,0:0|0:0,0:0:0:0:
329,332,102701,6,0,L|341:215,1,110.399996630859,2|0,1:2|0:0,0:0:0:0:
102,333,103035,1,8,0:0:0:0:
28,169,103201,1,2,1:2:0:0:
203,259,103368,6,0,P|227:206|219:139,1,110.399996630859,2|0,1:2|0:0,0:0:0:0:
289,52,103618,2,0,P|321:87|339:129,1,55.1999983154297,2|8,1:2|0:0,0:0:0:0:
405,206,103785,1,0,0:0:0:0:
405,206,103868,2,0,P|414:186|419:150,1,55.1999983154297,2|0,1:2|0:0,0:0:0:0:
471,65,104035,5,0,1:2:0:0:
224,154,104201,1,0,1:0:0:0:
382,307,104368,2,0,P|338:259|252:269,1,110.399996630859,8|0,0:0|0:0,0:0:0:0:
117,349,104618,2,0,P|169:336|203:293,1,110.399996630859,8|0,0:0|0:0,0:0:0:0:
209,113,104868,1,0,1:0:0:0:
266,344,105035,1,2,1:2:0:0:
287,294,105118,1,0,1:0:0:0:
271,242,105201,1,0,1:0:0:0:
225,214,105284,1,0,1:0:0:0:
172,222,105368,6,0,L|327:237,1,128.799996069336,6|0,1:2|0:0,0:0:0:0:
484,165,105701,1,8,0:1:0:0:
308,21,105868,1,2,1:2:0:0:
329,32,105951,1,2,1:2:0:0:
341,51,106035,2,0,P|354:93|349:127,1,64.399998034668,2|0,1:2|0:0,0:0:0:0:
300,234,106201,1,0,1:0:0:0:
185,147,106368,6,0,P|219:154|274:155,1,64.399998034668,10|0,0:0|0:0,0:0:0:0:
363,223,106535,2,0,P|331:226|300:233,1,64.399998034668,2|0,1:2|0:0,0:0:0:0:
123,356,106701,6,0,L|115:192,1,128.799996069336,2|0,1:2|0:0,0:0:0:0:
110,144,106951,1,2,1:2:0:0:
109,122,107035,1,8,0:1:0:0:
256,299,107201,1,2,1:2:0:0:
305,313,107284,1,0,0:0:0:0:
353,296,107367,1,2,0:0:0:0:
401,280,107450,1,2,0:1:0:0:
450,296,107534,1,0,1:0:0:0:
308,169,107701,6,0,L|295:258,1,64.399998034668,10|0,0:1|0:0,0:0:0:0:
404,362,107868,1,0,1:0:0:0:
120,273,108035,6,0,P|158:229|245:241,1,128.799996069336,2|0,1:2|0:0,0:0:0:0:
203,365,108285,2,0,L|190:276,1,64.399998034668,0|8,1:0|0:0,0:0:0:0:
158,65,108535,1,2,1:2:0:0:
193,103,108618,1,2,1:2:0:0:
193,154,108701,1,2,1:2:0:0:
310,52,108868,5,0,0:0:0:0:
49,125,109035,2,0,L|131:137,1,64.399998034668,10|0,0:0|0:0,0:0:0:0:
274,285,109201,2,0,P|286:256|287:207,1,64.399998034668,2|0,1:2|0:0,0:0:0:0:
387,135,109368,6,0,L|226:148,1,128.799996069336,2|0,1:2|1:0,0:0:0:0:
186,234,109618,1,2,0:0:0:0:
186,234,109701,1,8,0:0:0:0:
125,35,109868,1,2,1:2:0:0:
122,44,109951,1,0,1:0:0:0:
119,53,110035,6,0,L|48:41,2,64.399998034668,2|2|2,0:0|1:0|1:0,0:0:0:0:
306,260,110368,2,0,L|377:248,1,64.399998034668,10|0,0:1|0:0,0:0:0:0:
467,231,110535,1,2,0:0:0:0:
228,330,110701,6,0,B|198:274|198:274|220:194,1,128.799996069336,2|0,1:2|0:0,0:0:0:0:
245,108,110951,1,0,0:0:0:0:
251,90,111035,1,8,0:0:0:0:
65,244,111201,1,2,1:2:0:0:
59,227,111285,1,2,1:2:0:0:
64,205,111368,2,0,P|99:190|141:194,1,64.399998034668,2|0,0:0|0:0,0:0:0:0:
306,260,111535,1,0,1:0:0:0:
359,37,111701,2,0,P|376:122|477:120,1,193.199994104004,10|0,0:0|0:0,0:0:0:0:
425,68,112035,6,0,L|286:54,1,128.799996069336,2|0,1:2|1:0,0:0:0:0:
188,88,112285,1,2,0:0:0:0:
188,88,112368,1,8,0:0:0:0:
307,290,112535,1,2,1:0:0:0:
267,263,112618,1,2,1:0:0:0:
221,259,112701,1,0,0:0:0:0:
178,282,112784,1,2,1:0:0:0:
154,324,112868,2,0,P|149:289|138:254,1,64.399998034668,2|0,1:0|0:0,0:0:0:0:
265,113,113035,2,0,P|256:143|251:175,1,64.399998034668,10|0,0:1|0:0,0:0:0:0:
239,353,113201,1,0,1:0:0:0:
53,200,113368,6,0,B|112:160|112:160|194:179,1,128.799996069336,2|0,1:2|0:0,0:0:0:0:
409,229,113701,1,8,0:0:0:0:
237,303,113868,1,2,1:2:0:0:
241,315,113951,1,2,1:2:0:0:
246,327,114035,2,0,L|253:251,1,64.399998034668,2|0,1:2|0:0,0:0:0:0:
265,113,114201,1,0,0:0:0:0:
458,155,114368,6,0,P|429:142|393:140,1,64.399998034668,10|0,0:0|0:0,0:0:0:0:
160,195,114535,2,0,P|191:192|221:179,1,64.399998034668,2|0,1:2|0:0,0:0:0:0:
297,28,114701,5,0,1:2:0:0:
340,309,114868,1,0,1:0:0:0:
459,239,115035,6,0,L|447:327,1,64.399998034668,10|0,0:1|0:0,0:0:0:0:
243,269,115201,1,2,1:0:0:0:
243,269,115285,2,0,L|255:357,1,64.399998034668,2|0,1:0|0:0,0:0:0:0:
348,143,115451,1,2,1:0:0:0:
348,143,115535,2,0,L|345:233,1,64.399998034668,2|0,1:0|0:0,0:0:0:0:
341,329,115701,1,10,0:1:0:0:
89,240,115868,1,0,0:0:0:0:
202,345,116035,6,0,P|235:310|241:256,1,92,0|0,0:0|0:0,0:0:0:0:
207,45,116368,6,0,P|203:85|221:122,1,82.7999974731446,0|0,0:0|0:0,0:0:0:0:
379,273,116701,6,0,P|356:244|324:227,1,73.6,0|0,0:0|0:0,0:0:0:0:
116,202,117035,6,0,P|148:209|179:203,1,64.399998034668,0|0,0:0|0:0,0:0:0:0:
311,138,117368,5,4,0:1:0:0:
256,192,117451,12,0,118701,0:0:0:0:
364,230,132035,6,0,P|323:243|270:238,1,92,0|0,0:0|0:0,0:0:0:0:
181,174,133035,1,0,0:0:0:0:
250,64,133368,2,0,P|254:87|254:116,1,46,0|0,0:0|0:0,0:0:0:0:
162,261,134035,6,0,L|68:255,1,92,0|0,0:0|0:0,0:0:0:0:
70,255,135368,1,0,0:0:0:0:
70,255,136035,6,0,L|119:258,1,46,0|0,0:0|0:0,0:0:0:0:
255,313,136701,2,0,L|233:269,1,46,0|0,0:0|0:0,0:0:0:0:
211,118,137368,2,0,L|183:158,1,46,0|0,0:0|0:0,0:0:0:0:
149,258,138035,6,0,P|194:251|245:251,1,92,0|0,0:0|0:0,0:0:0:0:
446,199,139368,1,0,0:0:0:0:
446,199,140035,6,0,P|400:198|354:191,1,92,0|0,0:0|0:0,0:0:0:0:
266,38,141035,1,0,0:0:0:0:
280,115,141368,1,0,0:0:0:0:
232,176,141701,1,0,0:0:0:0:
126,199,142035,6,0,L|26:184,1,92,0|0,0:0|0:0,0:0:0:0:
35,185,143368,1,0,0:0:0:0:
35,185,144035,6,0,L|81:192,1,46,0|0,0:0|0:0,0:0:0:0:
178,139,144701,1,0,0:0:0:0:
89,93,145035,1,0,0:0:0:0:
157,238,145368,2,0,L|203:231,1,46,0|0,0:0|0:0,0:0:0:0:
376,136,146035,6,0,P|353:128|327:125,1,46,0|0,0:0|0:0,0:0:0:0:
208,43,146701,2,0,P|212:66|222:90,1,46,0|0,0:0|0:0,0:0:0:0:
216,229,147368,2,0,L|219:215,14,11.5,0|0|0|0|0|0|0|0|0|0|0|0|0|0|0,0:0|0:0|0:0|0:0|0:0|0:0|0:0|0:0|0:0|0:0|0:0|0:0|0:0|0:0|0:0,0:0:0:0:
278,169,148034,6,0,P|197:193|105:177,1,165.599994946289,4|0,1:0|0:0,0:0:0:0:
32,254,149034,1,0,0:0:0:0:
117,182,149368,2,0,P|158:184|209:206,1,82.7999974731446,0|0,0:0|0:0,0:0:0:0:
302,336,150034,5,0,0:0:0:0:
211,347,150368,1,0,0:0:0:0:
393,325,150701,5,0,0:0:0:0:
302,336,151035,1,0,0:0:0:0:
484,314,151368,5,0,0:0:0:0:
302,336,151702,1,0,0:0:0:0:
120,358,152034,6,0,L|117:344,1,10.3499996841431,2|0,0:0|0:0,0:0:0:0:
120,358,152534,1,0,0:0:0:0:
232,212,153034,5,0,0:0:0:0:
128,153,153368,2,0,L|123:194,1,41.3999987365723,0|0,0:0|0:0,0:0:0:0:
246,334,153701,2,0,L|241:292,1,41.3999987365723,0|0,0:0|0:0,0:0:0:0:
232,212,154034,5,2,0:0:0:0:
232,212,154534,1,0,0:0:0:0:
362,269,155034,6,0,L|307:262,1,41.3999987365723,0|0,0:0|0:0,0:0:0:0:
196,321,155368,2,0,L|251:314,1,41.3999987365723,0|0,0:0|0:0,0:0:0:0:
341,355,155701,1,0,0:0:0:0:
406,190,156034,2,0,L|402:174,1,10.3499996841431,2|0,0:0|0:0,0:0:0:0:
406,190,157034,5,0,0:0:0:0:
275,354,157368,2,0,P|260:324|262:258,1,82.7999974731446,0|0,0:0|0:0,0:0:0:0:
225,166,158034,5,0,0:0:0:0:
316,177,158368,1,0,0:0:0:0:
134,155,158701,5,0,0:0:0:0:
225,166,159035,1,0,0:0:0:0:
43,144,159368,5,0,0:0:0:0:
225,166,159702,1,0,0:0:0:0:
407,188,160034,6,0,L|410:174,1,10.3499996841431,2|0,0:0|0:0,0:0:0:0:
275,293,160368,2,0,L|222:284,1,41.3999987365723,0|0,0:0|0:0,0:0:0:0:
234,286,160701,1,0,0:0:0:0:
361,343,161034,5,2,0:0:0:0:
229,193,161368,2,0,L|176:202,1,41.3999987365723,2|0,0:0|0:0,0:0:0:0:
188,200,161701,1,2,0:0:0:0:
287,357,162034,6,0,L|299:229,1,124.199996209717,2|2,0:0|0:0,0:0:0:0:
283,225,163368,2,0,L|279:211,14,10.3499996841431,0|0|0|0|0|0|0|0|0|0|0|0|0|0|0,0:0|0:0|0:0|0:0|0:0|0:0|0:0|0:0|0:0|0:0|0:0|0:0|0:0|0:0|0:0,0:0:0:0:
256,193,164034,6,0,L|352:187,1,69.0000026321412,2|0,0:0|0:0,0:0:0:0:
476,120,164367,1,0,0:0:0:0:
476,120,164534,1,0,0:0:0:0:
391,218,164700,6,0,L|255:192,1,138.000005264282,0|0,0:0|0:0,0:0:0:0:
164,71,165200,1,0,0:0:0:0:
130,309,165367,6,0,L|126:226,1,69.0000026321412,0|0,0:0|0:0,0:0:0:0:
73,102,165700,2,0,L|76:170,1,69.0000026321412,0|0,0:0|0:0,0:0:0:0:
113,319,166034,5,0,0:0:0:0:
61,90,166367,1,0,0:0:0:0:
99,329,166700,6,0,P|127:313|186:313,1,69.0000026321412,0|0,0:0|0:0,0:0:0:0:
395,257,167034,2,0,P|366:241|307:241,1,69.0000026321412,0|0,0:0|0:0,0:0:0:0:
224,173,167367,2,0,L|231:262,2,69.0000026321412,0|0|0,0:0|0:0|0:0,0:0:0:0:
212,65,167867,1,0,0:0:0:0:
326,132,168034,6,0,L|319:221,2,69.0000026321412,0|2|2,0:0|0:0|0:0,0:0:0:0:
338,24,168534,1,2,0:0:0:0:
454,113,168700,1,2,0:0:0:0:
224,173,169034,1,2,0:0:0:0:
464,112,169367,6,0,L|373:103,1,69.0000026321412,2|0,0:0|0:0,0:0:0:0:
289,35,169700,1,0,0:0:0:0:
289,35,169867,1,0,0:0:0:0:
197,219,170034,6,0,P|263:199|332:206,1,138.000005264282,0|0,0:0|0:0,0:0:0:0:
452,291,170534,1,0,0:0:0:0:
331,356,170700,6,0,P|331:322|343:273,1,69.0000026321412,0|0,0:0|0:0,0:0:0:0:
426,127,171034,2,0,P|432:160|432:195,1,69.0000026321412,0|0,0:0|0:0,0:0:0:0:
345,365,171367,5,0,0:0:0:0:
438,119,171700,1,0,0:0:0:0:
452,291,172034,2,0,L|362:278,1,69.0000026321412,0|0,0:0|0:0,0:0:0:0:
215,236,172367,5,2,1:2:0:0:
245,347,172534,1,0,1:0:0:0:
287,153,172700,5,2,1:2:0:0:
229,337,172867,1,0,1:0:0:0:
402,134,173034,5,2,1:2:0:0:
222,320,173200,1,2,1:2:0:0:
455,223,173367,5,0,1:2:0:0:
464,223,173450,1,0,1:0:0:0:
472,224,173534,1,0,1:0:0:0:
480,228,173617,1,0,1:0:0:0:
487,234,173700,5,2,1:2:0:0:
441,208,173784,1,0,1:0:0:0:
389,214,173867,1,0,1:0:0:0:
351,248,173950,1,0,1:0:0:0:
343,299,174034,1,2,1:2:0:0:
291,73,174200,1,0,1:0:0:0:
165,171,174367,2,0,B|23:206|23:206|72:144,1,207.000007896424,8|0,0:0|0:0,0:0:0:0:
182,59,174700,6,0,L|333:79,1,110.399996630859,6|0,1:2|0:0,0:0:0:0:
385,227,175034,1,8,0:0:0:0:
458,105,175200,2,0,L|400:111,1,55.1999983154297,0|0,0:0|0:0,0:0:0:0:
248,212,175367,1,2,0:0:0:0:
248,212,175450,1,0,0:0:0:0:
248,212,175534,2,0,L|314:218,1,55.1999983154297,0|0,1:0|0:0,0:0:0:0:
451,287,175700,2,0,B|476:241|476:241|461:166,1,110.399996630859,8|0,0:0|0:0,0:0:0:0:
464,184,175950,1,0,0:0:0:0:
464,184,176034,5,2,1:2:0:0:
287,341,176200,1,0,0:0:0:0:
197,171,176367,1,10,0:2:0:0:
369,344,176534,1,0,1:0:0:0:
355,291,176617,1,0,0:0:0:0:
312,259,176701,1,2,0:2:0:0:
257,260,176784,1,0,0:0:0:0:
215,294,176867,1,0,1:0:0:0:
100,212,177034,2,0,B|84:160|84:160|113:111,1,110.399996630859,10|0,0:0|0:0,0:0:0:0:
163,38,177284,1,0,0:0:0:0:
163,38,177367,6,0,B|104:4|34:24|34:24|67:54,1,165.599994946289,2|0,1:2|0:0,0:0:0:0:
216,152,177700,2,0,B|275:186|345:166|345:166|312:136,1,165.599994946289,10|0,0:0|0:0,0:0:0:0:
321,144,178034,5,2,0:0:0:0:
341,352,178200,1,2,1:2:0:0:
433,189,178367,1,10,0:0:0:0:
443,313,178533,1,2,0:0:0:0:
443,313,178617,1,0,0:0:0:0:
443,313,178700,6,0,L|381:303,1,55.1999983154297,0|0,1:0|0:0,0:0:0:0:
198,225,178867,2,0,L|260:215,1,55.1999983154297,2|0,1:2|0:0,0:0:0:0:
429,99,179033,6,0,L|367:109,1,55.1999983154297,10|0,0:0|0:0,0:0:0:0:
177,227,179200,1,2,1:2:0:0:
363,264,179367,6,0,P|369:238|368:195,2,55.1999983154297,2|0|0,0:0|0:0|1:0,0:0:0:0:
255,336,179700,2,0,B|207:310|207:310|123:334,1,110.399996630859,10|0,0:0|0:0,0:0:0:0:
42,356,179950,1,0,0:0:0:0:
42,356,180033,6,0,P|68:306|58:241,1,110.399996630859,6|0,1:2|0:0,0:0:0:0:
219,83,180367,1,8,0:0:0:0:
25,170,180533,2,0,L|101:180,1,55.1999983154297,0|0,0:0|0:0,0:0:0:0:
231,241,180700,1,2,0:0:0:0:
231,241,180783,1,0,0:0:0:0:
231,241,180867,2,0,B|240:213|240:213|236:176,1,55.1999983154297,0|0,1:0|0:0,0:0:0:0:
152,23,181033,2,0,B|121:67|121:67|143:146,1,110.399996630859,8|0,0:0|0:0,0:0:0:0:
155,202,181283,1,0,0:0:0:0:
155,202,181367,5,2,1:2:0:0:
393,170,181533,1,0,0:0:0:0:
254,53,181700,1,10,0:0:0:0:
323,218,181867,1,0,1:0:0:0:
365,252,181950,1,0,0:0:0:0:
420,253,182033,1,2,0:0:0:0:
463,221,182117,1,0,0:0:0:0:
477,168,182200,1,0,1:0:0:0:
307,334,182367,2,0,P|253:330|190:305,1,110.399996630859,10|0,0:0|0:0,0:0:0:0:
92,220,182617,1,0,0:0:0:0:
92,220,182700,6,0,B|100:349|100:349|140:320,1,165.599994946289,2|0,1:2|0:0,0:0:0:0:
242,242,183033,2,0,B|234:113|234:113|194:142,1,165.599994946289,10|0,0:0|0:0,0:0:0:0:
204,134,183367,5,2,0:0:0:0:
334,151,183533,1,2,1:2:0:0:
465,168,183700,1,10,0:0:0:0:
324,35,183867,1,2,0:0:0:0:
324,35,183950,1,0,0:0:0:0:
324,35,184033,5,0,1:0:0:0:
256,259,184200,1,2,1:2:0:0:
184,164,184367,2,0,L|281:158,1,55.1999983154297,10|0,0:1|0:0,0:0:0:0:
390,269,184533,1,2,1:0:0:0:
390,269,184617,2,0,L|293:263,1,55.1999983154297,10|0,0:0|0:0,0:0:0:0:
222,332,184783,1,10,0:1:0:0:
222,332,184867,1,10,0:1:0:0:
369,181,185033,6,0,L|272:187,1,55.1999983154297,10|0,0:1|0:0,0:0:0:0:
168,81,185199,1,0,1:0:0:0:
80,240,185367,6,0,B|111:281|165:270|165:270|210:233|274:261,1,193.199994104004,6|0,1:2|0:0,0:0:0:0:
357,330,185700,2,0,P|367:305|371:266,1,55.1999983154297,8|0,0:0|0:0,0:0:0:0:
364,142,185867,1,2,1:2:0:0:
364,142,185950,1,2,0:0:0:0:
364,142,186033,1,2,0:0:0:0:
256,254,186200,5,0,1:0:0:0:
452,190,186367,2,0,P|452:162|443:136,1,55.1999983154297,8|0,0:0|0:0,0:0:0:0:
372,44,186533,1,2,0:0:0:0:
380,316,186700,6,0,B|394:270|371:213|325:204|325:204|350:234|338:289,1,193.199994104004,2|0,1:2|0:0,0:0:0:0:
231,342,187033,2,0,B|202:342|202:342|151:327,1,55.1999983154297,8|0,0:0|0:0,0:0:0:0:
88,233,187200,2,0,B|113:225|113:225|142:225,2,55.1999983154297,2|2|2,1:2|0:0|0:0,0:0:0:0:
48,354,187533,5,0,1:0:0:0:
223,208,187700,2,0,L|211:290,1,55.1999983154297,8|0,0:0|0:0,0:0:0:0:
113,137,187867,1,2,1:2:0:0:
370,126,188033,6,0,B|405:87|405:87|252:69,1,193.199994104004,2|0,1:2|0:0,0:0:0:0:
181,48,188367,2,0,L|193:130,1,55.1999983154297,8|0,0:0|0:0,0:0:0:0:
215,262,188533,1,2,1:2:0:0:
215,262,188617,1,2,0:0:0:0:
215,262,188700,1,2,0:0:0:0:
370,126,188867,1,0,1:0:0:0:
255,187,189033,2,0,B|204:176|204:176|153:193|153:193|93:181,1,165.599994946289,10|0,0:0|0:0,0:0:0:0:
37,98,189367,6,0,P|76:84|107:88,1,55.1999983154297,2|0,1:2|0:0,0:0:0:0:
267,275,189533,2,0,P|239:273|215:262,1,55.1999983154297,0|0,1:0|0:0,0:0:0:0:
94,181,189700,1,10,0:0:0:0:
348,46,189867,1,2,1:2:0:0:
358,39,189950,2,0,L|371:181,1,110.399996630859,8|0,0:0|1:0,0:0:0:0:
332,197,190200,2,0,L|395:203,1,55.1999983154297,2|0,1:2|0:0,0:0:0:0:
497,215,190367,1,10,0:0:0:0:
250,96,190533,1,0,0:0:0:0:
151,343,190700,6,0,P|238:363|282:280,1,193.199994104004,6|0,1:2|0:0,0:0:0:0:
195,198,191033,2,0,L|125:205,1,55.1999983154297,8|0,0:0|0:0,0:0:0:0:
15,211,191200,1,2,1:2:0:0:
15,211,191283,1,2,0:0:0:0:
15,211,191367,1,2,0:0:0:0:
206,291,191533,1,0,1:0:0:0:
308,99,191700,6,0,L|315:169,1,55.1999983154297,10|0,0:0|0:0,0:0:0:0:
416,357,191867,2,0,L|421:302,1,55.1999983154297,2|0,0:0|0:0,0:0:0:0:
458,217,192033,6,0,B|367:185|359:274|255:226,1,193.199994104004,2|0,1:2|0:0,0:0:0:0:
185,151,192367,2,0,L|181:216,1,55.1999983154297,8|0,0:0|0:0,0:0:0:0:
174,348,192533,1,2,1:2:0:0:
174,348,192617,1,2,0:0:0:0:
174,348,192700,1,2,0:0:0:0:
61,158,192867,1,0,1:0:0:0:
271,232,193033,6,0,L|265:286,1,55.1999983154297,10|0,0:0|0:0,0:0:0:0:
74,346,193200,2,0,L|82:264,1,55.1999983154297,2|0,0:0|0:0,0:0:0:0:
136,127,193367,6,0,B|272:151|272:151|241:154|205:182,1,193.199994104004,2|0,1:2|0:0,0:0:0:0:
265,286,193700,2,0,L|273:204,1,55.1999983154297,8|0,0:0|0:0,0:0:0:0:
336,67,193867,1,2,1:2:0:0:
336,67,193950,1,2,0:0:0:0:
336,67,194033,1,2,0:0:0:0:
221,170,194200,5,0,1:0:0:0:
476,217,194367,2,0,B|356:197|356:197|382:245,1,165.599994946289,10|0,0:0|0:0,0:0:0:0:
398,285,194700,5,0,1:0:0:0:
463,98,194867,1,0,1:0:0:0:
275,180,195033,2,0,L|188:163,1,55.1999983154297,10|0,0:1|0:0,0:0:0:0:
122,118,195200,1,0,1:0:0:0:
122,118,195283,2,0,B|137:104|137:104|148:220,1,110.399996630859,10|0,0:1|1:0,0:0:0:0:
98,300,195533,6,0,P|128:314|162:318,1,55.1999983154297,0|0,1:0|0:0,0:0:0:0:
332,303,195700,1,10,0:1:0:0:
80,289,195867,1,0,0:0:0:0:
236,345,196033,5,4,0:0:0:0:
437,261,196367,1,0,0:0:0:0:
434,267,196450,1,0,0:0:0:0:
432,273,196533,1,0,0:0:0:0:
431,279,196617,1,0,0:0:0:0:
428,285,196700,6,0,L|420:195,1,69,0|0,0:0|0:0,0:0:0:0:
413,147,197033,1,0,0:0:0:0:
266,211,197200,1,0,0:0:0:0:
316,142,197367,6,0,P|296:130|273:125,1,46,0|0,0:0|0:0,0:0:0:0:
182,201,197617,2,0,P|182:223|188:245,1,46,0|0,0:0|0:0,0:0:0:0:
270,297,197867,1,0,0:0:0:0:
334,220,198033,6,0,L|255:209,1,69,0|0,0:0|0:0,0:0:0:0:
171,135,198367,6,0,L|292:123,1,103.500003948212,2|0,0:0|0:0,0:0:0:0:
339,54,198700,6,0,L|260:43,1,69,2|0,0:0|0:0,0:0:0:0:
171,135,199033,1,0,0:0:0:0:
162,131,199116,1,0,0:0:0:0:
156,124,199199,1,0,0:0:0:0:
151,115,199283,1,0,0:0:0:0:
154,107,199367,6,0,B|176:162|176:162|159:231,1,103.500003948212,2|0,0:0|0:0,0:0:0:0:
81,290,199700,2,0,B|113:279|113:279|154:286,1,69,0|0,0:0|0:0,0:0:0:0:
271,327,200033,6,0,P|258:301|258:275,1,46,2|0,0:0|0:0,0:0:0:0:
318,208,200283,2,0,P|347:209|377:226,1,55.1999983154297,2|0,0:0|0:0,0:0:0:0:
395,313,200533,6,0,P|378:337|339:358,1,46,2|0,0:0|0:0,0:0:0:0:
251,318,200700,6,0,P|240:290|244:253,1,64.399998034668,2|0,0:0|0:0,0:0:0:0:
331,193,200950,2,0,P|359:197|395:226,1,73.6,2|0,0:0|0:0,0:0:0:0:
390,338,201200,6,0,P|368:357|327:365,1,46,2|0,0:0|0:0,0:0:0:0:
227,300,201367,6,0,P|227:263|251:210,1,82.7999974731446,2|0,0:0|0:0,0:0:0:0:
275,138,201700,1,0,0:0:0:0:
267,133,201783,1,0,0:0:0:0:
259,130,201866,1,0,0:0:0:0:
251,129,201950,1,0,0:0:0:0:
241,132,202033,6,0,P|266:125|313:121,1,55.1999983154297,0|0,0:0|0:0,0:0:0:0:
457,158,202283,2,0,P|429:154|403:147,1,55.1999983154297,2|0,0:0|0:0,0:0:0:0:
370,32,202533,1,2,0:0:0:0:
403,147,202700,6,0,L|412:254,1,82.7999974731446,0|0,0:0|0:0,0:0:0:0:
413,266,203033,1,0,0:0:0:0:
307,273,203200,1,0,0:0:0:0:
307,273,203283,1,0,0:0:0:0:
307,273,203367,6,0,P|270:263|243:269,1,55.1999983154297,0|0,0:0|0:0,0:0:0:0:
147,352,203617,2,0,P|174:324|182:298,1,55.1999983154297,2|0,0:0|0:0,0:0:0:0:
169,216,203867,1,2,0:0:0:0:
76,136,204033,6,0,L|171:128,1,82.7999974731446,0|0,0:0|0:0,0:0:0:0:
194,126,204367,1,0,0:0:0:0:
302,197,204533,1,0,0:0:0:0:
302,197,204617,1,0,0:0:0:0:
302,197,204700,6,0,L|309:128,1,55.1999983154297,0|0,0:0|0:0,0:0:0:0:
264,21,204950,2,0,L|271:90,1,55.1999983154297,2|0,0:0|0:0,0:0:0:0:
285,236,205200,1,2,0:0:0:0:
463,179,205367,6,0,L|356:168,2,82.7999974731446,0|2|2,0:0|0:0|0:0,0:0:0:0:
380,170,206033,5,2,0:0:0:0:
298,161,206367,5,2,0:0:0:0:
216,152,206700,5,0,1:0:0:0:
295,352,206867,1,0,1:0:0:0:
391,129,207033,5,0,1:0:0:0:
308,363,207200,1,0,1:0:0:0:
177,170,207367,1,0,1:0:0:0:
177,163,207450,1,0,1:0:0:0:
176,156,207533,1,0,1:0:0:0:
176,149,207617,1,0,1:0:0:0:
175,142,207700,6,0,L|182:216,1,55.1999983154297,2|2,1:0|1:0,0:0:0:0:
324,229,207867,2,0,L|317:303,1,55.1999983154297,2|2,1:0|1:0,0:0:0:0:
250,359,208033,6,0,B|235:333|235:333|246:213,1,128.799996069336,6|0,1:2|0:0,0:0:0:0:
303,33,208367,1,8,0:1:0:0:
467,181,208533,2,0,L|397:171,2,64.399998034668,2|2|2,1:2|1:2|1:2,0:0:0:0:
368,270,208867,1,0,1:0:0:0:
234,120,209033,6,0,P|243:153|252:198,1,64.399998034668,10|0,0:0|0:0,0:0:0:0:
352,332,209200,2,0,P|358:300|367:269,1,64.399998034668,2|0,1:2|0:0,0:0:0:0:
457,196,209367,6,0,L|318:178,1,128.799996069336,2|0,1:2|0:0,0:0:0:0:
268,267,209617,2,0,B|235:269|235:269|204:254,1,64.399998034668,2|8,1:2|0:1,0:0:0:0:
164,68,209867,1,2,1:2:0:0:
200,37,209950,1,0,0:0:0:0:
245,30,210033,1,2,0:0:0:0:
290,51,210116,1,0,0:1:0:0:
317,90,210200,1,0,1:0:0:0:
133,274,210367,6,0,P|122:243|124:212,1,64.399998034668,8|0,0:1|0:0,0:0:0:0:
234,120,210533,1,0,1:0:0:0:
371,311,210700,6,0,P|329:264|267:266,1,128.799996069336,2|0,1:2|0:0,0:0:0:0:
189,336,210950,1,0,1:0:0:0:
180,358,211033,1,8,0:0:0:0:
58,184,211200,1,2,1:2:0:0:
55,173,211283,1,2,1:2:0:0:
52,161,211367,2,0,P|90:177|116:179,1,64.399998034668,2|0,1:2|0:0,0:0:0:0:
261,150,211533,1,0,0:0:0:0:
154,25,211700,6,0,B|140:57|140:57|143:100,1,64.399998034668,10|0,0:0|0:0,0:0:0:0:
331,198,211867,2,0,B|345:165|345:165|342:136,1,64.399998034668,2|0,1:2|0:0,0:0:0:0:
352,44,212033,5,2,1:2:0:0:
404,324,212200,1,0,1:0:0:0:
404,324,212283,2,0,L|467:335,2,64.399998034668,2|8|0,0:0|0:0|0:0,0:0:0:0:
256,243,212533,1,2,1:2:0:0:
455,206,212700,1,2,0:0:0:0:
455,206,212783,1,0,1:0:0:0:
455,206,212867,1,0,1:0:0:0:
328,114,213033,6,0,P|313:155|309:189,1,64.399998034668,10|0,0:0|0:0,0:0:0:0:
279,318,213200,1,2,0:0:0:0:
78,132,213367,6,0,B|137:101|137:101|218:124,1,128.799996069336,2|0,1:2|0:0,0:0:0:0:
226,126,213617,2,0,L|217:204,1,64.399998034668,0|8,0:0|0:0,0:0:0:0:
198,354,213867,1,2,1:2:0:0:
195,341,213950,1,2,1:2:0:0:
192,328,214033,1,2,0:0:0:0:
78,132,214200,6,0,L|87:210,1,64.399998034668,0|0,1:0|0:0,0:0:0:0:
198,354,214367,2,0,P|257:373|332:278,1,193.199994104004,10|0,0:0|0:0,0:0:0:0:
271,170,214700,6,0,B|255:150|255:150|395:165,1,128.799996069336,2|0,1:2|1:0,0:0:0:0:
453,171,214950,1,2,0:0:0:0:
453,171,215033,1,8,0:0:0:0:
251,292,215200,1,2,1:2:0:0:
269,335,215283,1,0,1:0:0:0:
309,361,215366,1,2,0:0:0:0:
357,361,215450,1,0,1:0:0:0:
396,334,215533,1,0,1:0:0:0:
443,107,215700,6,0,L|457:206,1,64.399998034668,8|0,0:1|0:0,0:0:0:0:
332,284,215867,1,0,1:0:0:0:
201,136,216033,6,0,L|187:272,1,128.799996069336,2|0,1:2|0:0,0:0:0:0:
223,300,216283,2,0,L|160:313,1,64.399998034668,0|8,0:0|0:0,0:0:0:0:
418,266,216533,1,2,1:2:0:0:
421,311,216616,1,2,1:2:0:0:
393,346,216700,1,2,1:2:0:0:
321,95,216867,1,0,0:0:0:0:
389,194,217033,6,0,P|363:203|315:205,1,64.399998034668,10|0,0:0|0:0,0:0:0:0:
142,103,217200,2,0,P|174:105|204:115,1,64.399998034668,2|0,1:2|0:0,0:0:0:0:
341,290,217367,5,0,1:2:0:0:
416,96,217533,1,0,1:0:0:0:
322,333,217700,6,0,L|237:325,1,64.399998034668,10|0,0:0|0:0,0:0:0:0:
138,200,217867,1,0,1:0:0:0:
138,200,217950,2,0,L|223:192,1,64.399998034668,2|0,1:2|0:0,0:0:0:0:
306,119,218117,1,2,1:2:0:0:
306,119,218200,1,0,1:0:0:0:
177,332,218367,1,10,0:0:0:0:
174,342,218450,1,2,0:0:0:0:
172,352,218533,2,0,B|162:323|162:323|167:277,1,64.399998034668,2|2,0:0|0:0,0:0:0:0:
202,193,218700,6,0,L|40:180,1,138.000005264282,6|0,1:2|0:0,0:0:0:0:
361,306,219033,1,8,0:1:0:0:
260,332,219200,1,2,1:2:0:0:
255,277,219283,1,2,1:2:0:0:
287,231,219367,1,2,1:2:0:0:
183,113,219533,1,0,1:0:0:0:
381,69,219700,6,0,P|346:72|314:83,1,69.0000026321412,10|0,0:0|0:0,0:0:0:0:
132,197,219867,2,0,P|164:208|198:211,1,69.0000026321412,2|0,1:2|0:0,0:0:0:0:
365,285,220033,6,0,B|387:247|387:247|365:142,1,138.000005264282,2|0,1:2|0:0,0:0:0:0:
367,154,220283,1,2,1:2:0:0:
367,154,220367,1,8,0:1:0:0:
127,128,220533,2,0,L|133:222,1,69.0000026321412,2|0,1:2|0:0,0:0:0:0:
236,337,220700,1,2,0:0:0:0:
236,337,220783,1,2,0:1:0:0:
236,337,220867,2,0,L|242:243,1,69.0000026321412,0|0,1:0|0:0,0:0:0:0:
281,189,221033,6,0,B|247:176|247:176|202:187,1,69.0000026321412,10|0,0:1|0:0,0:0:0:0:
51,209,221200,1,0,1:0:0:0:
109,333,221367,6,0,L|136:164,1,138.000005264282,2|0,1:2|0:0,0:0:0:0:
205,110,221617,2,0,P|167:88|135:85,1,69.0000026321412,0|8,1:0|0:0,0:0:0:0:
322,281,221867,1,2,1:2:0:0:
334,280,221950,1,2,1:2:0:0:
346,278,222033,1,2,1:2:0:0:
243,354,222200,1,0,0:0:0:0:
430,309,222367,6,0,L|423:228,1,69.0000026321412,10|0,0:0|0:0,0:0:0:0:
260,215,222533,2,0,L|267:134,1,69.0000026321412,2|0,1:2|0:0,0:0:0:0:
342,68,222700,6,0,B|281:32|281:32|211:52,1,138.000005264282,2|0,1:2|1:0,0:0:0:0:
122,88,222950,1,2,0:0:0:0:
122,88,223033,1,8,0:0:0:0:
179,245,223200,6,0,P|175:216|189:166,1,69.0000026321412,2|0,1:2|1:0,0:0:0:0:
216,50,223367,1,2,0:0:0:0:
50,192,223533,1,2,1:0:0:0:
225,40,223700,6,0,P|221:69|235:119,1,69.0000026321412,10|0,0:1|0:0,0:0:0:0:
269,219,223867,1,2,0:0:0:0:
480,156,224033,6,0,B|339:132|339:132|371:163|379:203,1,207.000007896424,2|0,1:2|0:0,0:0:0:0:
373,184,224367,1,8,0:0:0:0:
210,282,224533,1,2,1:2:0:0:
178,245,224616,1,2,1:2:0:0:
184,196,224700,1,2,0:0:0:0:
81,344,224867,1,0,1:0:0:0:
68,152,225033,2,0,B|104:192|104:192|79:351,1,207.000007896424,10|0,0:0|0:0,0:0:0:0:
15,285,225367,6,0,B|75:253|75:253|164:282,1,138.000005264282,2|0,1:2|1:0,0:0:0:0:
227,306,225617,1,2,0:0:0:0:
242,311,225700,1,8,0:0:0:0:
387,186,225867,1,2,1:0:0:0:
378,184,225950,1,2,1:0:0:0:
369,183,226033,1,0,0:0:0:0:
361,181,226117,1,2,1:0:0:0:
353,180,226200,6,0,L|362:264,1,69.0000026321412,2|0,1:0|0:0,0:0:0:0:
371,358,226367,1,10,0:1:0:0:
484,240,226533,1,0,1:0:0:0:
234,152,226700,5,2,1:2:0:0:
379,266,226867,1,0,1:0:0:0:
421,54,227033,1,8,0:0:0:0:
182,212,227200,1,2,1:2:0:0:
148,172,227283,1,2,1:2:0:0:
154,120,227367,1,2,1:2:0:0:
106,333,227533,1,0,0:0:0:0:
302,161,227700,6,0,P|267:154|213:152,1,69.0000026321412,10|0,0:0|0:0,0:0:0:0:
27,116,227867,2,0,P|61:113|95:106,1,69.0000026321412,2|0,1:2|0:0,0:0:0:0:
248,36,228033,5,0,1:2:0:0:
304,307,228200,1,0,1:0:0:0:
186,212,228367,6,0,P|221:205|275:203,1,69.0000026321412,10|0,0:1|0:0,0:0:0:0:
461,167,228533,1,2,1:0:0:0:
461,167,228617,2,0,P|427:164|393:157,1,69.0000026321412,2|0,1:0|0:0,0:0:0:0:
287,73,228783,1,2,1:0:0:0:
287,73,228867,1,2,1:0:0:0:
219,347,229034,1,2,1:1:0:0:
219,347,229117,1,0,1:0:0:0:
219,347,229200,2,0,B|207:316|207:316|216:268,1,69.0000026321412,0|0,1:0|1:0,0:0:0:0:
144,189,229367,6,0,L|284:206,1,110.399996630859,6|0,1:0|0:0,0:0:0:0:
334,212,229617,1,0,0:0:0:0:
351,214,229700,1,8,0:0:0:0:
455,310,229867,2,0,L|315:327,1,110.399996630859,2|0,0:2|0:0,0:0:0:0:
307,347,230117,2,0,L|317:271,1,55.1999983154297,0|0,0:0|1:0,0:0:0:0:
280,123,230367,5,10,0:0:0:0:
431,216,230533,2,0,L|485:210,2,55.1999983154297,0|0|0,0:0|0:0|1:0,0:0:0:0:
162,247,230867,1,2,0:2:0:0:
86,147,231033,1,8,0:0:0:0:
84,138,231116,1,0,0:0:0:0:
82,129,231200,1,0,1:0:0:0:
14,307,231367,6,0,P|48:306|75:298,1,55.1999983154297,2|0,0:0|0:0,0:0:0:0:
154,256,231533,1,0,1:0:0:0:
293,176,231700,6,0,P|327:177|354:185,1,55.1999983154297,10|0,0:2|0:0,0:0:0:0:
456,237,231866,1,0,0:0:0:0:
321,370,232033,6,0,L|314:247,1,110.399996630859,2|0,1:2|0:0,0:0:0:0:
314,259,232283,1,0,0:0:0:0:
314,259,232367,1,8,0:0:0:0:
338,92,232533,2,0,B|284:76|284:76|206:117,1,110.399996630859,2|0,0:0|0:0,0:0:0:0:
166,131,232783,2,0,L|159:48,1,55.1999983154297,0|0,0:0|1:0,0:0:0:0:
293,176,233033,5,10,0:0:0:0:
179,302,233200,1,0,0:0:0:0:
188,300,233283,1,0,0:0:0:0:
197,298,233367,1,0,1:0:0:0:
71,244,233533,1,2,0:0:0:0:
281,366,233700,2,0,L|292:299,2,55.1999983154297,8|0|0,0:0|0:0|1:0,0:0:0:0:
388,257,234033,6,0,P|361:242|327:236,1,55.1999983154297,2|0,0:0|0:0,0:0:0:0:
218,262,234200,1,0,1:0:0:0:
198,169,234367,6,0,P|169:180|142:202,1,55.1999983154297,10|0,0:0|0:0,0:0:0:0:
82,297,234534,1,0,0:0:0:0:
209,372,234700,6,0,L|219:244,1,110.399996630859,6|0,1:0|0:0,0:0:0:0:
290,194,234950,2,0,L|283:127,1,55.1999983154297,0|8,0:0|0:0,0:0:0:0:
110,80,235200,1,2,0:0:0:0:
245,19,235367,1,0,0:0:0:0:
247,28,235450,1,0,0:0:0:0:
249,37,235534,1,0,1:0:0:0:
154,172,235700,6,0,B|100:183|100:183|36:154,1,110.399996630859,10|0,0:0|0:0,0:0:0:0:
19,149,235950,2,0,L|6:214,1,55.1999983154297,0|0,0:0|1:0,0:0:0:0:
110,80,236200,1,2,0:2:0:0:
228,247,236367,1,8,0:0:0:0:
230,238,236450,1,0,0:0:0:0:
232,229,236534,1,0,1:0:0:0:
319,127,236700,6,0,B|348:125|348:125|387:139,1,55.1999983154297,2|0,0:0|0:0,0:0:0:0:
459,274,236867,1,0,1:0:0:0:
479,194,237033,6,0,B|450:192|450:192|411:206,1,55.1999983154297,10|0,0:0|0:0,0:0:0:0:
339,341,237200,1,0,0:0:0:0:
232,229,237367,6,0,L|110:236,1,110.399996630859,2|0,1:2|0:0,0:0:0:0:
40,240,237617,1,0,0:0:0:0:
23,241,237700,1,8,0:0:0:0:
150,331,237867,1,2,0:0:0:0:
202,139,238033,2,0,P|200:107|187:75,2,55.1999983154297,0|0|0,0:0|0:0|1:0,0:0:0:0:
284,256,238367,6,0,L|406:263,1,110.399996630859,10|0,0:0|0:0,0:0:0:0:
476,267,238617,1,0,0:0:0:0:
493,268,238700,1,2,1:2:0:0:
366,358,238867,1,2,1:2:0:0:
211,193,239033,6,0,B|184:242|184:242|202:308,1,110.399996630859,10|0,0:0|0:0,0:0:0:0:
209,345,239283,1,2,1:2:0:0:
190,342,239366,1,0,1:0:0:0:
172,340,239449,1,2,1:2:0:0:
154,338,239533,1,2,1:2:0:0:
284,256,239700,1,10,0:1:0:0:
104,189,239867,1,0,0:0:0:0:
354,318,240033,6,0,B|381:269|381:269|363:203,1,110.399996630859,6|0,1:0|0:0,0:0:0:0:
343,135,240283,1,0,0:0:0:0:
337,116,240367,1,8,0:0:0:0:
208,211,240533,2,0,P|148:211|95:181,1,110.399996630859,2|0,0:2|0:0,0:0:0:0:
33,197,240783,2,0,P|26:182|27:128,1,55.1999983154297,0|0,0:0|1:0,0:0:0:0:
105,328,241033,5,10,0:0:0:0:
172,127,241200,1,0,0:0:0:0:
174,118,241283,1,0,0:0:0:0:
176,109,241367,1,0,1:0:0:0:
283,243,241533,2,0,B|311:229|311:229|398:240,1,110.399996630859,2|8,0:2|0:0,0:0:0:0:
467,252,241783,1,0,0:0:0:0:
485,255,241867,1,0,1:0:0:0:
335,312,242033,6,0,L|340:372,2,55.1999983154297,2|0|0,0:0|0:0|1:0,0:0:0:0:
317,104,242367,1,10,0:2:0:0:
317,104,242450,1,0,0:0:0:0:
317,104,242533,1,0,0:0:0:0:
389,238,242700,6,0,L|250:222,1,110.399996630859,2|0,1:2|0:0,0:0:0:0:
207,250,242950,2,0,L|201:196,1,55.1999983154297,0|8,0:0|0:0,0:0:0:0:
158,333,243200,1,2,0:0:0:0:
344,356,243367,1,0,0:0:0:0:
353,358,243450,1,0,0:0:0:0:
362,360,243534,1,0,1:0:0:0:
268,321,243700,6,0,L|129:337,1,110.399996630859,10|0,0:0|0:0,0:0:0:0:
80,363,243950,2,0,L|86:308,1,55.1999983154297,0|0,0:0|1:0,0:0:0:0:
37,168,244200,2,0,B|84:143|84:143|138:161,1,110.399996630859,2|8,0:0|0:0,0:0:0:0:
91,227,244450,1,0,0:0:0:0:
91,227,244533,1,0,1:0:0:0:
247,142,244700,6,0,L|316:153,2,55.1999983154297,2|0|0,0:0|0:0|1:0,0:0:0:0:
62,72,245033,1,10,0:0:0:0:
62,72,245117,1,0,0:0:0:0:
62,72,245200,1,0,0:0:0:0:
138,161,245367,6,0,L|152:24,1,110.399996630859,6|0,1:0|0:0,0:0:0:0:
149,51,245617,1,0,0:0:0:0:
149,51,245700,1,8,0:0:0:0:
332,157,245867,1,2,0:0:0:0:
233,250,246033,2,0,P|197:245|166:229,2,55.1999983154297,0|0|0,0:0|0:0|1:0,0:0:0:0:
434,338,246367,6,0,B|421:311|421:311|435:195,1,110.399996630859,10|0,0:0|0:0,0:0:0:0:
466,143,246617,2,0,L|390:150,1,55.1999983154297,0|0,0:0|1:0,0:0:0:0:
227,163,246867,1,2,0:2:0:0:
312,325,247033,1,8,0:0:0:0:
314,316,247116,1,0,0:0:0:0:
316,307,247200,1,0,1:0:0:0:
139,176,247367,6,0,P|116:154|106:125,2,55.1999983154297,2|0|0,0:0|0:0|1:0,0:0:0:0:
264,241,247700,6,0,P|233:250|203:246,2,55.1999983154297,10|0|0,0:0|0:0|0:0,0:0:0:0:
380,182,248033,6,0,P|327:180|270:130,1,110.399996630859,2|0,1:2|0:0,0:0:0:0:
243,67,248283,1,0,0:0:0:0:
243,67,248367,1,8,0:0:0:0:
169,328,248533,1,2,0:0:0:0:
58,238,248700,5,0,0:0:0:0:
58,238,248783,1,0,0:0:0:0:
58,238,248866,1,0,1:0:0:0:
281,147,249033,1,10,0:0:0:0:
98,43,249200,1,0,0:0:0:0:
98,43,249283,1,0,0:0:0:0:
98,43,249367,6,0,P|113:90|113:115,1,55.1999983154297,2|0,1:0|0:0,0:0:0:0:
104,172,249533,1,0,1:2:0:0:
211,235,249700,6,0,P|197:282|184:303,1,55.1999983154297,10|0,0:1|0:0,0:0:0:0:
145,346,249866,1,0,0:0:0:0:
301,235,250033,6,0,P|314:282|327:303,1,55.1999983154297,2|0,1:0|0:0,0:0:0:0:
367,346,250200,1,0,0:2:0:0:
414,43,250367,6,0,P|399:90|399:115,1,55.1999983154297,10|0,0:1|0:0,0:0:0:0:
408,172,250533,1,0,0:0:0:0:
256,32,250700,5,4,0:0:0:0:
256,192,250783,12,0,253367,0:0:0:0:
