osu file format v14

[General]
AudioFilename: audio.mp3
AudioLeadIn: 0
PreviewTime: 60978
Countdown: 0
SampleSet: Normal
StackLeniency: 0.4
Mode: 0
LetterboxInBreaks: 0
WidescreenStoryboard: 1

[Editor]
Bookmarks: 107826
DistanceSpacing: 0.7
BeatDivisor: 4
GridSize: 8
TimelineZoom: 2.799999

[Metadata]
Title:Synesthesia
TitleUnicode:Synesthesia
Artist:a_hisa
ArtistUnicode:a_hisa
Creator:NotABox
Version:Review
Source:Seoul+++
Tags:cookiezi applause sound 2017 ver.
BeatmapID:1786735
BeatmapSetID:855079

[Difficulty]
HPDrainRate:7
CircleSize:4.2
OverallDifficulty:9
ApproachRate:9.4
SliderMultiplier:2
SliderTickRate:1

[Events]
//Background and Video events
0,0,"neat.jpg",0,0
//Break Periods
//Storyboard Layer 0 (Background)
//Storyboard Layer 1 (Fail)
//Storyboard Layer 2 (Pass)
//Storyboard Layer 3 (Foreground)
//Storyboard Sound Samples

[TimingPoints]
978,315.789473684211,4,1,0,100,1,0
978,-100,4,1,0,40,0,0
10135,-100,4,1,0,55,0,0
11083,-100,4,1,0,70,0,0
51504,-100,4,1,0,80,0,0
57820,-90.9090909090909,4,1,0,85,0,0
61135,-100,4,1,0,40,0,0
61293,-100,4,1,0,60,0,0
61451,-100,4,1,0,80,0,0
61609,-83.3333333333333,4,1,0,100,0,1
63820,-71.4285714285714,4,1,0,100,0,1
64135,-62.5,4,1,0,100,0,1
64451,-83.3333333333333,4,1,0,100,0,1
71399,-83.3333333333333,4,1,0,100,0,0
71714,-83.3333333333333,4,1,0,100,0,1
81820,631.578947368421,4,1,0,100,1,0
82135,-100,4,1,0,30,0,0
85293,-250,4,1,0,30,0,0
86241,-250,4,1,0,15,0,0
86398,-100,4,1,0,30,0,0
90346,-250,4,1,0,30,0,0
91293,-250,4,1,0,15,0,0
91451,-100,4,1,0,30,0,0
94451,645.161290322581,4,1,0,30,1,0
95418,-250,4,1,0,30,0,0
96386,-250,4,1,0,15,0,0
96547,-250,4,1,0,30,0,0
97135,689.655172413793,4,1,0,30,1,0
98877,714.285714285714,4,1,0,30,1,0
99977,779.220779220779,4,1,0,30,1,0

[Colours]
Combo1 : 228,155,88
Combo2 : 138,188,230
Combo3 : 158,138,229
Combo4 : 74,134,255

[HitObjects]
277,285,978,6,0,L|401:251,1,100,0|0,2:0|2:0,2:0:0:0:
456,196,1293,1,0,2:0:0:0:
332,113,1451,2,0,P|295:159|302:216,1,100,0|0,2:0|2:0,2:0:0:0:
343,304,1767,1,0,2:0:0:0:
343,304,1846,1,0,2:0:0:0:
343,304,1925,2,0,P|291:276|236:292,1,100,0|0,2:0|2:0,2:0:0:0:
167,313,2241,6,0,P|118:317|76:291,1,100,0|0,2:0|2:0,2:0:0:0:
91,127,2556,1,0,2:0:0:0:
200,197,2714,1,0,2:0:0:0:
70,204,2872,1,0,2:0:0:0:
171,122,3030,1,0,2:0:0:0:
138,248,3188,1,0,2:0:0:0:
131,272,3267,1,0,2:0:0:0:
125,296,3346,1,0,2:0:0:0:
118,320,3425,1,0,2:0:0:0:
112,345,3504,6,0,P|168:369|214:349,1,100,0|0,2:0|2:0,2:0:0:0:
287,278,3820,1,0,2:0:0:0:
196,176,3978,1,0,2:0:0:0:
166,297,4135,1,0,2:0:0:0:
303,205,4293,2,0,L|399:231,1,100,0|0,2:0|2:0,2:0:0:0:
325,294,4609,6,0,L|228:320,1,100,0|0,2:0|2:0,2:0:0:0:
125,348,4925,2,0,B|74:361|74:361|24:334,2,100,0|0|0,2:0|2:0|2:0,2:0:0:0:
228,319,5399,2,0,B|278:305|278:305|308:257,2,100,0|0|0,2:0|2:0|2:0,2:0:0:0:
125,348,5872,1,0,2:0:0:0:
56,273,6030,6,0,L|82:176,1,100,0|0,2:0|2:0,2:0:0:0:
157,87,6346,1,0,2:0:0:0:
243,196,6504,2,0,P|177:227|127:218,2,100,0|0|0,2:0|2:0|2:0,2:0:0:0:
327,124,6978,1,0,2:0:0:0:
346,109,7056,1,0,2:0:0:0:
370,102,7135,1,0,2:0:0:0:
395,104,7214,1,0,2:0:0:0:
413,111,7293,6,0,L|439:207,1,100,0|0,2:0|2:0,2:0:0:0:
412,303,7609,1,0,2:0:0:0:
325,367,7767,2,0,P|263:376|209:353,2,100,0|0|0,2:0|2:0|2:0,2:0:0:0:
412,303,8241,2,0,L|439:206,1,100,0|0,2:0|2:0,2:0:0:0:
388,127,8556,6,0,P|329:113|287:146,1,100,0|0,2:0|2:0,2:0:0:0:
221,235,8872,1,0,2:0:0:0:
358,281,9030,1,0,2:0:0:0:
358,281,9109,1,0,2:0:0:0:
358,281,9188,2,0,L|454:254,2,100,0|0|0,2:0|2:0|2:0,2:0:0:0:
356,79,10135,6,0,P|293:85|262:109,1,100,8|0,2:0|2:0,2:0:0:0:
346,170,10451,1,0,2:0:0:0:
346,170,10530,1,0,2:0:0:0:
346,170,10609,1,0,2:0:0:0:
346,170,10688,1,0,2:0:0:0:
346,170,10767,2,0,P|401:156|433:117,1,100,0|0,2:0|2:0,2:0:0:0:
357,92,11083,6,0,L|384:189,1,100,4|0,0:0|0:0,0:0:0:0:
334,284,11399,1,0,0:0:0:0:
205,218,11556,2,0,P|235:178|282:162,1,100
140,254,11872,2,0,P|132:205|154:161,1,100
118,324,12188,6,0,P|78:294|62:247,1,100
134,82,12504,1,0,0:0:0:0:
137,248,12662,1,0,0:0:0:0:
55,150,12820,1,0,0:0:0:0:
55,150,12899,1,0,0:0:0:0:
55,150,12978,2,0,L|152:177,1,100
227,175,13293,2,0,P|202:121|145:103,1,100
151,176,13609,6,0,L|178:273,1,100,4|0,0:0|0:0,0:0:0:0:
263,337,13925,1,0,0:0:0:0:
340,258,14083,2,0,P|383:222|438:225,1,100
413,300,14399,1,0,0:0:0:0:
413,300,14478,1,0,0:0:0:0:
413,300,14556,2,0,L|386:203,1,100
310,100,14872,6,0,P|245:97|205:123,1,100
158,197,15188,1,0,0:0:0:0:
151,221,15267,1,0,0:0:0:0:
144,245,15346,1,0,0:0:0:0:
137,269,15425,1,0,0:0:0:0:
131,296,15504,2,0,B|125:328|125:328|152:390,2,100
160,177,15978,1,0,0:0:0:0:
160,177,16056,1,0,0:0:0:0:
160,177,16135,6,0,P|165:122|120:70,1,100,4|0,0:0|0:0,0:0:0:0:
84,148,16451,1,0,0:0:0:0:
84,148,16530,1,0,0:0:0:0:
84,148,16609,2,0,L|181:121,1,100
140,287,16925,2,0,L|189:199,1,100
277,345,17241,6,0,L|250:248,1,100
220,130,17556,1,0,0:0:0:0:
220,130,17635,1,0,0:0:0:0:
220,130,17714,2,0,P|156:133|120:169,1,100
164,297,18030,2,0,L|190:200,1,100
237,103,18346,1,0,0:0:0:0:
257,89,18425,1,0,0:0:0:0:
282,84,18504,1,0,0:0:0:0:
306,88,18583,1,0,0:0:0:0:
328,101,18662,6,0,P|385:113|425:93,2,100,4|0|0,0:0|0:0|0:0,0:0:0:0:
230,46,19135,2,0,L|257:142,1,100
298,284,19451,2,0,L|324:187,1,100
352,115,19767,6,0,P|396:153|403:201,1,100,0|4,0:0|0:0,0:0:0:0:
371,302,20083,5,0,0:0:0:0:
256,142,20241,1,0,0:0:0:0:
164,297,20399,1,0,0:0:0:0:
324,187,20556,5,4,0:0:0:0:
261,340,20714,1,0,0:0:0:0:
116,162,20872,1,0,0:0:0:0:
360,264,21030,1,0,0:0:0:0:
118,361,21188,6,0,P|87:305|96:265,1,100,4|0,0:0|0:0,0:0:0:0:
171,171,21504,1,0,0:0:0:0:
171,171,21583,1,0,0:0:0:0:
171,171,21662,2,0,L|267:144,1,100
360,190,21978,1,0,0:0:0:0:
301,298,22135,2,0,P|253:265|239:217,1,100
234,118,22451,6,0,P|214:72|172:47,1,100
58,149,22767,2,0,L|154:122,1,100
298,85,23083,1,0,0:0:0:0:
148,206,23241,1,0,0:0:0:0:
171,43,23399,1,0,0:0:0:0:
276,197,23556,1,0,0:0:0:0:
154,122,23714,5,4,0:0:0:0:
303,12,23872,1,0,0:0:0:0:
303,12,23951,1,0,0:0:0:0:
303,12,24030,2,0,P|348:57|349:103,1,100
233,188,24346,1,0,0:0:0:0:
179,54,24504,2,0,L|275:81,1,100
389,119,24820,1,0,0:0:0:0:
389,119,24899,1,0,0:0:0:0:
389,119,24978,6,0,P|397:169|374:217,1,100
253,299,25293,1,0,0:0:0:0:
312,154,25451,1,0,0:0:0:0:
429,285,25609,1,0,0:0:0:0:
429,285,25688,1,0,0:0:0:0:
429,285,25767,1,0,0:0:0:0:
172,249,25925,2,0,L|269:222,1,100
354,199,26241,5,4,0:0:0:0:
331,351,26399,1,0,0:0:0:0:
331,351,26478,1,0,0:0:0:0:
331,351,26556,1,0,0:0:0:0:
436,241,26714,2,0,P|401:204|353:197,1,100
269,253,27030,2,0,L|242:156,1,100
171,80,27346,1,0,0:0:0:0:
164,104,27425,1,0,0:0:0:0:
157,128,27504,5,0,0:0:0:0:
116,276,27662,1,0,0:0:0:0:
232,213,27820,2,0,P|280:204|324:225,1,100
391,336,28135,1,0,0:0:0:0:
435,160,28293,1,0,0:0:0:0:
266,285,28451,2,0,P|217:293|173:272,1,100
257,126,28767,5,4,0:0:0:0:
251,150,28846,1,0,0:0:0:0:
244,174,28925,1,0,0:0:0:0:
237,198,29004,1,0,0:0:0:0:
231,222,29083,1,0,0:0:0:0:
178,340,29241,2,0,B|150:324|150:324|131:258,1,100
110,129,29556,1,0,0:0:0:0:
220,274,29714,1,0,0:0:0:0:
220,274,29793,1,0,0:0:0:0:
220,274,29872,1,0,0:0:0:0:
46,251,30030,5,4,0:0:0:0:
190,99,30188,1,0,0:0:0:0:
182,337,30346,1,0,0:0:0:0:
58,149,30504,1,0,0:0:0:0:
324,225,30662,5,4,0:0:0:0:
135,255,30820,1,0,0:0:0:0:
299,86,30978,1,0,0:0:0:0:
261,340,31135,1,0,0:0:0:0:
110,129,31293,6,0,P|116:64|155:33,1,100,4|0,0:0|0:0,0:0:0:0:
172,31,31530,1,0,0:0:0:0:
172,31,31609,2,0,L|269:58,1,100
351,108,31925,1,0,0:0:0:0:
351,108,32004,1,0,0:0:0:0:
351,108,32083,2,0,P|310:136|261:142,1,100
167,140,32399,1,0,0:0:0:0:
220,212,32556,6,0,P|247:253|251:302,1,100
136,374,32872,1,0,0:0:0:0:
78,251,33030,2,0,L|175:278,1,100
307,316,33346,1,0,0:0:0:0:
307,316,33425,1,0,0:0:0:0:
307,316,33504,2,0,P|355:291|414:297,1,100
369,366,33820,6,0,L|342:269,1,100,4|0,0:0|0:0,0:0:0:0:
279,117,34135,2,0,P|230:117|188:148,1,100
172,176,34372,1,0,0:0:0:0:
172,176,34451,2,0,P|131:203|81:203,1,100
108,132,34767,2,0,L|135:229,1,100
171,334,35083,5,0,3:0:0:0:
194,341,35162,1,0,3:0:0:0:
219,340,35241,1,0,3:0:0:0:
242,331,35320,1,0,3:0:0:0:
261,315,35399,2,0,P|303:289|351:296,1,100,0|0,3:0|3:0,3:0:0:0:
429,348,35714,1,0,3:0:0:0:
435,323,35793,1,0,3:0:0:0:
442,299,35872,1,0,3:0:0:0:
449,275,35951,1,0,3:0:0:0:
457,246,36030,2,0,B|474:181|474:181|429:193,1,100,0|0,3:0|3:0,3:0:0:0:
317,214,36346,6,0,P|246:211|208:180,1,100,4|0,0:0|0:0,0:0:0:0:
154,146,36662,2,0,P|109:124|60:128,1,100
99,209,36978,1,0,0:0:0:0:
99,209,37056,1,0,0:0:0:0:
99,209,37135,1,0,0:0:0:0:
217,112,37293,2,0,P|254:79|303:71,1,100
385,178,37609,6,0,L|288:151,1,100
151,121,37925,1,0,0:0:0:0:
151,121,38004,1,0,0:0:0:0:
151,121,38083,2,0,P|108:162|109:218,1,100
166,346,38399,1,0,0:0:0:0:
177,188,38556,1,0,0:0:0:0:
48,280,38714,1,0,0:0:0:0:
240,252,38872,6,0,P|260:207|251:142,1,100,4|0,0:0|0:0,0:0:0:0:
243,124,39109,1,0,0:0:0:0:
242,124,39188,2,0,L|339:97,1,100
446,66,39504,1,0,0:0:0:0:
453,89,39583,1,0,0:0:0:0:
451,114,39662,1,0,0:0:0:0:
441,137,39741,1,0,0:0:0:0:
423,155,39820,2,0,P|395:195|401:244,1,100
453,317,40135,5,4,0:0:0:0:
338,97,40293,1,0,0:0:0:0:
240,252,40451,1,0,0:0:0:0:
465,213,40609,1,0,0:0:0:0:
205,135,40767,5,4,0:0:0:0:
379,300,40925,1,0,0:0:0:0:
357,46,41083,1,0,0:0:0:0:
224,252,41241,1,0,0:0:0:0:
451,114,41399,5,4,0:0:0:0:
451,114,41478,1,0,0:0:0:0:
451,114,41556,1,0,0:0:0:0:
417,251,41714,2,0,P|370:268|323:255,1,100
338,97,42030,1,0,0:0:0:0:
338,97,42109,1,0,0:0:0:0:
338,97,42188,2,0,L|365:194,1,100
391,287,42504,1,0,0:0:0:0:
292,247,42662,6,0,P|230:243|195:268,1,100
256,319,42978,2,0,L|283:222,1,100
315,120,43293,1,0,0:0:0:0:
338,111,43372,1,0,0:0:0:0:
362,111,43451,1,0,0:0:0:0:
385,121,43530,1,0,0:0:0:0:
402,139,43609,1,0,0:0:0:0:
348,279,43767,1,0,0:0:0:0:
253,168,43925,6,0,P|236:122|255:74,1,100,4|0,0:0|0:0,0:0:0:0:
352,31,44241,1,0,0:0:0:0:
330,159,44399,2,0,P|309:217|266:243,1,100,0|0,0:0|0:0,3:0:0:0:
253,168,44714,2,0,P|197:194|148:183,1,100,0|0,0:0|0:0,3:0:0:0:
192,119,45030,6,0,P|133:98|107:55,1,100,0|0,0:0|0:0,3:0:0:0:
112,33,45267,1,0,0:0:0:0:
112,33,45346,2,0,L|85:130,1,100
58,220,45662,1,0,0:0:0:0:
253,168,45820,1,0,0:0:0:0:
111,69,45978,1,0,0:0:0:0:
149,267,46135,1,0,0:0:0:0:
219,65,46293,1,0,0:0:0:0:
73,256,46451,6,0,P|91:323|128:345,2,100,4|0|0,0:0|0:0|0:0,0:0:0:0:
171,126,46925,1,0,0:0:0:0:
194,118,47004,1,0,0:0:0:0:
219,112,47083,1,0,0:0:0:0:
243,105,47162,1,0,0:0:0:0:
267,99,47241,1,0,0:0:0:0:
176,198,47399,2,0,P|124:185|97:138,1,100
144,29,47714,6,0,L|171:126,1,100
203,245,48030,1,0,0:0:0:0:
170,125,48188,1,0,0:0:0:0:
48,280,48346,5,0,0:0:0:0:
81,159,48504,1,0,0:0:0:0:
165,334,48662,5,0,0:0:0:0:
131,213,48820,1,0,0:0:0:0:
165,334,48978,6,0,P|225:340|263:309,1,100,4|0,0:0|0:0,0:0:0:0:
294,236,49293,1,0,0:0:0:0:
174,173,49451,2,0,L|200:273,1,100
214,302,49688,1,0,0:0:0:0:
214,302,49767,2,0,B|221:328|221:328|274:274,1,100
381,177,50083,1,0,0:0:0:0:
381,177,50162,1,0,0:0:0:0:
381,177,50241,5,4,0:0:0:0:
170,125,50399,1,0,0:0:0:0:
255,318,50556,1,0,0:0:0:0:
334,93,50714,1,0,0:0:0:0:
406,270,50872,5,4,0:0:0:0:
203,245,51030,1,0,0:0:0:0:
402,139,51188,1,0,0:0:0:0:
111,69,51346,1,0,0:0:0:0:
295,227,51504,6,0,L|462:182,1,150,6|0,2:0|2:0,2:0:0:0:
472,175,51820,2,0,P|472:104|426:69,1,100,0|0,2:0|2:0,2:0:0:0:
319,61,52135,1,0,2:0:0:0:
312,85,52214,1,0,2:0:0:0:
305,109,52293,1,0,2:0:0:0:
298,133,52372,1,0,2:0:0:0:
292,157,52451,2,0,P|228:204|157:184,1,150,2|0,2:0|2:0,2:0:0:0:
140,162,52767,6,0,L|166:262,1,100,2|0,2:0|2:0,2:0:0:0:
243,347,53083,1,0,2:0:0:0:
327,241,53241,2,0,P|270:211|210:226,2,100,2|0|0,2:0|2:0|2:0,2:0:0:0:
299,372,53714,2,0,P|262:327|272:271,1,100,2|0,2:0|2:0,2:0:0:0:
327,241,54030,6,0,L|423:266,1,100,2|0,2:0|2:0,2:0:0:0:
498,288,54346,1,0,2:0:0:0:
423,343,54504,1,0,2:0:0:0:
349,286,54662,1,0,2:0:0:0:
383,199,54820,1,0,2:0:0:0:
383,199,54899,1,0,2:0:0:0:
383,199,54978,2,0,P|391:132|356:88,1,100,0|0,2:0|2:0,2:0:0:0:
289,66,55293,6,0,L|144:104,1,150,2|0,2:0|2:0,2:0:0:0:
110,115,55609,1,0,2:0:0:0:
55,237,55767,2,0,P|112:265|158:258,1,100,2|0,2:0|2:0,2:0:0:0:
116,192,56083,1,0,2:0:0:0:
192,327,56241,2,0,P|255:340|298:321,1,100,2|0,2:0|2:0,2:0:0:0:
334,235,56556,6,0,L|221:265,1,100,2|0,2:0|2:0,2:0:0:0:
95,303,56872,1,0,2:0:0:0:
95,303,56951,1,0,2:0:0:0:
95,303,57030,2,0,P|60:243|73:200,1,100,2|0,2:0|2:0,2:0:0:0:
176,127,57346,1,0,2:0:0:0:
176,127,57425,1,0,2:0:0:0:
176,127,57504,2,0,P|176:58|143:26,1,100,2|0,2:0|2:0,2:0:0:0:
0,64,57820,6,0,L|112:94,1,110.000003356934,2|0,2:0|2:0,2:0:0:0:
248,141,58135,1,0,2:0:0:0:
267,160,58214,1,0,2:0:0:0:
279,184,58293,2,0,P|280:239|240:289,1,110.000003356934,2|0,2:0|2:0,2:0:0:0:
44,257,58609,1,0,2:0:0:0:
70,249,58688,1,0,2:0:0:0:
97,242,58767,2,0,L|203:213,1,110.000003356934,2|0,2:0|2:0,2:0:0:0:
352,166,59083,6,2,B|381:159|428:118|397:68|362:59|313:56|269:96|257:124|242:178|274:224|299:259|365:273|436:198|436:198|481:142|528:162|567:185|570:248|547:302|453:305|435:238,1,770.000023498536,2|6,2:0|2:0,2:0:0:0:
488,224,61135,5,2,2:0:0:0:
475,220,61293,5,2,2:0:0:0:
461,216,61451,5,2,2:0:0:0:
448,212,61609,6,0,L|330:180,1,119.999996337891,6|0,0:0|0:0,0:0:0:0:
203,152,61925,1,0,0:0:0:0:
307,323,62083,1,0,0:0:0:0:
420,97,62241,1,0,0:0:0:0:
390,89,62320,1,0,0:0:0:0:
361,92,62399,1,0,0:0:0:0:
333,105,62478,1,0,0:0:0:0:
311,124,62556,2,0,P|260:155|202:151,1,119.999996337891
235,66,62872,6,0,L|266:183,1,119.999996337891,2|0,0:0|0:0,0:0:0:0:
386,281,63188,1,0,0:0:0:0:
454,110,63346,1,0,0:0:0:0:
454,110,63425,1,0,0:0:0:0:
454,110,63504,6,0,P|447:60|406:88,1,119.999996337891,2|0,0:0|0:0,0:0:0:0:
324,107,63820,6,0,P|277:70|284:128,1,139.999995727539,2|0,0:0|0:0,0:0:0:0:
220,185,64135,6,0,P|156:200|206:235,1,160,6|0,0:0|0:0,0:0:0:0:
311,213,64451,2,0,P|393:205|435:226,1,119.999996337891
371,286,64767,1,0,0:0:0:0:
363,257,64846,1,0,0:0:0:0:
355,228,64925,1,0,0:0:0:0:
347,199,65004,1,0,0:0:0:0:
340,170,65083,2,0,B|318:89|318:89|305:150,1,119.999996337891
279,279,65399,5,2,0:0:0:0:
205,92,65556,1,2,0:0:0:0:
419,162,65714,1,2,0:0:0:0:
134,225,65872,1,2,0:0:0:0:
109,208,65951,1,0,0:0:0:0:
91,184,66030,1,0,0:0:0:0:
85,155,66109,1,0,0:0:0:0:
90,125,66188,2,0,L|205:93,1,119.999996337891,2|0,0:0|0:0,0:0:0:0:
388,51,66504,1,0,0:0:0:0:
388,51,66583,1,0,0:0:0:0:
388,51,66662,6,0,B|423:42|423:42|359:97,1,119.999996337891,6|0,0:0|0:0,0:0:0:0:
225,213,66978,2,0,P|243:289|303:309,1,119.999996337891
404,266,67293,1,0,0:0:0:0:
382,245,67372,1,0,0:0:0:0:
355,233,67451,1,0,0:0:0:0:
325,230,67530,1,0,0:0:0:0:
296,237,67609,1,0,0:0:0:0:
159,344,67767,1,0,0:0:0:0:
327,353,67925,6,0,L|295:237,1,119.999996337891,2|0,0:0|0:0,0:0:0:0:
219,84,68241,1,0,0:0:0:0:
116,242,68399,2,0,P|169:278|234:265,1,119.999996337891,2|0,0:0|0:0,0:0:0:0:
354,187,68714,1,0,0:0:0:0:
219,84,68872,2,0,L|187:199,1,119.999996337891,2|0,0:0|0:0,0:0:0:0:
228,345,69188,6,0,L|260:230,1,119.999996337891,6|0,0:0|0:0,0:0:0:0:
270,194,69425,1,0,0:0:0:0:
270,194,69504,2,0,P|317:158|375:169,1,119.999996337891
333,235,69820,1,0,0:0:0:0:
313,257,69899,1,0,0:0:0:0:
286,270,69978,1,0,0:0:0:0:
256,271,70056,1,0,0:0:0:0:
228,260,70135,2,0,P|171:250|125:286,1,119.999996337891
190,325,70451,5,2,0:0:0:0:
179,66,70609,1,2,0:0:0:0:
379,266,70767,1,2,0:0:0:0:
91,202,70925,1,2,0:0:0:0:
295,69,71083,1,0,0:0:0:0:
295,69,71162,1,0,0:0:0:0:
295,69,71241,1,0,0:0:0:0:
254,272,71399,2,0,B|242:315|242:315|165:337,1,119.999996337891
39,291,71714,6,0,L|154:259,1,119.999996337891,6|0,0:0|0:0,0:0:0:0:
286,222,72030,1,0,0:0:0:0:
298,195,72109,1,0,0:0:0:0:
299,165,72188,1,0,0:0:0:0:
287,138,72267,1,0,0:0:0:0:
264,118,72346,1,0,0:0:0:0:
86,185,72504,1,0,0:0:0:0:
245,350,72662,1,0,0:0:0:0:
328,91,72820,1,0,0:0:0:0:
114,267,72978,6,0,P|35:252|6:212,1,119.999996337891,2|0,0:0|0:0,0:0:0:0:
54,70,73293,2,0,L|86:185,1,119.999996337891
137,342,73609,5,2,0:0:0:0:
205,195,73767,1,0,0:0:0:0:
321,331,73925,5,2,0:0:0:0:
264,119,74083,1,0,0:0:0:0:
168,282,74241,5,2,0:0:0:0:
348,61,74399,1,0,0:0:0:0:
433,295,74556,2,0,P|376:310|320:283,1,119.999996337891
225,223,74872,1,0,0:0:0:0:
200,206,74950,1,0,0:0:0:0:
171,198,75029,1,0,0:0:0:0:
141,201,75108,1,0,0:0:0:0:
114,213,75188,2,0,L|146:98,1,119.999996337891,2|0,0:0|0:0,0:0:0:0:
177,3,75504,5,2,0:0:0:0:
225,223,75662,1,2,0:0:0:0:
402,109,75820,1,2,0:0:0:0:
58,59,75978,2,0,P|21:119|34:165,1,119.999996337891,2|0,0:0|0:0,0:0:0:0:
61,194,76214,1,0,0:0:0:0:
61,194,76293,2,0,P|98:254|85:300,1,119.999996337891,2|0,0:0|0:0,0:0:0:0:
62,333,76530,1,0,0:0:0:0:
62,333,76609,1,0,0:0:0:0:
62,333,76688,1,0,0:0:0:0:
62,333,76767,6,0,L|177:301,1,119.999996337891,6|0,0:0|0:0,0:0:0:0:
322,243,77083,2,0,L|207:211,1,119.999996337891
73,168,77399,1,0,0:0:0:0:
207,59,77556,1,0,0:0:0:0:
207,59,77635,1,0,0:0:0:0:
207,59,77713,2,0,P|271:86|290:156,1,119.999996337891,2|0,0:0|0:0,0:0:0:0:
177,259,78030,6,0,L|209:144,1,119.999996337891
337,26,78346,1,2,0:0:0:0:
465,222,78504,2,0,P|391:260|324:241,1,119.999996337891,2|0,0:0|0:0,0:0:0:0:
209,143,78820,1,2,0:0:0:0:
393,94,78978,2,0,B|422:85|422:85|399:172,1,119.999996337891
314,303,79293,6,0,P|233:328|197:310,1,119.999996337891,6|0,0:0|0:0,0:0:0:0:
87,141,79609,1,0,0:0:0:0:
250,245,79767,1,0,0:0:0:0:
63,349,79925,6,0,L|95:234,1,119.999996337891,4|0,0:0|0:0,0:0:0:0:
153,61,80241,1,0,0:0:0:0:
250,245,80399,1,2,0:0:0:0:
250,245,80478,1,2,0:0:0:0:
250,245,80556,5,6,0:0:0:0:
25,115,80714,1,0,3:0:0:0:
25,115,80793,1,0,3:0:0:0:
25,115,80872,1,4,3:0:0:0:
241,63,81030,5,4,3:0:0:0:
159,355,81188,1,4,3:0:0:0:
21,203,81346,5,4,3:0:0:0:
388,102,81504,1,4,0:0:0:0:
388,102,81583,1,0,0:0:0:0:
388,102,81662,1,0,0:0:0:0:
388,102,81741,1,0,0:0:0:0:
388,102,81820,5,4,3:0:0:0:
388,102,82293,1,0,2:0:0:0:
388,102,82767,1,0,2:0:0:0:
388,102,83398,2,0,L|503:70,2,100,0|0|0,2:0|2:0|2:0,2:0:0:0:
283,130,84346,1,0,2:0:0:0:
283,130,84820,1,0,2:0:0:0:
283,130,85293,6,0,P|237:183|242:240,1,120,0|0,2:0|2:0,2:0:0:0:
238,229,86872,5,0,2:0:0:0:
238,229,87346,1,0,2:0:0:0:
238,229,87819,1,0,2:0:0:0:
238,229,88451,2,0,P|187:243|128:230,2,100,0|0|0,2:0|2:0|2:0,2:0:0:0:
316,181,89398,1,0,2:0:0:0:
316,181,89872,1,0,2:0:0:0:
316,181,90346,6,0,B|397:162|397:162|430:175,1,120,0|0,2:0|2:0,2:0:0:0:
431,175,91925,5,0,2:0:0:0:
431,175,92398,1,0,2:0:0:0:
431,175,92872,1,0,2:0:0:0:
431,175,93504,2,0,B|436:153|436:153|463:137|463:137|476:92,2,100,0|0|0,2:0|2:0|2:0,2:0:0:0:
411,251,94451,5,0,2:0:0:0:
411,251,94934,1,0,2:0:0:0:
411,251,95418,6,0,L|289:286,1,120,0|0,2:0|2:0,2:0:0:0:
295,284,97135,5,0,2:0:0:0:
295,284,97652,1,0,2:0:0:0:
295,284,98169,1,0,2:0:0:0:
295,284,98877,6,0,L|261:406,2,100,0|0|0,2:0|2:0|2:0,2:0:0:0:
324,191,99977,5,0,2:0:0:0:
324,191,100561,1,0,2:0:0:0:
324,191,101145,1,0,2:0:0:0:
