osu file format v14

[General]
AudioFilename: audio.mp3
AudioLeadIn: 0
PreviewTime: 74336
Countdown: 0
SampleSet: Soft
StackLeniency: 0.0
Mode: 0
LetterboxInBreaks: 0
WidescreenStoryboard: 0

[Editor]
DistanceSpacing: 0.8
BeatDivisor: 4
GridSize: 16
TimelineZoom: 3.599999

[Metadata]
Title:Snow Prism
TitleUnicode:Snow Prism
Artist:a_hisa
ArtistUnicode:a_hisa
Creator:- Yoshimaro -
Version:S p e c t r u m
Source:
Tags:Aspire Spectrum After the End Snowy Electro Fantasy ahisa
BeatmapID:1607120
BeatmapSetID:764254

[Difficulty]
HPDrainRate:3
CircleSize:4
OverallDifficulty:8.5
ApproachRate:9.6
SliderMultiplier:2
SliderTickRate:0.5

[Events]
//Background and Video events
0,0,"Snowflake-Wallpaper-HD-17641.jpg",0,0
//Break Periods
//Storyboard Layer 0 (Background)
//Storyboard Layer 1 (Fail)
//Storyboard Layer 2 (Pass)
//Storyboard Layer 3 (Foreground)
//Storyboard Sound Samples

[TimingPoints]
2005,333.333333333333,3,2,1,100,1,0
10004,-133.333333333333,3,2,1,100,0,0
13338,-117.647058823529,3,2,1,100,0,0
13671,-105.263157894737,3,2,1,100,0,0
14004,-50,3,2,1,100,0,0
14046,-50,3,2,1,5,0,0
14088,-50,3,2,1,100,0,0
14379,-50,3,2,1,5,0,0
14421,-50,3,2,1,100,0,0
14713,-50,3,2,1,5,0,0
14755,-50,3,2,1,100,0,0
15046,-50,3,2,1,5,0,0
15088,-50,3,2,1,100,0,0
15379,-50,3,2,1,5,0,0
15421,-50,3,2,1,100,0,0
15713,-50,3,2,1,5,0,0
15755,-50,3,2,1,100,0,0
16046,-50,3,2,1,5,0,0
16088,-50,3,2,1,100,0,0
16379,-50,3,2,1,5,0,0
16421,-50,3,2,1,100,0,0
16713,-50,3,2,1,5,0,0
16755,-50,3,2,1,100,0,0
17046,-50,3,2,1,5,0,0
17088,-50,3,2,1,100,0,0
17379,-50,3,2,1,5,0,0
17421,-50,3,2,1,100,0,0
17713,-50,3,2,1,5,0,0
17755,-50,3,2,1,100,0,0
18046,-50,3,2,1,5,0,0
18088,-50,3,2,1,100,0,0
18379,-50,3,2,1,5,0,0
18421,-50,3,2,1,100,0,0
18713,-50,3,2,1,5,0,0
18755,-50,3,2,1,100,0,0
19046,-50,3,2,1,5,0,0
19088,-50,3,2,1,100,0,0
19379,-50,3,2,1,5,0,0
19421,-50,3,2,1,100,0,0
19713,-50,3,2,1,5,0,0
19755,-50,3,2,1,100,0,0
20046,-50,3,2,1,5,0,0
20088,-50,3,2,1,100,0,0
20379,-50,3,2,1,5,0,0
20421,-50,3,2,1,100,0,0
20713,-50,3,2,1,5,0,0
20755,-50,3,2,1,100,0,0
21046,-50,3,2,1,5,0,0
21088,-50,3,2,1,100,0,0
21379,-50,3,2,1,5,0,0
21421,-50,3,2,1,100,0,0
21713,-50,3,2,1,5,0,0
21755,-50,3,2,1,100,0,0
21879,-50,3,2,1,5,0,0
21921,-50,3,2,1,100,0,0
22046,-50,3,2,1,5,0,0
22088,-50,3,2,1,100,0,0
23046,-50,3,2,1,5,0,0
23088,-50,3,2,1,100,0,0
24046,-50,3,2,1,5,0,0
24088,-50,3,2,1,100,0,0
25046,-50,3,2,1,5,0,0
25088,-50,3,2,1,100,0,0
26046,-50,3,2,1,5,0,0
26088,-50,3,2,1,100,0,0
26379,-50,3,2,1,5,0,0
26421,-50,3,2,1,100,0,0
26713,-50,3,2,1,5,0,0
26755,-50,3,2,1,100,0,0
27046,-50,3,2,1,5,0,0
27088,-50,3,2,1,100,0,0
27379,-50,3,2,1,5,0,0
27421,-50,3,2,1,100,0,0
27713,-50,3,2,1,5,0,0
27755,-50,3,2,1,100,0,0
28046,-50,3,2,1,5,0,0
28088,-50,3,2,1,100,0,0
28379,-50,3,2,1,5,0,0
28421,-50,3,2,1,100,0,0
28713,-50,3,2,1,5,0,0
28755,-50,3,2,1,100,0,0
29046,-50,3,2,1,5,0,0
29088,-50,3,2,1,100,0,0
29379,-50,3,2,1,5,0,0
29421,-50,3,2,1,100,0,0
29546,-50,3,2,1,5,0,0
29588,-50,3,2,1,100,0,0
29713,-50,3,2,1,5,0,0
29755,-50,3,2,1,100,0,0
29879,-50,3,2,1,5,0,0
29921,-50,3,2,1,100,0,0
30338,-100,3,2,1,100,0,0
46004,-83.3333333333333,3,2,1,100,0,0
60004,-25,3,2,1,100,0,0
60046,-25,3,2,1,5,0,0
60171,-20,3,2,1,100,0,0
60213,-20,3,2,1,5,0,0
60338,-16.6666666666667,3,2,1,100,0,0
60380,-16.6666666666667,3,2,1,5,0,0
60504,-14.2857142857143,3,2,1,100,0,0
60546,-14.2857142857143,3,2,1,5,0,0
60671,-12.5,3,2,1,100,0,0
60713,-12.5,3,2,1,5,0,0
60838,-11.1111111111111,3,2,1,100,0,0
60880,-11.1111111111111,3,2,1,5,0,0
61004,166.666666666667,3,2,1,100,1,0
61004,-20,3,2,1,100,0,0
61046,-20,3,2,1,5,0,0
61170,-16.6666666666667,3,2,1,100,0,0
61212,-16.6666666666667,3,2,1,5,0,0
61337,-14.2857142857143,3,2,1,100,0,0
61379,-14.2857142857143,3,2,1,5,0,0
61504,-12.5,3,2,1,100,0,0
61546,-12.5,3,2,1,5,0,0
61670,-11.1111111111111,3,2,1,100,0,0
61712,-11.1111111111111,3,2,1,5,0,0
61837,-10,3,2,1,100,0,0
61879,-10,3,2,1,5,0,0
62004,333.333333333333,3,2,1,100,1,0
62004,-83.3333333333333,3,2,1,100,0,0
70003,166.666666666667,3,2,1,100,1,0
70003,-1,3,2,1,100,0,0
70044,-83.3333333333333,3,2,1,5,0,0
70086,333.333333333333,3,2,1,100,1,0
70086,-83.3333333333333,3,2,1,100,0,0
71002,83.3333333333333,3,2,1,100,1,0
71002,-12.5,3,2,1,100,0,0
71043,-83.3333333333333,3,2,1,5,0,0
71086,333.333333333333,3,2,1,100,1,0
71086,-83.3333333333333,3,2,1,100,0,0
72002,41.6666666666667,3,2,1,100,1,0
72002,-20,3,2,1,100,0,0
72043,-83.3333333333333,3,2,1,5,0,0
72086,333.333333333333,3,2,1,100,1,0
72086,-83.3333333333333,3,2,1,100,0,0
73002,20.8333333333333,3,2,1,100,1,0
73002,-12.5,3,2,1,100,0,0
73044,-12.5,3,2,1,5,0,0
73086,333.333333333333,3,2,1,100,1,0
73169,-11.1111111111111,3,2,1,100,0,0
73211,-11.1111111111111,3,2,1,5,0,0
73336,-12.5,3,2,1,100,0,0
73378,-12.5,3,2,1,5,0,0
73502,-14.2857142857143,3,2,1,100,0,0
73544,-14.2857142857143,3,2,1,5,0,0
73669,-16.6666666666667,3,2,1,100,0,0
73711,-16.6666666666667,3,2,1,5,0,0
73836,-20,3,2,1,100,0,0
73878,-20,3,2,1,5,0,0
74003,333.333333333333,3,2,1,100,1,0
74336,333.333333333333,3,2,1,100,1,0
74336,-33.3333333333333,3,2,1,100,0,1
74377,-33.3333333333333,3,2,1,5,0,1
74419,-33.3333333333333,3,2,1,100,0,1
74460,-33.3333333333333,3,2,1,5,0,1
74502,-33.3333333333333,3,2,1,100,0,1
74543,-33.3333333333333,3,2,1,5,0,1
74586,-33.3333333333333,3,2,1,100,0,1
74627,-33.3333333333333,3,2,1,5,0,1
74669,-33.3333333333333,3,2,1,100,0,1
74710,-33.3333333333333,3,2,1,5,0,1
74752,-33.3333333333333,3,2,1,100,0,1
74793,-33.3333333333333,3,2,1,5,0,1
74836,-33.3333333333333,3,2,1,100,0,1
74877,-33.3333333333333,3,2,1,5,0,1
74919,-33.3333333333333,3,2,1,100,0,1
74960,-33.3333333333333,3,2,1,5,0,1
75002,-33.3333333333333,3,2,1,100,0,1
75043,-33.3333333333333,3,2,1,5,0,1
75086,-33.3333333333333,3,2,1,100,0,1
75127,-33.3333333333333,3,2,1,5,0,1
75169,-33.3333333333333,3,2,1,100,0,1
75210,-33.3333333333333,3,2,1,5,0,1
75252,-33.3333333333333,3,2,1,100,0,1
75294,-33.3333333333333,3,2,1,5,0,1
75336,-57.1428571428571,3,2,1,100,0,1
78336,-33.3333333333333,3,2,1,100,0,1
78377,-33.3333333333333,3,2,1,5,0,1
78419,-33.3333333333333,3,2,1,100,0,1
78460,-33.3333333333333,3,2,1,5,0,1
78502,-33.3333333333333,3,2,1,100,0,1
78543,-33.3333333333333,3,2,1,5,0,1
78586,-33.3333333333333,3,2,1,100,0,1
78627,-33.3333333333333,3,2,1,5,0,1
78669,-33.3333333333333,3,2,1,100,0,1
78710,-33.3333333333333,3,2,1,5,0,1
78752,-33.3333333333333,3,2,1,100,0,1
78793,-33.3333333333333,3,2,1,5,0,1
78836,-33.3333333333333,3,2,1,100,0,1
78877,-33.3333333333333,3,2,1,5,0,1
78919,-33.3333333333333,3,2,1,100,0,1
78960,-33.3333333333333,3,2,1,5,0,1
79002,-33.3333333333333,3,2,1,100,0,1
79043,-33.3333333333333,3,2,1,5,0,1
79086,-33.3333333333333,3,2,1,100,0,1
79127,-33.3333333333333,3,2,1,5,0,1
79169,-33.3333333333333,3,2,1,100,0,1
79210,-33.3333333333333,3,2,1,5,0,1
79252,-33.3333333333333,3,2,1,100,0,1
79294,-33.3333333333333,3,2,1,5,0,1
79336,-44.4444444444445,3,2,1,100,0,1
79377,-33.3333333333333,3,2,1,5,0,1
79419,-44.4444444444445,3,2,1,100,0,1
79460,-33.3333333333333,3,2,1,5,0,1
79502,-44.4444444444445,3,2,1,100,0,1
79543,-33.3333333333333,3,2,1,5,0,1
79586,-44.4444444444445,3,2,1,100,0,1
79627,-33.3333333333333,3,2,1,5,0,1
79669,-44.4444444444445,3,2,1,100,0,1
79710,-33.3333333333333,3,2,1,5,0,1
79752,-44.4444444444445,3,2,1,100,0,1
79793,-33.3333333333333,3,2,1,5,0,1
79836,-44.4444444444445,3,2,1,100,0,1
79877,-33.3333333333333,3,2,1,5,0,1
79919,-44.4444444444445,3,2,1,100,0,1
79960,-33.3333333333333,3,2,1,5,0,1
80002,-44.4444444444445,3,2,1,100,0,1
80043,-33.3333333333333,3,2,1,5,0,1
80086,-44.4444444444445,3,2,1,100,0,1
80127,-33.3333333333333,3,2,1,5,0,1
80169,-44.4444444444445,3,2,1,100,0,1
80210,-33.3333333333333,3,2,1,5,0,1
80252,-44.4444444444445,3,2,1,100,0,1
80294,-33.3333333333333,3,2,1,5,0,1
80336,-57.1428571428571,3,2,1,100,0,1
82002,-25,3,2,1,100,0,1
82044,-25,3,2,1,5,0,1
82085,-20,3,2,1,100,0,1
82127,-20,3,2,1,5,0,1
82169,-16.6666666666667,3,2,1,100,0,1
82211,-16.6666666666667,3,2,1,5,0,1
82252,-14.2857142857143,3,2,1,100,0,1
82294,-14.2857142857143,3,2,1,5,0,1
82335,-12.5,3,2,1,100,0,0
82377,-12.5,3,2,1,5,0,0
82502,-57.1428571428571,3,2,1,100,0,0
90335,-16.6666666666667,3,2,1,100,0,1
90377,-16.6666666666667,3,2,1,5,0,1
90502,-16.6666666666667,3,2,1,100,0,1
91335,-16.6666666666667,3,2,1,100,0,1
91377,-16.6666666666667,3,2,1,5,0,1
91502,-16.6666666666667,3,2,1,100,0,1
92335,-16.6666666666667,3,2,1,100,0,1
92377,-16.6666666666667,3,2,1,5,0,1
92502,-16.6666666666667,3,2,1,100,0,1
93335,-16.6666666666667,3,2,1,100,0,1
93377,-16.6666666666667,3,2,1,5,0,1
93502,-16.6666666666667,3,2,1,100,0,1
94335,-16.6666666666667,3,2,1,100,0,1
94377,-16.6666666666667,3,2,1,5,0,1
94502,-16.6666666666667,3,2,1,100,0,1
95335,-16.6666666666667,3,2,1,100,0,1
95377,-16.6666666666667,3,2,1,5,0,1
95502,-16.6666666666667,3,2,1,100,0,1
96335,-16.6666666666667,3,2,1,100,0,1
96377,-16.6666666666667,3,2,1,5,0,1
96502,-16.6666666666667,3,2,1,100,0,1
97335,-16.6666666666667,3,2,1,100,0,1
97377,-16.6666666666667,3,2,1,5,0,1
97502,-16.6666666666667,3,2,1,100,0,1
98002,166.666666666667,3,2,1,100,1,1
98002,-1,3,2,1,100,0,1
98043,-1,3,2,1,5,0,1
98168,-1,3,2,1,100,0,1
98210,-1,3,2,1,5,0,1
98335,333.333333333333,3,2,1,100,1,1
98335,-16.6666666666667,3,2,1,100,0,1
98377,-16.6666666666667,3,2,1,5,0,1
98502,-16.6666666666667,3,2,1,100,0,1
99335,-16.6666666666667,3,2,1,100,0,1
99377,-16.6666666666667,3,2,1,5,0,1
99502,-16.6666666666667,3,2,1,100,0,1
100335,41.6666666666667,3,2,1,100,1,1
100335,-1,3,2,1,100,0,1
100376,-1,3,2,1,5,0,1
100418,333.333333333333,3,2,1,100,1,1
100501,-16.6666666666667,3,2,1,100,0,1
100501,-20,3,2,1,100,0,1
100543,-20,3,2,1,5,0,1
100668,-16.6666666666667,3,2,1,100,0,1
100710,-16.6666666666667,3,2,1,5,0,1
100834,-14.2857142857143,3,2,1,100,0,1
100876,-14.2857142857143,3,2,1,5,0,1
101001,-12.5,3,2,1,100,0,1
101043,-12.5,3,2,1,5,0,1
101168,-11.1111111111111,3,2,1,100,0,1
101210,-11.1111111111111,3,2,1,5,0,1
101334,166.666666666667,3,2,1,100,1,0
101334,-10,3,2,1,100,0,1
101376,-10,3,2,1,5,0,1
101417,-11.1111111111111,3,2,1,100,0,1
101459,-11.1111111111111,3,2,1,5,0,1
101500,-12.5,3,2,1,100,0,1
101542,-12.5,3,2,1,5,0,1
101584,-14.2857142857143,3,2,1,100,0,1
101626,-14.2857142857143,3,2,1,5,0,1
101667,-16.6666666666667,3,2,1,100,0,1
101709,-16.6666666666667,3,2,1,5,0,1
101750,-20,3,2,1,100,0,1
101792,-20,3,2,1,5,0,1
101834,333.333333333333,3,2,1,100,1,0
101834,-11.1111111111111,3,2,1,100,0,1
101876,-11.1111111111111,3,2,1,5,0,1
101917,-12.5,3,2,1,100,0,1
101959,-12.5,3,2,1,5,0,1
102000,-14.2857142857143,3,2,1,100,0,1
102042,-14.2857142857143,3,2,1,5,0,1
102084,-16.6666666666667,3,2,1,100,0,1
102126,-16.6666666666667,3,2,1,5,0,1
102167,-20,3,2,1,100,0,1
102209,-20,3,2,1,5,0,1
102250,-25,3,2,1,100,0,1
102292,-25,3,2,1,5,0,1
102334,333.333333333333,3,2,1,100,1,0
106000,-100,3,2,1,100,0,1
106334,-100,3,2,1,100,0,0
109334,20.8333333333333,3,2,1,100,1,0
109334,-26.3157894736842,3,2,1,100,0,0
109376,-26.3157894736842,3,2,1,5,0,0
109417,20.8333333333333,3,2,1,100,1,0
109417,-24.0963855421687,3,2,1,100,0,0
109459,-24.0963855421687,3,2,1,5,0,0
109500,20.8333333333333,3,2,1,100,1,0
109500,-22.2222222222222,3,2,1,100,0,0
109542,-22.2222222222222,3,2,1,5,0,0
109583,20.8333333333333,3,2,1,100,1,0
109583,-20.6185567010309,3,2,1,100,0,0
109625,-20.6185567010309,3,2,1,5,0,0
109667,20.8333333333333,3,2,1,100,1,0
109667,-19.2307692307692,3,2,1,100,0,0
109709,-19.2307692307692,3,2,1,5,0,0
109750,20.8333333333333,3,2,1,100,1,0
109750,-18.018018018018,3,2,1,100,0,0
109792,-18.018018018018,3,2,1,5,0,0
109833,20.8333333333333,3,2,1,100,1,0
109833,-16.9491525423729,3,2,1,100,0,0
109875,-16.9491525423729,3,2,1,5,0,0
109917,20.8333333333333,3,2,1,100,1,0
109917,-16,3,2,1,100,0,0
109959,-16,3,2,1,5,0,0
110000,20.8333333333333,3,2,1,100,1,0
110000,-15.1515151515152,3,2,1,100,0,0
110042,-15.1515151515152,3,2,1,5,0,0
110083,20.8333333333333,3,2,1,100,1,0
110083,-14.3884892086331,3,2,1,100,0,0
110125,-14.3884892086331,3,2,1,5,0,0
110167,20.8333333333333,3,2,1,100,1,0
110167,-13.6986301369863,3,2,1,100,0,0
110209,-13.6986301369863,3,2,1,5,0,0
110250,20.8333333333333,3,2,1,100,1,0
110250,-13.0718954248366,3,2,1,100,0,0
110292,-13.0718954248366,3,2,1,5,0,0
110333,20.8333333333333,3,2,1,100,1,0
110333,-12.5,3,2,1,100,0,0
110375,-12.5,3,2,1,5,0,0
110417,333.333333333333,3,2,1,100,1,0

[Colours]
Combo1 : 55,115,255
Combo2 : 2,255,230

[HitObjects]
374,31,2004,6,2,L|390:14,4,12.5
210,242,2338,5,0,0:0:0:0:
302,242,2504,1,0,0:0:0:0:
302,142,2671,1,0,0:0:0:0:
210,142,2838,1,0,0:0:0:0:
468,125,3004,6,2,L|491:125,4,12.5
210,142,3338,5,0,0:0:0:0:
302,142,3504,1,0,0:0:0:0:
302,242,3671,1,0,0:0:0:0:
210,242,3838,1,0,0:0:0:0:
374,353,4004,6,2,L|390:369,4,12.5
210,242,4338,5,0,0:0:0:0:
302,242,4504,1,0,0:0:0:0:
302,142,4671,1,0,0:0:0:0:
210,142,4838,1,0,0:0:0:0:
468,259,5004,6,2,L|491:259,4,12.5
210,142,5338,5,0,0:0:0:0:
302,142,5504,1,0,0:0:0:0:
302,242,5671,1,0,0:0:0:0:
210,242,5838,1,0,0:0:0:0:
138,31,6004,6,2,L|121:14,4,12.5
302,242,6338,5,0,0:0:0:0:
210,242,6504,1,0,0:0:0:0:
210,142,6671,1,0,0:0:0:0:
302,142,6838,1,0,0:0:0:0:
44,125,7004,6,2,L|21:125,4,12.5
302,142,7338,5,0,0:0:0:0:
210,142,7504,1,0,0:0:0:0:
210,242,7671,1,0,0:0:0:0:
302,242,7838,1,0,0:0:0:0:
138,353,8004,6,2,L|121:369,4,12.5
302,242,8338,5,0,0:0:0:0:
210,242,8504,1,0,0:0:0:0:
210,142,8671,1,0,0:0:0:0:
302,142,8838,1,0,0:0:0:0:
44,259,9004,6,2,L|21:259,4,12.5
302,142,9338,5,0,0:0:0:0:
210,142,9504,1,0,0:0:0:0:
210,242,9671,1,0,0:0:0:0:
302,242,9838,1,0,0:0:0:0:
394,42,10004,6,2,L|394:19,2,12.5
352,192,10171,6,0,L|402:192,1,37.5000014305115,4|0,0:0|0:0,0:0:0:0:
472,192,10338,1,0,0:0:0:0:
449,89,10504,2,0,L|424:132,1,37.5000014305115,4|0,0:0|0:0,0:0:0:0:
389,192,10671,1,0,0:0:0:0:
489,224,10838,2,0,L|463:180,1,37.5000014305115,4|0,0:0|0:0,0:0:0:0:
319,42,11004,6,2,L|319:19,2,12.5
194,196,11171,6,0,P|208:207|225:214,1,37.5000014305115,4|0,0:0|0:0,0:0:0:0:
307,233,11338,1,0,0:0:0:0:
281,116,11504,2,0,P|263:122|248:134,1,37.5000014305115,4|0,0:0|0:0,0:0:0:0:
194,196,11671,1,0,0:0:0:0:
307,233,11838,2,0,P|309:214|307:195,1,37.5000014305115,4|0,0:0|0:0,0:0:0:0:
244,42,12004,6,2,L|244:19,2,12.5
74,98,12171,6,0,P|92:105|108:116,1,37.5000014305115,4|0,0:0|0:0,0:0:0:0:
173,164,12338,2,0,P|185:179|194:196,1,37.5000014305115
226,271,12504,2,0,P|228:289|227:308,1,37.5000014305115,4|0,0:0|0:0,0:0:0:0:
100,381,12671,2,0,P|97:362|98:343,1,37.5000014305115
107,262,12838,2,0,P|113:244|124:228,1,37.5000014305115,4|0,0:0|0:0,0:0:0:0:
279,111,13004,6,0,P|297:108|316:109,1,37.5000014305115,2|0,0:0|0:0,0:0:0:0:
433,122,13171,2,0,P|415:123|397:128,1,37.5000014305115,4|0,0:0|0:0,0:0:0:0:
300,184,13338,6,0,P|321:184|341:189,1,42.5000008106232
435,236,13504,2,0,P|414:239|394:246,1,42.5000008106232,4|0,0:0|0:0,0:0:0:0:
298,296,13671,6,0,P|321:300|343:310,1,47.4999987316132
422,366,13838,2,0,P|399:372|378:384,1,47.4999987316132,4|0,0:0|0:0,0:0:0:0:
157,106,14004,6,0,P|152:81|156:56,1,50,4|0,0:3|0:0,0:0:0:0:
219,239,14171,1,2,0:0:0:0:
107,163,14338,6,0,P|91:143|82:120,1,50
229,82,14504,1,2,0:0:0:0:
93,237,14671,6,0,P|69:228|50:212,1,50
302,165,14838,1,2,0:0:0:0:
283,370,15004,6,0,P|306:361|325:345,1,50
421,208,15171,1,2,0:0:0:0:
268,296,15338,6,0,P|283:276|292:253,1,50
307,87,15504,1,2,0:0:0:0:
219,239,15671,6,0,P|223:214|219:189,1,50
148,38,15838,1,2,0:0:0:0:
50,212,16004,6,0,P|69:228|93:237,1,50
219,239,16171,1,2,0:0:0:0:
67,308,16338,6,0,P|92:312|117:308,1,50
251,163,16504,1,2,0:0:0:0:
131,381,16671,6,0,P|154:372|174:357,1,50
201,97,16838,1,2,0:0:0:0:
390,283,17004,6,0,P|412:293|437:296,1,50
283,87,17171,1,2,0:0:0:0:
433,221,17338,6,0,P|457:218|480:208,1,50
251,163,17504,1,2,0:0:0:0:
438,146,17671,6,0,P|458:131|473:111,1,50
301,229,17838,1,2,0:0:0:0:
233,21,18004,6,0,L|238:70,1,50
119,107,18171,1,2,0:0:0:0:
136,248,18338,2,0,L|176:218,1,50
267,303,18504,1,2,0:0:0:0:
381,218,18671,2,0,L|335:198,1,50
363,77,18838,1,2,0:0:0:0:
119,107,19004,6,0,L|164:126,1,50
233,21,19171,1,2,0:0:0:0:
363,77,19338,2,0,L|322:106,1,50
381,218,19504,1,2,0:0:0:0:
267,303,19671,2,0,L|261:253,1,50
136,248,19838,1,2,0:0:0:0:
381,218,20004,6,0,L|335:198,1,50
363,77,20171,1,2,0:0:0:0:
233,21,20338,2,0,L|238:70,1,50
119,107,20504,1,2,0:0:0:0:
136,248,20671,2,0,L|176:218,1,50
267,303,20838,1,2,0:0:0:0:
119,107,21004,6,0,L|164:126,1,50
335,198,21171,1,6,0:0:0:0:
322,106,21254,1,4,0:0:0:0:
381,218,21338,2,0,L|335:198,1,50
136,248,21504,1,2,0:0:0:0:
363,77,21671,2,0,L|322:106,1,50
267,303,21838,2,0,L|261:253,1,50,2|0,0:0|0:0,0:0:0:0:
233,21,22004,6,0,L|238:70,1,50
335,198,22171,1,2,0:0:0:0:
249,161,22338,1,0,0:0:0:0:
261,253,22504,1,2,0:0:0:0:
249,161,22671,1,0,0:0:0:0:
176,218,22838,1,2,0:0:0:0:
381,218,23004,6,0,L|335:198,1,50
238,70,23171,1,2,0:0:0:0:
249,161,23338,1,0,0:0:0:0:
164,126,23504,1,2,0:0:0:0:
249,161,23671,1,0,0:0:0:0:
176,218,23838,1,2,0:0:0:0:
363,77,24004,6,0,L|322:106,1,50
261,253,24171,1,2,0:0:0:0:
249,161,24338,1,0,0:0:0:0:
176,218,24504,1,2,0:0:0:0:
249,161,24671,1,0,0:0:0:0:
164,126,24838,1,2,0:0:0:0:
267,303,25004,6,0,L|261:253,1,50
322,106,25171,1,2,0:0:0:0:
249,161,25338,1,0,0:0:0:0:
335,198,25504,1,2,0:0:0:0:
249,161,25671,1,0,0:0:0:0:
261,253,25838,1,2,0:0:0:0:
184,45,26004,6,0,L|175:94,1,50
63,89,26171,1,2,0:0:0:0:
42,215,26338,2,0,L|88:197,1,50
141,297,26504,1,2,0:0:0:0:
261,253,26671,2,0,L|222:220,1,50
282,126,26838,1,2,0:0:0:0:
145,103,27004,6,0,L|96:95,1,50
156,22,27171,1,2,0:0:0:0:
203,152,27338,2,0,L|221:199,1,50
129,183,27504,1,2,0:0:0:0:
217,77,27671,2,0,L|250:39,1,50
282,126,27838,1,2,0:0:0:0:
260,252,28004,6,0,L|306:234,1,50
359,333,28171,1,2,0:0:0:0:
479,290,28338,2,0,L|440:257,1,50
500,163,28504,1,2,0:0:0:0:
402,81,28671,2,0,L|393:130,1,50
282,126,28838,1,2,0:0:0:0:
160,283,29004,6,0,L|110:274,1,50
381,208,29171,1,6,0:0:0:0:
283,243,29254,1,4,0:0:0:0:
359,333,29338,6,0,L|367:283,1,50
402,81,29504,2,0,L|393:130,1,50,2|0,0:0|0:0,0:0:0:0:
260,252,29671,6,0,L|306:234,1,50
479,290,29838,2,0,L|440:257,1,50,2|0,0:0|0:0,0:0:0:0:
169,65,30004,5,4,0:3:0:0:
130,231,30171,1,2,0:0:0:0:
99,154,30254,1,4,0:0:0:0:
69,288,30338,6,0,P|111:312|161:309,1,100,4|6,0:0|0:0,0:0:0:0:
190,174,30671,2,0,P|148:150|99:153,1,100,0|6,0:0|0:0,0:0:0:0:
353,356,31004,5,0,0:0:0:0:
314,190,31171,1,2,0:0:0:0:
283,267,31254,1,4,0:0:0:0:
345,113,31338,6,0,B|296:104|296:104|254:131,1,100,4|6,0:0|0:0,0:0:0:0:
283,267,31671,2,0,B|332:276|332:276|373:248,1,100,0|6,0:0|0:0,0:0:0:0:
366,4,32004,5,0,0:0:0:0:
405,170,32171,1,2,0:0:0:0:
345,113,32254,1,4,0:0:0:0:
373,247,32338,6,0,P|422:251|465:227,1,100,4|6,0:0|0:0,0:0:0:0:
436,92,32671,2,0,P|387:88|345:113,1,100,0|6,0:0|0:0,0:0:0:0:
107,316,33004,6,0,L|207:308,1,100,0|6,0:0|0:0,0:0:0:0:
373,247,33338,2,0,L|273:238,1,100,0|6,0:0|0:0,0:0:0:0:
60,192,33671,2,0,L|160:184,1,100,0|6,0:0|0:0,0:0:0:0:
442,43,34004,5,0,0:0:0:0:
283,96,34171,1,2,0:0:0:0:
363,116,34254,1,4,0:0:0:0:
260,16,34338,6,0,P|215:-5|166:1,1,100,4|6,0:0|0:0,0:0:0:0:
306,176,34671,2,0,P|350:197|399:190,1,100,0|6,0:0|0:0,0:0:0:0:
203,76,35004,5,0,0:0:0:0:
249,236,35171,1,2,0:0:0:0:
226,156,35254,1,4,0:0:0:0:
192,296,35338,6,0,B|185:344|185:344|219:382,1,100,4|6,0:0|0:0,0:0:0:0:
306,176,35671,2,0,B|312:127|312:127|278:89,1,100,0|6,0:0|0:0,0:0:0:0:
272,316,36004,5,0,0:0:0:0:
146,176,36171,1,2,0:0:0:0:
226,156,36254,1,4,0:0:0:0:
89,117,36338,6,0,P|39:118|0:147,1,100,4|6,0:0|0:0,0:0:0:0:
204,236,36671,2,0,P|253:234|293:205,1,100,0|6,0:0|0:0,0:0:0:0:
416,3,37004,6,0,L|407:102,1,100,0|6,0:0|0:0,0:0:0:0:
414,316,37338,2,0,L|406:217,1,100,0|6,0:0|0:0,0:0:0:0:
259,149,37671,2,0,P|283:157|308:158,1,50,4|0,0:0|0:0,0:0:0:0:
511,170,37838,2,0,P|487:162|463:162,1,50,6|0,0:0|0:0,0:0:0:0:
218,347,38004,5,8,0:0:0:0:
312,257,38171,1,2,0:0:0:0:
325,257,38254,1,4,0:0:0:0:
211,233,38338,6,0,P|162:228|115:243,1,100,4|6,0:0|0:0,0:0:0:0:
0,225,38671,2,0,P|49:230|96:215,1,100,0|6,0:0|0:0,0:0:0:0:
232,30,39004,5,0,0:0:0:0:
141,98,39171,1,2,0:0:0:0:
128,98,39254,1,4,0:0:0:0:
233,137,39338,6,0,B|280:148|280:148|330:137,1,100,4|6,0:0|0:0,0:0:0:0:
429,164,39671,2,0,B|382:153|382:153|331:163,1,100,0|6,0:0|0:0,0:0:0:0:
149,345,40004,5,0,0:0:0:0:
285,279,40171,1,2,0:0:0:0:
298,279,40254,1,4,0:0:0:0:
193,235,40338,6,0,P|188:186|203:139,1,100,4|6,0:0|0:0,0:0:0:0:
185,24,40671,2,0,P|190:73|175:120,1,100,0|6,0:0|0:0,0:0:0:0:
0,270,41004,6,0,L|99:262,1,100,0|6,0:0|0:0,0:0:0:0:
292,243,41338,2,0,L|193:235,1,100,0|6,0:0|0:0,0:0:0:0:
0,173,41671,2,0,L|99:165,1,100,0|6,0:0|0:0,0:0:0:0:
335,67,42004,5,0,0:0:0:0:
192,136,42171,1,2,0:0:0:0:
179,136,42254,1,4,0:0:0:0:
290,155,42338,6,0,P|338:164|386:150,1,100,4|6,0:0|0:0,0:0:0:0:
496,174,42671,2,0,P|447:164|399:178,1,100,0|6,0:0|0:0,0:0:0:0:
193,335,43004,1,0,0:0:0:0:
326,300,43171,1,2,0:0:0:0:
339,300,43254,1,4,0:0:0:0:
243,245,43338,6,0,B|193:235|193:235|146:246,1,100,4|6,0:0|0:0,0:0:0:0:
32,226,43671,2,0,B|83:237|83:237|130:226,1,100,0|6,0:0|0:0,0:0:0:0:
226,51,44004,5,0,0:0:0:0:
83,120,44171,1,2,0:0:0:0:
70,120,44254,1,4,0:0:0:0:
181,139,44338,6,0,P|229:148|277:134,1,100,4|6,0:0|0:0,0:0:0:0:
387,158,44671,2,0,P|338:148|290:162,1,100,0|6,0:0|0:0,0:0:0:0:
114,372,45004,5,0,0:0:0:0:
343,248,45171,1,6,0:0:0:0:
345,264,45254,1,0,0:0:0:0:
347,280,45338,5,0,0:0:0:0:
324,277,45421,1,0,0:0:0:0:
298,280,45504,1,6,0:0:0:0:
271,290,45588,1,0,0:0:0:0:
245,308,45671,1,4,0:0:0:0:
212,319,45754,1,0,0:0:0:0:
170,320,45838,1,6,0:0:0:0:
121,293,45921,1,0,0:0:0:0:
84,233,46004,6,0,P|85:174|115:123,1,119.999996337891,4|6,0:3|0:0,0:0:0:0:
254,45,46338,1,0,0:0:0:0:
194,205,46504,1,6,0:0:0:0:
195,218,46588,1,4,0:0:0:0:
196,231,46671,1,4,0:0:0:0:
157,35,46838,1,6,0:0:0:0:
318,215,47004,5,2,0:0:0:0:
355,226,47088,1,0,0:0:0:0:
394,227,47171,1,6,0:0:0:0:
432,218,47254,1,0,0:0:0:0:
366,138,47338,5,2,0:0:0:0:
343,159,47421,1,0,0:0:0:0:
327,185,47504,1,6,0:0:0:0:
318,215,47588,1,0,0:0:0:0:
401,203,47671,5,6,0:0:0:0:
395,178,47754,1,0,0:0:0:0:
384,157,47838,1,6,0:0:0:0:
366,138,47921,1,0,0:0:0:0:
286,82,48004,6,0,B|249:66|249:66|154:81,1,119.999996337891,0|6,0:0|0:0,0:0:0:0:
89,94,48254,1,4,0:0:0:0:
238,152,48338,1,4,0:0:0:0:
36,178,48504,1,2,0:0:0:0:
23,179,48588,1,0,0:0:0:0:
10,180,48671,1,0,0:0:0:0:
274,228,48838,1,6,0:0:0:0:
114,335,49004,5,0,0:0:0:0:
77,346,49088,1,0,0:0:0:0:
38,347,49171,1,6,0:0:0:0:
0,338,49254,1,0,0:0:0:0:
66,258,49338,5,2,0:0:0:0:
89,279,49421,1,0,0:0:0:0:
105,305,49504,1,6,0:0:0:0:
114,335,49588,1,0,0:0:0:0:
31,323,49671,5,6,0:0:0:0:
37,298,49754,1,0,0:0:0:0:
48,277,49838,1,6,0:0:0:0:
66,258,49921,1,0,0:0:0:0:
147,201,50004,6,0,P|204:185|261:201,1,119.999996337891,0|6,0:0|0:0,0:0:0:0:
399,341,50338,1,0,0:0:0:0:
207,298,50504,1,6,0:0:0:0:
194,299,50588,1,4,0:0:0:0:
181,300,50671,1,4,0:0:0:0:
388,211,50838,1,6,0:0:0:0:
179,114,51004,5,2,0:0:0:0:
168,77,51088,1,0,0:0:0:0:
167,38,51171,1,6,0:0:0:0:
176,0,51254,1,0,0:0:0:0:
256,66,51338,5,2,0:0:0:0:
235,89,51421,1,0,0:0:0:0:
209,105,51504,1,6,0:0:0:0:
179,114,51588,1,0,0:0:0:0:
191,31,51671,5,6,0:0:0:0:
216,37,51754,1,0,0:0:0:0:
237,48,51838,1,6,0:0:0:0:
256,66,51921,1,0,0:0:0:0:
316,144,52004,5,2,0:0:0:0:
335,162,52088,1,0,0:0:0:0:
356,173,52171,1,6,0:0:0:0:
381,179,52254,1,0,0:0:0:0:
393,96,52338,5,2,0:0:0:0:
363,105,52421,1,0,0:0:0:0:
337,121,52504,1,6,0:0:0:0:
316,144,52588,1,0,0:0:0:0:
396,210,52671,5,2,0:0:0:0:
405,172,52754,1,0,0:0:0:0:
404,133,52838,1,6,0:0:0:0:
393,96,52921,1,0,0:0:0:0:
326,25,53004,5,2,0:0:0:0:
283,21,53088,1,0,0:0:0:0:
241,17,53171,1,6,0:0:0:0:
199,13,53254,1,0,0:0:0:0:
128,85,53338,5,2,0:0:0:0:
179,90,53421,1,0,0:0:0:0:
230,95,53504,1,6,0:0:0:0:
280,100,53588,1,0,0:0:0:0:
419,116,53671,6,0,L|359:121,1,59.9999981689454,6|0,0:0|0:0,0:0:0:0:
97,179,53838,2,0,L|157:185,1,59.9999981689454,6|0,0:0|0:0,0:0:0:0:
314,192,54004,6,0,P|340:245|332:303,1,119.999996337891,8|6,0:0|0:0,0:0:0:0:
128,85,54338,1,0,0:0:0:0:
244,262,54504,1,6,0:0:0:0:
243,275,54588,1,4,0:0:0:0:
242,288,54671,1,4,0:0:0:0:
274,74,54838,1,6,0:0:0:0:
90,207,55004,5,2,0:0:0:0:
88,245,55088,1,0,0:0:0:0:
87,283,55171,1,6,0:0:0:0:
85,321,55254,1,0,0:0:0:0:
168,234,55338,5,2,0:0:0:0:
166,203,55421,1,0,0:0:0:0:
165,173,55504,1,6,0:0:0:0:
164,142,55588,1,0,0:0:0:0:
251,231,55671,5,6,0:0:0:0:
249,255,55754,1,0,0:0:0:0:
248,279,55838,1,6,0:0:0:0:
247,304,55921,1,0,0:0:0:0:
331,248,56004,6,0,P|322:190|277:153,1,119.999996337891,0|6,0:0|0:0,0:0:0:0:
164,142,56254,1,4,0:0:0:0:
251,231,56338,1,4,0:0:0:0:
225,49,56504,1,6,0:0:0:0:
226,36,56588,1,0,0:0:0:0:
227,23,56671,1,0,0:0:0:0:
152,224,56838,1,6,0:0:0:0:
321,65,57004,5,2,0:0:0:0:
359,63,57088,1,0,0:0:0:0:
397,62,57171,1,6,0:0:0:0:
435,60,57254,1,0,0:0:0:0:
348,143,57338,5,2,0:0:0:0:
317,141,57421,1,0,0:0:0:0:
287,140,57504,1,6,0:0:0:0:
256,139,57588,1,0,0:0:0:0:
345,226,57671,5,6,0:0:0:0:
369,224,57754,1,0,0:0:0:0:
393,223,57838,1,6,0:0:0:0:
418,222,57921,1,0,0:0:0:0:
363,307,58004,6,0,B|324:324|324:324|247:317,1,119.999996337891,0|6,0:0|0:0,0:0:0:0:
31,273,58338,1,0,0:0:0:0:
256,139,58504,1,6,0:0:0:0:
269,140,58588,1,4,0:0:0:0:
282,141,58671,1,4,0:0:0:0:
33,137,58838,1,6,0:0:0:0:
273,230,59004,5,2,0:0:0:0:
275,268,59088,1,0,0:0:0:0:
276,306,59171,1,6,0:0:0:0:
278,344,59254,1,0,0:0:0:0:
195,257,59338,5,2,0:0:0:0:
197,226,59421,1,0,0:0:0:0:
198,196,59504,1,6,0:0:0:0:
199,165,59588,1,0,0:0:0:0:
112,254,59671,5,2,0:0:0:0:
114,278,59754,1,0,0:0:0:0:
115,302,59838,1,6,0:0:0:0:
116,327,59921,1,0,0:0:0:0:
31,269,60004,6,0,B|31:256|31:256|24:256|18:262|18:269|18:269|18:275|24:281|31:281|31:281|37:281|43:275|43:269|43:269|43:262|37:256|31:256|31:256|31:269|31:269,1,100
194,364,60171,2,0,B|194:348|194:348|186:348|178:356|178:364|178:364|178:371|186:379|194:379|194:379|201:379|209:371|209:364|209:364|209:356|201:348|194:348|194:348|194:364|194:364,1,125,6|0,0:0|0:0,0:0:0:0:
466,205,60338,6,0,B|466:186|466:186|456:186|447:195|447:205|447:205|447:214|456:223|466:223|466:223|475:223|484:214|484:205|484:205|484:195|475:186|466:186|466:186|466:205|466:205,1,150.000005722046
328,333,60504,2,0,B|328:311|328:311|317:311|306:322|306:333|306:333|306:343|317:354|328:354|328:354|338:354|349:343|349:333|349:333|349:322|338:311|328:311|328:311|328:333|328:333,1,175.00000166893,6|0,0:0|0:0,0:0:0:0:
24,141,60671,6,0,B|24:116|24:116|11:116|0:128|0:141|0:141|0:153|11:165|24:165|24:165|36:165|48:153|48:141|48:141|48:128|36:116|24:116|24:116|24:141|24:141,1,200
232,247,60838,2,0,B|232:219|232:219|218:219|204:233|204:247|204:247|204:260|218:274|232:274|232:274|245:274|259:260|259:247|259:247|259:233|245:219|232:219|232:219|232:247|232:247,1,225.000008583069,6|0,0:0|0:0,0:0:0:0:
458,39,61004,6,0,B|458:8|458:8|442:8|427:23|427:39|427:39|427:54|442:69|458:69|458:69|473:69|488:54|488:39|488:39|488:23|473:8|458:8|458:8|458:39|458:39,1,250
461,343,61170,2,0,B|461:306|461:306|442:306|424:324|424:343|424:343|424:361|442:379|461:379|461:379|479:379|497:361|497:343|497:343|497:324|479:306|461:306|461:306|461:343|461:343,1,300.000011444092,6|0,0:0|0:0,0:0:0:0:
123,48,61337,2,0,B|123:5|123:5|101:5|80:26|80:48|80:48|80:69|101:90|123:90|123:90|144:90|165:69|165:48|165:48|165:26|144:5|123:5|123:5|123:48|123:48,1,350.00000333786
512,187,61504,6,0,B|512:138|512:138|487:138|463:162|463:187|463:187|463:211|487:235|512:235|512:235|536:235|560:211|560:187|560:187|560:162|536:138|512:138|512:138|512:187|512:187,1,400,6|0,0:0|0:0,0:0:0:0:
96,328,61670,2,0,B|96:273|96:273|68:273|41:300|41:328|41:328|41:355|68:382|96:382|96:382|123:382|150:355|150:328|150:328|150:300|123:273|96:273|96:273|96:328|96:328,1,450.000017166138,4|0,0:0|0:0,0:0:0:0:
296,39,61837,2,0,B|296:-21|296:-21|265:-21|235:9|235:39|235:39|235:69|265:99|296:99|296:99|326:99|356:69|356:39|356:39|356:9|326:-21|296:-21|296:-21|296:39|296:39,1,500,6|0,0:0|0:0,0:0:0:0:
275,365,62004,6,2,L|275:380,2,14.9999995422363,6|2|2,0:3|0:0|0:0,0:0:0:0:
355,201,62170,2,4,L|360:137,1,59.9999981689454,6|4,0:0|0:0,0:0:0:0:
269,248,62337,6,0,P|213:268|156:252,1,119.999996337891,0|2,0:0|0:0,0:0:0:0:
122,160,62587,1,4,0:0:0:0:
50,277,62670,2,0,P|105:256|162:272,1,119.999996337891,4|6,0:0|0:0,0:0:0:0:
352,365,63004,6,2,L|352:380,2,14.9999995422363
210,168,63170,2,4,L|204:104,1,59.9999981689454,6|4,0:0|0:0,0:0:0:0:
269,248,63337,5,0,0:0:0:0:
306,251,63420,1,0,0:0:0:0:
345,254,63504,1,6,0:0:0:0:
383,258,63587,1,0,0:0:0:0:
427,181,63670,5,4,0:0:0:0:
396,177,63753,1,0,0:0:0:0:
365,175,63837,1,6,0:0:0:0:
335,173,63920,1,0,0:0:0:0:
269,248,64004,6,2,L|269:263,2,14.9999995422363
290,72,64170,2,4,L|295:8,1,59.9999981689454,6|4,0:0|0:0,0:0:0:0:
210,154,64337,6,0,B|179:203|179:203|179:265,1,119.999996337891,0|2,0:0|0:0,0:0:0:0:
237,345,64587,1,4,0:0:0:0:
118,353,64670,2,0,B|149:304|149:304|149:241,1,119.999996337891,4|6,0:0|0:0,0:0:0:0:
109,52,65004,6,2,L|109:37,2,14.9999995422363
35,256,65170,2,0,L|29:319,1,59.9999981689454,6|0,0:0|0:0,0:0:0:0:
83,166,65337,5,0,0:0:0:0:
120,163,65420,1,0,0:0:0:0:
159,160,65504,1,6,0:0:0:0:
197,156,65587,1,0,0:0:0:0:
241,233,65670,5,4,0:0:0:0:
210,237,65754,1,0,0:0:0:0:
179,239,65837,1,6,0:0:0:0:
149,241,65920,1,0,0:0:0:0:
35,256,66004,6,2,L|20:256,2,14.9999995422363
221,330,66170,2,4,L|284:324,1,59.9999981689454,6|4,0:0|0:0,0:0:0:0:
149,241,66337,6,0,B|126:203|126:203|141:129,1,119.999996337891,0|2,0:0|0:0,0:0:0:0:
246,76,66587,1,4,0:0:0:0:
149,17,66670,2,0,B|126:55|126:55|141:128,1,119.999996337891,4|6,0:0|0:0,0:0:0:0:
376,316,67004,6,2,L|391:316,2,14.9999995422363
220,189,67170,2,0,L|156:183,1,59.9999981689454,6|0,0:0|0:0,0:0:0:0:
316,142,67337,5,0,0:0:0:0:
353,139,67420,1,0,0:0:0:0:
392,136,67504,1,6,0:0:0:0:
430,132,67587,1,0,0:0:0:0:
474,209,67670,5,4,0:0:0:0:
443,213,67754,1,0,0:0:0:0:
412,215,67837,1,6,0:0:0:0:
382,217,67920,1,0,0:0:0:0:
287,237,68004,6,2,L|272:237,2,14.9999995422363
430,132,68170,2,4,L|493:126,1,59.9999981689454,6|4,0:0|0:0,0:0:0:0:
392,42,68337,6,0,P|336:22|279:38,1,119.999996337891,0|2,0:0|0:0,0:0:0:0:
227,114,68587,1,4,0:0:0:0:
167,42,68670,2,0,P|222:20|278:36,1,119.999996337891,4|6,0:0|0:0,0:0:0:0:
474,209,69004,6,2,L|489:209,2,14.9999995422363
270,369,69170,2,0,L|206:363,1,59.9999981689454,6|0,0:0|0:0,0:0:0:0:
329,291,69337,5,0,0:0:0:0:
332,254,69420,1,0,0:0:0:0:
335,215,69504,1,6,0:0:0:0:
339,177,69587,1,0,0:0:0:0:
261,132,69670,6,0,L|256:192,1,59.9999981689454,4|0,0:0|0:0,0:0:0:0:
406,335,69837,2,0,L|411:275,1,59.9999981689454,6|0,0:0|0:0,0:0:0:0:
256,192,70003,6,0,B|190:192|190:192|246:208|288:135|288:135|246:175|288:248|288:248|275:192|190:192|190:192|256:192|256:192,1,500,10|0,0:0|0:0,0:0:0:0:
94,319,70169,2,4,L|99:378,1,59.9999981689454,6|4,0:0|0:0,0:0:0:0:
153,258,70336,2,4,L|164:139,1,119.999996337891,4|6,0:0|0:0,0:0:0:0:
14,372,70669,2,0,L|3:252,1,119.999996337891,0|6,0:0|0:0,0:0:0:0:
256,192,71002,6,0,B|164:139|164:139|229:206|345:138|345:138|255:160|255:294|255:294|282:207|164:139|164:139|256:192|256:192,1,800,2|0,0:0|0:0,0:0:0:0:
248,70,71169,5,6,0:0:0:0:
365,246,71336,1,0,0:0:0:0:
153,258,71502,1,6,0:0:0:0:
403,94,71669,2,0,P|456:119|483:171,1,119.999996337891,0|6,0:0|0:0,0:0:0:0:
256,192,72002,6,0,B|190:78|190:78|218:190|386:190|386:190|275:157|191:303|191:303|274:224|190:78|190:78|256:192|256:192,1,1000,10|0,0:0|0:0,0:0:0:0:
266,3,72169,2,4,P|284:28|294:56,1,59.9999981689454,6|4,0:0|0:0,0:0:0:0:
190,78,72336,2,4,B|145:89|145:89|73:70,1,119.999996337891,4|6,0:0|0:0,0:0:0:0:
387,43,72669,2,0,B|432:32|432:32|503:50,1,119.999996337891,0|6,0:0|0:0,0:0:0:0:
256,192,73002,6,4,B|256:92|256:92|256:43|256:43|192:3|192:3|256:43|256:43|317:3|317:3|256:43|256:43|256:93|256:93|290:132|290:132|341:142|341:142|384:117|384:117|387:43|387:43|384:117|384:117|450:151|450:151|384:117|384:117|341:142|341:142|325:192|325:192|342:240|342:240|384:266|384:266|450:231|450:231|384:266|384:266|387:339|387:339|384:266|384:266|341:240|341:240|290:251|290:251|256:290|256:290|256:340|256:340|318:380|318:380|256:340|256:340|193:379|193:379|256:340|256:340|256:290|256:290|221:251|221:251|168:240|168:240|126:266|126:266|60:231|60:231|126:266|126:266|123:339|123:339|126:266|126:266|169:240|169:240|186:192|186:192|169:142|169:142|126:117|126:117|123:43|123:43|126:117|126:117|60:151|60:151|126:117|126:117|169:142|169:142|221:132|221:132|256:92|256:92|256:192|256:192,1,3200,14|4,0:0|0:0,0:0:0:0:
500,333,73169,6,4,B|500:305|500:305|486:305|472:319|472:333|472:333|472:346|486:360|500:360|500:360|513:360|527:346|527:333|527:333|527:319|513:305|500:305|500:305|500:333|500:333,1,225.000008583069,6|4,0:0|0:0,0:0:0:0:
256,340,73336,6,4,B|256:315|256:315|243:315|232:327|232:340|232:340|232:352|243:364|256:364|256:364|268:364|280:352|280:340|280:340|280:327|268:315|256:315|256:315|256:340|256:340,1,200
85,271,73502,6,4,B|85:249|85:249|74:249|63:260|63:271|63:271|63:281|74:292|85:292|85:292|95:292|106:281|106:271|106:271|106:260|95:249|85:249|85:249|85:271|85:271,1,175.00000166893,6|4,0:0|0:0,0:0:0:0:
38,128,73669,6,4,B|38:109|38:109|28:109|19:118|19:128|19:128|19:137|28:146|38:146|38:146|47:146|56:137|56:128|56:128|56:118|47:109|38:109|38:109|38:128|38:128,1,150.000005722046
62,2,73836,6,4,B|62:-14|62:-14|54:-14|46:-6|46:2|46:2|46:9|54:17|62:17|62:17|69:17|77:9|77:2|77:2|77:-6|69:-14|62:-14|62:-14|62:2|62:2,1,125,6|4,0:0|0:0,0:0:0:0:
374,275,74336,6,0,B|386:304|375:332|375:332|367:305,1,75.0000028610231,4|0,0:3|0:0,0:0:0:0:
418,255,74419,2,0,B|446:267|459:294|459:294|434:281,1,75.0000028610231
434,209,74502,2,0,B|462:197|490:208|490:208|463:216,1,75.0000028610231,6|0,0:0|0:0,0:0:0:0:
414,165,74586,2,0,B|426:136|453:123|453:123|440:148,1,75.0000028610231,4|0,0:0|0:0,0:0:0:0:
368,149,74669,2,0,B|356:120|367:92|367:92|375:119,1,75.0000028610231,4|0,0:0|0:0,0:0:0:0:
324,169,74752,2,0,B|295:156|282:129|282:129|307:142,1,75.0000028610231
295,208,74836,2,0,B|263:212|239:194|239:194|267:193,1,75.0000028610231,6|0,0:0|0:0,0:0:0:0:
256,238,74919,2,0,B|260:269|283:287|283:287|277:260,1,75.0000028610231
211,257,75002,2,0,B|206:288|224:312|224:312|225:284,1,75.0000028610231
162,263,75086,2,0,B|150:292|160:320|160:320|169:293,1,75.0000028610231
116,243,75169,2,0,B|91:262|86:291|86:291|107:272,1,75.0000028610231,6|0,0:0|0:0,0:0:0:0:
86,202,75252,2,0,B|54:206|36:229|36:229|63:223,1,75.0000028610231
80,151,75336,6,0,B|48:84|95:31|95:31|105:63|102:89,1,175.00000166893,0|6,0:0|0:0,0:0:0:0:
92,374,75669,1,0,0:0:0:0:
177,165,75836,1,6,0:0:0:0:
315,343,76002,5,0,0:0:0:0:
170,155,76169,1,6,0:0:0:0:
492,204,76336,5,0,0:0:0:0:
163,145,76502,1,6,0:0:0:0:
261,143,76586,1,4,0:0:0:0:
113,231,76669,2,4,P|64:161|87:79,1,175.00000166893,4|6,0:0|0:0,0:0:0:0:
379,1,77002,5,0,0:0:0:0:
355,26,77086,1,0,0:0:0:0:
342,60,77169,1,6,0:0:0:0:
343,94,77253,1,0,0:0:0:0:
355,127,77336,5,0,0:0:0:0:
311,91,77419,1,0,0:0:0:0:
254,81,77502,1,6,0:0:0:0:
200,101,77585,1,0,0:0:0:0:
163,145,77668,5,0,0:0:0:0:
459,230,77836,1,6,0:0:0:0:
475,228,77919,1,4,0:0:0:0:
492,227,78002,1,4,0:0:0:0:
276,1,78169,1,6,0:0:0:0:
113,251,78336,6,0,B|101:280|112:308|112:308|120:281,1,75.0000028610231
69,231,78419,2,0,B|41:243|28:270|28:270|53:257,1,75.0000028610231
53,185,78502,2,0,B|25:173|-3:184|-3:184|24:192,1,75.0000028610231,6|0,0:0|0:0,0:0:0:0:
73,141,78586,2,0,B|61:112|34:99|34:99|47:124,1,75.0000028610231,4|0,0:0|0:0,0:0:0:0:
119,125,78669,2,0,B|131:96|120:68|120:68|112:95,1,75.0000028610231,4|0,0:0|0:0,0:0:0:0:
163,145,78752,2,0,B|192:132|205:105|205:105|180:118,1,75.0000028610231
192,184,78836,2,0,B|224:188|248:170|248:170|220:169,1,75.0000028610231,6|0,0:0|0:0,0:0:0:0:
197,232,78919,2,0,B|175:255|145:257|145:257|165:238,1,75.0000028610231
223,268,79002,2,0,B|215:299|190:315|190:315|199:289,1,75.0000028610231
262,284,79086,2,0,B|271:314|257:341|257:341|252:314,1,75.0000028610231
301,281,79169,2,0,B|324:302|326:332|326:332|307:312,1,75.0000028610231,6|0,0:0|0:0,0:0:0:0:
330,262,79252,2,0,B|361:269|377:294|377:294|351:285,1,75.0000028610231
351,232,79336,6,0,P|369:206|370:173,1,56.2500021457673
358,204,79419,2,0,P|360:171|344:142,1,56.2500021457673
349,176,79502,2,0,P|334:146|306:129,1,56.2500021457673,6|0,0:0|0:0,0:0:0:0:
327,155,79586,2,0,P|300:137|267:136,1,56.2500021457673
298,149,79669,2,0,P|265:146|236:162,1,56.2500021457673
269,150,79752,2,0,P|237:156|213:178,1,56.2500021457673
237,158,79836,2,0,P|204:160|175:144,1,56.2500021457673,6|0,0:0|0:0,0:0:0:0:
199,172,79919,2,0,P|169:157|152:129,1,56.2500021457673
159,165,80002,2,0,P|141:138|140:105,1,56.2500021457673
127,134,80086,2,0,P|124:101|140:72,1,56.2500021457673
127,85,80169,2,0,P|148:60|180:51,1,56.2500021457673,6|0,0:0|0:0,0:0:0:0:
161,47,80252,2,0,P|193:44|222:60,1,56.2500021457673,4|0,0:0|0:0,0:0:0:0:
209,30,80336,6,4,B|282:9|336:62|336:62|316:69|288:66,1,175.00000166893,4|6,0:0|0:0,0:0:0:0:
11,108,80669,1,0,0:0:0:0:
287,223,80836,1,6,0:0:0:0:
25,382,81002,1,0,0:0:0:0:
26,365,81085,1,0,0:0:0:0:
28,349,81169,1,6,0:0:0:0:
30,333,81252,1,0,0:0:0:0:
32,317,81335,5,0,0:0:0:0:
42,326,81419,1,0,0:0:0:0:
54,335,81502,1,6,0:0:0:0:
69,344,81585,1,0,0:0:0:0:
87,353,81669,1,0,0:0:0:0:
109,361,81752,1,0,0:0:0:0:
135,367,81835,1,6,0:0:0:0:
166,371,81919,1,0,0:0:0:0:
203,371,82002,6,0,B|203:358|203:358|196:358|190:364|190:371|190:371|190:377|196:383|203:383|203:383|209:383|215:377|215:371|215:371|215:364|209:358|203:358|203:358|203:371|203:371,1,100,4|0,0:0|0:0,0:0:0:0:
246,363,82085,2,0,B|246:347|246:347|238:347|230:355|230:363|230:363|230:370|238:378|246:378|246:378|253:378|261:370|261:363|261:363|261:355|253:347|246:347|246:347|246:363|246:363,1,125
295,344,82169,2,0,B|295:325|295:325|285:325|276:334|276:344|276:344|276:353|285:362|295:362|295:362|304:362|313:353|313:344|313:344|313:334|304:325|295:325|295:325|295:344|295:344,1,150.000005722046,6|0,0:0|0:0,0:0:0:0:
348,311,82252,2,0,B|348:289|348:289|337:289|326:300|326:311|326:311|326:321|337:332|348:332|348:332|358:332|369:321|369:311|369:311|369:300|358:289|348:289|348:289|348:311|348:311,1,175.00000166893
398,255,82335,6,0,B|398:230|398:230|385:230|374:242|374:255|374:255|374:267|385:279|398:279|398:279|410:279|422:267|422:255|422:255|422:242|410:230|398:230|398:230|398:255|398:255,1,200,4|0,0:3|0:0,0:0:0:0:
105,254,82502,1,6,0:0:0:0:
230,267,82669,1,0,0:0:0:0:
54,140,82835,5,6,0:0:0:0:
128,39,83002,1,0,0:0:0:0:
252,51,83169,1,6,0:0:0:0:
230,267,83335,5,0,0:0:0:0:
179,153,83502,1,6,0:0:0:0:
173,138,83585,1,4,0:0:0:0:
167,124,83668,1,4,0:0:0:0:
304,166,83835,1,6,0:0:0:0:
128,39,84002,5,0,0:0:0:0:
54,140,84169,1,6,0:0:0:0:
252,51,84335,5,0,0:0:0:0:
179,153,84502,1,6,0:0:0:0:
169,165,84585,1,4,0:0:0:0:
159,177,84668,1,4,0:0:0:0:
304,166,84835,1,6,0:0:0:0:
105,254,85002,5,0,0:0:0:0:
230,267,85169,1,6,0:0:0:0:
54,140,85335,5,0,0:0:0:0:
179,153,85502,1,6,0:0:0:0:
194,155,85585,1,4,0:0:0:0:
209,158,85668,1,4,0:0:0:0:
128,39,85835,5,6,0:0:0:0:
105,254,86002,5,0,0:0:0:0:
252,51,86169,1,6,0:0:0:0:
355,280,86335,5,0,0:0:0:0:
304,166,86502,1,6,0:0:0:0:
297,151,86586,1,4,0:0:0:0:
291,137,86669,1,4,0:0:0:0:
428,178,86835,1,6,0:0:0:0:
377,65,87002,1,0,0:0:0:0:
230,267,87169,1,6,0:0:0:0:
252,51,87335,5,0,0:0:0:0:
304,166,87502,1,6,0:0:0:0:
310,180,87585,1,4,0:0:0:0:
317,195,87669,1,4,0:0:0:0:
180,154,87836,1,6,0:0:0:0:
377,65,88002,5,0,0:0:0:0:
428,178,88168,1,6,0:0:0:0:
230,267,88335,5,0,0:0:0:0:
355,280,88502,1,6,0:0:0:0:
180,154,88669,5,0,0:0:0:0:
252,51,88835,1,6,0:0:0:0:
428,178,89002,5,0,0:0:0:0:
377,65,89168,1,6,0:0:0:0:
105,254,89335,5,0,0:0:0:0:
304,166,89502,1,6,0:0:0:0:
127,37,89669,5,0,0:0:0:0:
230,267,89835,1,6,0:0:0:0:
377,65,90002,5,4,0:0:0:0:
54,140,90169,1,6,0:0:0:0:
479,287,90335,6,0,B|479:268|479:268|469:268|460:277|460:287|460:287|460:295|469:304|479:304|479:304|487:304|496:295|496:287|496:287|496:277|487:268|479:268|479:268|479:287|479:287,1,150.000005722046,4|0,0:3|0:0,0:0:0:0:
316,10,90502,5,6,0:0:0:0:
263,133,90669,1,0,0:0:0:0:
377,65,90835,1,6,0:0:0:0:
245,52,91002,1,0,0:0:0:0:
344,141,91169,1,6,0:0:0:0:
63,16,91335,6,0,B|63:-2|63:-2|53:-2|44:6|44:16|44:16|44:24|53:33|63:33|63:33|71:33|80:24|80:16|80:16|80:6|71:-2|63:-2|63:-2|63:16|63:16,1,150.000005722046
213,290,91502,5,6,0:0:0:0:
185,159,91669,1,0,0:0:0:0:
132,282,91835,1,6,0:0:0:0:
246,214,92002,1,0,0:0:0:0:
114,201,92169,1,6,0:0:0:0:
377,61,92335,6,0,B|377:42|377:42|367:42|358:51|358:61|358:61|358:69|367:78|377:78|377:78|385:78|394:69|394:61|394:61|394:51|385:42|377:42|377:42|377:61|377:61,1,150.000005722046
313,361,92502,5,6,0:0:0:0:
366,238,92669,1,0,0:0:0:0:
394,369,92835,1,6,0:0:0:0:
295,280,93002,1,0,0:0:0:0:
427,293,93169,1,6,0:0:0:0:
114,367,93335,6,0,B|114:348|114:348|104:348|95:357|95:367|95:367|95:375|104:384|114:384|114:384|122:384|131:375|131:367|131:367|131:357|122:348|114:348|114:348|114:367|114:367,1,150.000005722046
214,128,93502,5,6,0:0:0:0:
197,48,93669,1,0,0:0:0:0:
115,40,93835,1,6,0:0:0:0:
82,117,94002,1,4,0:0:0:0:
142,171,94169,1,6,0:0:0:0:
421,173,94335,6,0,B|421:154|421:154|411:154|402:163|402:173|402:173|402:181|411:190|421:190|421:190|429:190|438:181|438:173|438:173|438:163|429:154|421:154|421:154|421:173|421:173,1,150.000005722046,4|0,0:0|0:0,0:0:0:0:
143,254,94502,5,6,0:0:0:0:
275,265,94669,1,0,0:0:0:0:
160,334,94835,1,6,0:0:0:0:
215,211,95002,1,0,0:0:0:0:
242,342,95169,1,6,0:0:0:0:
12,162,95335,6,0,B|12:143|12:143|2:143|-6:152|-6:162|-6:162|-6:170|2:179|12:179|12:179|20:179|29:170|29:162|29:162|29:152|20:143|12:143|12:143|12:162|12:162,1,150.000005722046
324,109,95502,5,6,0:0:0:0:
192,98,95669,1,0,0:0:0:0:
291,186,95835,1,6,0:0:0:0:
264,55,96002,1,0,0:0:0:0:
209,178,96169,1,6,0:0:0:0:
487,14,96335,6,0,B|487:-4|487:-4|477:-4|468:4|468:14|468:14|468:22|477:31|487:31|487:31|495:31|504:22|504:14|504:14|504:4|495:-4|487:-4|487:-4|487:14|487:14,1,150.000005722046
358,333,96502,5,6,0:0:0:0:
413,210,96669,1,0,0:0:0:0:
440,341,96835,1,6,0:0:0:0:
341,253,97002,1,0,0:0:0:0:
473,264,97169,1,6,0:0:0:0:
131,200,97335,6,0,B|131:181|131:181|121:181|112:190|112:200|112:200|112:208|121:217|131:217|131:217|139:217|148:208|148:200|148:200|148:190|139:181|131:181|131:181|131:200|131:200,1,150.000005722046
461,144,97502,5,6,0:0:0:0:
493,66,97669,1,0,0:0:0:0:
433,12,97836,1,6,0:0:0:0:
473,264,98002,6,0,B|413:235|413:235|456:273|526:226|526:226|471:244|477:328|477:328|490:272|413:235|413:235|473:264|473:264,1,500,4|0,0:0|0:0,0:0:0:0:
362,53,98168,2,0,B|303:82|303:82|360:71|364:-12|364:-12|345:42|415:88|415:88|378:44|303:82|303:82|362:53|362:53,1,500,6|0,0:0|0:0,0:0:0:0:
194,355,98335,6,0,B|194:336|194:336|184:336|175:345|175:355|175:355|175:363|184:372|194:372|194:372|202:372|211:363|211:355|211:355|211:345|202:336|194:336|194:336|194:355|194:355,1,150.000005722046,12|0,0:0|0:0,0:0:0:0:
226,57,98501,5,6,0:0:0:0:
109,124,98668,1,0,0:0:0:0:
243,136,98834,1,6,0:0:0:0:
142,50,99001,1,0,0:0:0:0:
171,178,99168,1,6,0:0:0:0:
461,17,99335,6,0,B|461:-1|461:-1|451:-1|442:7|442:17|442:17|442:25|451:34|461:34|461:34|469:34|478:25|478:17|478:17|478:7|469:-1|461:-1|461:-1|461:17|461:17,1,150.000005722046
267,309,99501,5,6,0:0:0:0:
433,193,99668,1,0,0:0:0:0:
368,383,99835,1,6,0:0:0:0:
306,192,100001,1,0,0:0:0:0:
470,309,100168,1,6,0:0:0:0:
84,113,100335,6,0,B|84:50|84:50|84:19|84:19|44:-5|44:-5|84:19|84:19|122:-5|122:-5|84:19|84:19|84:51|84:51|105:75|105:75|137:81|137:81|163:66|163:66|165:19|165:19|163:66|163:66|205:87|205:87|163:66|163:66|137:81|137:81|127:113|127:113|137:142|137:142|163:159|163:159|205:137|205:137|163:159|163:159|165:204|165:204|163:159|163:159|137:142|137:142|105:149|105:149|84:174|84:174|84:205|84:205|122:230|122:230|84:205|84:205|44:229|44:229|84:205|84:205|84:174|84:174|62:149|62:149|29:142|29:142|2:159|2:159|-38:137|-38:137|2:159|2:159|0:204|0:204|2:159|2:159|29:142|29:142|40:113|40:113|29:81|29:81|2:66|2:66|0:19|0:19|2:66|2:66|-38:87|-38:87|2:66|2:66|29:81|29:81|62:75|62:75|84:50|84:50|84:113|84:113,1,2000,8|0,0:0|0:0,0:0:0:0:
365,272,100501,6,0,B|365:256|365:256|357:256|349:264|349:272|349:272|349:279|357:287|365:287|365:287|372:287|380:279|380:272|380:272|380:264|372:256|365:256|365:256|365:272|365:272,1,125,6|0,0:0|0:0,0:0:0:0:
83,320,100668,6,0,B|83:301|83:301|73:301|64:310|64:320|64:320|64:329|73:338|83:338|83:338|92:338|101:329|101:320|101:320|101:310|92:301|83:301|83:301|83:320|83:320,1,150.000005722046
264,8,100834,6,0,B|264:-14|264:-14|253:-14|242:-3|242:8|242:8|242:18|253:29|264:29|264:29|274:29|285:18|285:8|285:8|285:-3|274:-14|264:-14|264:-14|264:8|264:8,1,175.00000166893,6|4,0:0|0:0,0:0:0:0:
235,353,101001,6,0,B|235:328|235:328|222:328|211:340|211:353|211:353|211:365|222:377|235:377|235:377|247:377|259:365|259:353|259:353|259:340|247:328|235:328|235:328|235:353|235:353,1,200
19,20,101168,6,0,B|19:-8|19:-8|5:-8|-9:6|-9:20|-9:20|-9:33|5:47|19:47|19:47|32:47|46:33|46:20|46:20|46:6|32:-8|19:-8|19:-8|19:20|19:20,1,225.000008583069,6|0,0:0|0:0,0:0:0:0:
365,272,101334,6,0,B|365:265|365:205|365:205|394:205|424:235|424:265|424:265|424:295|394:325|365:325|365:325|334:325|304:295|304:265|304:265|304:235|334:205|365:205|365:205|365:265,1,500,8|0,0:0|0:0,0:0:0:0:
435,226,101417,2,0,B|435:224|435:169|435:169|462:169|489:196|489:224|489:224|489:251|462:278|435:278|435:278|407:278|380:251|380:224|380:224|380:196|407:169|435:169|435:169|435:224,1,450.000017166138
462,155,101500,2,0,B|462:153|462:104|462:104|486:104|510:128|510:153|510:153|510:177|486:201|462:201|462:201|437:201|413:177|413:153|413:153|413:128|437:104|462:104|462:104|462:153,1,400,6|0,0:0|0:0,0:0:0:0:
453,98,101584,2,0,B|453:55|453:55|474:55|495:76|495:98|495:98|495:119|474:140|453:140|453:140|431:140|410:119|410:98|410:98|410:76|431:55|453:55|453:55|453:98,1,350.00000333786,4|0,0:0|0:0,0:0:0:0:
416,47,101667,2,0,B|416:10|416:10|434:10|452:28|452:47|452:47|452:65|434:83|416:83|416:83|397:83|379:65|379:47|379:47|379:28|397:10|416:10|416:10|416:47,1,300.000011444092,4|0,0:0|0:0,0:0:0:0:
364,21,101750,2,0,B|364:22|364:-8|364:-8|379:-8|394:6|394:22|394:22|394:37|379:52|364:52|364:52|348:52|333:37|333:22|333:22|333:6|348:-8|364:-8|364:-8|364:22,1,250
310,19,101834,2,0,B|310:-9|310:-9|323:-9|337:5|337:19|337:19|337:32|323:46|310:46|310:46|296:46|282:32|282:19|282:19|282:5|296:-9|310:-9|310:-9|310:19,1,225.000008583069,6|0,0:0|0:0,0:0:0:0:
264,37,101917,2,0,B|264:12|264:12|276:12|288:24|288:37|288:37|288:49|276:61|264:61|264:61|251:61|240:49|240:37|240:37|240:24|251:12|264:12|264:12|264:37,1,200
232,66,102000,2,0,B|232:67|232:45|232:45|242:45|253:56|253:67|253:67|253:77|242:88|232:88|232:88|221:88|210:77|210:67|210:67|210:56|221:45|232:45|232:45|232:67,1,175.00000166893
214,97,102084,2,0,B|214:100|214:81|214:81|223:81|232:90|232:100|232:100|232:109|223:118|214:118|214:118|204:118|195:109|195:100|195:100|195:90|204:81|214:81|214:81|214:100,1,150.000005722046
206,125,102167,2,0,B|206:127|206:111|206:111|213:111|221:119|221:127|221:127|221:134|213:142|206:142|206:142|198:142|190:134|190:127|190:127|190:119|198:111|206:111|206:111|206:127,1,125,6|0,0:0|0:0,0:0:0:0:
205,148,102250,2,0,B|205:151|205:138|205:138|211:138|217:144|217:151|217:151|217:157|211:163|205:163|205:163|198:163|192:157|192:151|192:151|192:144|198:138|205:138|205:138|205:151,1,100
207,163,102334,5,8,0:0:0:0:
332,147,102667,1,8,0:0:0:0:
332,147,104334,5,8,0:0:0:0:
255,48,104668,1,8,0:0:0:0:
255,48,106000,1,4,0:0:0:0:
256,60,106083,1,4,0:0:0:0:
257,72,106166,1,4,0:0:0:0:
259,84,106250,1,4,0:0:0:0:
207,164,106334,5,8,0:0:0:0:
332,147,106667,1,8,0:0:0:0:
332,147,108334,1,8,0:0:0:0:
255,48,108667,1,8,0:0:0:0:
379,30,109000,5,8,0:0:0:0:
131,66,109167,1,8,0:0:0:0:
256,192,109334,6,0,B|256:144|256:144|256:121|256:121|225:102|225:102|256:121|256:121|284:102|284:102|256:121|256:121|256:144|256:144|272:163|272:163|296:168|296:168|316:156|316:156|318:121|318:121|316:156|316:156|348:172|348:172|316:156|316:156|296:168|296:168|288:192|288:192|296:214|296:214|316:227|316:227|348:210|348:210|316:227|316:227|318:261|318:261|316:227|316:227|296:214|296:214|272:220|272:220|256:238|256:238|256:262|256:262|285:281|285:281|256:262|256:262|226:280|226:280|256:262|256:262|256:238|256:238|239:220|239:220|214:214|214:214|194:227|194:227|162:210|162:210|194:227|194:227|192:261|192:261|194:227|194:227|214:214|214:214|222:192|222:192|214:168|214:168|194:156|194:156|192:121|192:121|194:156|194:156|162:172|162:172|194:156|194:156|214:168|214:168|239:163|239:163|256:144|256:144|256:192|256:192,1,1519.99995941162
256,192,109417,6,0,B|256:140|256:140|256:114|256:114|222:94|222:94|256:114|256:114|287:94|287:94|256:114|256:114|256:140|256:140|273:160|273:160|300:166|300:166|322:153|322:153|323:114|323:114|322:153|322:153|356:170|356:170|322:153|322:153|300:166|300:166|291:192|291:192|300:216|300:216|322:230|322:230|356:212|356:212|322:230|322:230|323:268|323:268|322:230|322:230|300:216|300:216|273:222|273:222|256:242|256:242|256:268|256:268|288:289|288:289|256:268|256:268|223:288|223:288|256:268|256:268|256:242|256:242|237:222|237:222|210:216|210:216|188:230|188:230|154:212|154:212|188:230|188:230|187:268|187:268|188:230|188:230|210:216|210:216|219:192|219:192|210:166|210:166|188:153|188:153|187:114|187:114|188:153|188:153|154:170|154:170|188:153|188:153|210:166|210:166|237:160|237:160|256:140|256:140|256:192|256:192,1,1659.99997150421
256,192,109500,6,0,B|256:135|256:135|256:108|256:108|220:85|220:85|256:108|256:108|290:85|290:85|256:108|256:108|256:136|256:136|275:158|275:158|303:163|303:163|327:149|327:149|329:108|329:108|327:149|327:149|365:168|365:168|327:149|327:149|303:163|303:163|294:192|294:192|304:218|304:218|327:233|327:233|365:213|365:213|327:233|327:233|329:274|329:274|327:233|327:233|303:218|303:218|275:225|275:225|256:247|256:247|256:275|256:275|290:297|290:297|256:275|256:275|220:297|220:297|256:275|256:275|256:247|256:247|236:225|236:225|206:218|206:218|182:233|182:233|145:213|145:213|182:233|182:233|181:274|181:274|182:233|182:233|207:218|207:218|216:192|216:192|207:163|207:163|182:149|182:149|181:108|181:108|182:149|182:149|145:168|145:168|182:149|182:149|207:163|207:163|236:158|236:158|256:135|256:135|256:192|256:192,1,1800.00006866455
256,192,109583,6,0,B|256:131|256:131|256:101|256:101|217:77|217:77|256:101|256:101|292:77|292:77|256:101|256:101|256:132|256:132|276:155|276:155|307:161|307:161|333:146|333:146|335:101|335:101|333:146|333:146|373:167|373:167|333:146|333:146|307:161|307:161|297:192|297:192|308:221|308:221|333:236|333:236|373:215|373:215|333:236|333:236|335:281|335:281|333:236|333:236|307:221|307:221|276:227|276:227|256:251|256:251|256:281|256:281|293:305|293:305|256:281|256:281|217:305|217:305|256:281|256:281|256:251|256:251|234:227|234:227|202:221|202:221|177:236|177:236|137:215|137:215|177:236|177:236|175:281|175:281|177:236|177:236|203:221|203:221|213:192|213:192|203:161|203:161|177:146|177:146|175:101|175:101|177:146|177:146|137:167|137:167|177:146|177:146|203:161|203:161|234:155|234:155|256:131|256:131|256:192|256:192,1,1939.99997409821
256,192,109667,6,0,B|256:127|256:127|256:95|256:95|214:69|214:69|256:95|256:95|295:69|295:69|256:95|256:95|256:127|256:127|278:153|278:153|311:159|311:159|339:143|339:143|341:95|341:95|339:143|339:143|381:165|381:165|339:143|339:143|311:159|311:159|300:192|300:192|311:223|311:223|339:240|339:240|381:217|381:217|339:240|339:240|341:287|341:287|339:240|339:240|311:223|311:223|278:230|278:230|256:255|256:255|256:288|256:288|296:314|296:314|256:288|256:288|215:313|215:313|256:288|256:288|256:255|256:255|233:230|233:230|198:223|198:223|171:240|171:240|128:217|128:217|171:240|171:240|169:287|169:287|171:240|171:240|199:223|199:223|210:192|210:192|199:159|199:159|171:143|171:143|169:95|169:95|171:143|171:143|128:165|128:165|171:143|171:143|199:159|199:159|233:153|233:153|256:127|256:127|256:192|256:192,1,2079.99990478516
256,192,109750,6,0,B|256:122|256:122|256:88|256:88|211:60|211:60|256:88|256:88|298:60|298:60|256:88|256:88|256:123|256:123|279:150|279:150|314:157|314:157|344:140|344:140|346:88|346:88|344:140|344:140|390:163|390:163|344:140|344:140|314:157|314:157|303:192|303:192|315:225|315:225|344:243|344:243|390:219|390:219|344:243|344:243|346:293|346:293|344:243|344:243|314:225|314:225|279:232|279:232|256:259|256:259|256:294|256:294|298:322|298:322|256:294|256:294|212:321|212:321|256:294|256:294|256:259|256:259|231:232|231:232|195:225|195:225|165:243|165:243|120:219|120:219|165:243|165:243|163:293|163:293|165:243|165:243|195:225|195:225|207:192|207:192|195:157|195:157|165:140|165:140|163:88|163:88|165:140|165:140|120:163|120:163|165:140|165:140|195:157|195:157|231:150|231:150|256:122|256:122|256:192|256:192,1,2219.99991319657
256,192,109833,6,0,B|256:118|256:118|256:82|256:82|208:52|208:52|256:82|256:82|300:52|300:52|256:82|256:82|256:118|256:118|281:147|281:147|318:155|318:155|350:136|350:136|352:82|352:82|350:136|350:136|399:161|399:161|350:136|350:136|318:155|318:155|306:192|306:192|319:227|319:227|350:246|350:246|399:220|399:220|350:246|350:246|352:300|352:300|350:246|350:246|318:227|318:227|281:235|281:235|256:264|256:264|256:301|256:301|301:330|301:330|256:301|256:301|209:329|209:329|256:301|256:301|256:264|256:264|230:235|230:235|191:227|191:227|160:246|160:246|111:220|111:220|160:246|160:246|157:300|157:300|160:246|160:246|191:227|191:227|204:192|204:192|191:155|191:155|160:136|160:136|157:82|157:82|160:136|160:136|111:161|111:161|160:136|160:136|191:155|191:155|230:147|230:147|256:118|256:118|256:192|256:192,1,2360.00007652283
256,192,109917,6,0,B|256:113|256:113|256:75|256:75|206:44|206:44|256:75|256:75|303:44|303:44|256:75|256:75|256:114|256:114|282:145|282:145|322:152|322:152|355:133|355:133|358:75|358:75|355:133|355:133|407:159|407:159|355:133|355:133|322:152|322:152|309:192|309:192|323:229|323:229|355:249|355:249|407:222|407:222|355:249|355:249|358:306|358:306|355:249|355:249|322:229|322:229|282:238|282:238|256:268|256:268|256:307|256:307|304:338|304:338|256:307|256:307|206:338|206:338|256:307|256:307|256:268|256:268|228:238|228:238|187:229|187:229|154:249|154:249|102:222|102:222|154:249|154:249|152:306|152:306|154:249|154:249|188:229|188:229|201:192|201:192|188:152|188:152|154:133|154:133|152:75|152:75|154:133|154:133|102:159|102:159|154:133|154:133|188:152|188:152|228:145|228:145|256:113|256:113|256:192|256:192,1,2500
256,192,110000,6,0,B|256:109|256:109|256:69|256:69|203:36|203:36|256:69|256:69|306:36|306:36|256:69|256:69|256:110|256:110|284:142|284:142|326:150|326:150|361:130|361:130|364:69|364:69|361:130|361:130|416:158|416:158|361:130|361:130|326:150|326:150|312:192|312:192|326:231|326:231|361:253|361:253|416:224|416:224|361:253|361:253|364:313|364:313|361:253|361:253|326:231|326:231|284:240|284:240|256:272|256:272|256:314|256:314|307:347|307:347|256:314|256:314|204:346|204:346|256:314|256:314|256:272|256:272|227:240|227:240|183:231|183:231|148:253|148:253|94:224|94:224|148:253|148:253|146:313|146:313|148:253|148:253|184:231|184:231|198:192|198:192|184:150|184:150|148:130|148:130|146:69|146:69|148:130|148:130|94:158|94:158|148:130|148:130|184:150|184:150|227:142|227:142|256:109|256:109|256:192|256:192,1,2640.000025177
256,192,110083,6,0,B|256:105|256:105|256:62|256:62|200:27|200:27|256:62|256:62|308:27|308:27|256:62|256:62|256:106|256:106|285:139|285:139|329:148|329:148|367:126|367:126|369:62|369:62|367:126|367:126|424:156|424:156|367:126|367:126|329:148|329:148|315:192|315:192|330:233|330:233|367:256|367:256|424:225|424:225|367:256|367:256|369:319|369:319|367:256|367:256|329:233|329:233|285:243|285:243|256:277|256:277|256:320|256:320|309:355|309:355|256:320|256:320|201:354|201:354|256:320|256:320|256:277|256:277|225:243|225:243|179:233|179:233|143:256|143:256|85:225|85:225|143:256|143:256|140:319|140:319|143:256|143:256|180:233|180:233|195:192|195:192|180:148|180:148|143:126|143:126|140:62|140:62|143:126|143:126|85:156|85:156|143:126|143:126|180:148|180:148|225:139|225:139|256:105|256:105|256:192|256:192,1,2780.00008483887
256,192,110167,6,0,B|256:100|256:100|256:56|256:56|197:19|197:19|256:56|256:56|311:19|311:19|256:56|256:56|256:101|256:101|287:137|287:137|333:146|333:146|372:123|372:123|375:56|375:56|372:123|372:123|432:154|432:154|372:123|372:123|333:146|333:146|318:192|318:192|334:235|334:235|372:259|372:259|432:227|432:227|372:259|372:259|375:326|375:326|372:259|372:259|333:235|333:235|287:245|287:245|256:281|256:281|256:326|256:326|312:363|312:363|256:326|256:326|198:362|198:362|256:326|256:326|256:281|256:281|224:245|224:245|175:235|175:235|137:259|137:259|77:227|77:227|137:259|137:259|134:326|134:326|137:259|137:259|176:235|176:235|192:192|192:192|176:146|176:146|137:123|137:123|134:56|134:56|137:123|137:123|77:154|77:154|137:123|137:123|176:146|176:146|224:137|224:137|256:100|256:100|256:192|256:192,1,2919.99995822907
256,192,110250,6,0,B|256:96|256:96|256:49|256:49|194:11|194:11|256:49|256:49|314:11|314:11|256:49|256:49|256:97|256:97|288:134|288:134|337:144|337:144|378:120|378:120|381:49|381:49|378:120|378:120|441:152|441:152|378:120|378:120|337:144|337:144|321:192|321:192|338:237|338:237|378:262|378:262|441:229|441:229|378:262|378:262|381:332|381:332|378:262|378:262|337:237|337:237|288:248|288:248|256:285|256:285|256:333|256:333|315:371|315:371|256:333|256:333|195:370|195:370|256:333|256:333|256:285|256:285|222:248|222:248|171:237|171:237|131:262|131:262|68:229|68:229|131:262|131:262|128:332|128:332|131:262|131:262|172:237|172:237|189:192|189:192|172:144|172:144|131:120|131:120|128:49|128:49|131:120|131:120|68:152|68:152|131:120|131:120|172:144|172:144|222:134|222:134|256:96|256:96|256:192|256:192,1,3059.99995914459
256,192,110333,6,0,B|256:92|256:92|256:43|256:43|192:3|192:3|256:43|256:43|317:3|317:3|256:43|256:43|256:93|256:93|290:132|290:132|341:142|341:142|384:117|384:117|387:43|387:43|384:117|384:117|450:151|450:151|384:117|384:117|341:142|341:142|325:192|325:192|342:240|342:240|384:266|384:266|450:231|450:231|384:266|384:266|387:339|387:339|384:266|384:266|341:240|341:240|290:251|290:251|256:290|256:290|256:340|256:340|318:380|318:380|256:340|256:340|193:379|193:379|256:340|256:340|256:290|256:290|221:251|221:251|168:240|168:240|126:266|126:266|60:231|60:231|126:266|126:266|123:339|123:339|126:266|126:266|169:240|169:240|186:192|186:192|169:142|169:142|126:117|126:117|123:43|123:43|126:117|126:117|60:151|60:151|126:117|126:117|169:142|169:142|221:132|221:132|256:92|256:92|256:192|256:192,1,3200,4|0,0:3|0:0,0:0:0:0:
