osu file format v14

[General]
AudioFilename: audio.mp3
AudioLeadIn: 0
PreviewTime: 144066
Countdown: 0
SampleSet: Soft
StackLeniency: 0.7
Mode: 0
LetterboxInBreaks: 0
WidescreenStoryboard: 0

[Editor]
Bookmarks: 20859,41394,61929,72196,82464,102998,123533,144068,164603,185137,205672,215939,226207,246742,256205,267276
DistanceSpacing: 1.22
BeatDivisor: 4
GridSize: 4
TimelineZoom: 3.299999

[Metadata]
Title:Pastel Subliminal
TitleUnicode:Pastel Subliminal
Artist:a_hisa
ArtistUnicode:a_hisa
Creator:Paloch VeGa
Version:Stimulation
Source:
Tags:
BeatmapID:1994906
BeatmapSetID:955260

[Difficulty]
HPDrainRate:6
CircleSize:4.3
OverallDifficulty:8
ApproachRate:9.3
SliderMultiplier:1.47
SliderTickRate:1

[Events]
//Background and Video events
0,0,"47747740_p0_master1200.jpg",0,0
//Break Periods
2,144265,153779
//Storyboard Layer 0 (Background)
//Storyboard Layer 1 (Fail)
//Storyboard Layer 2 (Pass)
//Storyboard Layer 3 (Foreground)
//Storyboard Layer 4 (Overlay)
//Storyboard Sound Samples

[TimingPoints]
323,320.855614973262,4,2,1,40,1,0
323,-133.333333333333,4,2,10,40,0,0
804,-133.333333333333,4,2,11,40,0,0
1125,-133.333333333333,4,2,10,40,0,0
1445,-133.333333333333,4,2,11,40,0,0
1606,-133.333333333333,4,2,10,40,0,0
1928,-133.333333333333,4,2,11,40,0,0
2248,-133.333333333333,4,2,12,40,0,0
2409,-133.333333333333,4,2,11,40,0,0
2569,-133.333333333333,4,2,13,40,0,0
2730,-133.333333333333,4,2,11,40,0,0
2890,-133.333333333333,4,2,14,40,0,0
3051,-133.333333333333,4,2,12,40,0,0
3211,-133.333333333333,4,2,11,40,0,0
3532,-133.333333333333,4,2,15,40,0,0
3692,-133.333333333333,4,2,11,40,0,0
3853,-133.333333333333,4,2,16,40,0,0
4013,-133.333333333333,4,2,11,40,0,0
4334,-133.333333333333,4,2,1,20,0,0
17007,-117.647058823529,4,2,1,30,0,0
18290,-105.263157894737,4,2,1,30,0,0
19574,-200,4,2,1,30,0,0
20055,-100,4,2,1,30,0,0
82141,-86.9565217391304,4,2,1,30,0,0
82462,-86.9565217391304,4,2,1,30,0,1
102996,-100,4,2,1,30,0,0
120964,-76.9230769230769,4,2,1,30,0,0
123531,-86.9565217391304,4,2,1,30,0,0
143745,-50,4,2,1,30,0,0
154333,-200,4,2,20,50,0,0
174868,-133.333333333333,4,2,1,30,0,0
181285,-100,4,2,1,30,0,0
226205,-86.9565217391304,4,2,20,30,0,1
246419,-86.9565217391304,4,2,1,30,0,0
246740,-86.9565217391304,4,2,20,90,0,1
258772,-86.9565217391304,4,2,20,90,0,1
267274,628.272251308901,4,2,1,90,1,0

[HitObjects]
268,196,323,6,0,P|292:206|329:209,1,55.1250021028519,2|0,1:3|3:0,0:0:0:0:
193,155,644,2,0,L|185:215,1,55.1250021028519,0|0,0:0|3:0,0:0:0:0:
315,124,965,2,0,P|312:97|296:64,1,55.1250021028519,0|0,1:0|3:0,0:0:0:0:
185,209,1286,2,0,L|177:269,1,55.1250021028519,0|0,0:0|3:0,0:0:0:0:
347,299,1607,6,0,L|339:244,1,55.1250021028519,2|0,1:2|3:0,0:0:0:0:
217,187,1928,2,0,P|243:194|270:193,1,55.1250021028519,0|0,0:0|3:0,0:0:0:0:
131,193,2248,2,0,P|111:212|98:236,1,55.1250021028519,0|0,1:0|0:3,0:0:0:0:
217,187,2569,2,0,P|210:160|195:137,1,55.1250021028519,0|0,1:0|3:0,0:0:0:0:
85,317,2890,5,2,1:2:0:0:
162,351,3051,1,0,3:0:0:0:
247,346,3211,1,0,3:0:0:0:
321,306,3372,1,0,1:0:0:0:
353,228,3532,2,0,P|357:180|346:150,1,55.1250021028519,0|0,1:0|3:0,0:0:0:0:
277,134,3853,2,0,P|273:182|284:212,1,55.1250021028519,0|0,1:0|3:0,0:0:0:0:
364,84,4174,5,2,1:2:0:0:
316,37,4334,1,0,0:0:0:0:
249,32,4495,1,0,0:0:0:0:
196,70,4655,1,0,0:0:0:0:
129,228,4815,5,0,0:0:0:0:
245,140,4976,1,0,0:0:0:0:
211,218,5136,1,0,0:0:0:0:
196,70,5297,1,0,0:0:0:0:
296,208,5457,6,0,P|329:215|359:205,1,55.1250021028519
412,153,5778,2,0,P|438:148|465:155,1,55.1250021028519
331,128,6099,2,0,L|339:64,1,55.1250021028519
430,237,6420,2,0,L|423:291,1,55.1250021028519
240,209,6741,6,0,B|293:194|302:224|352:209,1,110.250004205704
429,180,7222,1,0,0:0:0:0:
446,95,7382,2,0,P|444:58|434:31,1,55.1250021028519
267,192,7703,2,0,P|269:229|279:256,1,55.1250021028519
357,49,8024,6,0,P|323:32|295:27,1,55.1250021028519
348,209,8345,2,0,P|374:201|398:188,1,55.1250021028519
225,52,8666,2,0,P|191:35|163:30,1,55.1250021028519
216,212,8987,2,0,P|242:204|266:191,1,55.1250021028519
82,164,9307,6,0,P|69:220|86:279,1,110.250004205704
264,273,9789,1,0,0:0:0:0:
163,133,9949,1,0,0:0:0:0:
154,216,10110,1,0,0:0:0:0:
270,94,10269,1,0,0:0:0:0:
300,172,10430,1,0,0:0:0:0:
232,306,10591,6,0,B|181:340|116:337|74:301,1,165.375006308556
292,245,11233,2,0,P|312:274|317:307,1,55.1250021028519
208,223,11553,2,0,L|224:164,1,55.1250021028519
448,76,11874,6,0,P|475:152|458:239,1,165.375006308556
271,162,12516,2,0,P|299:130|319:118,1,55.1250021028519
260,295,12837,2,0,P|218:286|197:275,1,55.1250021028519
340,256,13158,6,0,B|417:233|427:280|505:256,1,165.375006308556
271,162,13799,2,0,L|259:226,1,55.1250021028519
173,133,14120,2,0,L|180:188,1,55.1250021028519
87,98,14441,6,0,L|67:210,1,110.250004205704
164,320,14922,1,0,0:0:0:0:
221,184,15083,1,0,0:0:0:0:
82,284,15243,1,0,0:0:0:0:
232,269,15404,1,0,0:0:0:0:
143,150,15564,1,0,0:0:0:0:
164,320,15725,6,0,P|192:348|221:357,1,55.1250021028519
151,234,16045,2,0,P|112:244|90:264,1,55.1250021028519
299,219,16366,2,0,P|309:180|302:151,1,55.1250021028519
151,96,16687,2,0,P|141:121|142:149,1,55.1250021028519
277,70,17008,6,0,P|260:48|224:32,1,62.4750011916161
299,219,17329,2,0,P|325:215|356:196,1,62.4750011916161
160,170,17650,2,0,P|149:194|151:230,1,62.4750011916161
307,279,17971,2,0,P|308:248|298:218,1,62.4750011916161
104,316,18291,6,0,P|137:328|186:322,1,69.8249981354714
259,284,18612,2,0,P|293:276|328:281,1,69.8249981354714
416,336,18933,2,0,P|450:341|484:333,1,69.8249981354714
335,212,19254,2,0,L|327:288,1,69.8249981354714
432,120,19575,6,0,P|408:94|368:80,1,73.5
236,108,20056,1,0,0:0:0:0:
236,108,20136,1,0,0:0:0:0:
236,108,20217,1,0,0:0:0:0:
335,212,20377,1,0,0:0:0:0:
302,49,20537,1,0,0:0:0:0:
252,192,20698,1,0,0:0:0:0:
420,227,20858,6,0,P|458:235|500:224,1,73.5
356,112,21179,1,0,0:0:0:0:
331,265,21340,2,0,P|331:313|349:353,1,73.5
246,205,21660,2,0,L|229:276,1,73.5
280,59,21981,1,0,0:0:0:0:
335,196,22142,6,0,P|380:208|420:204,1,73.5
280,59,22463,1,0,0:0:0:0:
246,205,22623,2,0,B|179:224|164:189|101:203,1,147
314,264,23104,2,0,P|330:231|334:195,1,73.5
167,277,23425,6,0,L|178:349,1,73.5
143,127,23746,1,0,0:0:0:0:
78,268,23906,2,0,P|64:316|64:344,1,73.5
252,248,24227,2,0,P|229:215|192:196,1,73.5
39,176,24548,1,0,0:0:0:0:
200,198,24709,6,0,P|240:194|275:172,1,73.5
354,42,25029,1,0,0:0:0:0:
268,178,25190,2,0,P|255:219|272:328,1,147
317,109,25671,2,0,P|272:97|236:102,1,73.5
118,209,25992,6,0,P|70:215|30:201,1,73.5
180,150,26313,1,0,0:0:0:0:
292,239,26473,2,0,P|340:251|372:247,1,73.5
313,46,26794,2,0,P|276:45|241:55,1,73.5
363,248,27115,1,0,0:0:0:0:
383,130,27275,6,0,L|394:57,1,73.5
277,286,27596,1,0,0:0:0:0:
285,149,27757,2,0,L|292:3,1,147
218,204,28238,1,0,0:0:0:0:
112,80,28398,1,0,0:0:0:0:
48,232,28559,6,0,P|43:272|52:312,1,73.5
218,204,28880,1,0,0:0:0:0:
72,150,29040,1,0,0:0:0:0:
54,143,29120,1,0,0:0:0:0:
37,137,29200,1,0,0:0:0:0:
158,265,29361,1,0,0:0:0:0:
228,92,29521,1,0,0:0:0:0:
244,274,29682,1,0,0:0:0:0:
245,292,29762,1,0,0:0:0:0:
246,310,29842,5,0,0:0:0:0:
315,99,30003,1,0,0:0:0:0:
376,262,30163,2,0,L|388:296,1,36.75
346,181,30323,2,0,L|369:153,1,36.75
293,248,30484,2,0,L|256:241,1,36.75
357,118,30644,2,0,L|369:152,1,36.75
190,133,30805,1,0,0:0:0:0:
189,114,30885,1,0,0:0:0:0:
191,96,30965,1,0,0:0:0:0:
196,78,31045,1,0,0:0:0:0:
203,61,31126,6,0,P|246:50|286:50,1,73.5
358,234,31446,1,0,0:0:0:0:
251,289,31607,2,0,P|207:299|171:291,1,73.5
217,139,31928,2,0,L|210:220,1,73.5
176,62,32249,1,0,0:0:0:0:
298,108,32409,6,0,P|344:112|372:104,1,73.5
176,62,32730,1,0,0:0:0:0:
67,131,32890,2,0,B|47:182|47:182|59:282,1,147
188,359,33372,2,0,P|237:364|269:356,1,73.5
372,250,33692,6,0,P|421:246|457:258,1,73.5
292,280,34013,1,0,0:0:0:0:
248,152,34174,2,0,P|243:100|250:73,1,73.5
380,291,34495,2,0,P|368:328|343:353,1,73.5
327,117,34815,1,0,0:0:0:0:
430,220,34976,6,0,P|474:232|502:228,1,73.5
327,117,35297,1,0,0:0:0:0:
221,205,35457,2,0,P|147:219|78:195,1,147
306,201,35938,2,0,P|335:234|346:267,1,73.5
264,128,36259,6,0,L|284:48,1,73.5
306,201,36580,1,0,0:0:0:0:
164,280,36741,2,0,B|110:293|110:293|16:276,1,147
224,219,37222,2,0,P|246:254|247:298,1,73.5
80,196,37543,5,0,0:0:0:0:
224,132,37703,1,0,0:0:0:0:
73,112,37864,1,0,0:0:0:0:
224,219,38024,2,0,P|268:227|296:219,1,73.5
176,60,38345,1,0,0:0:0:0:
142,197,38505,2,0,L|124:268,1,73.5
216,360,38826,6,0,P|257:368|295:358,1,73.5
341,164,39147,1,0,0:0:0:0:
369,315,39307,1,0,0:0:0:0:
372,332,39387,1,0,0:0:0:0:
376,350,39467,1,0,0:0:0:0:
408,110,39628,1,0,0:0:0:0:
438,257,39789,2,0,L|455:331,1,73.5
269,167,40110,6,0,P|311:158|346:166,1,73.5
200,221,40430,2,0,L|188:173,1,36.75
219,304,40591,2,0,L|183:338,1,36.75
279,247,40751,2,0,L|326:260,1,36.75
118,261,40912,5,0,0:0:0:0:
109,238,40992,1,0,0:0:0:0:
104,214,41072,1,0,0:0:0:0:
102,189,41152,1,0,0:0:0:0:
103,165,41232,1,0,0:0:0:0:
108,141,41313,1,0,0:0:0:0:
117,118,41393,6,0,P|164:112|200:120,1,73.5
320,252,41714,2,0,P|273:258|237:250,1,73.5
365,182,42035,1,0,0:0:0:0:
306,340,42195,1,0,0:0:0:0:
280,174,42356,2,0,L|267:97,1,73.5
115,109,42676,6,0,P|148:123|185:123,1,73.5
345,64,42997,2,0,P|397:56|429:68,1,73.5
267,101,43318,1,0,0:0:0:0:
273,17,43479,1,0,0:0:0:0:
188,204,43639,1,0,0:0:0:0:
148,128,43799,1,0,0:0:0:0:
239,275,43960,6,0,P|274:282|311:278,1,73.5
153,285,44281,2,0,P|169:325|199:350,1,73.5
78,210,44602,2,0,L|62:290,1,73.5
178,130,44922,2,0,L|188:202,1,73.5
146,54,45243,6,0,B|197:26|230:82|292:60,1,147
376,20,45725,1,0,0:0:0:0:
456,72,45885,2,0,L|448:156,1,73.5
302,214,46206,2,0,P|327:188|361:173,1,73.5
304,301,46527,6,0,P|267:295|238:270,1,73.5
402,265,46848,2,0,L|398:349,1,73.5
239,186,47168,2,0,P|260:149|288:125,1,73.5
240,272,47489,2,0,P|203:266|174:241,1,73.5
361,172,47810,6,0,L|357:256,1,73.5
175,157,48131,2,0,P|196:120|224:96,1,73.5
176,243,48452,2,0,P|139:237|110:212,1,73.5
297,143,48773,2,0,L|293:216,1,73.5
181,329,49094,6,0,B|151:338|135:354|135:354|95:338|67:354|43:338,1,147
216,251,49575,1,0,0:0:0:0:
293,216,49735,2,0,P|338:218|371:231,1,73.5
432,348,50056,2,0,P|476:350|504:336,1,73.5
364,227,50377,5,0,0:0:0:0:
355,312,50537,1,0,0:0:0:0:
485,184,50698,2,0,L|472:104,1,73.5
292,233,51019,2,0,P|340:235|371:222,1,73.5
196,41,51340,1,0,0:0:0:0:
66,116,51500,1,0,0:0:0:0:
64,135,51580,1,0,0:0:0:0:
62,154,51660,5,0,0:0:0:0:
218,122,51821,1,0,0:0:0:0:
52,240,51981,1,0,0:0:0:0:
244,203,52142,1,0,0:0:0:0:
136,103,52302,1,0,0:0:0:0:
182,264,52462,1,0,0:0:0:0:
301,138,52623,1,0,0:0:0:0:
159,184,52783,1,0,0:0:0:0:
326,221,52944,6,0,P|374:225|398:217,1,73.5
282,88,53265,2,0,L|265:160,1,73.5
226,325,53585,1,0,0:0:0:0:
397,217,53746,1,0,0:0:0:0:
247,242,53906,1,0,0:0:0:0:
395,304,54067,1,0,0:0:0:0:
226,325,54227,6,0,P|173:325|141:310,1,73.5
217,176,54548,2,0,P|243:221|246:257,1,73.5
130,161,54869,2,0,P|151:116|185:94,1,73.5
161,240,55190,1,0,0:0:0:0:
77,229,55350,1,0,0:0:0:0:
218,305,55511,6,0,B|285:328|301:280|364:304,1,147
250,224,55992,1,0,0:0:0:0:
259,139,56152,2,0,L|266:65,1,73.5
420,164,56473,2,0,P|428:200|420:240,1,73.5
269,264,56794,6,0,P|305:259|341:270,1,73.5
187,286,57115,1,0,0:0:0:0:
220,114,57275,1,0,0:0:0:0:
269,264,57436,2,0,P|272:312|249:348,1,73.5
128,226,57757,6,0,P|125:178|148:142,1,73.5
152,313,58077,2,0,P|116:316|78:301,1,73.5
219,124,58398,1,0,0:0:0:0:
234,290,58559,1,0,0:0:0:0:
135,155,58719,2,0,P|130:106|146:67,1,73.5
303,160,59040,2,0,P|271:198|235:212,1,73.5
309,75,59361,6,0,P|383:59|459:80,1,147
275,324,59842,1,0,0:0:0:0:
250,208,60002,2,0,L|234:136,1,73.5
141,173,60323,2,0,L|148:96,1,73.5
65,230,60644,6,0,P|97:257|139:264,1,73.5
322,210,60965,2,0,L|318:174,1,36.75
229,99,61125,2,0,L|235:144,1,36.75
373,62,61286,2,0,L|368:25,2,36.75
408,300,61607,1,0,0:0:0:0:
375,317,61687,1,0,0:0:0:0:
340,327,61767,1,0,0:0:0:0:
303,326,61847,1,0,0:0:0:0:
268,317,61927,5,0,0:0:0:0:
233,135,62088,1,0,0:0:0:0:
240,302,62409,1,0,0:0:0:0:
317,133,62569,1,0,0:0:0:0:
220,282,62890,1,0,0:0:0:0:
370,202,63051,2,0,P|395:172|404:137,1,73.5
286,215,63371,5,0,0:0:0:0:
340,281,63532,1,0,0:0:0:0:
203,232,63692,1,0,0:0:0:0:
174,313,63853,1,0,0:0:0:0:
286,215,64013,1,0,0:0:0:0:
146,166,64174,1,0,0:0:0:0:
256,298,64334,1,0,0:0:0:0:
191,94,64494,5,0,0:0:0:0:
99,263,64655,1,0,0:0:0:0:
172,100,64976,1,0,0:0:0:0:
183,274,65136,1,0,0:0:0:0:
149,109,65457,1,0,0:0:0:0:
266,244,65617,2,0,P|304:248|344:240,1,73.5
192,188,65938,1,0,0:0:0:0:
187,205,66018,1,0,0:0:0:0:
182,223,66098,5,0,0:0:0:0:
360,160,66259,1,0,0:0:0:0:
212,105,66420,1,0,0:0:0:0:
382,77,66580,1,0,0:0:0:0:
248,182,66740,1,0,0:0:0:0:
309,34,66901,1,0,0:0:0:0:
382,207,67061,5,0,0:0:0:0:
247,95,67222,1,0,0:0:0:0:
377,226,67543,1,0,0:0:0:0:
194,209,67703,1,0,0:0:0:0:
372,248,68024,1,0,0:0:0:0:
193,334,68184,2,0,P|143:338|113:329,1,73.5
260,261,68505,1,0,0:0:0:0:
268,277,68585,1,0,0:0:0:0:
277,293,68666,5,0,0:0:0:0:
196,136,68826,1,0,0:0:0:0:
77,248,68986,1,0,0:0:0:0:
125,91,69147,1,0,0:0:0:0:
159,264,69307,1,0,0:0:0:0:
44,168,69468,1,0,0:0:0:0:
228,216,69628,6,0,B|265:223|265:223|309:216,1,73.5
177,78,69949,1,0,0:0:0:0:
158,163,70109,1,0,0:0:0:0:
361,152,70270,2,0,L|343:66,1,73.5
195,240,70591,1,0,0:0:0:0:
343,282,70751,2,0,P|384:285|418:273,1,73.5
213,168,71072,6,0,L|194:243,1,73.5
244,46,71393,1,0,0:0:0:0:
291,203,71553,2,0,L|302:243,1,36.75
184,274,71714,2,0,L|194:239,1,36.75
225,355,71874,1,0,0:0:0:0:
198,361,71954,1,0,0:0:0:0:
170,361,72034,1,0,0:0:0:0:
144,354,72114,1,0,0:0:0:0:
120,340,72194,6,0,P|100:308|95:265,1,73.5
160,92,72515,1,0,0:0:0:0:
176,251,72675,1,0,0:0:0:0:
73,131,72836,2,0,P|64:96|71:56,1,73.5
245,119,73157,1,0,0:0:0:0:
315,256,73317,2,0,P|322:291|306:339,1,73.5
245,119,73638,5,0,0:0:0:0:
239,286,73798,1,0,0:0:0:0:
322,78,73959,1,0,0:0:0:0:
383,230,74119,2,0,L|412:297,1,73.5
303,187,74440,2,0,L|295:271,1,73.5
394,82,74761,6,0,P|360:74|316:79,1,73.5
217,153,75082,1,0,0:0:0:0:
144,204,75242,2,0,P|88:216|64:208,1,73.5
220,240,75563,2,0,B|211:280|211:280|187:310,1,73.5
297,203,75884,2,0,L|309:287,1,73.5
108,286,76205,5,0,0:0:0:0:
54,220,76365,1,0,0:0:0:0:
63,137,76526,1,0,0:0:0:0:
127,85,76686,1,0,0:0:0:0:
183,250,76847,1,0,0:0:0:0:
63,137,77007,1,0,0:0:0:0:
228,177,77167,1,0,0:0:0:0:
104,300,77328,6,0,P|65:307|29:299,1,73.5
146,112,77649,1,0,0:0:0:0:
185,277,77809,2,0,L|201:348,1,73.5
280,203,78130,2,0,L|273:277,1,73.5
284,119,78451,2,0,P|329:131|360:162,1,73.5
185,277,78772,5,0,0:0:0:0:
203,106,78932,2,0,L|210:32,1,73.5
311,209,79253,2,0,P|275:200|246:178,1,73.5
386,166,79574,1,0,0:0:0:0:
422,337,79734,1,0,0:0:0:0:
422,337,79895,6,0,B|352:365|344:310|270:338,1,147
136,360,80376,1,0,0:0:0:0:
136,360,80456,1,0,0:0:0:0:
136,360,80536,2,0,P|83:356|49:336,1,73.5
176,206,80857,2,0,P|199:253|198:293,1,73.5
74,94,81178,6,0,P|140:61|220:65,1,147
348,157,81659,1,0,0:0:0:0:
348,157,81740,1,0,0:0:0:0:
348,157,81820,2,0,P|404:161|428:149,1,73.5
184,124,82141,2,0,L|176:184,1,42.2625008060932
276,240,82301,2,0,L|257:202,1,42.2625008060932
244,324,82462,6,0,P|292:332|328:316,1,84.5250016121865
184,124,82782,1,0,0:0:0:0:
157,299,82943,1,0,0:0:0:0:
152,326,83023,1,0,0:0:0:0:
148,354,83103,1,0,0:0:0:0:
305,233,83264,2,0,L|287:150,1,84.5250016121865
157,299,83585,1,0,0:0:0:0:
324,318,83745,6,0,P|381:318|409:302,1,84.5250016121865
246,264,84066,1,0,0:0:0:0:
157,299,84226,1,0,0:0:0:0:
129,305,84306,1,0,0:0:0:0:
101,302,84386,1,0,0:0:0:0:
146,82,84547,1,0,0:0:0:0:
205,227,84708,1,0,0:0:0:0:
75,133,84868,1,0,0:0:0:0:
261,163,85028,6,0,B|302:176|306:152|348:167,1,84.5250016121865
183,203,85349,1,0,0:0:0:0:
213,81,85510,1,0,0:0:0:0:
219,53,85590,1,0,0:0:0:0:
225,26,85670,1,0,0:0:0:0:
344,165,85831,2,0,L|356:261,1,84.5250016121865
399,42,86151,1,0,0:0:0:0:
435,198,86312,6,0,B|445:256|445:256|432:294,1,84.5250016121865
265,340,86633,1,0,0:0:0:0:
344,165,86793,1,0,0:0:0:0:
355,139,86873,1,0,0:0:0:0:
367,113,86953,1,0,0:0:0:0:
340,300,87114,1,0,0:0:0:0:
260,155,87274,1,0,0:0:0:0:
397,235,87435,1,0,0:0:0:0:
256,327,87595,6,0,P|209:334|166:324,1,84.5250016121865
114,143,87916,1,0,0:0:0:0:
92,292,88077,1,0,0:0:0:0:
87,319,88157,1,0,0:0:0:0:
83,347,88237,1,0,0:0:0:0:
210,256,88397,2,0,L|195:173,1,84.5250016121865
42,53,88718,1,0,0:0:0:0:
113,169,88879,6,0,P|158:181|196:172,1,84.5250016121865
42,53,89200,1,0,0:0:0:0:
20,207,89360,1,0,0:0:0:0:
15,234,89440,1,0,0:0:0:0:
11,262,89520,1,0,0:0:0:0:
194,172,89681,1,0,0:0:0:0:
114,209,89841,1,0,0:0:0:0:
126,121,90002,1,0,0:0:0:0:
187,261,90162,6,0,P|275:279|363:251,1,169.050003224373
401,96,90643,1,0,0:0:0:0:
395,68,90723,1,0,0:0:0:0:
390,40,90803,1,0,0:0:0:0:
427,227,90964,1,0,0:0:0:0:
306,107,91125,1,0,0:0:0:0:
467,151,91285,1,0,0:0:0:0:
467,151,91365,1,0,0:0:0:0:
467,151,91445,5,0,0:0:0:0:
298,194,91606,1,0,0:0:0:0:
471,235,91766,2,0,L|512:244,1,42.2625008060932
394,200,91927,2,0,L|381:159,1,42.2625008060932
404,286,92088,2,0,L|375:316,1,42.2625008060932
339,150,92248,2,0,L|380:159,1,42.2625008060932
279,283,92408,1,0,0:0:0:0:
245,291,92488,1,0,0:0:0:0:
210,298,92568,1,0,0:0:0:0:
175,296,92649,1,0,0:0:0:0:
142,285,92729,6,0,P|131:242|141:189,1,84.5250016121865
208,49,93050,1,0,0:0:0:0:
240,214,93210,1,0,0:0:0:0:
245,241,93290,1,0,0:0:0:0:
250,269,93370,1,0,0:0:0:0:
179,152,93531,2,0,P|220:129|261:130,1,84.5250016121865
369,282,93852,1,0,0:0:0:0:
409,151,94012,6,0,P|410:99|387:47,1,84.5250016121865
271,253,94333,1,0,0:0:0:0:
405,299,94494,1,0,0:0:0:0:
432,304,94574,1,0,0:0:0:0:
459,297,94654,1,0,0:0:0:0:
311,179,94814,1,0,0:0:0:0:
304,337,94975,1,0,0:0:0:0:
230,202,95135,1,0,0:0:0:0:
378,232,95296,6,0,P|427:236|459:224,1,84.5250016121865
252,74,95617,1,0,0:0:0:0:
230,202,95777,1,0,0:0:0:0:
224,229,95857,1,0,0:0:0:0:
219,257,95937,1,0,0:0:0:0:
356,157,96098,2,0,L|338:74,1,84.5250016121865
164,63,96419,1,0,0:0:0:0:
83,212,96579,6,0,P|74:265|85:302,1,84.5250016121865
193,148,96900,1,0,0:0:0:0:
77,90,97060,1,0,0:0:0:0:
51,77,97140,1,0,0:0:0:0:
26,65,97220,1,0,0:0:0:0:
159,256,97381,1,0,0:0:0:0:
253,119,97542,1,0,0:0:0:0:
107,188,97702,1,0,0:0:0:0:
240,279,97863,6,0,P|288:288|325:278,1,84.5250016121865
107,188,98183,1,0,0:0:0:0:
240,280,98344,2,0,B|295:306|353:254|412:277,1,169.050003224373
164,319,98825,2,0,P|126:304|96:271,1,84.5250016121865
220,87,99146,5,0,0:0:0:0:
171,232,99306,1,0,0:0:0:0:
305,92,99467,1,0,0:0:0:0:
333,262,99627,2,0,P|335:310|320:349,1,84.5250016121865
231,171,99948,1,0,0:0:0:0:
393,199,100109,2,0,P|438:200|478:184,1,84.5250016121865
231,171,100429,6,0,B|156:156|142:204|66:176,1,169.050003224373
275,57,100911,1,0,0:0:0:0:
284,84,100991,1,0,0:0:0:0:
294,111,101071,1,0,0:0:0:0:
150,48,101232,1,0,0:0:0:0:
65,175,101392,1,0,0:0:0:0:
75,89,101552,1,0,0:0:0:0:
119,241,101713,6,0,P|168:255|204:243,1,84.5250016121865
294,111,102034,2,0,L|276:61,1,42.2625008060932
323,191,102194,2,0,L|375:200,1,42.2625008060932
240,178,102355,2,0,L|205:218,1,42.2625008060932
445,283,102515,1,0,0:0:0:0:
459,259,102595,1,0,0:0:0:0:
469,232,102675,1,0,0:0:0:0:
472,204,102755,1,0,0:0:0:0:
470,176,102835,1,0,0:0:0:0:
462,149,102916,1,0,0:0:0:0:
449,124,102996,6,0,P|392:112|360:120,1,73.5
281,271,103317,1,0,0:0:0:0:
242,110,103478,1,0,0:0:0:0:
237,92,103558,1,0,0:0:0:0:
233,74,103638,1,0,0:0:0:0:
192,260,103798,1,0,0:0:0:0:
354,316,103959,2,0,P|398:316|433:297,1,73.5
262,263,104280,6,0,P|209:254|185:262,1,73.5
33,345,104601,1,0,0:0:0:0:
73,166,104761,1,0,0:0:0:0:
77,148,104841,1,0,0:0:0:0:
81,130,104921,1,0,0:0:0:0:
213,235,105082,1,0,0:0:0:0:
149,77,105242,1,0,0:0:0:0:
273,168,105403,1,0,0:0:0:0:
128,246,105563,6,0,P|72:256|44:248,1,73.5
191,148,105884,1,0,0:0:0:0:
236,308,106044,1,0,0:0:0:0:
241,325,106124,1,0,0:0:0:0:
246,343,106204,1,0,0:0:0:0:
280,151,106365,1,0,0:0:0:0:
142,221,106526,1,0,0:0:0:0:
242,75,106686,1,0,0:0:0:0:
320,229,106847,6,0,L|358:306,1,73.5
390,60,107167,1,0,0:0:0:0:
280,151,107328,1,0,0:0:0:0:
245,161,107408,1,0,0:0:0:0:
209,153,107488,1,0,0:0:0:0:
93,66,107649,1,0,0:0:0:0:
209,153,107809,2,0,P|247:162|292:148,1,73.5
97,186,108130,6,0,L|83:269,1,73.5
212,72,108451,1,0,0:0:0:0:
188,248,108611,1,0,0:0:0:0:
182,284,108691,1,0,0:0:0:0:
176,321,108771,1,0,0:0:0:0:
212,72,108932,1,0,0:0:0:0:
344,179,109093,1,0,0:0:0:0:
175,151,109253,1,0,0:0:0:0:
339,95,109413,6,0,B|376:80|412:116|456:92,1,98
344,179,109841,6,0,L|397:218,1,61.25
290,246,110135,6,0,L|298:286,1,36.75
211,277,110296,2,0,L|199:321,1,36.75
211,106,110536,1,0,0:0:0:0:
297,282,110697,6,0,P|352:290|404:284,1,98
211,106,111125,1,0,0:0:0:0:
211,277,111339,2,0,P|227:335|260:366,1,98
113,81,111820,1,0,0:0:0:0:
106,90,111901,1,0,0:0:0:0:
100,101,111980,6,0,L|59:162,1,73.5
85,324,112301,1,0,0:0:0:0:
108,338,112381,1,0,0:0:0:0:
134,347,112461,1,0,0:0:0:0:
161,350,112541,1,0,0:0:0:0:
189,349,112622,2,0,L|232:340,2,36.75
317,301,112943,1,0,0:0:0:0:
423,295,113103,1,0,0:0:0:0:
434,301,113183,1,0,0:0:0:0:
445,306,113264,6,0,L|455:212,1,73.5
304,55,113585,1,0,0:0:0:0:
410,149,113745,1,0,0:0:0:0:
445,156,113825,1,0,0:0:0:0:
481,148,113905,1,0,0:0:0:0:
304,55,114066,1,0,0:0:0:0:
169,181,114226,2,0,P|128:191|95:184,1,73.5
261,209,114547,6,0,L|274:285,1,73.5
239,63,114868,1,0,0:0:0:0:
164,216,115028,1,0,0:0:0:0:
154,238,115108,1,0,0:0:0:0:
144,260,115188,1,0,0:0:0:0:
154,89,115349,1,0,0:0:0:0:
261,209,115510,2,0,P|303:216|339:208,1,73.5
164,216,115831,6,0,L|132:284,1,73.5
296,128,116151,1,0,0:0:0:0:
152,44,116312,1,0,0:0:0:0:
116,37,116392,1,0,0:0:0:0:
79,41,116472,1,0,0:0:0:0:
296,128,116633,1,0,0:0:0:0:
416,56,116793,2,0,P|455:54|496:65,1,73.5
328,232,117114,5,0,0:0:0:0:
328,232,117274,1,0,0:0:0:0:
272,88,117435,1,0,0:0:0:0:
240,252,117595,1,0,0:0:0:0:
234,275,117675,1,0,0:0:0:0:
228,299,117755,1,0,0:0:0:0:
272,88,117916,1,0,0:0:0:0:
328,232,118077,2,0,P|376:241|409:233,1,73.5
248,144,118397,6,0,P|214:149|233:168,1,73.5
320,139,118718,2,0,P|324:109|296:121,1,73.5
320,208,119039,2,0,P|350:212|338:184,1,73.5
248,212,119360,2,0,P|253:246|272:227,1,73.5
352,84,119681,6,0,P|315:79|280:90,1,73.5
333,238,120002,2,0,P|337:201|326:166,1,73.5
176,218,120322,2,0,P|212:222|247:211,1,73.5
194,63,120643,1,0,0:0:0:0:
190,80,120723,1,0,0:0:0:0:
189,99,120803,1,0,0:0:0:0:
193,117,120883,1,0,0:0:0:0:
200,134,120964,6,0,B|213:154|243:165|243:165|250:136|242:107,1,95.5499956260683
112,216,121285,2,0,B|92:229|81:259|81:259|110:266|139:258,1,95.5499956260683
52,120,121606,2,0,B|39:100|9:89|9:89|2:118|10:147,1,95.5499956260683
144,56,121927,2,0,B|164:43|175:13|175:13|146:6|117:14,1,95.5499956260683
112,216,122248,6,0,P|181:228|215:218,1,95.5499956260683
308,60,122568,1,0,0:0:0:0:
302,36,122648,1,0,0:0:0:0:
297,13,122728,1,0,0:0:0:0:
112,216,122889,1,0,0:0:0:0:
134,224,122969,1,0,0:0:0:0:
157,228,123049,1,0,0:0:0:0:
181,227,123129,1,0,0:0:0:0:
204,220,123210,1,0,0:0:0:0:
246,198,123290,1,0,0:0:0:0:
293,188,123370,1,0,0:0:0:0:
340,190,123450,1,0,0:0:0:0:
386,205,123531,6,0,L|412:288,1,84.5250016121865
508,30,123852,1,0,0:0:0:0:
496,172,124012,1,0,0:0:0:0:
494,200,124092,1,0,0:0:0:0:
492,229,124172,1,0,0:0:0:0:
320,78,124333,1,0,0:0:0:0:
400,248,124494,1,0,0:0:0:0:
409,95,124654,1,0,0:0:0:0:
280,208,124814,6,0,P|224:220|184:212,1,84.5250016121865
72,65,125135,1,0,0:0:0:0:
249,109,125296,1,0,0:0:0:0:
276,101,125376,1,0,0:0:0:0:
303,94,125456,1,0,0:0:0:0:
107,156,125617,1,0,0:0:0:0:
222,24,125777,1,0,0:0:0:0:
107,156,125937,1,0,0:0:0:0:
238,260,126098,6,0,P|287:269|325:258,1,84.5250016121865
185,116,126419,1,0,0:0:0:0:
144,256,126579,1,0,0:0:0:0:
135,282,126659,1,0,0:0:0:0:
126,309,126739,1,0,0:0:0:0:
185,116,126900,1,0,0:0:0:0:
238,260,127060,1,0,0:0:0:0:
104,163,127221,1,0,0:0:0:0:
238,260,127381,6,0,B|323:295|327:223|411:257,1,169.050003224373
277,146,127863,1,0,0:0:0:0:
280,118,127943,1,0,0:0:0:0:
283,90,128023,1,0,0:0:0:0:
454,127,128183,1,0,0:0:0:0:
283,90,128344,1,0,0:0:0:0:
468,39,128504,1,0,0:0:0:0:
442,207,128665,6,0,L|427:299,1,84.5250016121865
189,243,128986,1,0,0:0:0:0:
315,350,129146,1,0,0:0:0:0:
342,354,129226,1,0,0:0:0:0:
370,350,129306,1,0,0:0:0:0:
275,171,129467,1,0,0:0:0:0:
213,331,129627,1,0,0:0:0:0:
275,171,129788,1,0,0:0:0:0:
410,277,129948,6,0,P|455:281|494:265,1,84.5250016121865
275,171,130269,1,0,0:0:0:0:
132,297,130429,1,0,0:0:0:0:
104,299,130509,1,0,0:0:0:0:
76,293,130589,1,0,0:0:0:0:
183,144,130750,1,0,0:0:0:0:
222,312,130911,1,0,0:0:0:0:
116,210,131071,1,0,0:0:0:0:
155,56,131232,5,0,0:0:0:0:
275,171,131392,1,0,0:0:0:0:
155,56,131552,1,0,0:0:0:0:
316,92,131713,1,0,0:0:0:0:
343,97,131793,1,0,0:0:0:0:
371,103,131873,1,0,0:0:0:0:
241,2,132034,1,0,0:0:0:0:
100,104,132194,1,0,0:0:0:0:
282,85,132355,1,0,0:0:0:0:
100,104,132515,5,0,0:0:0:0:
247,197,132675,2,0,L|286:221,1,42.2625008060932
203,123,132836,2,0,P|181:135|167:154,1,42.2625008060932
287,125,132996,2,0,P|287:99|278:78,1,42.2625008060932
202,262,133157,2,0,P|223:274|246:277,1,42.2625008060932
369,175,133317,2,0,P|334:204|330:216,1,42.2625008060932
418,334,133478,2,0,L|408:288,1,42.2625008060932
238,155,133638,2,0,L|246:196,1,42.2625008060932
457,139,133798,6,0,L|440:51,1,84.5250016121865
478,244,134119,1,0,0:0:0:0:
324,197,134280,2,0,P|297:166|289:118,1,84.5250016121865
276,271,134601,2,0,B|226:259|226:259|192:224,1,84.5250016121865
279,359,134921,2,0,L|185:371,1,84.5250016121865
143,162,135242,5,0,0:0:0:0:
97,324,135403,1,0,0:0:0:0:
55,178,135563,1,0,0:0:0:0:
202,235,135724,1,0,0:0:0:0:
32,261,135884,1,0,0:0:0:0:
202,235,136044,1,0,0:0:0:0:
55,178,136205,1,0,0:0:0:0:
180,317,136365,6,0,P|222:330|270:322,1,84.5250016121865
123,114,136686,1,0,0:0:0:0:
96,280,136847,2,0,L|80:367,1,84.5250016121865
186,200,137167,2,0,L|200:288,1,84.5250016121865
70,53,137488,1,0,0:0:0:0:
70,53,137649,6,0,B|140:81|164:25|256:61,1,169.050003224373
437,132,138130,1,0,0:0:0:0:
437,132,138290,2,0,P|338:151|261:130,1,169.050003224373
70,53,138932,5,0,0:0:0:0:
236,34,139093,1,0,0:0:0:0:
70,53,139253,1,0,0:0:0:0:
202,118,139413,2,0,P|252:124|288:112,1,84.5250016121865
122,155,139734,2,0,B|144:195|144:195|188:220,1,84.5250016121865
29,137,140055,2,0,L|16:240,1,84.5250016121865
196,296,140376,6,0,L|175:202,1,84.5250016121865
145,40,140697,1,0,0:0:0:0:
7,127,140857,1,0,0:0:0:0:
145,40,141018,1,0,0:0:0:0:
82,190,141178,1,0,0:0:0:0:
45,32,141339,1,0,0:0:0:0:
169,139,141499,5,0,0:0:0:0:
308,58,141659,1,0,0:0:0:0:
216,220,141820,1,0,0:0:0:0:
216,58,141980,1,0,0:0:0:0:
355,139,142141,1,0,0:0:0:0:
169,139,142301,1,0,0:0:0:0:
308,220,142462,1,0,0:0:0:0:
164,293,142622,1,0,0:0:0:0:
155,299,142702,1,0,0:0:0:0:
147,304,142782,6,0,L|148:256,1,42.2625008060932
199,90,142943,2,0,L|197:132,1,42.2625008060932
67,221,143103,2,0,L|68:173,1,42.2625008060932
251,291,143264,2,0,L|249:333,1,42.2625008060932
188,221,143424,2,0,P|253:202|317:226,1,126.78750241828
377,258,143745,6,0,P|484:211|366:213,1,294
134,180,154333,5,2,0:3:0:0:
192,240,154975,2,0,P|234:250|275:240,1,73.5,8|2,0:3|0:3,0:0:0:0:
315,182,155617,1,8,0:0:0:0:
284,108,155937,1,4,0:0:0:0:
232,174,156258,1,2,0:0:0:0:
335,45,156579,1,8,0:1:0:0:
399,189,156900,6,0,P|440:201|476:195,1,73.5,2|4,0:0|0:0,0:0:0:0:
323,145,157542,2,0,L|304:226,1,73.5,8|4,0:0|0:3,0:0:0:0:
278,338,158183,1,2,0:3:0:0:
334,106,158825,1,4,0:0:0:0:
168,200,159467,5,2,0:3:0:0:
101,64,159788,1,8,0:1:0:0:
92,232,160109,1,2,0:3:0:0:
179,111,160429,1,4,0:0:0:0:
240,252,160750,1,8,0:0:0:0:
96,148,161071,1,8,0:1:0:0:
252,169,161392,1,4,0:1:0:0:
159,294,161713,1,8,0:1:0:0:
170,144,162034,5,2,0:0:0:0:
290,244,162355,1,4,0:0:0:0:
247,109,162675,1,8,0:0:0:0:
315,163,162996,1,4,0:3:0:0:
326,76,163317,1,2,0:3:0:0:
224,140,164601,6,0,P|204:164|196:184,1,36.75,8|0,0:1|0:0,0:0:0:0:
300,156,164921,2,0,P|320:132|328:112,1,36.75,0|0,0:0|0:0,0:0:0:0:
260,232,165242,2,0,P|288:240|304:240,1,36.75,2|0,0:3|0:0,0:0:0:0:
224,140,165563,2,0,P|196:144|176:152,1,36.75,0|0,0:0|0:0,0:0:0:0:
188,288,165884,6,0,L|208:336,1,36.75,8|0,0:1|0:0,0:0:0:0:
276,212,166205,2,0,L|264:256,1,36.75,0|0,0:0|0:0,0:0:0:0:
224,140,166526,2,0,P|256:124|272:124,1,36.75,2|0,0:0|0:0,0:0:0:0:
152,188,166847,2,0,B|132:176|120:152,1,36.75,4|0,0:0|0:0,0:0:0:0:
208,12,167167,6,0,L|212:56,1,36.75,8|0,0:0|0:0,0:0:0:0:
280,151,167488,2,0,L|248:116,1,36.75,0|0,0:0|0:0,0:0:0:0:
112,88,167809,2,0,P|136:100|160:96,1,36.75,0|0,0:0|0:0,0:0:0:0:
332,52,168130,2,0,P|304:44|280:48,1,36.75,4|0,0:3|0:0,0:0:0:0:
112,212,168451,6,0,L|144:184,1,36.75,2|0,0:3|0:0,0:0:0:0:
232,176,168772,2,0,P|240:152|240:132,1,36.75,0|0,0:0|0:0,0:0:0:0:
196,256,169093,2,0,L|232:296,1,36.75,0|0,0:0|0:0,0:0:0:0:
164,104,169413,2,0,L|116:112,1,36.75,0|0,0:0|0:0,0:0:0:0:
296,236,169734,6,0,P|312:220|320:200,1,36.75,8|0,0:1|0:0,0:0:0:0:
148,184,170055,2,0,P|140:216|144:236,1,36.75,0|0,0:0|0:0,0:0:0:0:
400,192,170376,2,0,P|392:164|380:148,1,36.75,2|0,0:3|0:0,0:0:0:0:
244,304,170697,2,0,P|268:316|292:316,1,36.75,0|0,0:0|0:0,0:0:0:0:
268,104,171018,6,0,L|280:148,1,36.75,8|0,0:1|0:0,0:0:0:0:
176,164,171339,2,0,L|164:208,1,36.75,0|0,0:0|0:0,0:0:0:0:
268,104,171659,2,0,P|252:80|232:68,1,36.75,4|0,0:0|0:0,0:0:0:0:
280,208,171980,2,0,P|308:200|328:188,1,36.75,8|0,0:1|0:0,0:0:0:0:
204,268,172301,6,0,L|224:304,1,36.75,2|0,0:0|0:0,0:0:0:0:
152,136,172622,2,0,P|120:128|100:128,1,36.75,4|0,0:0|0:0,0:0:0:0:
280,208,172943,2,0,P|308:200|328:188,1,36.75,8|0,0:0|0:0,0:0:0:0:
104,216,173264,2,0,P|93:243|88:256,1,36.75,4|0,0:3|0:0,0:0:0:0:
280,208,173585,6,0,P|320:196|356:168,1,73.5,2|0,0:3|0:0,0:0:0:0:
152,184,174226,2,0,L|132:220,1,36.75,0|0,0:0|0:0,0:0:0:0:
224,136,174547,2,0,P|212:120|192:108,1,36.75,0|0,0:0|0:0,0:0:0:0:
200,284,174868,6,0,P|264:284|312:256,1,110.250004205704,0|0,0:0|0:0,0:0:0:0:
360,136,175510,2,0,P|392:132|429:147,1,55.1250021028519,0|0,0:0|0:0,0:0:0:0:
276,156,175831,2,0,L|252:104,1,55.1250021028519,0|0,0:0|0:0,0:0:0:0:
336,220,176151,6,0,B|320:272|320:272|280:316,1,110.250004205704,0|0,0:0|0:0,0:0:0:0:
253,105,176793,2,0,L|225:169,1,55.1250021028519,0|0,0:0|0:0,0:0:0:0:
324,192,177114,2,0,L|340:248,1,55.1250021028519,0|0,0:0|0:0,0:0:0:0:
188,28,177435,6,0,P|240:4|292:8,1,110.250004205704,0|0,0:0|0:0,0:0:0:0:
156,116,178237,2,0,P|128:104|108:84,2,55.1250021028519,0|0|0,0:0|0:0|0:0,0:0:0:0:
252,108,178718,6,0,B|272:132|272:132|288:168,1,55.1250021028519,0|0,0:0|0:0,0:0:0:0:
308,240,179039,1,0,0:0:0:0:
308,240,179520,2,0,L|324:296,1,55.1250021028519,0|0,0:0|0:0,0:0:0:0:
282,153,179841,1,0,0:0:0:0:
224,280,180002,6,0,P|212:308|212:352,1,55.1250021028519,0|0,0:0|0:0,0:0:0:0:
282,153,180322,2,0,P|248:120|180:100,1,110.250004205704,0|0,0:0|0:0,0:0:0:0:
308,240,180804,2,0,L|364:212,1,55.1250021028519,0|0,0:0|0:0,0:0:0:0:
224,280,181125,1,0,0:0:0:0:
344,320,181285,6,0,P|384:324|424:308,1,73.5,0|0,0:0|0:0,0:0:0:0:
246,163,181606,1,0,0:0:0:0:
230,315,181766,1,0,0:0:0:0:
228,328,181846,1,0,0:0:0:0:
226,342,181926,1,0,0:0:0:0:
328,176,182087,1,0,0:0:0:0:
184,224,182248,1,0,0:0:0:0:
300,92,182408,1,0,0:0:0:0:
361,256,182568,6,0,L|391:338,1,73.5
246,163,182889,1,0,0:0:0:0:
399,180,183050,1,0,0:0:0:0:
423,178,183130,1,0,0:0:0:0:
446,169,183210,1,0,0:0:0:0:
262,80,183371,1,0,0:0:0:0:
227,244,183531,2,0,L|207:329,1,73.5
167,167,183852,5,0,0:0:0:0:
304,102,184012,1,0,0:0:0:0:
155,84,184173,1,0,0:0:0:0:
304,186,184333,1,0,0:0:0:0:
215,24,184494,1,0,0:0:0:0:
124,182,184654,1,0,0:0:0:0:
267,114,184814,1,0,0:0:0:0:
90,103,184975,1,0,0:0:0:0:
233,193,185135,6,0,P|276:200|312:190,1,73.5
415,56,185456,1,0,0:0:0:0:
440,208,185617,1,0,0:0:0:0:
443,226,185697,1,0,0:0:0:0:
446,244,185777,1,0,0:0:0:0:
373,134,185937,1,0,0:0:0:0:
338,286,186098,2,0,L|318:362,1,73.5
283,143,186419,5,0,0:0:0:0:
260,228,186579,1,0,0:0:0:0:
368,116,186740,1,0,0:0:0:0:
196,165,186900,1,0,0:0:0:0:
171,168,186980,1,0,0:0:0:0:
147,165,187060,1,0,0:0:0:0:
178,40,187221,1,0,0:0:0:0:
283,143,187381,1,0,0:0:0:0:
178,40,187542,1,0,0:0:0:0:
326,72,187702,6,0,P|373:69|403:49,1,73.5
178,40,188023,1,0,0:0:0:0:
153,180,188183,1,0,0:0:0:0:
148,204,188263,1,0,0:0:0:0:
143,228,188343,1,0,0:0:0:0:
78,66,188504,1,0,0:0:0:0:
51,201,188665,2,0,L|34:275,1,73.5
89,355,188986,6,0,P|141:360|177:348,1,73.5
358,286,189306,1,0,0:0:0:0:
195,248,189467,1,0,0:0:0:0:
171,242,189547,1,0,0:0:0:0:
146,247,189627,1,0,0:0:0:0:
266,318,189788,1,0,0:0:0:0:
288,160,189948,2,0,L|298:79,1,73.5
439,184,190269,6,0,P|387:213|357:211,1,73.5
197,147,190590,1,0,0:0:0:0:
67,111,190750,1,0,0:0:0:0:
42,110,190830,1,0,0:0:0:0:
19,116,190910,1,0,0:0:0:0:
137,214,191071,1,0,0:0:0:0:
257,78,191232,2,0,P|255:32|239:0,1,73.5
126,125,191552,6,0,L|203:149,1,73.5
353,187,191873,1,0,0:0:0:0:
445,56,192034,1,0,0:0:0:0:
441,38,192114,1,0,0:0:0:0:
437,20,192194,1,0,0:0:0:0:
283,92,192355,1,0,0:0:0:0:
424,141,192515,2,0,P|467:145|503:130,1,73.5
348,202,192836,6,0,L|360:285,1,73.5
239,105,193157,1,0,0:0:0:0:
256,259,193317,1,0,0:0:0:0:
259,283,193397,1,0,0:0:0:0:
262,307,193477,1,0,0:0:0:0:
331,110,193638,1,0,0:0:0:0:
170,220,193798,2,0,P|114:228|86:217,1,73.5
124,63,194119,6,0,L|131:149,1,73.5
70,287,194440,1,0,0:0:0:0:
95,296,194520,1,0,0:0:0:0:
123,300,194600,1,0,0:0:0:0:
150,300,194680,1,0,0:0:0:0:
177,294,194761,2,0,L|216:272,2,36.75
122,103,195082,2,0,L|112:147,1,36.75
272,161,195242,2,0,L|259:123,1,36.75
233,259,195403,6,0,P|276:266|320:254,1,73.5
202,69,195724,1,0,0:0:0:0:
155,213,195884,1,0,0:0:0:0:
146,236,195964,1,0,0:0:0:0:
138,259,196044,1,0,0:0:0:0:
119,108,196205,1,0,0:0:0:0:
282,122,196365,2,0,P|322:116|352:96,1,73.5
439,39,196686,6,0,L|449:129,1,73.5
465,276,197007,1,0,0:0:0:0:
308,313,197167,1,0,0:0:0:0:
272,320,197247,1,0,0:0:0:0:
236,316,197327,1,0,0:0:0:0:
102,261,197488,1,0,0:0:0:0:
236,316,197649,2,0,P|282:320|322:308,1,73.5
203,149,197970,6,0,L|193:230,1,73.5
133,60,198290,1,0,0:0:0:0:
110,213,198451,1,0,0:0:0:0:
106,237,198531,1,0,0:0:0:0:
102,261,198611,1,0,0:0:0:0:
48,92,198772,1,0,0:0:0:0:
213,29,198932,1,0,0:0:0:0:
213,29,199093,1,0,0:0:0:0:
213,29,199253,6,0,B|245:12|261:46|299:27,1,73.5
444,4,199574,1,0,0:0:0:0:
472,144,199734,1,0,0:0:0:0:
476,168,199814,1,0,0:0:0:0:
481,192,199894,1,0,0:0:0:0:
351,90,200055,1,0,0:0:0:0:
329,247,200216,2,0,L|315:329,1,73.5
458,294,200536,6,0,L|438:207,1,73.5
308,72,200857,1,0,0:0:0:0:
345,231,201018,1,0,0:0:0:0:
350,254,201098,1,0,0:0:0:0:
356,278,201178,1,0,0:0:0:0:
225,122,201339,1,0,0:0:0:0:
254,262,201499,2,0,L|272:339,1,73.5
356,278,201820,6,0,L|336:191,1,73.5
206,56,202141,1,0,0:0:0:0:
243,215,202302,1,0,0:0:0:0:
248,238,202382,1,0,0:0:0:0:
254,262,202462,1,0,0:0:0:0:
161,133,202623,1,0,0:0:0:0:
313,165,202782,2,0,P|358:163|390:151,1,73.5
161,133,203103,6,0,B|112:107|65:163|14:137,1,147
242,50,203585,1,0,0:0:0:0:
245,74,203665,1,0,0:0:0:0:
248,98,203745,1,0,0:0:0:0:
153,13,203905,1,0,0:0:0:0:
131,151,204066,2,0,L|116:234,1,73.5
53,323,204387,6,0,P|100:344|132:340,1,73.5
231,218,204708,2,0,P|259:217|275:221,1,36.75
271,348,204868,2,0,P|256:324|251:308,1,36.75
361,247,205028,2,0,P|347:271|336:283,2,36.75
222,109,205349,1,0,0:0:0:0:
224,136,205429,1,0,0:0:0:0:
226,163,205509,1,0,0:0:0:0:
229,191,205589,1,0,0:0:0:0:
231,218,205669,5,0,0:0:0:0:
395,314,205831,1,0,0:0:0:0:
233,240,206151,1,0,0:0:0:0:
415,233,206312,1,0,0:0:0:0:
236,263,206633,1,0,0:0:0:0:
434,151,206793,1,0,0:0:0:0:
353,142,206954,5,0,0:0:0:0:
388,217,207114,1,0,0:0:0:0:
401,76,207274,1,0,0:0:0:0:
272,141,207435,1,0,0:0:0:0:
255,148,207515,1,0,0:0:0:0:
238,156,207595,1,0,0:0:0:0:
334,30,207756,1,0,0:0:0:0:
309,212,207916,1,0,0:0:0:0:
251,40,208077,1,0,0:0:0:0:
377,162,208237,5,0,0:0:0:0:
204,212,208397,1,0,0:0:0:0:
368,137,208718,1,0,0:0:0:0:
251,279,208879,1,0,0:0:0:0:
357,111,209200,1,0,0:0:0:0:
331,297,209360,1,0,0:0:0:0:
385,238,209520,5,0,0:0:0:0:
245,187,209681,1,0,0:0:0:0:
227,180,209761,1,0,0:0:0:0:
210,174,209841,1,0,0:0:0:0:
172,307,210002,1,0,0:0:0:0:
189,301,210082,1,0,0:0:0:0:
207,296,210162,1,0,0:0:0:0:
110,142,210322,1,0,0:0:0:0:
82,328,210483,1,0,0:0:0:0:
166,204,210643,1,0,0:0:0:0:
18,194,210804,5,0,0:0:0:0:
118,50,210964,1,0,0:0:0:0:
22,222,211285,1,0,0:0:0:0:
184,96,211445,1,0,0:0:0:0:
28,248,211766,1,0,0:0:0:0:
241,155,211927,1,0,0:0:0:0:
206,225,212087,5,0,0:0:0:0:
151,92,212248,1,0,0:0:0:0:
144,74,212328,1,0,0:0:0:0:
138,57,212408,1,0,0:0:0:0:
81,194,212568,1,0,0:0:0:0:
99,194,212648,1,0,0:0:0:0:
117,194,212728,1,0,0:0:0:0:
274,196,212889,1,0,0:0:0:0:
152,272,213050,1,0,0:0:0:0:
227,126,213210,1,0,0:0:0:0:
318,265,213371,6,0,L|357:331,1,73.5
192,200,213691,1,0,0:0:0:0:
357,192,213852,2,0,P|402:174|424:151,1,73.5
201,119,214173,1,0,0:0:0:0:
177,281,214333,2,0,L|162:364,1,73.5
280,154,214654,5,0,0:0:0:0:
136,211,214814,2,0,P|79:221|47:209,1,73.5
213,58,215135,1,0,0:0:0:0:
222,219,215296,2,0,L|224:257,1,36.75
139,329,215456,2,0,L|137:291,1,36.75
391,328,215617,1,0,0:0:0:0:
365,338,215697,1,0,0:0:0:0:
338,344,215777,1,0,0:0:0:0:
311,344,215857,1,0,0:0:0:0:
284,338,215937,6,0,P|241:316|217:291,1,73.5
363,95,216258,1,0,0:0:0:0:
377,225,216419,1,0,0:0:0:0:
379,249,216499,1,0,0:0:0:0:
382,273,216579,1,0,0:0:0:0:
273,78,216740,1,0,0:0:0:0:
241,227,216900,2,0,L|221:305,1,73.5
181,59,217221,5,0,0:0:0:0:
64,115,217381,1,0,0:0:0:0:
243,128,217542,1,0,0:0:0:0:
83,197,217702,1,0,0:0:0:0:
58,198,217782,1,0,0:0:0:0:
34,193,217862,1,0,0:0:0:0:
181,59,218023,1,0,0:0:0:0:
159,239,218183,1,0,0:0:0:0:
105,103,218344,1,0,0:0:0:0:
243,128,218504,6,0,P|285:126|318:111,1,73.5
437,16,218825,1,0,0:0:0:0:
450,161,218986,1,0,0:0:0:0:
452,185,219066,1,0,0:0:0:0:
454,209,219146,1,0,0:0:0:0:
343,65,219306,1,0,0:0:0:0:
191,180,219467,2,0,P|148:185|112:169,1,73.5
306,137,219788,5,0,0:0:0:0:
380,172,219948,1,0,0:0:0:0:
240,184,220109,1,0,0:0:0:0:
387,252,220269,1,0,0:0:0:0:
409,262,220349,1,0,0:0:0:0:
431,272,220429,1,0,0:0:0:0:
374,91,220590,1,0,0:0:0:0:
248,263,220750,1,0,0:0:0:0:
299,57,220911,1,0,0:0:0:0:
387,252,221071,6,0,L|423:326,1,73.5
334,137,221392,1,0,0:0:0:0:
223,242,221552,1,0,0:0:0:0:
199,249,221632,1,0,0:0:0:0:
175,247,221712,1,0,0:0:0:0:
41,146,221873,1,0,0:0:0:0:
175,247,222034,2,0,P|215:245|254:224,1,73.5
87,228,222355,6,0,L|62:312,1,73.5
189,160,222675,1,0,0:0:0:0:
65,69,222836,1,0,0:0:0:0:
40,65,222916,1,0,0:0:0:0:
16,68,222996,1,0,0:0:0:0:
129,224,223157,1,0,0:0:0:0:
239,70,223317,2,0,P|242:42|234:18,1,36.75
98,114,223478,2,0,P|118:137|139:144,1,36.75
298,201,223638,6,0,B|365:232|379:170|449:204,1,147
336,121,224119,1,0,0:0:0:0:
336,121,224200,1,0,0:0:0:0:
336,121,224280,2,0,L|345:46,1,73.5
183,114,224601,2,0,L|197:191,1,73.5
414,220,224921,6,0,L|433:74,1,147
347,303,225403,1,0,0:0:0:0:
347,303,225483,1,0,0:0:0:0:
347,303,225563,2,0,P|397:326|429:322,1,73.5
305,205,225884,2,0,P|276:192|256:192,1,36.75
200,330,226044,2,0,P|222:318|234:302,1,36.75
136,145,226205,6,0,L|120:232,1,84.5250016121865
68,35,226526,1,0,0:0:0:0:
40,190,226686,1,0,0:0:0:0:
35,217,226766,1,0,0:0:0:0:
30,245,226846,1,0,0:0:0:0:
227,163,227007,2,0,L|213:74,1,84.5250016121865
170,283,227328,1,0,0:0:0:0:
325,342,227488,6,0,P|372:346|410:328,1,84.5250016121865
424,126,227809,1,0,0:0:0:0:
267,55,227970,1,0,0:0:0:0:
240,46,228050,1,0,0:0:0:0:
212,48,228130,1,0,0:0:0:0:
305,259,228290,1,0,0:0:0:0:
339,112,228451,2,0,L|359:24,1,84.5250016121865
185,170,228772,6,0,P|229:186|272:179,1,84.5250016121865
436,50,229093,1,0,0:0:0:0:
456,194,229253,1,0,0:0:0:0:
460,221,229333,1,0,0:0:0:0:
464,249,229413,1,0,0:0:0:0:
265,181,229574,2,0,P|302:148|339:135,1,84.5250016121865
312,324,229895,1,0,0:0:0:0:
136,361,230055,6,0,P|91:359|55:341,1,84.5250016121865
201,86,230376,1,0,0:0:0:0:
172,218,230536,1,0,0:0:0:0:
166,245,230616,1,0,0:0:0:0:
160,273,230696,1,0,0:0:0:0:
303,85,230857,1,0,0:0:0:0:
314,236,231018,2,0,L|321:322,1,84.5250016121865
145,186,231339,6,0,P|189:162|233:162,1,84.5250016121865
87,288,231659,1,0,0:0:0:0:
56,148,231820,1,0,0:0:0:0:
50,120,231900,1,0,0:0:0:0:
44,92,231980,1,0,0:0:0:0:
238,77,232141,2,0,L|220:169,1,84.5250016121865
342,27,232462,1,0,0:0:0:0:
359,185,232622,6,0,L|368:270,1,84.5250016121865
437,43,232943,1,0,0:0:0:0:
454,201,233103,1,0,0:0:0:0:
456,229,233183,1,0,0:0:0:0:
459,257,233263,1,0,0:0:0:0:
274,119,233424,1,0,0:0:0:0:
435,123,233585,1,0,0:0:0:0:
274,119,233745,1,0,0:0:0:0:
410,196,233905,6,0,B|429:208|452:201|452:201|413:241|375:189|332:205,1,169.050003224373
305,359,234387,1,0,0:0:0:0:
332,365,234467,1,0,0:0:0:0:
360,364,234547,1,0,0:0:0:0:
245,174,234708,1,0,0:0:0:0:
214,344,234868,1,0,0:0:0:0:
333,204,235028,1,0,0:0:0:0:
333,204,235108,1,0,0:0:0:0:
333,204,235188,5,0,0:0:0:0:
192,98,235349,1,0,0:0:0:0:
206,225,235510,2,0,P|234:233|258:229,1,42.2625008060932
125,182,235670,2,0,P|104:202|95:225,1,42.2625008060932
206,136,235831,2,0,P|198:107|183:88,1,42.2625008060932
57,286,235991,2,0,P|85:294|109:290,1,42.2625008060932
22,31,236151,1,0,0:0:0:0:
20,52,236231,1,0,0:0:0:0:
17,73,236311,1,0,0:0:0:0:
14,94,236391,1,0,0:0:0:0:
11,115,236472,6,0,L|-2:214,1,84.5250016121865
194,312,236793,1,0,0:0:0:0:
179,147,236954,1,0,0:0:0:0:
176,118,237034,1,0,0:0:0:0:
173,90,237114,1,0,0:0:0:0:
138,223,237274,2,0,P|187:232|226:222,1,84.5250016121865
364,73,237595,1,0,0:0:0:0:
381,236,237756,6,0,L|391:324,1,84.5250016121865
297,184,238077,1,0,0:0:0:0:
453,104,238237,1,0,0:0:0:0:
480,98,238317,1,0,0:0:0:0:
508,102,238397,1,0,0:0:0:0:
391,176,238558,1,0,0:0:0:0:
216,240,238718,2,0,P|163:239|131:223,1,84.5250016121865
157,54,239039,6,0,P|213:46|252:62,1,84.5250016121865
53,213,239360,1,0,0:0:0:0:
42,83,239520,1,0,0:0:0:0:
39,54,239600,1,0,0:0:0:0:
36,26,239680,1,0,0:0:0:0:
199,135,239841,2,0,L|182:224,1,84.5250016121865
42,83,240162,1,0,0:0:0:0:
215,53,240322,6,0,P|264:52|300:66,1,84.5250016121865
313,245,240643,1,0,0:0:0:0:
441,308,240804,1,0,0:0:0:0:
468,315,240884,1,0,0:0:0:0:
496,315,240964,1,0,0:0:0:0:
451,144,241125,1,0,0:0:0:0:
313,245,241285,2,0,P|260:256|224:248,1,84.5250016121865
116,128,241606,6,0,P|165:121|213:137,1,84.5250016121865
0,231,241927,1,0,0:0:0:0:
114,127,242087,2,0,B|173:100|226:160|282:129,1,169.050003224373
56,60,242568,2,0,P|28:104|26:149,1,84.5250016121865
223,223,242889,5,0,0:0:0:0:
144,96,243050,1,0,0:0:0:0:
137,256,243210,1,0,0:0:0:0:
356,171,243371,2,0,B|371:52|371:52|347:-3,1,169.050003224373
308,249,243852,2,0,P|352:263|392:258,1,84.5250016121865
218,221,244173,6,0,L|196:321,1,84.5250016121865
159,87,244494,1,0,0:0:0:0:
126,220,244654,1,0,0:0:0:0:
118,247,244734,1,0,0:0:0:0:
111,274,244814,1,0,0:0:0:0:
159,87,244975,1,0,0:0:0:0:
329,181,245135,2,0,P|379:185|415:169,1,84.5250016121865
284,14,245456,6,0,P|250:62|246:98,1,84.5250016121865,8|0,0:0|0:0,0:0:0:0:
455,108,245777,2,0,L|444:68,1,42.2625008060932
409,204,245937,2,0,L|449:214,1,42.2625008060932
345,118,246098,1,2,0:0:0:0:
314,109,246178,1,0,0:0:0:0:
282,108,246258,1,0,0:0:0:0:
252,115,246338,1,0,0:0:0:0:
222,125,246418,1,8,0:0:0:0:
191,132,246499,1,0,0:0:0:0:
159,132,246579,1,0,0:0:0:0:
128,125,246659,1,0,0:0:0:0:
99,112,246740,6,0,P|88:66|96:28,1,84.5250016121865,8|0,0:1|0:0,0:0:0:0:
208,208,247060,1,0,0:0:0:0:
92,280,247221,1,0,0:0:0:0:
56,288,247301,1,0,0:0:0:0:
21,279,247381,1,2,0:3:0:0:
208,208,247542,1,0,0:0:0:0:
333,281,247702,2,0,P|377:292|428:276,1,84.5250016121865
309,117,248023,6,0,L|292:212,1,84.5250016121865,8|0,0:1|0:0,0:0:0:0:
409,61,248344,1,0,0:0:0:0:
431,202,248504,1,0,0:0:0:0:
436,238,248584,1,0,0:0:0:0:
442,274,248665,1,2,0:0:0:0:
309,117,248825,1,0,0:0:0:0:
279,276,248986,2,0,L|260:364,1,84.5250016121865,4|0,0:0|0:0,0:0:0:0:
246,196,249306,6,0,P|296:191|332:208,1,84.5250016121865,8|0,0:0|0:0,0:0:0:0:
172,328,249627,1,0,0:0:0:0:
26,249,249788,1,0,0:0:0:0:
16,213,249868,1,0,0:0:0:0:
20,177,249948,1,8,0:1:0:0:
243,102,250109,1,0,0:0:0:0:
111,204,250269,1,0,0:0:0:0:
163,57,250429,1,0,0:0:0:0:
201,217,250590,6,0,P|247:232|292:224,1,84.5250016121865,8|0,0:3|0:0,0:0:0:0:
94,116,250911,1,0,0:0:0:0:
63,266,251071,1,0,0:0:0:0:
55,301,251151,1,0,0:0:0:0:
47,337,251231,1,0,0:0:0:0:
229,251,251392,1,0,0:0:0:0:
210,89,251552,2,0,L|201:0,1,84.5250016121865
181,169,251873,6,0,P|229:173|273:151,1,84.5250016121865,8|0,0:3|0:0,0:0:0:0:
389,18,252194,1,0,0:0:0:0:
247,72,252355,1,0,0:0:0:0:
211,81,252435,1,0,0:0:0:0:
175,76,252515,1,4,0:3:0:0:
389,18,252675,1,0,0:0:0:0:
415,178,252836,2,0,L|429:263,1,84.5250016121865
260,188,253157,5,8,0:1:0:0:
308,50,253317,1,0,0:0:0:0:
340,238,253478,1,0,0:0:0:0:
176,288,253638,1,0,0:0:0:0:
139,293,253718,1,0,0:0:0:0:
104,285,253798,1,2,0:0:0:0:
251,227,253959,1,0,0:0:0:0:
382,300,254119,2,0,P|432:304|467:285,1,84.5250016121865
251,227,254440,6,0,B|180:196|158:256|84:217,1,169.050003224373,4|0,0:0|0:0,0:0:0:0:
327,110,254921,1,0,0:0:0:0:
331,146,255001,1,0,0:0:0:0:
335,183,255081,1,0,0:0:0:0:
142,150,255242,1,0,0:0:0:0:
315,22,255403,1,0,0:0:0:0:
135,68,255563,1,0,0:0:0:0:
98,68,255643,1,0,0:0:0:0:
64,54,255724,5,2,0:3:0:0:
228,39,255884,1,0,0:0:0:0:
250,169,256044,2,0,L|261:227,1,42.2625008060932
182,276,256205,2,0,L|173:233,1,42.2625008060932
345,210,256365,2,0,L|356:268,1,42.2625008060932,8|0,0:3|0:0,0:0:0:0:
279,334,256526,2,0,L|271:291,1,42.2625008060932
444,88,256686,1,0,0:0:0:0:
440,124,256766,1,0,0:0:0:0:
436,161,256846,1,0,0:0:0:0:
433,197,256926,1,0,0:0:0:0:
429,234,257007,6,0,P|383:249|330:235,1,84.5250016121865,8|0,0:1|0:0,0:0:0:0:
210,181,257328,1,0,0:0:0:0:
348,243,257488,1,0,0:0:0:0:
389,248,257568,1,0,0:0:0:0:
429,233,257648,1,2,0:3:0:0:
299,95,257809,1,0,0:0:0:0:
270,251,257970,2,0,L|252:344,1,84.5250016121865
237,170,258290,6,0,P|281:164|319:176,1,84.5250016121865,8|0,0:1|0:0,0:0:0:0:
116,263,258611,1,0,0:0:0:0:
101,104,258772,1,0,0:0:0:0:
97,67,258852,1,0,0:0:0:0:
94,30,258932,1,0,0:0:0:0:
203,228,259093,1,0,0:0:0:0:
324,88,259253,1,0,0:0:0:0:
288,260,259413,1,0,0:0:0:0:
151,147,259574,6,0,P|143:114|154:63,1,84.5250016121865,2|0,0:0|0:0,0:0:0:0:
306,173,259895,1,0,0:0:0:0:
142,260,260055,1,0,0:0:0:0:
106,265,260135,1,0,0:0:0:0:
71,255,260216,1,4,0:0:0:0:
227,217,260376,1,0,0:0:0:0:
361,294,260536,2,0,P|408:304|449:290,1,84.5250016121865,8|0,0:0|0:0,0:0:0:0:
326,137,260857,5,4,0:0:0:0:
272,296,261018,1,0,0:0:0:0:
232,128,261178,1,0,0:0:0:0:
392,204,261339,1,0,0:0:0:0:
427,212,261419,1,0,0:0:0:0:
462,204,261499,1,2,0:3:0:0:
284,55,261659,1,0,0:0:0:0:
247,234,261820,2,0,L|229:316,1,84.5250016121865
264,144,262141,5,8,0:3:0:0:
349,176,262301,1,0,0:0:0:0:
430,133,262462,1,0,0:0:0:0:
232,54,262622,2,0,P|176:45|134:60,1,84.5250016121865,0|4,0:0|0:3,0:0:0:0:
205,259,262943,1,0,0:0:0:0:
287,127,263103,1,0,0:0:0:0:
284,308,263264,1,0,0:0:0:0:
125,209,263424,5,2,0:3:0:0:
140,119,263585,1,0,0:0:0:0:
157,27,263745,1,0,0:0:0:0:
319,173,263905,2,0,L|231:192,1,84.5250016121865,0|8,0:0|0:0,0:0:0:0:
371,88,264226,1,0,0:0:0:0:
473,221,264387,2,0,P|488:265|484:306,1,84.5250016121865
197,216,264708,6,0,B|188:172|188:172|198:128,1,84.5250016121865,2|0,0:3|0:0,0:0:0:0:
350,72,265028,1,0,0:0:0:0:
336,229,265189,1,0,0:0:0:0:
332,265,265269,1,0,0:0:0:0:
328,302,265349,1,0,0:0:0:0:
443,89,265510,1,0,0:0:0:0:
474,245,265670,2,0,L|493:332,1,84.5250016121865,8|0,0:1|0:0,0:0:0:0:
336,229,265991,6,0,L|324:327,1,84.5250016121865,4|0,0:0|0:0,0:0:0:0:
210,177,266312,2,0,L|219:232,1,42.2625008060932
295,122,266472,2,0,L|288:79,1,42.2625008060932
156,296,266633,1,0,0:0:0:0:
188,312,266713,1,0,0:0:0:0:
225,316,266793,1,0,0:0:0:0:
261,309,266873,1,0,0:0:0:0:
295,297,266953,1,0,0:0:0:0:
330,284,267034,1,0,0:0:0:0:
366,276,267114,1,0,0:0:0:0:
402,277,267194,1,0,0:0:0:0:
437,289,267274,5,0,0:0:0:0:
