osu file format v14

[General]
AudioFilename: audio.mp3
AudioLeadIn: 0
PreviewTime: 226168
Countdown: 0
SampleSet: Soft
StackLeniency: 0.7
Mode: 0
LetterboxInBreaks: 0
WidescreenStoryboard: 1

[Editor]
Bookmarks: 10592,20859,41394,61929,82464,102998,123533,144068,174870,185137,205672,226207,246742,267276
DistanceSpacing: 1.2
BeatDivisor: 4
GridSize: 4
TimelineZoom: 2.1

[Metadata]
Title:Pastel Subliminal
TitleUnicode:Pastel Subliminal
Artist:a_hisa
ArtistUnicode:a_hisa
Creator:My Angel Rize
Version:Paloch's Insane
Source:
Tags:gazilotfap galentori inversal [_lost_] -_frontier_- boatkrab paloch_vega natsuki_nanaka colors
BeatmapID:1250924
BeatmapSetID:587286

[Difficulty]
HPDrainRate:6
CircleSize:4.2
OverallDifficulty:8
ApproachRate:9
SliderMultiplier:1.47
SliderTickRate:1

[Events]
//Background and Video events
0,0,"BG.jpg",0,0
//Break Periods
2,144267,153735
//Storyboard Layer 0 (Background)
//Storyboard Layer 1 (Fail)
//Storyboard Layer 2 (Pass)
//Storyboard Layer 3 (Foreground)
//Storyboard Sound Samples

[TimingPoints]
325,320.855614973262,4,2,2,10,1,0
9308,-200,4,2,2,10,0,0
9950,-100,4,2,2,10,0,0
10592,-200,4,2,0,30,0,0
11234,-133.333333333333,4,2,2,30,0,0
11875,-200,4,2,2,30,0,0
12517,-133.333333333333,4,2,2,30,0,0
13159,-200,4,2,2,30,0,0
13800,-133.333333333333,4,2,2,30,0,0
15084,-133.333333333333,4,2,2,30,0,0
17009,-100,4,2,2,30,0,0
17651,-100,4,2,6,30,0,0
19576,-200,4,2,2,30,0,0
20057,-100,4,2,2,30,0,0
20218,-100,4,2,2,50,0,0
20859,-100,4,2,6,70,0,1
30806,-100,4,2,6,70,0,0
31127,-100,4,2,6,70,0,1
36260,-100,4,2,7,70,0,1
39469,-100,4,2,2,70,0,1
39790,-100,4,2,6,70,0,1
40111,-100,4,2,7,70,0,1
41394,-100,4,2,7,70,0,0
41563,-100,4,2,6,70,0,0
61929,-100,4,2,2,70,0,0
69629,-100,4,2,6,60,0,0
79897,-100,4,2,7,60,0,0
82464,-100,4,2,6,70,0,1
97865,-100,4,2,7,70,0,1
102998,-100,4,2,6,70,0,0
108132,-100,4,2,6,70,0,0
108613,-100,4,2,6,70,0,0
110939,-100,4,2,5,70,0,0
111341,-100,4,2,6,70,0,0
113266,-100,4,2,7,70,0,0
113587,-100,4,2,5,70,0,0
118399,-133.333333333333,4,2,7,70,0,0
119683,-133.333333333333,4,2,2,70,0,0
120966,-100,4,2,7,50,0,0
121127,-100,4,2,7,70,0,0
122089,-100,4,2,2,70,0,0
133800,-100,4,2,2,70,0,1
143747,-50,4,2,2,70,0,0
144068,-100,4,2,2,70,0,0
144068,-50,4,2,7,70,0,0
154335,-200,4,2,11,30,0,0
154977,-200,4,2,10,30,0,0
155619,-200,4,2,11,30,0,0
156260,-200,4,2,11,30,0,0
157544,-200,4,2,10,30,0,0
158827,-200,4,2,11,30,0,0
159469,-200,4,2,11,30,0,0
160111,-200,4,2,10,30,0,0
160752,-200,4,2,11,30,0,0
161394,-200,4,2,10,30,0,0
161715,-200,4,2,11,30,0,0
162677,-200,4,2,10,30,0,0
164603,-200,4,2,11,30,0,0
165244,-200,4,2,10,30,0,0
165886,-200,4,2,11,30,0,0
167169,-200,4,2,10,30,0,0
169736,-200,4,2,11,30,0,0
170378,-200,4,2,10,30,0,0
171020,-200,4,2,11,30,0,0
171661,-200,4,2,11,30,0,0
172945,-200,4,2,10,30,0,0
174870,-133.333333333333,4,2,11,25,0,0
177437,-133.333333333333,4,2,10,25,0,0
180004,-133.333333333333,4,2,11,25,0,0
181287,-100,4,2,11,40,0,0
182250,-100,4,2,11,40,0,0
182570,-100,4,2,11,55,0,0
183212,-100,4,2,10,60,0,0
183854,-100,4,2,6,70,0,0
205672,-100,4,2,7,70,0,0
226207,-100,4,2,6,70,0,1
241608,-100,4,2,7,70,0,1
246100,-100,4,2,7,50,0,1
246260,-100,4,2,7,55,0,1
246421,-100,4,2,7,60,0,1
246581,-100,4,2,2,65,0,0
246742,-100,4,2,11,70,0,1
247383,-100,4,2,10,70,0,1
248025,-100,4,2,11,70,0,1
249308,-100,4,2,10,70,0,1
249950,-100,4,2,11,70,0,1
250592,-100,4,2,10,70,0,1
252517,-100,4,2,10,70,0,1
253159,-100,4,2,11,70,0,1
255726,-100,4,2,10,70,0,1
257009,-100,4,2,11,70,0,1
257651,-100,4,2,10,70,0,1
258292,-100,4,2,11,70,0,1
260538,-100,4,2,10,70,0,1
260859,-100,4,2,11,70,0,1
261501,-100,4,2,10,70,0,1
265672,-100,4,2,11,70,0,1
265993,-100,4,2,11,70,0,1
266314,-100,4,2,6,70,0,0

[Colours]
Combo1 : 255,74,165
Combo2 : 88,134,241
Combo3 : 132,255,255
Combo4 : 242,138,217

[HitObjects]
176,152,325,6,0,P|157:187|152:221,1,73.5,2|0,0:0|0:0,0:0:0:0:
256,121,645,2,0,P|231:83|200:69,1,73.5
100,289,966,2,0,P|140:309|180:305,1,73.5,2|0,0:0|0:0,0:0:0:0:
236,253,1287,1,0,0:0:0:0:
320,281,1447,1,0,0:0:0:0:
384,221,1608,6,0,P|392:185|376:141,1,73.5,2|0,0:0|0:0,0:0:0:0:
304,105,1929,2,0,B|312:69|312:69|340:32,1,73.5
308,193,2250,2,0,L|220:225,1,73.5,2|0,0:0|0:0,0:0:0:0:
320,281,2570,2,0,L|276:345,1,73.5,2|0,0:0|0:0,0:0:0:0:
407,301,2891,5,2,0:0:0:0:
450,224,3052,1,0,0:0:0:0:
392,158,3213,1,0,0:0:0:0:
308,193,3373,1,2,0:0:0:0:
228,229,3533,2,0,P|180:237|140:225,1,73.5,2|0,0:0|0:0,0:0:0:0:
148,85,3854,2,0,P|180:121|188:163,1,73.5,2|0,0:0|0:0,0:0:0:0:
56,89,4175,5,2,0:0:0:0:
16,141,4335,1,0,0:0:0:0:
32,205,4496,1,0,0:0:0:0:
96,217,4656,1,0,0:0:0:0:
187,144,4816,5,2,0:0:0:0:
276,37,4977,1,0,0:0:0:0:
252,197,5137,1,2,0:0:0:0:
200,65,5298,1,2,0:0:0:0:
328,165,5458,6,0,P|332:209|316:249,1,73.5,2|0,0:0|0:0,0:0:0:0:
187,144,5779,2,0,P|205:103|239:77,1,73.5
372,305,6100,2,0,P|330:320|287:315,1,73.5,2|0,0:0|0:0,0:0:0:0:
276,161,6421,2,0,P|317:145|360:150,1,73.5
372,305,6742,6,0,B|328:329|268:325|232:293,1,147,2|0,0:0|0:0,0:0:0:0:
200,213,7223,1,0,0:0:0:0:
176,129,7383,2,0,L|156:53,1,73.5,2|0,0:0|0:0,0:0:0:0:
108,193,7704,2,0,P|80:229|68:273,1,73.5,2|0,0:0|0:0,0:0:0:0:
272,149,8025,6,0,P|286:112|284:73,1,73.5,2|0,0:0|0:0,0:0:0:0:
160,268,8346,2,0,L|192:344,1,73.5,2|0,0:0|0:0,0:0:0:0:
176,129,8667,2,0,P|144:109|96:100,1,73.5,2|0,0:0|0:0,0:0:0:0:
332,212,8988,2,0,B|372:200|396:164,1,73.5
236,204,9308,6,0,B|188:244|204:308,1,110.25,2|0,0:0|0:0,0:0:0:0:
328,196,9950,1,2,0:0:0:0:
276,124,10110,1,0,0:0:0:0:
292,276,10271,1,2,0:0:0:0:
364,112,10431,1,2,0:0:0:0:
188,128,10592,6,0,P|120:140|72:120,1,110.25,6|0,0:0|0:0,0:0:0:0:
236,208,11234,2,0,P|224:236|204:256,1,55.1250021028519,10|0,0:0|0:0,0:0:0:0:
136,44,11554,2,0,P|164:32|192:32,1,55.1250021028519
124,280,11875,6,0,B|144:340|220:340,1,110.25,2|0,0:0|0:0,0:0:0:0:
48,228,12517,2,0,P|32:260|32:292,1,55.1250021028519,10|0,0:0|0:0,0:0:0:0:
188,128,12838,2,0,P|164:100|144:88,1,55.1250021028519,2|0,0:0|0:0,0:0:0:0:
231,208,13159,6,0,B|276:204|276:204|348:168,1,110.25,2|0,0:0|0:0,0:0:0:0:
148,248,13800,2,0,P|164:272|188:288,1,55.1250021028519,10|0,0:0|0:0,0:0:0:0:
248,116,14121,2,0,P|222:103|193:101,1,55.1250021028519,2|0,0:0|0:0,0:0:0:0:
148,248,14442,6,0,P|152:292|192:352,1,110.250004205704,2|0,0:0|0:0,0:0:0:0:
316,176,15084,1,10,0:0:0:0:
268,28,15244,1,0,0:0:0:0:
232,204,15405,1,0,0:0:0:0:
336,88,15565,1,10,0:0:0:0:
388,236,15726,6,0,P|396:272|388:312,1,55.1250021028519,2|0,0:0|0:0,0:0:0:0:
232,204,16046,2,0,P|228:168|244:128,1,55.1250021028519
428,96,16367,2,0,P|442:121|445:154,1,55.1250021028519,10|0,0:0|0:0,0:0:0:0:
316,176,16688,2,0,P|336:156|368:144,1,55.1250021028519
300,264,17009,6,0,P|268:288|220:292,1,73.5,2|0,0:0|0:0,0:0:0:0:
112,152,17330,2,0,P|144:128|196:124,1,73.5
236,380,17651,2,0,P|196:374|160:332,1,73.5,10|0,0:0|0:0,0:0:0:0:
304,176,17972,2,0,P|344:182|380:224,1,73.5
209,187,18292,6,0,L|173:115,1,73.5,2|0,0:0|0:0,0:0:0:0:
164,268,18613,2,0,L|88:240,1,73.5
304,176,18934,2,0,L|316:100,1,73.5,10|0,0:0|0:0,0:0:0:0:
360,252,19255,2,0,L|412:192,1,73.5
300,332,19576,6,0,P|256:348|220:344,1,73.5,2|0,0:0|0:0,0:0:0:0:
240,220,20057,1,0,0:0:0:0:
244,236,20138,1,0,0:0:0:0:
248,252,20218,1,2,0:0:0:0:
296,144,20378,1,0,0:0:0:0:
156,284,20538,1,0,0:0:0:0:
220,92,20699,1,0,0:0:0:0:
352,240,20859,6,0,P|360:280|348:320,1,73.5,4|0,0:0|0:0,0:0:0:0:
296,144,21180,1,8,0:0:0:0:
196,264,21341,1,0,0:0:0:0:
204,280,21421,1,0,0:0:0:0:
212,296,21501,1,0,0:0:0:0:
204,112,21661,2,0,P|160:108|124:120,1,73.5,2|8,0:0|0:0,0:0:0:0:
284,236,21982,1,0,0:0:0:0:
288,72,22143,6,0,B|264:40|264:40|220:16,1,73.5,2|0,0:0|0:0,0:0:0:0:
196,264,22464,1,8,0:0:0:0:
364,124,22624,1,0,0:0:0:0:
364,124,22704,1,0,0:0:0:0:
364,124,22784,2,0,L|380:48,1,73.5,2|0,0:0|0:0,0:0:0:0:
284,236,23105,2,0,P|300:276|328:296,1,73.5,10|0,0:0|0:0,0:0:0:0:
200,191,23426,6,0,B|164:208|164:208|136:240,1,73.5,6|0,0:0|0:0,0:0:0:0:
288,72,23747,1,8,0:0:0:0:
288,240,23907,1,0,0:0:0:0:
288,240,23988,1,0,0:0:0:0:
288,240,24068,1,0,0:0:0:0:
196,76,24228,1,2,0:0:0:0:
212,292,24389,1,8,0:0:0:0:
268,136,24549,1,0,0:0:0:0:
368,284,24710,6,0,P|380:324|376:364,1,73.5,2|0,0:0|0:0,0:0:0:0:
360,128,25030,1,8,0:0:0:0:
288,332,25191,2,0,P|216:348|144:320,1,147
116,236,25672,2,0,P|120:196|108:156,1,73.5,8|0,0:0|0:0,0:0:0:0:
124,72,25993,6,0,P|88:72|52:92,2,73.5,2|0|8,0:0|0:0|0:0,0:0:0:0:
200,200,26474,1,0,0:0:0:0:
204,212,26554,1,0,0:0:0:0:
208,224,26635,1,0,0:0:0:0:
296,88,26795,1,2,0:0:0:0:
156,300,26956,1,8,0:0:0:0:
208,108,27116,1,0,0:0:0:0:
292,264,27276,6,0,L|316:348,1,73.5,2|0,0:0|0:0,0:0:0:0:
140,172,27597,1,8,0:0:0:0:
320,172,27758,2,0,P|359:195|380:228,1,73.5
228,196,28079,1,2,0:0:0:0:
336,80,28239,1,10,0:0:0:0:
292,264,28399,1,2,0:0:0:0:
164,128,28560,6,0,P|124:120|80:132,1,73.5,6|0,0:0|0:0,0:0:0:0:
236,308,28881,2,0,P|271:288|297:250,1,73.5,8|0,0:0|0:0,0:0:0:0:
296,252,29121,1,0,0:0:0:0:
296,240,29202,1,0,0:0:0:0:
96,360,29362,1,0,0:0:0:0:
124,212,29522,1,8,0:0:0:0:
236,308,29683,1,0,0:0:0:0:
236,308,29763,1,0,0:0:0:0:
236,308,29843,5,2,0:0:0:0:
140,120,30004,1,0,0:0:0:0:
36,248,30164,2,0,L|24:288,1,36.75,10|0,0:0|0:0,0:0:0:0:
124,212,30324,2,0,L|96:180,1,36.75
108,304,30485,2,0,L|156:296,1,36.75
228,256,30645,5,8,0:0:0:0:
249,245,30725,1,0,0:0:0:0:
273,238,30805,1,8,0:0:0:0:
297,236,30885,1,0,0:0:0:0:
322,237,30965,1,8,0:0:0:0:
345,243,31046,1,8,0:0:0:0:
368,253,31127,6,0,P|412:268|440:268,1,73.5,6|0,0:0|0:0,0:0:0:0:
420,180,31447,2,0,B|444:152|444:152|452:116,1,73.5,8|0,0:0|0:0,0:0:0:0:
452,100,31688,1,0,0:0:0:0:
452,84,31768,1,0,0:0:0:0:
280,240,31929,2,0,P|284:288|312:320,1,73.5,2|8,0:0|0:0,0:0:0:0:
360,108,32250,1,0,0:0:0:0:
200,200,32410,6,0,L|160:272,1,73.5,2|0,0:0|0:0,0:0:0:0:
284,60,32731,1,8,0:0:0:0:
352,228,32891,1,0,0:0:0:0:
360,240,32971,1,0,0:0:0:0:
368,253,33052,1,2,0:0:0:0:
360,108,33212,1,0,0:0:0:0:
268,260,33373,2,0,P|256:296|260:340,1,73.5,10|0,0:0|0:0,0:0:0:0:
268,112,33693,5,4,0:0:0:0:
352,228,33854,1,0,0:0:0:0:
332,48,34014,1,8,0:0:0:0:
204,176,34175,1,0,0:0:0:0:
192,188,34255,1,0,0:0:0:0:
180,200,34335,1,0,0:0:0:0:
244,24,34496,1,2,0:0:0:0:
288,196,34656,1,8,0:0:0:0:
164,68,34816,1,0,0:0:0:0:
92,224,34977,6,0,B|92:268|92:268|108:312,1,73.5,2|0,0:0|0:0,0:0:0:0:
164,68,35298,1,8,0:0:0:0:
224,216,35458,1,0,0:0:0:0:
232,232,35538,1,0,0:0:0:0:
240,248,35619,1,0,0:0:0:0:
240,116,35779,1,0,0:0:0:0:
196,328,35939,1,8,0:0:0:0:
156,156,36100,1,0,0:0:0:0:
328,264,36260,6,0,P|368:260|400:244,1,73.5,4|0,0:1|0:0,0:0:0:0:
392,84,36581,1,8,0:0:0:0:
252,212,36742,2,0,B|208:256|208:256|172:352,1,147,4|0,0:0|0:0,0:0:0:0:
340,172,37223,2,0,P|312:136|276:120,1,73.5,8|0,0:0|0:0,0:0:0:0:
200,136,37544,6,0,B|156:124|156:124|120:100,1,73.5,4|0,0:1|0:0,0:0:0:0:
300,36,37865,1,0,0:0:0:0:
252,212,38025,2,0,P|204:268|124:296,1,147,4|0,0:0|0:0,0:0:0:0:
340,172,38506,2,0,P|348:212|336:256,1,73.5,8|0,0:0|0:0,0:0:0:0:
164,175,38827,6,0,P|183:145|213:124,1,73.5,4|0,0:1|0:0,0:0:0:0:
272,300,39148,1,8,0:0:0:0:
116,252,39308,1,0,0:0:0:0:
105,236,39388,1,0,0:0:0:0:
94,221,39469,1,4,0:0:0:0:
116,344,39629,1,0,0:0:0:0:
252,212,39790,2,0,B|280:180|280:180|292:144,1,73.5,8|0,0:0|0:0,0:0:0:0:
220,300,40111,6,0,P|268:304|300:292,1,73.5,4|0,0:0|0:0,0:0:0:0:
164,175,40431,2,0,L|132:207,1,36.75,8|0,0:0|0:0,0:0:0:0:
236,120,40592,2,0,L|224:76,1,36.75
252,212,40752,5,8,0:0:0:0:
277,209,40832,1,0,0:0:0:0:
302,198,40912,1,0,0:0:0:0:
323,184,40992,1,0,0:0:0:0:
344,168,41072,1,8,0:0:0:0:
366,153,41153,1,0,0:0:0:0:
390,143,41233,1,8,0:0:0:0:
416,142,41313,1,8,0:0:0:0:
436,156,41394,6,0,L|449:241,1,73.5,6|0,0:0|0:0,0:0:0:0:
345,329,41715,2,0,L|357:257,1,73.5,8|0,0:0|0:0,0:0:0:0:
509,289,42036,2,0,P|473:312|435:314,1,73.5
282,204,42357,2,0,P|313:175|351:167,1,73.5,8|0,0:0|0:0,0:0:0:0:
226,352,42677,5,4,0:0:0:0:
130,228,42838,1,0,0:0:0:0:
142,320,42998,1,8,0:0:0:0:
198,172,43159,1,0,0:0:0:0:
56,280,43319,1,0,0:0:0:0:
112,136,43480,1,0,0:0:0:0:
212,260,43640,1,8,0:0:0:0:
184,80,43800,1,0,0:0:0:0:
44,192,43961,6,0,B|20:224|20:224|8:260,1,73.5
92,108,44282,2,0,B|56:84|0:104,1,73.5,10|0,0:0|0:0,0:0:0:0:
184,80,44603,2,0,L|148:16,1,73.5
100,264,44923,2,0,P|140:280|180:280,1,73.5,8|0,0:0|0:0,0:0:0:0:
320,228,45244,5,6,0:0:0:0:
232,348,45405,1,0,0:0:0:0:
192,192,45565,2,0,B|188:156|188:156|200:108,1,73.5,8|0,0:0|0:0,0:0:0:0:
408,252,45886,2,0,P|392:288|356:312,1,73.5
280,280,46207,2,0,P|224:272|192:284,1,73.5,8|0,0:0|0:0,0:0:0:0:
144,216,46528,6,0,L|100:288,1,73.5,2|0,0:0|0:0,0:0:0:0:
172,128,46849,2,0,P|164:92|140:60,1,73.5,8|0,0:0|0:0,0:0:0:0:
236,244,47169,2,0,B|268:268|268:268|304:276,1,73.5
98,205,47490,2,0,L|106:289,1,73.5,8|0,0:0|0:0,0:0:0:0:
198,105,47811,6,0,P|170:73|138:61,1,73.5,2|0,0:0|0:0,0:0:0:0:
236,244,48132,2,0,B|276:244|276:244|312:232,1,73.5,8|0,0:0|0:0,0:0:0:0:
364,168,48453,2,0,P|404:160|440:172,1,73.5
288,112,48774,2,0,B|280:76|280:76|288:32,1,73.5,8|0,0:0|0:0,0:0:0:0:
396,252,49095,6,0,L|360:332,1,73.5,6|0,0:0|0:0,0:0:0:0:
324,88,49415,2,0,P|364:80|396:88,1,73.5,8|0,0:0|0:0,0:0:0:0:
268,248,49736,2,0,B|248:280|248:280|208:312,1,73.5
184,212,50057,2,0,P|132:204|108:188,1,73.5,8|0,0:0|0:0,0:0:0:0:
340,180,50377,6,0,L|372:256,1,73.5
168,120,50699,1,8,0:0:0:0:
236,60,50859,1,0,0:0:0:0:
268,248,51020,2,0,P|236:288|200:300,1,73.5
324,88,51341,1,8,0:0:0:0:
356,272,51501,1,8,0:0:0:0:
360,288,51581,1,8,0:0:0:0:
364,304,51661,5,4,0:0:0:0:
301,200,51822,1,0,0:0:0:0:
180,300,51982,1,8,0:0:0:0:
247,133,52143,1,0,0:0:0:0:
269,285,52304,1,0,0:0:0:0:
156,147,52464,1,0,0:0:0:0:
88,316,52624,1,8,0:0:0:0:
214,215,52784,1,0,0:0:0:0:
96,80,52945,6,0,P|68:120|68:164,1,73.5,2|0,0:0|0:0,0:0:0:0:
188,60,53266,1,8,0:0:0:0:
214,215,53426,1,0,0:0:0:0:
216,232,53506,1,0,0:0:0:0:
220,248,53587,1,0,0:0:0:0:
247,133,53747,1,0,0:0:0:0:
88,316,53907,1,8,0:0:0:0:
156,147,54068,1,0,0:0:0:0:
240,336,54228,6,0,P|276:344|316:340,1,73.5
211,197,54549,2,0,L|179:263,1,73.5,10|0,0:0|0:0,0:0:0:0:
288,144,54870,2,0,P|300:96|284:52,1,73.5
344,220,55191,2,0,B|380:208|380:208|416:176,1,73.5,8|0,0:0|0:0,0:0:0:0:
208,104,55512,6,0,P|168:112|136:140,1,73.5,6|0,0:0|0:0,0:0:0:0:
284,52,55833,1,8,0:0:0:0:
344,220,55993,1,0,0:0:0:0:
352,236,56073,1,0,0:0:0:0:
360,252,56153,1,0,0:0:0:0:
364,92,56314,1,0,0:0:0:0:
211,197,56474,2,0,B|207:237|207:237|219:273,1,73.5,8|0,0:0|0:0,0:0:0:0:
288,144,56795,6,0,P|288:104|272:64,1,73.5,2|0,0:0|0:0,0:0:0:0:
200,288,57116,1,8,0:0:0:0:
344,220,57276,1,0,0:0:0:0:
344,220,57357,1,0,0:0:0:0:
344,220,57437,2,0,P|375:187|383:143,1,73.5
148,132,57758,2,0,L|160:212,1,73.5,8|0,0:0|0:0,0:0:0:0:
212,68,58079,5,2,0:0:0:0:
164,224,58238,1,0,0:0:0:0:
280,128,58399,1,8,0:0:0:0:
296,292,58560,1,0,0:0:0:0:
296,292,58640,1,0,0:0:0:0:
296,292,58720,2,0,P|292:328|268:364,1,73.5
372,244,59041,2,0,L|404:316,1,73.5,8|0,0:0|0:0,0:0:0:0:
164,224,59362,6,0,P|160:152|208:84,1,147,4|8,0:0|0:0,0:0:0:0:
228,288,59843,1,0,0:0:0:0:
220,296,59923,1,0,0:0:0:0:
212,304,60004,2,0,B|184:332|184:332|144:348,1,73.5
304,236,60324,2,0,P|320:276|312:328,1,73.5,8|0,0:0|0:0,0:0:0:0:
140,160,60645,6,0,L|172:88,1,73.5
408,128,60966,1,8,0:0:0:0:
412,155,61046,1,0,0:0:0:0:
412,182,61126,1,0,0:0:0:0:
407,209,61206,1,0,0:0:0:0:
397,235,61287,2,0,L|412:280,2,36.75,0|8|0,0:0|0:0|0:0,0:0:0:0:
208,128,61608,2,0,L|232:96,1,36.75,8|0,0:0|0:0,0:0:0:0:
208,224,61768,2,8,L|148:208,1,36.75
296,180,61929,5,0,0:0:0:0:
332,324,62089,1,0,0:0:0:0:
208,128,62410,1,0,0:0:0:0:
128,296,62570,1,0,0:0:0:0:
292,80,62891,1,0,0:0:0:0:
408,272,63052,2,0,L|448:340,1,73.5
440,188,63373,5,2,0:0:0:0:
296,128,63533,1,2,0:0:0:0:
320,284,63693,1,2,0:0:0:0:
384,116,63854,1,0,0:0:0:0:
260,212,64014,1,2,0:0:0:0:
328,44,64175,1,2,0:0:0:0:
352,200,64335,1,2,0:0:0:0:
240,56,64496,5,0,0:0:0:0:
172,220,64656,1,0,0:0:0:0:
164,100,64977,1,0,0:0:0:0:
224,292,65137,1,0,0:0:0:0:
88,144,65458,1,0,0:0:0:0:
312,292,65619,2,0,B|352:284|352:284|384:260,1,73.5
280,112,65939,5,2,0:0:0:0:
276,124,66020,1,2,0:0:0:0:
272,136,66100,1,2,0:0:0:0:
364,80,66260,1,2,0:0:0:0:
240,220,66421,1,0,0:0:0:0:
296,24,66581,1,2,0:0:0:0:
328,208,66742,1,2,0:0:0:0:
208,48,66902,1,2,0:0:0:0:
152,232,67062,5,0,0:0:0:0:
280,112,67223,1,0,0:0:0:0:
128,144,67544,1,0,0:0:0:0:
344,172,67704,1,0,0:0:0:0:
172,64,68025,1,0,0:0:0:0:
324,260,68185,2,0,P|336:296|332:336,1,73.5
200,156,68506,5,2,0:0:0:0:
204,160,68587,1,2,0:0:0:0:
204,160,68667,2,0,L|240:92,1,73.5,2|0,0:0|0:0,0:0:0:0:
236,244,68988,1,0,0:0:0:0:
148,228,69148,1,0,0:0:0:0:
292,172,69308,2,0,P|320:208|328:244,1,73.5
152,140,69629,6,0,B|140:104|140:104|144:60,1,73.5,4|0,0:1|0:0,0:0:0:0:
232,180,69950,1,0,0:0:0:0:
268,260,70111,2,0,L|264:344,1,73.5,0|8,0:0|0:0,0:0:0:0:
156,228,70431,1,0,0:0:0:0:
232,180,70592,2,0,P|280:172|316:188,1,73.5,0|8,0:0|0:0,0:0:0:0:
176,316,70913,1,0,0:0:0:0:
152,140,71073,6,0,L|140:56,1,73.5,8|0,0:0|0:0,0:0:0:0:
104,260,71394,1,0,0:0:0:0:
240,152,71554,2,0,P|256:108|256:72,1,73.5,8|0,0:0|0:0,0:0:0:0:
176,216,71875,1,8,0:0:0:0:
182,233,71955,1,8,0:0:0:0:
189,250,72035,1,8,0:0:0:0:
195,267,72115,1,8,0:0:0:0:
204,284,72196,6,0,B|228:316|276:312,1,73.5
296,128,72517,1,8,0:0:0:0:
116,260,72677,2,0,L|100:332,1,73.5
208,140,72998,1,0,0:0:0:0:
268,312,73159,2,0,B|300:332|300:332|336:336,1,73.5,8|0,0:0|0:0,0:0:0:0:
208,140,73480,5,0,0:0:0:0:
180,228,73640,1,0,0:0:0:0:
296,120,73800,2,0,P|300:76|292:44,1,73.5,8|0,0:0|0:0,0:0:0:0:
268,208,74121,2,0,B|300:231|300:231|336:240,1,73.5
208,140,74442,2,0,L|136:168,1,73.5,8|0,0:0|0:0,0:0:0:0:
300,316,74763,6,0,P|340:324|372:316,2,73.5,0|0|8,0:0|0:0|0:0,0:0:0:0:
228,264,75244,2,0,L|148:296,1,73.5
256,180,75565,2,0,B|240:152|240:152|200:120,1,73.5,0|8,0:0|0:0,0:0:0:0:
348,172,75886,2,0,P|372:140|384:92,1,73.5
256,180,76207,5,0,0:0:0:0:
184,232,76367,1,8,0:0:0:0:
264,268,76528,1,0,0:0:0:0:
176,144,76688,1,0,0:0:0:0:
192,320,76849,1,0,0:0:0:0:
256,180,77009,1,8,0:0:0:0:
108,288,77169,1,0,0:0:0:0:
96,100,77330,6,0,B|108:64|108:64|136:32,1,73.5
184,232,77651,2,0,P|148:256|104:260,1,73.5,8|0,0:0|0:0,0:0:0:0:
248,88,77972,1,0,0:0:0:0:
272,244,78132,2,0,B|268:288|268:288|252:328,1,73.5,0|8,0:0|0:0,0:0:0:0:
348,196,78453,2,0,L|396:252,1,73.5
248,88,78774,6,0,B|268:44|324:40,1,73.5,0|8,0:0|0:0,0:0:0:0:
232,176,79095,1,0,0:0:0:0:
232,176,79175,1,0,0:0:0:0:
232,176,79255,2,0,L|144:152,1,73.5
304,228,79576,2,0,P|304:276|288:312,1,73.5,8|8,0:0|0:0,0:0:0:0:
380,176,79897,6,0,B|408:220|408:220|432:320,1,147,4|8,0:0|0:0,0:0:0:0:
232,176,80378,1,2,0:0:0:0:
236,160,80458,1,0,0:0:0:0:
240,144,80538,2,0,L|264:72,1,73.5,4|0,0:0|0:0,0:0:0:0:
264,260,80859,2,0,B|228:272|228:272|172:268,1,73.5,8|0,0:0|0:0,0:0:0:0:
336,204,81180,6,0,B|368:248|356:316|312:336,1,147,4|8,0:0|0:0,0:0:0:0:
272,124,81661,1,0,0:0:0:0:
280,112,81742,1,0,0:0:0:0:
288,100,81822,2,0,P|332:88|360:92,1,73.5,10|0,0:0|0:0,0:0:0:0:
248,212,82143,1,8,0:0:0:0:
200,68,82303,1,8,0:0:0:0:
164,248,82464,6,0,P|164:296|188:332,1,73.5,4|0,0:0|0:0,0:0:0:0:
312,148,82784,2,0,P|288:106|249:87,1,73.5,8|0,0:0|0:0,0:0:0:0:
256,88,83025,1,0,0:0:0:0:
244,84,83105,1,0,0:0:0:0:
284,280,83266,2,0,B|300:320|300:320|328:344,1,73.5,2|8,0:0|0:0,0:0:0:0:
396,116,83587,1,0,0:0:0:0:
216,220,83747,6,0,P|196:260|196:304,1,73.5,2|0,0:0|0:0,0:0:0:0:
316,76,84068,1,8,0:0:0:0:
404,240,84228,1,0,0:0:0:0:
404,240,84308,1,0,0:0:0:0:
404,240,84389,2,0,L|428:312,1,73.5,2|0,0:0|0:0,0:0:0:0:
296,164,84710,2,0,L|272:236,1,73.5,10|0,0:0|0:0,0:0:0:0:
356,84,85030,6,0,P|320:68|268:68,1,73.5,4|0,0:0|0:0,0:0:0:0:
212,116,85351,2,0,P|156:124|124:116,1,73.5,8|0,0:0|0:0,0:0:0:0:
124,116,85592,1,0,0:0:0:0:
112,108,85672,1,0,0:0:0:0:
272,184,85833,2,0,B|288:220|288:220|292:268,1,73.5,2|8,0:0|0:0,0:0:0:0:
212,116,86153,1,0,0:0:0:0:
112,248,86314,6,0,P|92:292|88:324,1,73.5,2|0,0:0|0:0,0:0:0:0:
288,248,86635,2,0,L|252:180,1,73.5,8|0,0:0|0:0,0:0:0:0:
244,168,86875,1,0,0:0:0:0:
236,152,86956,1,0,0:0:0:0:
240,324,87116,1,0,0:0:0:0:
364,196,87276,2,0,P|364:156|348:116,1,73.5,8|0,0:0|0:0,0:0:0:0:
160,288,87597,6,0,P|152:332|164:368,1,73.5,2|0,0:0|0:0,0:0:0:0:
276,176,87918,1,8,0:0:0:0:
108,208,88079,2,0,B|72:232|72:232|44:272,1,73.5
236,96,88399,1,2,0:0:0:0:
196,220,88560,1,8,0:0:0:0:
320,60,88720,1,0,0:0:0:0:
360,216,88881,6,0,L|376:296,1,73.5,2|0,0:0|0:0,0:0:0:0:
404,92,89202,1,10,0:0:0:0:
272,232,89362,1,0,0:0:0:0:
264,252,89442,1,0,0:0:0:0:
256,272,89522,1,0,0:0:0:0:
316,116,89683,1,2,0:0:0:0:
416,224,89843,1,10,0:0:0:0:
340,28,90004,1,2,0:0:0:0:
328,248,90164,6,0,B|348:288|348:288|376:308,1,73.5,4|0,0:0|0:0,0:0:0:0:
316,116,90485,1,8,0:0:0:0:
196,232,90645,1,0,0:0:0:0:
188,248,90726,1,0,0:0:0:0:
180,264,90806,2,0,P|184:304|208:340,1,73.5
228,108,91127,1,8,0:0:0:0:
112,196,91287,1,0,0:0:0:0:
100,208,91367,1,0,0:0:0:0:
88,220,91447,5,2,0:0:0:0:
144,68,91608,1,0,0:0:0:0:
264,240,91768,2,0,L|244:275,1,36.75,8|0,0:0|0:0,0:0:0:0:
301,163,91929,2,0,L|341:162,1,36.75
219,170,92089,2,0,L|198:134,1,36.75,0|8,0:0|0:0,0:0:0:0:
420,120,92250,5,0,0:0:0:0:
427,141,92330,1,0,0:0:0:0:
427,166,92410,1,8,0:0:0:0:
421,190,92490,1,0,0:0:0:0:
412,213,92570,1,8,0:0:0:0:
404,236,92651,1,8,0:0:0:0:
404,264,92731,6,0,B|412:305|412:305|432:336,1,73.5,4|0,0:0|0:0,0:0:0:0:
324,216,93052,2,0,P|280:216|240:236,1,73.5,8|0,0:0|0:0,0:0:0:0:
240,240,93292,1,0,0:0:0:0:
228,252,93373,1,0,0:0:0:0:
404,172,93533,2,0,L|424:96,1,73.5,2|8,0:0|0:0,0:0:0:0:
300,304,93854,1,0,0:0:0:0:
256,136,94014,6,0,B|252:96|252:96|260:52,1,73.5
216,264,94335,1,8,0:0:0:0:
344,104,94496,1,0,0:0:0:0:
344,104,94576,1,0,0:0:0:0:
344,104,94656,1,2,0:0:0:0:
384,264,94816,1,0,0:0:0:0:
256,136,94977,1,10,0:0:0:0:
300,304,95137,1,0,0:0:0:0:
344,104,95298,5,4,0:0:0:0:
216,264,95458,1,0,0:0:0:0:
196,68,95619,1,8,0:0:0:0:
304,244,95779,1,0,0:0:0:0:
312,260,95859,1,0,0:0:0:0:
320,276,95939,1,0,0:0:0:0:
280,100,96100,1,2,0:0:0:0:
168,288,96260,1,8,0:0:0:0:
344,164,96421,1,0,0:0:0:0:
148,200,96581,6,0,B|112:204|112:204|76:224,1,73.5,2|0,0:0|0:0,0:0:0:0:
212,100,96902,1,8,0:0:0:0:
260,276,97062,1,0,0:0:0:0:
260,276,97143,1,0,0:0:0:0:
260,276,97223,2,0,L|284:360,1,73.5
300,128,97544,1,8,0:0:0:0:
168,268,97704,1,0,0:0:0:0:
212,100,97865,5,4,0:0:0:0:
328,216,98025,1,0,0:0:0:0:
280,36,98185,1,8,0:0:0:0:
240,188,98346,2,0,B|212:276|212:276|224:336,1,147,4|0,0:0|0:0,0:0:0:0:
328,168,98827,2,0,P|308:128|268:104,1,73.5,8|0,0:0|0:0,0:0:0:0:
304,256,99148,5,4,0:0:0:0:
388,232,99308,1,0,0:0:0:0:
472,208,99469,1,8,0:0:0:0:
240,188,99629,2,0,B|192:168|136:204|96:184,1,147,4|0,0:0|0:0,0:0:0:0:
312,128,100111,2,0,P|332:176|328:212,1,73.5
228,96,100431,6,0,L|276:36,1,73.5,4|0,0:1|0:0,0:0:0:0:
272,264,100752,2,0,B|236:272|236:272|188:264,1,73.5,8|0,0:0|0:0,0:0:0:0:
188,260,100993,1,0,0:0:0:0:
176,252,101073,1,0,0:0:0:0:
312,128,101234,1,0,0:0:0:0:
352,304,101394,2,0,P|328:336|288:352,1,73.5,8|0,0:0|0:0,0:0:0:0:
428,252,101715,6,0,L|452:328,1,73.5
312,128,102036,2,0,P|340:100|376:84,1,73.5,8|0,0:0|0:0,0:0:0:0:
280,280,102357,1,8,0:0:0:0:
257,274,102437,1,0,0:0:0:0:
234,273,102517,1,0,0:0:0:0:
212,276,102597,1,0,0:0:0:0:
189,280,102677,1,8,0:0:0:0:
166,284,102758,1,8,0:0:0:0:
143,286,102838,1,8,0:0:0:0:
121,285,102918,1,8,0:0:0:0:
99,279,102998,6,0,P|84:204|96:128,1,147,0|8,0:0|0:0,0:0:0:0:
288,152,103480,1,0,0:0:0:0:
292,172,103560,1,0,0:0:0:0:
296,192,103640,1,0,0:0:0:0:
356,92,103800,1,0,0:0:0:0:
224,248,103961,1,8,0:0:0:0:
268,64,104121,1,0,0:0:0:0:
388,176,104282,6,0,P|400:224|396:256,1,73.5,2|0,0:0|0:0,0:0:0:0:
356,92,104603,1,8,0:0:0:0:
240,216,104763,1,2,0:0:0:0:
232,232,104843,1,0,0:0:0:0:
224,248,104923,1,0,0:0:0:0:
208,96,105084,1,0,0:0:0:0:
328,228,105244,1,8,0:0:0:0:
296,68,105405,1,0,0:0:0:0:
224,248,105565,6,0,P|240:296|276:320,1,73.5,2|0,0:0|0:0,0:0:0:0:
272,168,105886,1,8,0:0:0:0:
136,260,106046,1,2,0:0:0:0:
128,280,106127,1,0,0:0:0:0:
120,296,106207,1,0,0:0:0:0:
196,116,106367,1,0,0:0:0:0:
284,260,106528,1,8,0:0:0:0:
276,76,106688,1,0,0:0:0:0:
116,156,106849,6,0,B|100:192|100:192|104:228,1,73.5,4|0,0:0|0:0,0:0:0:0:
108,248,107089,1,0,0:0:0:0:
112,272,107169,1,8,0:0:0:0:
208,156,107330,1,2,0:0:0:0:
224,176,107410,1,0,0:0:0:0:
240,196,107490,1,0,0:0:0:0:
224,64,107651,1,0,0:0:0:0:
103,225,107811,1,8,0:0:0:0:
132,56,107972,1,0,0:0:0:0:
240,196,108132,6,0,P|292:208|320:200,1,73.5,2|0,0:0|0:0,0:0:0:0:
224,64,108453,1,8,0:0:0:0:
160,240,108613,1,2,0:0:0:0:
152,260,108693,1,0,0:0:0:0:
144,280,108774,1,0,0:0:0:0:
168,136,108934,1,0,0:0:0:0:
244,272,109095,6,0,B|272:296|272:296|312:308,1,73.5,8|0,0:0|0:0,0:0:0:0:
168,136,109415,2,0,P|108:152|68:192,1,98,4|0,0:0|0:0,0:0:0:0:
264,128,109843,6,0,L|292:64,1,61.25
336,160,110057,6,0,L|368:132,1,36.75
364,232,110218,2,0,L|416:240,1,36.75
332,304,110378,6,0,B|360:336|360:336|400:352,1,73.5,8|0,0:0|0:0,0:0:0:0:
240,176,110699,6,0,P|196:220|176:272,1,110.25,0|2,0:0|0:0,0:0:0:0:
400,184,111180,1,0,0:0:0:0:
232,84,111341,2,0,B|176:88|176:88|112:108,1,110.25,2|0,0:0|0:0,0:0:0:0:
400,184,111822,1,2,0:0:0:0:
412,164,111902,1,2,0:0:0:0:
420,148,111982,2,2,P|428:112|416:64,1,73.5,2|0,0:0|0:0,0:0:0:0:
280,204,112303,5,8,0:0:0:0:
285,230,112383,1,0,0:0:0:0:
291,257,112463,1,0,0:0:0:0:
311,276,112543,1,0,0:0:0:0:
332,296,112624,2,0,L|376:336,2,36.75,0|8|0,0:0|0:0|0:0,0:0:0:0:
272,104,112945,1,8,0:0:0:0:
245,95,113025,1,0,0:0:0:0:
218,91,113105,1,8,0:0:0:0:
191,94,113185,1,8,0:0:0:0:
164,101,113266,6,0,P|108:108|72:96,1,73.5,4|0,0:0|0:0,0:0:0:0:
216,180,113587,2,0,L|240:256,1,73.5,8|0,0:0|0:0,0:0:0:0:
244,264,113827,1,0,0:0:0:0:
248,276,113907,1,0,0:0:0:0:
272,104,114068,1,0,0:0:0:0:
132,212,114228,1,8,0:0:0:0:
208,40,114389,1,0,0:0:0:0:
272,196,114549,6,0,P|292:236|320:260,1,73.5
272,104,114870,1,8,0:0:0:0:
188,232,115030,1,0,0:0:0:0:
188,232,115111,1,0,0:0:0:0:
188,232,115191,2,0,B|164:268|164:268|152:312,1,73.5
352,148,115512,2,0,P|344:108|324:80,1,73.5,8|0,0:0|0:0,0:0:0:0:
328,236,115833,6,0,L|420:276,1,73.5
324,80,116153,1,8,0:0:0:0:
236,228,116314,1,0,0:0:0:0:
228,244,116394,1,0,0:0:0:0:
220,260,116474,2,0,P|220:304|232:336,1,73.5
352,148,116795,2,0,B|356:112|356:112|340:72,1,73.5,8|0,0:0|0:0,0:0:0:0:
160,192,117116,5,0,0:0:0:0:
260,40,117276,1,0,0:0:0:0:
308,232,117437,1,8,0:0:0:0:
172,56,117597,1,0,0:0:0:0:
172,56,117677,1,0,0:0:0:0:
172,56,117758,1,0,0:0:0:0:
220,260,117918,1,0,0:0:0:0:
342,77,118079,1,8,0:0:0:0:
292,320,118239,1,0,0:0:0:0:
152,200,118399,6,0,P|144:156|148:136,1,55.1250021028519,4|0,0:0|0:0,0:0:0:0:
288,256,118720,2,0,P|272:298|259:313,1,55.1250021028519
268,108,119041,2,0,P|304:96|328:96,2,55.1250021028519,8|0|0,0:0|0:0|0:0,0:0:0:0:
408,232,119522,1,0,0:0:0:0:
408,232,119603,1,0,0:0:0:0:
408,232,119683,6,0,L|420:176,1,55.1250021028519
312,104,120004,2,0,L|328:164,1,55.1250021028519
496,124,120324,2,0,P|471:97|435:87,1,55.1250021028519,8|0,0:0|0:0,0:0:0:0:
328,240,120645,1,0,0:0:0:0:
331,253,120725,1,0,0:0:0:0:
335,266,120805,1,0,0:0:0:0:
339,279,120885,1,0,0:0:0:0:
344,292,120966,6,0,P|380:308|416:308,1,73.5,4|0,0:1|0:0,0:0:0:0:
372,136,121287,2,0,L|332:204,1,73.5
464,120,121608,2,0,P|468:80|456:44,1,73.5,8|0,0:0|0:0,0:0:0:0:
432,208,121929,2,0,B|464:236|464:236|496:244,1,73.5,0|4,0:0|0:0,0:0:0:0:
284,92,122250,6,0,P|240:80|204:88,1,73.5,0|8,0:0|0:0,0:0:0:0:
316,200,122570,1,0,0:0:0:0:
324,184,122651,1,0,0:0:0:0:
332,168,122732,1,8,0:0:0:0:
128,52,122891,5,0,0:0:0:0:
120,73,122971,1,0,0:0:0:0:
120,96,123051,1,0,0:0:0:0:
123,119,123131,1,0,0:0:0:0:
128,141,123211,1,0,0:0:0:0:
133,164,123292,1,0,0:0:0:0:
137,186,123372,1,0,0:0:0:0:
137,209,123452,1,0,0:0:0:0:
134,229,123533,6,0,L|108:312,1,73.5,4|0,0:1|0:0,0:0:0:0:
208,104,123854,1,8,0:0:0:0:
320,240,124014,2,0,B|340:276|340:276|348:320,1,73.5,2|0,0:0|0:0,0:0:0:0:
372,164,124335,2,0,L|440:204,1,73.5,2|8,0:0|0:0,0:0:0:0:
360,72,124656,2,0,P|400:48|432:44,1,73.5,2|0,0:0|0:0,0:0:0:0:
320,240,124977,5,0,0:0:0:0:
272,56,125137,1,8,0:0:0:0:
232,220,125298,1,0,0:0:0:0:
348,108,125458,1,2,0:0:0:0:
352,316,125619,1,0,0:0:0:0:
264,136,125779,1,8,0:0:0:0:
196,304,125939,1,0,0:0:0:0:
404,240,126100,6,0,B|436:216|436:216|460:168,1,73.5
288,304,126421,1,8,0:0:0:0:
324,144,126581,2,0,L|344:64,1,73.5,2|0,0:0|0:0,0:0:0:0:
236,168,126902,2,0,P|212:216|216:252,1,73.5,0|8,0:0|0:0,0:0:0:0:
412,120,127223,5,2,0:0:0:0:
304,232,127383,1,0,0:0:0:0:
256,80,127544,1,0,0:0:0:0:
256,312,127704,1,8,0:0:0:0:
324,144,127865,1,0,0:0:0:0:
384,280,128025,2,0,P|396:320|388:364,1,73.5
216,228,128346,2,0,B|212:192|212:192|228:144,1,73.5,8|0,0:0|0:0,0:0:0:0:
168,312,128667,6,0,L|92:348,1,73.5
164,88,128988,1,8,0:0:0:0:
236,248,129148,2,0,B|256:284|256:284|260:332,1,73.5,2|0,0:0|0:0,0:0:0:0:
223,156,129469,2,0,P|263:160|296:176,1,73.5,2|8,0:0|0:0,0:0:0:0:
128,180,129790,2,0,L|116:100,1,73.5,2|0,0:0|0:0,0:0:0:0:
288,92,130111,5,0,0:0:0:0:
192,244,130271,1,8,0:0:0:0:
208,48,130431,1,0,0:0:0:0:
280,272,130592,1,0,0:0:0:0:
380,96,130752,1,0,0:0:0:0:
192,244,130913,1,8,0:0:0:0:
288,92,131073,1,0,0:0:0:0:
372,272,131234,6,0,P|376:316|364:356,1,73.5
284,148,131554,2,0,P|320:120|352:112,1,73.5,8|2,0:0|0:0,0:0:0:0:
228,284,131875,1,0,0:0:0:0:
196,112,132036,1,2,0:0:0:0:
84,264,132196,1,8,0:0:0:0:
272,164,132357,1,2,0:0:0:0:
148,328,132517,1,0,0:0:0:0:
180,152,132677,1,0,0:0:0:0:
280,332,132838,5,8,0:0:0:0:
160,236,132998,1,0,0:0:0:0:
308,176,133159,1,0,0:0:0:0:
192,320,133319,1,0,0:0:0:0:
252,104,133480,1,8,0:0:0:0:
336,260,133640,1,0,0:0:0:0:
168,140,133800,6,0,P|160:100|172:60,1,73.5,4|0,0:1|0:0,0:0:0:0:
332,148,134121,2,0,L|300:220,1,73.5,8|0,0:0|0:0,0:0:0:0:
416,96,134442,2,0,B|436:132|436:132|440:180,1,73.5,8|0,0:0|0:0,0:0:0:0:
248,112,134763,2,0,P|256:72|280:40,1,73.5,8|0,0:0|0:0,0:0:0:0:
328,232,135084,6,0,L|256:264,1,73.5,8|0,0:0|0:0,0:0:0:0:
164,128,135405,1,8,0:0:0:0:
176,284,135565,1,0,0:0:0:0:
252,124,135725,1,8,0:0:0:0:
128,208,135886,1,0,0:0:0:0:
304,196,136046,1,8,0:0:0:0:
204,48,136207,1,0,0:0:0:0:
216,208,136367,6,0,L|224:292,1,73.5,8|0,0:0|0:0,0:0:0:0:
252,124,136688,1,8,0:0:0:0:
136,264,136849,2,0,P|136:316|160:348,1,73.5,0|8,0:0|0:0,0:0:0:0:
132,172,137169,2,0,B|104:140|104:140|68:120,1,73.5,0|8,0:0|0:0,0:0:0:0:
48,288,137490,1,0,0:0:0:0:
224,168,137651,6,0,P|252:136|260:104,1,73.5,8|0,0:0|0:0,0:0:0:0:
168,240,137972,2,0,L|200:312,1,73.5,8|0,0:0|0:0,0:0:0:0:
80,216,138292,2,0,B|44:240|44:240|24:272,1,73.5,8|0,0:0|0:0,0:0:0:0:
112,128,138613,1,8,0:0:0:0:
197,307,138774,1,0,0:0:0:0:
196,96,138934,5,8,0:0:0:0:
120,256,139095,1,0,0:0:0:0:
112,64,139255,1,8,0:0:0:0:
256,232,139415,2,0,P|296:248|328:244,1,73.5,0|8,0:0|0:0,0:0:0:0:
308,156,139736,2,0,B|340:132|340:132|356:96,1,73.5,0|8,0:0|0:0,0:0:0:0:
164,236,140057,6,0,L|180:312,1,73.5,0|8,0:0|0:0,0:0:0:0:
232,104,140378,1,0,0:0:0:0:
72,236,140538,1,8,0:0:0:0:
160,48,140699,1,0,0:0:0:0:
252,220,140859,2,0,P|268:252|272:296,1,73.5,8|0,0:0|0:0,0:0:0:0:
248,128,141180,2,0,B|276:100|276:100|312:80,1,73.5,8|0,0:0|0:0,0:0:0:0:
176,268,141501,5,8,0:0:0:0:
168,84,141661,1,8,0:0:0:0:
336,252,141822,1,8,0:0:0:0:
248,128,141982,1,8,0:0:0:0:
100,316,142143,1,8,0:0:0:0:
168,84,142303,1,8,0:0:0:0:
260,304,142464,1,8,0:0:0:0:
96,136,142624,1,8,0:0:0:0:
84,124,142704,1,8,0:0:0:0:
72,112,142784,6,8,L|68:68,1,36.75
128,224,142945,2,8,L|112:260,1,36.75
160,116,143105,2,8,L|196:128,1,36.75
32,204,143266,2,8,L|0:184,1,36.75
224,216,143426,6,0,P|284:208|340:220,1,110.25
372,236,143747,6,0,P|472:216|360:188,1,294,0|6,0:0|0:0,0:0:0:0:
220,160,154335,5,8,0:0:0:0:
220,160,154977,2,0,P|204:208|208:240,1,73.5,4|0,0:0|0:0,0:0:0:0:
304,120,155619,1,8,0:0:0:0:
228,68,155939,1,0,0:0:0:0:
296,212,156260,1,4,0:0:0:0:
308,28,156581,1,10,0:0:0:0:
220,160,156902,6,0,L|172:232,1,73.5,8|2,0:0|0:0,0:0:0:0:
168,80,157544,2,0,P|120:80|84:96,2,73.5,8|2|4,0:0|0:0|0:0,0:0:0:0:
248,104,158827,1,2,0:0:0:0:
336,132,159469,5,8,0:0:0:0:
280,200,159790,1,0,0:0:0:0:
304,44,160111,1,4,0:0:0:0:
368,216,160431,1,0,0:0:0:0:
244,112,160752,1,8,0:0:0:0:
452,180,161073,1,0,0:0:0:0:
252,20,161394,1,4,0:1:0:0:
224,288,161715,1,8,0:0:0:0:
420,92,162036,5,4,0:0:0:0:
312,304,162357,1,0,0:0:0:0:
336,56,162677,1,8,0:0:0:0:
452,248,162998,1,0,0:0:0:0:
268,108,163319,5,4,0:0:0:0:
224,140,164603,6,0,P|204:164|196:184,1,36.75,8|0,0:0|0:0,0:0:0:0:
300,156,164923,2,0,P|320:132|328:112,1,36.75
260,232,165244,2,0,P|288:240|304:240,1,36.75,4|0,0:0|0:0,0:0:0:0:
224,140,165565,2,0,P|196:144|176:156,1,36.75
188,288,165886,6,0,L|208:336,1,36.75,8|0,0:0|0:0,0:0:0:0:
276,212,166207,2,0,L|264:256,1,36.75
224,140,166528,2,0,P|256:124|272:124,1,36.75,4|0,0:0|0:0,0:0:0:0:
152,188,166849,2,0,B|132:176|132:176|120:152,1,36.75,2|0,0:0|0:0,0:0:0:0:
208,12,167169,6,0,L|212:52,1,36.75,8|0,0:0|0:0,0:0:0:0:
280,151,167490,2,0,L|248:115,1,36.75
112,88,167811,2,0,P|136:100|156:100,1,36.75
332,52,168132,2,0,P|304:44|280:48,1,36.75,2|0,0:0|0:0,0:0:0:0:
112,212,168453,6,0,L|144:184,1,36.75,4|0,0:0|0:0,0:0:0:0:
232,176,168774,2,0,P|240:152|240:132,1,36.75
196,256,169095,2,0,L|232:296,1,36.75
164,104,169415,2,0,L|116:112,1,36.75
296,236,169736,6,0,P|312:220|320:200,1,36.75,8|0,0:0|0:0,0:0:0:0:
148,184,170057,2,0,P|140:216|144:236,1,36.75
400,192,170378,2,0,P|392:164|380:148,1,36.75,4|0,0:0|0:0,0:0:0:0:
244,304,170699,2,0,P|268:316|292:316,1,36.75
268,104,171020,6,0,L|280:148,1,36.75
176,164,171341,2,0,L|164:208,1,36.75
268,104,171661,2,0,P|252:80|232:68,1,36.75,2|0,0:0|0:0,0:0:0:0:
280,208,171982,2,0,P|308:200|328:188,1,36.75,8|0,0:0|0:0,0:0:0:0:
204,268,172303,6,0,L|224:304,1,36.75,4|0,0:0|0:0,0:0:0:0:
152,136,172624,2,0,P|120:128|100:128,1,36.75,6|0,0:0|0:0,0:0:0:0:
280,208,172945,2,0,P|308:200|328:188,1,36.75,8|0,0:0|0:0,0:0:0:0:
104,216,173266,2,0,P|93:243|88:256,1,36.75,2|0,0:0|0:0,0:0:0:0:
280,208,173587,6,0,P|320:196|356:168,1,73.5,4|0,0:0|0:0,0:0:0:0:
152,184,174228,2,0,L|132:220,1,36.75
224,136,174549,2,0,P|212:120|192:108,1,36.75
200,284,174870,6,0,P|264:284|312:256,1,110.250004205704,8|0,0:0|0:0,0:0:0:0:
152,136,175512,2,0,P|120:132|83:147,1,55.1250021028519
236,156,175833,2,0,L|260:104,1,55.1250021028519
176,220,176153,6,0,B|192:272|192:272|232:316,1,110.250004205704,8|0,0:0|0:0,0:0:0:0:
259,105,176795,2,0,L|287:169,1,55.1250021028519,4|0,0:0|0:0,0:0:0:0:
188,192,177116,2,0,L|172:248,1,55.1250021028519,2|0,0:0|0:0,0:0:0:0:
324,28,177437,6,0,P|272:4|220:8,1,110.250004205704,8|0,0:0|0:0,0:0:0:0:
356,116,178239,2,0,P|384:104|404:84,2,55.1250021028519,0|2|0,0:0|0:0|0:0,0:0:0:0:
260,108,178720,6,0,B|240:132|240:132|224:168,1,55.1250021028519,4|0,0:0|0:0,0:0:0:0:
204,240,179041,1,0,0:0:0:0:
204,240,179522,2,0,L|188:296,1,55.1250021028519
230,153,179843,1,0,0:0:0:0:
288,280,180004,6,0,P|300:308|300:352,1,55.1250021028519,8|0,0:0|0:0,0:0:0:0:
230,153,180324,2,0,P|264:120|332:100,1,110.250004205704
204,240,180806,2,0,L|148:212,1,55.1250021028519
288,280,181127,1,0,0:0:0:0:
168,320,181287,6,0,P|128:324|88:308,1,73.5,8|0,0:0|0:0,0:0:0:0:
240,156,181608,1,0,0:0:0:0:
256,308,181768,1,0,0:0:0:0:
258,321,181848,1,0,0:0:0:0:
260,335,181928,1,2,0:0:0:0:
328,176,182089,1,0,0:0:0:0:
184,224,182250,1,8,0:0:0:0:
300,92,182410,1,0,0:0:0:0:
360,256,182570,6,0,P|356:300|336:336,1,73.5,4|0,0:0|0:0,0:0:0:0:
328,176,182891,2,0,B|348:144|348:144|384:120,1,73.5,2|0,0:0|0:0,0:0:0:0:
388,120,183132,1,0,0:0:0:0:
400,116,183212,1,8,0:0:0:0:
268,244,183373,1,0,0:0:0:0:
272,100,183533,2,0,P|288:60|316:28,1,73.5,10|0,0:0|0:0,0:0:0:0:
320,176,183854,5,2,0:0:0:0:
224,20,184014,1,0,0:0:0:0:
228,180,184175,1,0,0:0:0:0:
364,96,184335,1,2,0:0:0:0:
276,256,184496,1,2,0:0:0:0:
180,102,184656,1,0,0:0:0:0:
184,260,184816,1,2,0:0:0:0:
272,100,184977,1,0,0:0:0:0:
368,252,185137,6,0,B|376:292|376:292|368:332,1,73.5
228,180,185458,2,0,P|244:148|272:120,1,73.5,8|0,0:0|0:0,0:0:0:0:
369,324,185779,2,0,L|288:332,1,73.5
352,160,186100,2,0,B|384:144|384:144|424:144,1,73.5,8|0,0:0|0:0,0:0:0:0:
280,256,186421,5,4,0:0:0:0:
227,108,186582,1,0,0:0:0:0:
209,199,186742,1,8,0:0:0:0:
308,76,186903,1,0,0:0:0:0:
140,134,187063,1,0,0:0:0:0:
238,15,187224,1,0,0:0:0:0:
295,164,187384,1,8,0:0:0:0:
152,44,187544,1,0,0:0:0:0:
120,224,187704,6,0,B|128:264|128:264|148:296,1,73.5
60,152,188025,2,0,P|32:200|28:236,1,73.5,10|0,0:0|0:0,0:0:0:0:
228,104,188346,2,0,L|188:32,1,73.5
208,196,188667,2,0,P|252:196|288:176,1,73.5,8|0,0:0|0:0,0:0:0:0:
364,196,188988,6,0,B|376:236|376:236|368:296,1,73.5,4|0,0:0|0:0,0:0:0:0:
332,108,189308,1,8,0:0:0:0:
224,256,189469,1,0,0:0:0:0:
212,272,189549,1,0,0:0:0:0:
200,288,189629,1,0,0:0:0:0:
244,100,189790,1,0,0:0:0:0:
312,272,189950,2,0,P|296:316|264:344,1,73.5,8|0,0:0|0:0,0:0:0:0:
324,144,190271,6,0,B|364:132|404:152,1,73.5,2|0,0:0|0:0,0:0:0:0:
224,256,190592,1,8,0:0:0:0:
244,100,190752,1,0,0:0:0:0:
244,100,190833,1,0,0:0:0:0:
244,100,190913,2,0,B|272:68|272:68|304:52,1,73.5
224,256,191234,2,0,L|140:248,1,73.5,8|0,0:0|0:0,0:0:0:0:
304,216,191554,6,0,P|316:260|304:300,1,73.5,2|0,0:0|0:0,0:0:0:0:
244,100,191875,1,8,0:0:0:0:
224,256,192036,1,0,0:0:0:0:
384,172,192196,2,0,B|408:144|408:144|416:104,1,73.5
224,256,192517,2,0,P|240:296|280:324,1,73.5,8|0,0:0|0:0,0:0:0:0:
224,104,192838,6,0,L|152:88,1,73.5,4|0,0:0|0:0,0:0:0:0:
292,168,193159,2,0,P|316:112|312:80,1,73.5,8|0,0:0|0:0,0:0:0:0:
132,248,193480,2,0,B|136:288|136:288|156:336,1,73.5
144,108,193800,1,8,0:0:0:0:
48,284,193961,1,0,0:0:0:0:
224,264,194121,6,0,P|260:240|276:204,1,73.5
144,108,194442,2,0,L|196:188,1,73.5,8|0,0:0|0:0,0:0:0:0:
292,52,194763,2,0,L|272:88,2,36.75,0|8|0,0:0|0:0|0:0,0:0:0:0:
308,264,195084,1,8,0:0:0:0:
220,152,195244,1,8,0:0:0:0:
212,140,195324,1,8,0:0:0:0:
204,128,195405,5,4,0:0:0:0:
144,273,195565,1,0,0:0:0:0:
288,160,195726,1,8,0:0:0:0:
128,180,195886,1,0,0:0:0:0:
189,34,196046,1,0,0:0:0:0:
216,218,196207,1,0,0:0:0:0:
112,88,196367,1,8,0:0:0:0:
56,240,196528,1,0,0:0:0:0:
204,128,196688,6,0,P|212:84|204:48,1,73.5,2|0,0:0|0:0,0:0:0:0:
216,218,197009,2,0,L|288:252,1,73.5,8|0,0:0|0:0,0:0:0:0:
128,180,197330,1,0,0:0:0:0:
160,364,197490,1,0,0:0:0:0:
288,160,197651,1,8,0:0:0:0:
144,273,197811,1,0,0:0:0:0:
204,128,197972,5,0,0:0:0:0:
304,248,198132,1,0,0:0:0:0:
272,68,198292,1,10,0:0:0:0:
216,218,198453,1,0,0:0:0:0:
360,84,198613,2,0,L|372:8,1,73.5
344,176,198934,2,0,P|392:172|420:152,1,73.5,8|0,0:0|0:0,0:0:0:0:
204,128,199255,6,0,P|180:160|168:200,1,73.5,4|0,0:0|0:0,0:0:0:0:
280,76,199576,2,0,B|252:52|252:52|208:32,1,73.5,8|0,0:0|0:0,0:0:0:0:
204,36,199816,1,0,0:0:0:0:
192,36,199897,1,0,0:0:0:0:
104,256,200057,1,0,0:0:0:0:
284,168,200218,1,8,0:0:0:0:
176,312,200378,1,0,0:0:0:0:
160,120,200538,6,0,P|168:80|192:48,1,73.5,2|0,0:0|0:0,0:0:0:0:
168,252,200859,2,0,B|136:268|136:268|92:276,1,73.5,8|0,0:0|0:0,0:0:0:0:
260,248,201180,2,0,L|280:332,1,73.5
160,120,201501,2,0,P|184:88|224:68,1,73.5,8|0,0:0|0:0,0:0:0:0:
88,176,201822,6,0,B|72:140|72:140|68:100,1,73.5,2|0,0:0|0:0,0:0:0:0:
168,252,202143,2,0,P|156:308|140:328,1,73.5,8|0,0:0|0:0,0:0:0:0:
160,120,202464,2,0,L|236:84,1,73.5
76,264,202784,1,8,0:0:0:0:
96,56,202945,1,0,0:0:0:0:
228,180,203105,6,0,P|264:188|304:180,1,73.5,4|0,0:0|0:0,0:0:0:0:
152,224,203426,2,8,B|168:264|168:264|196:292,1,73.5
204,292,203667,1,0,0:0:0:0:
216,296,203747,1,0,0:0:0:0:
212,92,203907,1,0,0:0:0:0:
64,240,204068,1,8,0:0:0:0:
128,60,204228,1,0,0:0:0:0:
252,212,204389,6,0,P|260:248|256:288,1,73.5
212,92,204710,1,8,0:0:0:0:
237,82,204790,1,0,0:0:0:0:
264,78,204870,1,0,0:0:0:0:
292,79,204950,1,0,0:0:0:0:
319,86,205030,2,0,L|356:68,2,36.75,0|8|0,0:0|0:0|0:0,0:0:0:0:
168,172,205351,2,0,L|124:140,1,36.75,8|0,0:0|0:0,0:0:0:0:
256,196,205512,2,0,L|250:250,1,36.75,8|0,0:0|0:0,0:0:0:0:
232,108,205672,5,4,0:0:0:0:
164,264,205833,1,0,0:0:0:0:
324,120,206153,1,0,0:0:0:0:
164,264,206314,1,0,0:0:0:0:
384,188,206635,1,0,0:0:0:0:
164,264,206795,2,0,P|120:268|88:256,1,73.5
208,184,207116,5,2,0:0:0:0:
252,264,207276,1,2,0:0:0:0:
256,104,207437,1,2,0:0:0:0:
164,264,207597,1,0,0:0:0:0:
164,104,207758,1,2,0:0:0:0:
296,184,207918,1,2,0:0:0:0:
208,24,208079,1,2,0:0:0:0:
120,184,208239,5,0,0:0:0:0:
256,104,208399,1,0,0:0:0:0:
164,264,208720,1,0,0:0:0:0:
256,104,208881,1,0,0:0:0:0:
216,336,209202,1,0,0:0:0:0:
255,103,209362,2,0,L|268:31,1,73.5
172,140,209683,5,2,0:0:0:0:
168,160,209763,1,2,0:0:0:0:
164,180,209843,1,2,0:0:0:0:
256,104,210004,1,2,0:0:0:0:
84,224,210164,1,2,0:0:0:0:
184,48,210324,1,2,0:0:0:0:
252,192,210485,1,2,0:0:0:0:
100,80,210645,1,2,0:0:0:0:
176,240,210806,5,0,0:0:0:0:
256,104,210966,1,0,0:0:0:0:
256,284,211287,1,0,0:0:0:0:
164,100,211447,1,0,0:0:0:0:
332,232,211768,1,0,0:0:0:0:
96,160,211929,2,0,B|56:172|56:172|20:200,1,73.5
252,116,212250,1,2,0:0:0:0:
252,116,212330,1,2,0:0:0:0:
252,116,212410,6,0,P|260:72|244:24,1,73.5,2|0,0:0|0:0,0:0:0:0:
216,200,212731,2,0,L|272:256,1,73.5
164,100,213052,1,0,0:0:0:0:
144,252,213212,1,0,0:0:0:0:
284,140,213373,6,0,B|312:112|312:112|328:80,1,73.5,4|0,0:1|0:0,0:0:0:0:
192,144,213693,1,0,0:0:0:0:
316,224,213854,2,0,P|364:236|396:228,1,73.5,0|8,0:0|0:0,0:0:0:0:
232,64,214175,1,0,0:0:0:0:
224,228,214335,2,0,L|220:312,1,73.5,0|8,0:0|0:0,0:0:0:0:
316,96,214656,1,0,0:0:0:0:
152,172,214816,6,0,P|108:204|92:228,1,73.5
232,64,215137,2,0,B|220:28|220:28|192:-4,1,73.5,0|8,0:0|0:0,0:0:0:0:
236,208,215458,1,0,0:0:0:0:
244,224,215538,1,0,0:0:0:0:
252,240,215619,2,0,L|272:280,1,36.75,8|8,0:0|0:0,0:0:0:0:
152,172,215779,2,0,L|136:220,1,36.75,8|8,0:0|0:0,0:0:0:0:
220,112,215939,6,0,P|184:88|144:84,1,73.5,4|0,0:1|0:0,0:0:0:0:
176,292,216260,1,8,0:0:0:0:
300,156,216421,1,0,0:0:0:0:
304,144,216501,1,0,0:0:0:0:
308,132,216581,2,0,B|316:96|316:96|316:56,1,73.5
236,220,216902,2,0,L|280:296,1,73.5,8|0,0:0|0:0,0:0:0:0:
224,96,217223,5,0,0:0:0:0:
84,240,217383,1,0,0:0:0:0:
144,52,217544,1,8,0:0:0:0:
236,220,217704,1,0,0:0:0:0:
236,220,217784,1,0,0:0:0:0:
236,220,217865,2,0,P|244:264|236:300,1,73.5
300,152,218185,2,0,B|336:172|336:172|368:208,1,73.5,8|0,0:0|0:0,0:0:0:0:
240,84,218506,6,0,P|260:52|292:28,2,73.5,0|0|8,0:0|0:0|0:0,0:0:0:0:
268,212,218988,1,0,0:0:0:0:
284,232,219068,1,0,0:0:0:0:
300,252,219148,1,0,0:0:0:0:
180,196,219308,2,0,L|176:280,1,73.5,0|8,0:0|0:0,0:0:0:0:
156,108,219629,2,0,P|112:116|80:136,1,73.5
272,192,219950,5,0,0:0:0:0:
248,104,220111,1,8,0:0:0:0:
204,256,220271,1,0,0:0:0:0:
200,268,220351,1,0,0:0:0:0:
196,280,220431,1,0,0:0:0:0:
336,124,220592,1,0,0:0:0:0:
288,280,220752,1,8,0:0:0:0:
248,104,220913,1,0,0:0:0:0:
360,224,221073,6,0,P|396:228|432:220,1,73.5
248,104,221394,2,0,B|220:136|220:136|204:176,1,73.5,8|0,0:0|0:0,0:0:0:0:
204,184,221635,1,0,0:0:0:0:
200,204,221715,1,0,0:0:0:0:
340,104,221875,2,0,L|324:24,1,73.5,0|8,0:0|0:0,0:0:0:0:
388,184,222196,6,0,P|420:152|432:120,1,73.5
200,204,222517,2,0,B|208:244|208:244|232:272,1,73.5,0|8,0:0|0:0,0:0:0:0:
248,104,222838,1,0,0:0:0:0:
232,96,222918,1,0,0:0:0:0:
216,88,222998,2,0,P|176:88|128:108,1,73.5
300,240,223319,1,8,0:0:0:0:
292,40,223480,1,8,0:0:0:0:
208,248,223640,6,0,B|224:300|224:300|300:360,1,147,4|8,0:0|0:0,0:0:0:0:
252,128,224121,1,0,0:0:0:0:
240,120,224202,1,0,0:0:0:0:
228,112,224282,2,0,B|156:72,1,73.5,4|0,0:0|0:0,0:0:0:0:
284,216,224603,2,0,P|320:188|336:160,1,73.5,8|0,0:0|0:0,0:0:0:0:
88,152,224923,6,0,B|52:224|84:304,1,147,4|8,0:0|0:0,0:0:0:0:
260,96,225405,1,0,0:0:0:0:
248,84,225485,1,0,0:0:0:0:
236,72,225565,2,0,B|210:46|210:46|172:32,1,73.5,2|0,0:0|0:0,0:0:0:0:
272,224,225886,1,0,0:0:0:0:
340,56,226046,1,0,0:0:0:0:
356,260,226207,6,0,P|356:300|336:344,1,73.5,4|0,0:0|0:0,0:0:0:0:
283,102,226528,2,0,L|351:46,1,73.5,8|0,0:0|0:0,0:0:0:0:
351,46,226768,1,0,0:0:0:0:
363,38,226849,1,0,0:0:0:0:
268,284,227009,2,0,P|216:276|196:264,1,73.5,2|8,0:0|0:0,0:0:0:0:
283,102,227330,1,0,0:0:0:0:
356,260,227490,6,0,L|388:332,1,73.5,2|0,0:0|0:0,0:0:0:0:
372,128,227811,1,8,0:0:0:0:
268,284,227972,1,0,0:0:0:0:
268,284,228052,1,0,0:0:0:0:
268,284,228132,2,0,B|244:324|244:324|236:364,1,73.5,2|0,0:0|0:0,0:0:0:0:
372,128,228453,2,0,P|344:96|300:76,1,73.5,10|0,0:0|0:0,0:0:0:0:
228,88,228774,6,0,B|184:92|184:92|152:84,1,73.5,4|0,0:0|0:0,0:0:0:0:
264,4,229095,1,8,0:0:0:0:
236,200,229255,1,0,0:0:0:0:
232,220,229335,1,0,0:0:0:0:
228,240,229415,1,0,0:0:0:0:
317,81,229576,1,2,0:0:0:0:
140,216,229736,1,8,0:0:0:0:
228,88,229897,1,0,0:0:0:0:
316,264,230057,6,0,L|360:336,1,73.5,2|0,0:0|0:0,0:0:0:0:
316,112,230378,1,8,0:0:0:0:
228,240,230538,1,0,0:0:0:0:
228,240,230619,1,0,0:0:0:0:
228,240,230699,2,0,P|204:276|196:316,1,73.5
228,128,231020,1,8,0:0:0:0:
316,264,231180,1,0,0:0:0:0:
296,68,231341,5,2,0:0:0:0:
156,184,231501,1,0,0:0:0:0:
208,36,231661,1,8,0:0:0:0:
244,216,231822,1,0,0:0:0:0:
248,232,231902,1,0,0:0:0:0:
252,248,231982,1,0,0:0:0:0:
380,104,232143,2,0,P|388:60|376:24,1,73.5,2|8,0:0|0:0,0:0:0:0:
228,128,232464,1,0,0:0:0:0:
344,256,232624,6,0,L|392:312,1,73.5,2|0,0:0|0:0,0:0:0:0:
296,68,232945,1,10,0:0:0:0:
252,228,233105,2,0,P|252:272|268:312,1,73.5
296,68,233426,1,2,0:0:0:0:
172,184,233587,1,10,0:0:0:0:
220,16,233747,1,2,0:0:0:0:
336,148,233907,6,0,B|352:180|352:180|356:228,1,73.5,4|0,0:0|0:0,0:0:0:0:
296,68,234228,1,8,0:0:0:0:
224,228,234389,1,0,0:0:0:0:
216,248,234469,1,0,0:0:0:0:
208,268,234549,2,0,L|176:348,1,73.5
212,104,234870,1,8,0:0:0:0:
316,232,235030,1,0,0:0:0:0:
332,252,235111,1,0,0:0:0:0:
348,272,235191,5,2,0:0:0:0:
300,88,235351,1,0,0:0:0:0:
228,264,235512,2,0,L|240:304,1,36.75,8|0,0:0|0:0,0:0:0:0:
244,172,235672,2,0,L|203:162,1,36.75
312,240,235833,5,0,0:0:0:0:
326,222,235913,1,8,0:0:0:0:
335,200,235993,1,0,0:0:0:0:
338,178,236073,1,0,0:0:0:0:
337,155,236153,1,8,0:0:0:0:
335,132,236234,1,0,0:0:0:0:
334,109,236314,1,8,0:0:0:0:
338,86,236394,1,0,0:0:0:0:
346,65,236474,6,0,B|380:48|380:48|432:48,1,73.5,4|0,0:0|0:0,0:0:0:0:
326,222,236795,1,8,0:0:0:0:
256,72,236956,1,0,0:0:0:0:
260,52,237036,1,0,0:0:0:0:
264,32,237116,1,0,0:0:0:0:
326,222,237276,2,0,P|336:264|328:308,1,73.5,2|8,0:0|0:0,0:0:0:0:
344,100,237597,1,0,0:0:0:0:
236,224,237758,6,0,L|184:296,1,73.5,2|0,0:0|0:0,0:0:0:0:
200,108,238079,2,0,P|236:100|272:108,1,73.5,8|0,0:0|0:0,0:0:0:0:
88,232,238399,1,2,0:0:0:0:
144,36,238560,1,0,0:0:0:0:
240,192,238720,2,0,B|256:224|256:224|260:264,1,73.5,10|0,0:0|0:0,0:0:0:0:
340,192,239041,6,0,L|352:284,1,73.5,4|0,0:0|0:0,0:0:0:0:
396,120,239362,1,8,0:0:0:0:
252,216,239522,1,0,0:0:0:0:
244,232,239603,1,0,0:0:0:0:
236,248,239683,1,0,0:0:0:0:
328,56,239843,1,2,0:0:0:0:
376,208,240004,1,8,0:0:0:0:
236,60,240164,1,0,0:0:0:0:
184,252,240324,6,0,P|180:288|192:324,1,73.5,2|0,0:0|0:0,0:0:0:0:
312,144,240645,1,8,0:0:0:0:
116,188,240806,1,0,0:0:0:0:
116,188,240886,1,0,0:0:0:0:
116,188,240966,2,0,B|84:212|84:212|64:244,1,73.5
236,92,241287,1,8,0:0:0:0:
184,252,241447,1,0,0:0:0:0:
108,96,241608,6,0,L|80:24,1,73.5,4|0,0:0|0:0,0:0:0:0:
68,220,241929,1,8,0:0:0:0:
200,104,242089,2,0,B|276:76|360:108,1,147,4|0,0:0|0:0,0:0:0:0:
408,164,242570,2,0,P|452:168|488:160,1,73.5,8|0,0:0|0:0,0:0:0:0:
324,192,242891,6,0,B|312:232|312:232|316:272,1,73.5,4|0,0:0|0:0,0:0:0:0:
356,344,243212,1,8,0:0:0:0:
256,120,243373,2,0,B|204:264,1,147,4|0,0:0|0:0,0:0:0:0:
344,88,243854,2,0,P|324:56|272:28,1,73.5,8|0,0:0|0:0,0:0:0:0:
324,176,244175,6,0,B|362:192|362:192|400:192,1,73.5,4|0,0:1|0:0,0:0:0:0:
295,35,244496,1,8,0:0:0:0:
236,200,244656,1,0,0:0:0:0:
232,212,244736,1,0,0:0:0:0:
228,224,244816,1,0,0:0:0:0:
364,92,244977,1,0,0:0:0:0:
172,132,245137,1,8,0:0:0:0:
295,35,245298,1,0,0:0:0:0:
328,192,245458,6,0,P|332:228|324:268,1,73.5,4|0,0:0|0:0,0:0:0:0:
352,104,245779,2,0,L|420:136,1,73.5,8|0,0:0|0:0,0:0:0:0:
172,300,246100,5,8,0:0:0:0:
168,277,246180,1,0,0:0:0:0:
168,254,246260,1,8,0:0:0:0:
171,231,246340,1,0,0:0:0:0:
175,208,246420,1,8,0:0:0:0:
178,186,246501,1,8,0:0:0:0:
179,163,246581,1,8,0:0:0:0:
178,140,246661,1,8,0:0:0:0:
172,118,246742,6,0,P|164:80|176:36,2,73.5,8|0|0,0:0|0:0|0:0,0:0:0:0:
260,244,247223,1,0,0:0:0:0:
268,260,247303,1,0,0:0:0:0:
276,276,247383,1,4,0:0:0:0:
256,84,247544,1,0,0:0:0:0:
160,208,247704,1,0,0:0:0:0:
184,28,247865,1,0,0:0:0:0:
244,176,248025,6,0,L|276:248,1,73.5,8|0,0:0|0:0,0:0:0:0:
256,84,248346,1,0,0:0:0:0:
120,232,248506,1,0,0:0:0:0:
112,244,248587,1,0,0:0:0:0:
104,256,248667,2,0,P|88:296|88:336,1,73.5,4|0,0:0|0:0,0:0:0:0:
112,136,248988,2,0,B|80:112|80:112|24:96,1,73.5,2|0,0:0|0:0,0:0:0:0:
196,104,249308,6,0,L|188:20,1,73.5,8|0,0:0|0:0,0:0:0:0:
192,256,249629,1,0,0:0:0:0:
284,128,249790,1,0,0:0:0:0:
296,108,249870,1,0,0:0:0:0:
308,88,249950,1,8,0:0:0:0:
104,240,250111,1,0,0:0:0:0:
196,104,250271,1,0,0:0:0:0:
192,272,250431,1,0,0:0:0:0:
108,132,250592,6,0,P|108:80|116:56,1,73.5,8|0,0:1|0:0,0:0:0:0:
192,272,250913,2,0,B|160:292|160:292|120:304,1,73.5
110,303,251153,1,0,0:0:0:0:
94,303,251234,1,0,0:0:0:0:
196,104,251394,1,0,0:0:0:0:
278,239,251554,2,0,P|282:275|274:311,1,73.5
196,104,251875,5,8,0:1:0:0:
192,272,252036,1,0,0:0:0:0:
352,192,252196,2,0,P|380:160|392:120,1,73.5
392,112,252437,1,0,0:0:0:0:
392,96,252517,1,2,0:0:0:0:
264,216,252677,2,0,B|284:252|284:252|320:280,1,73.5
308,64,252998,1,0,0:0:0:0:
176,196,253159,6,0,L|156:268,1,73.5,8|0,0:0|0:0,0:0:0:0:
216,52,253480,1,0,0:0:0:0:
264,220,253640,1,0,0:0:0:0:
272,240,253720,1,0,0:0:0:0:
280,256,253800,1,4,0:0:0:0:
292,100,253961,1,0,0:0:0:0:
176,196,254121,1,0,0:0:0:0:
216,52,254282,1,0,0:0:0:0:
328,176,254442,6,0,B|324:216|324:216|308:256,1,73.5,2|0,0:0|0:0,0:0:0:0:
308,52,254763,1,0,0:0:0:0:
420,172,254923,1,0,0:0:0:0:
428,192,255004,1,0,0:0:0:0:
436,212,255084,2,0,L|464:288,1,73.5
392,84,255405,1,0,0:0:0:0:
311,246,255565,1,0,0:0:0:0:
311,246,255645,1,0,0:0:0:0:
311,246,255726,5,4,0:0:0:0:
256,92,255886,1,0,0:0:0:0:
220,272,256046,1,0,0:0:0:0:
324,152,256207,2,0,L|352:120,1,36.75
236,180,256367,2,0,L|216:148,1,36.75,8|0,0:1|0:0,0:0:0:0:
311,246,256528,2,0,L|356:248,1,36.75
256,60,256688,1,0,0:0:0:0:
229,52,256768,1,0,0:0:0:0:
202,51,256848,1,0,0:0:0:0:
175,57,256928,1,0,0:0:0:0:
150,69,257009,6,0,P|96:80|72:72,1,73.5,8|0,0:0|0:0,0:0:0:0:
212,140,257330,2,0,L|240:212,1,73.5
244,224,257570,1,0,0:0:0:0:
252,240,257651,1,4,0:0:0:0:
240,40,257811,1,0,0:0:0:0:
148,224,257972,1,0,0:0:0:0:
300,108,258132,1,0,0:0:0:0:
320,284,258292,6,0,B|332:364,1,73.5,8|0,0:0|0:0,0:0:0:0:
300,108,258613,1,0,0:0:0:0:
232,260,258774,1,0,0:0:0:0:
232,260,258854,1,0,0:0:0:0:
232,260,258934,1,0,0:0:0:0:
368,168,259095,1,0,0:0:0:0:
228,48,259255,1,0,0:0:0:0:
312,240,259415,1,0,0:0:0:0:
392,80,259576,6,0,B|400:40|400:40|392:0,1,73.5,4|0,0:0|0:0,0:0:0:0:
228,200,259897,2,0,P|220:240|232:284,1,73.5
236,288,260137,1,0,0:0:0:0:
248,300,260218,1,2,0:0:0:0:
224,108,260378,2,0,B|192:88|192:88|148:72,1,73.5,0|8,0:0|0:0,0:0:0:0:
312,240,260699,1,0,0:0:0:0:
312,88,260859,6,0,L|312:4,1,73.5,2|0,0:0|0:0,0:0:0:0:
192,192,261180,2,0,P|220:224|256:240,1,73.5
268,244,261421,1,0,0:0:0:0:
288,248,261501,1,4,0:0:0:0:
196,100,261661,1,0,0:0:0:0:
180,296,261822,1,0,0:0:0:0:
272,148,261982,1,0,0:0:0:0:
116,140,262143,5,8,0:1:0:0:
247,237,262303,1,0,0:0:0:0:
196,100,262464,1,0,0:0:0:0:
168,280,262624,2,0,P|168:316|184:356,1,73.5,0|2,0:0|0:0,0:0:0:0:
272,148,262945,1,0,0:0:0:0:
104,216,263105,1,0,0:0:0:0:
280,56,263266,1,0,0:0:0:0:
264,240,263426,5,4,0:0:0:0:
180,268,263587,1,0,0:0:0:0:
104,216,263747,1,0,0:0:0:0:
272,148,263907,2,0,B|312:136|348:148,1,73.5,0|8,0:0|0:0,0:0:0:0:
248,328,264228,1,0,0:0:0:0:
184,120,264389,2,0,B|176:84|176:84|184:44,1,73.5
236,196,264710,6,0,P|200:212|156:208,1,73.5
276,112,265030,1,0,0:0:0:0:
292,268,265191,1,0,0:0:0:0:
296,284,265271,1,0,0:0:0:0:
300,300,265351,1,0,0:0:0:0:
364,136,265512,1,0,0:0:0:0:
212,224,265672,1,8,0:0:0:0:
308,64,265833,1,0,0:0:0:0:
364,224,265993,6,0,B|372:264|372:264|368:300,1,73.5,12|0,0:1|0:0,0:0:0:0:
200,64,266314,2,0,L|216:32,1,36.75,8|0,0:0|0:0,0:0:0:0:
168,148,266474,2,0,L|132:150,1,36.75
256,136,266635,5,8,0:0:0:0:
261,158,266715,1,0,0:0:0:0:
262,181,266795,1,0,0:0:0:0:
258,203,266875,1,0,0:0:0:0:
254,226,266955,1,8,0:0:0:0:
250,248,267036,1,0,0:0:0:0:
247,271,267116,1,8,0:0:0:0:
248,294,267196,1,0,0:0:0:0:
253,317,267276,5,4,0:1:0:0:
