osu file format v14

[General]
AudioFilename: audio.mp3
AudioLeadIn: 0
PreviewTime: 72210
Countdown: 0
SampleSet: Normal
StackLeniency: 0.7
Mode: 3
LetterboxInBreaks: 0
SpecialStyle: 0
WidescreenStoryboard: 1

[Editor]
DistanceSpacing: 0.8
BeatDivisor: 4
GridSize: 4
TimelineZoom: 2.5

[Metadata]
Title:Pastel Subliminal
TitleUnicode:Pastel Subliminal
Artist:a_hisa
ArtistUnicode:a_hisa
Creator:BetaVN
Version:Colors of Emotions
Source:
Tags:a_hisa colors
BeatmapID:1753232
BeatmapSetID:837323

[Difficulty]
HPDrainRate:8
CircleSize:4
OverallDifficulty:8
ApproachRate:5
SliderMultiplier:1.4
SliderTickRate:1

[Events]
//Background and Video events
0,0,"WallpaperStudio10-73479.jpg",0,0
//Break Periods
//Storyboard Layer 0 (Background)
//Storyboard Layer 1 (Fail)
//Storyboard Layer 2 (Pass)
//Storyboard Layer 3 (Foreground)
//Storyboard Sound Samples

[TimingPoints]
339,320.855614973262,4,1,0,5,1,0

[HitObjects]
64,192,339,1,0,0:0:0:0:
192,192,339,1,0,0:0:0:0:
448,192,499,1,0,0:0:0:0:
320,192,659,1,0,0:0:0:0:
64,192,820,1,0,0:0:0:0:
192,192,980,1,0,0:0:0:0:
448,192,980,1,0,0:0:0:0:
320,192,1141,1,0,0:0:0:0:
192,192,1301,1,0,0:0:0:0:
64,192,1461,1,0,0:0:0:0:
192,192,1622,1,0,0:0:0:0:
448,192,1622,1,0,0:0:0:0:
320,192,1782,1,0,0:0:0:0:
64,192,1943,1,0,0:0:0:0:
448,192,1943,1,0,0:0:0:0:
192,192,2103,1,0,0:0:0:0:
448,192,2264,1,0,0:0:0:0:
64,192,2264,1,0,0:0:0:0:
320,192,2424,1,0,0:0:0:0:
192,192,2584,1,0,0:0:0:0:
64,192,2584,1,0,0:0:0:0:
448,192,2745,1,0,0:0:0:0:
64,192,2905,1,0,0:0:0:0:
320,192,2905,1,0,0:0:0:0:
192,192,3066,1,0,0:0:0:0:
448,192,3226,1,0,0:0:0:0:
64,192,3226,1,0,0:0:0:0:
192,192,3387,1,0,0:0:0:0:
64,192,3547,1,0,0:0:0:0:
320,192,3547,1,0,0:0:0:0:
448,192,3707,1,0,0:0:0:0:
320,192,3868,1,0,0:0:0:0:
192,192,3868,1,0,0:0:0:0:
64,192,4028,1,0,0:0:0:0:
192,192,4189,1,0,0:0:0:0:
448,192,4189,1,0,0:0:0:0:
320,192,4349,1,0,0:0:0:0:
192,192,4510,1,0,0:0:0:0:
64,192,4510,1,0,0:0:0:0:
448,192,4670,1,0,0:0:0:0:
320,192,4830,1,0,0:0:0:0:
64,192,4830,1,0,0:0:0:0:
192,192,4991,1,0,0:0:0:0:
320,192,5151,1,0,0:0:0:0:
448,192,5151,1,0,0:0:0:0:
64,192,5312,1,0,0:0:0:0:
192,192,5472,1,0,0:0:0:0:
448,192,5472,1,0,0:0:0:0:
320,192,5633,1,0,0:0:0:0:
64,192,5793,1,0,0:0:0:0:
448,192,5793,1,0,0:0:0:0:
192,192,5953,1,0,0:0:0:0:
448,192,6114,1,0,0:0:0:0:
320,192,6114,1,0,0:0:0:0:
64,192,6274,1,0,0:0:0:0:
192,192,6435,1,0,0:0:0:0:
448,192,6435,1,0,0:0:0:0:
64,192,6595,1,0,0:0:0:0:
448,192,6756,1,0,0:0:0:0:
320,192,6756,1,0,0:0:0:0:
192,192,6916,1,0,0:0:0:0:
64,192,7076,1,0,0:0:0:0:
448,192,7076,1,0,0:0:0:0:
320,192,7237,1,0,0:0:0:0:
192,192,7397,1,0,0:0:0:0:
64,192,7397,1,0,0:0:0:0:
320,192,7558,1,0,0:0:0:0:
448,192,7718,1,0,0:0:0:0:
192,192,7718,1,0,0:0:0:0:
320,192,7879,1,0,0:0:0:0:
64,192,8039,1,0,0:0:0:0:
448,192,8039,1,0,0:0:0:0:
192,192,8199,1,0,0:0:0:0:
320,192,8360,1,0,0:0:0:0:
448,192,8360,1,0,0:0:0:0:
64,192,8520,1,0,0:0:0:0:
192,192,8681,1,0,0:0:0:0:
448,192,8681,1,0,0:0:0:0:
320,192,8841,1,0,0:0:0:0:
64,192,9002,1,0,0:0:0:0:
448,192,9002,1,0,0:0:0:0:
192,192,9162,1,0,0:0:0:0:
448,192,9322,1,0,0:0:0:0:
64,192,9322,1,0,0:0:0:0:
320,192,9483,1,0,0:0:0:0:
64,192,9643,1,0,0:0:0:0:
192,192,9643,1,0,0:0:0:0:
320,192,9804,1,0,0:0:0:0:
64,192,9964,1,0,0:0:0:0:
448,192,9964,1,0,0:0:0:0:
192,192,10125,1,0,0:0:0:0:
448,192,10285,1,0,0:0:0:0:
64,192,10285,1,0,0:0:0:0:
320,192,10445,1,0,0:0:0:0:
