osu file format v14

[General]
AudioFilename: audio.mp3
AudioLeadIn: 0
PreviewTime: 44308
Countdown: 0
SampleSet: Soft
StackLeniency: 0.7
Mode: 0
LetterboxInBreaks: 0
WidescreenStoryboard: 1

[Editor]
Bookmarks: 1558,41458,42808,46258,76708,105283,115633,118408,164008
DistanceSpacing: 1
BeatDivisor: 4
GridSize: 32
TimelineZoom: 1.6

[Metadata]
Title:My Little Hero
TitleUnicode:My Little Hero
Artist:a_hisa
ArtistUnicode:a_hisa
Creator:_Epreus
Version:Normal
Source:
Tags:electronic instrumental chiptune Single Collection ahisa
BeatmapID:2313823
BeatmapSetID:1105378

[Difficulty]
HPDrainRate:3
CircleSize:3.6
OverallDifficulty:5
ApproachRate:6
SliderMultiplier:1
SliderTickRate:1

[Events]
//Background and Video events
0,0,"sky-3054732_1920.jpg",0,0
//Break Periods
2,64112,67662
2,140712,158862
//Storyboard Layer 0 (Background)
//Storyboard Layer 1 (Fail)
//Storyboard Layer 2 (Pass)
//Storyboard Layer 3 (Foreground)
//Storyboard Layer 4 (Overlay)
//Storyboard Sound Samples

[TimingPoints]
312,300,4,2,3,45,1,0
7512,-100,4,2,3,45,0,0
8112,-100,4,2,3,45,0,0
9912,-100,4,2,3,45,0,0
15462,-100,4,2,3,45,0,0
15912,-100,4,2,3,45,0,0
35112,-100,4,2,3,55,0,0
35337,-100,4,2,3,5,0,0
35412,-100,4,2,3,55,0,0
35937,-100,4,2,3,5,0,0
36012,-100,4,2,3,55,0,0
37737,-100,4,2,3,5,0,0
37812,-100,4,2,3,55,0,0
38337,-100,4,2,3,5,0,0
38412,-100,4,2,3,55,0,0
40137,-100,4,2,3,5,0,0
40212,-100,4,2,3,55,0,0
40737,-100,4,2,3,5,0,0
40812,-100,4,2,3,55,0,0
42537,-100,4,2,3,5,0,0
42612,-100,4,2,3,55,0,0
43137,-100,4,2,3,5,0,0
43212,-100,4,2,3,55,0,0
44712,-100,4,2,3,65,0,1
63912,-100,4,2,3,65,0,0
68712,-100,4,2,3,55,0,0
70512,-100,4,2,3,55,0,0
72312,-100,4,2,3,55,0,0
72612,-100,4,2,3,55,0,0
73512,-100,4,2,3,50,0,0
92712,-100,4,2,3,55,0,0
92937,-100,4,2,3,5,0,0
93012,-100,4,2,3,55,0,0
93537,-100,4,2,3,5,0,0
93612,-100,4,2,3,55,0,0
95337,-100,4,2,3,5,0,0
95412,-100,4,2,3,55,0,0
95937,-100,4,2,3,5,0,0
96012,-100,4,2,3,55,0,0
97737,-100,4,2,3,5,0,0
97812,-100,4,2,3,55,0,0
98337,-100,4,2,3,5,0,0
98412,-100,4,2,3,55,0,0
99537,-100,4,2,3,5,0,0
99612,-100,4,2,3,55,0,0
100137,-100,4,2,3,5,0,0
100212,-100,4,2,3,55,0,0
100737,-100,4,2,3,5,0,0
100812,-100,4,2,3,55,0,0
102312,-100,4,2,3,65,0,1
121512,-100,4,2,3,55,0,0
159912,-100,4,2,3,65,0,1
181512,-100,4,2,3,65,0,0
182712,-100,4,2,3,65,0,1
189012,-100,4,2,3,65,0,0

[Colours]
Combo1 : 128,0,255
Combo2 : 255,128,192
Combo3 : 255,128,255
Combo4 : 128,255,255
Combo5 : 128,128,255

[HitObjects]
336,50,7512,6,0,P|378:44|441:79,1,100,4|0,1:2|0:0,0:0:0:0:
411,165,8112,2,0,P|368:170|305:135,1,100,4|0,1:2|0:0,0:0:0:0:
241,82,8712,2,0,P|193:54|139:58,2,100,8|8|8,0:0|0:0|0:0,0:0:0:0:
192,169,9612,1,8,0:0:0:0:
261,240,9912,6,0,L|378:227,1,100,4|8,1:2|0:0,0:0:0:0:
459,214,10512,2,0,P|474:241|472:269,1,50,0|0,1:0|1:0,0:0:0:0:
462,308,10812,1,8,0:0:0:0:
374,356,11112,2,0,L|257:343,1,100,0|8,1:0|0:0,0:0:0:0:
242,306,11562,1,0,1:0:0:0:
242,306,11712,2,0,L|142:317,1,100,0|8,1:0|0:0,0:0:0:0:
55,366,12312,6,0,B|31:320|31:320|51:259,1,100,4|8,1:2|0:0,0:0:0:0:
113,199,12912,2,0,L|162:204,1,50,0|0,1:0|1:0,0:0:0:0:
212,210,13212,1,8,0:0:0:0:
304,248,13512,2,0,B|328:202|328:202|308:141,1,100,0|8,1:0|0:0,0:0:0:0:
297,108,13962,1,0,1:0:0:0:
297,108,14112,2,0,L|194:122,2,100,0|8|12,1:0|0:0|0:2,0:0:0:0:
445,53,15912,6,0,L|430:163,1,100,6|8,1:2|0:0,0:0:0:0:
482,238,16512,1,2,1:2:0:0:
429,323,16812,2,0,L|363:314,1,50,10|2,0:0|1:2,0:0:0:0:
345,278,17112,2,0,L|222:294,1,100,2|10,1:2|0:0,0:0:0:0:
196,300,17562,1,2,1:2:0:0:
196,300,17712,2,0,L|212:177,1,100,2|10,1:2|0:0,0:0:0:0:
227,102,18312,5,2,1:2:0:0:
143,46,18612,1,10,0:2:0:0:
56,95,18912,2,0,P|59:130|63:148,1,50,2|2,1:2|1:2,0:0:0:0:
98,179,19212,2,0,P|46:200|34:253,2,100,10|2|8,0:2|1:2|0:0,0:0:0:0:
185,228,20112,1,0,1:0:0:0:
274,182,20412,2,0,L|330:194,1,50,10|2,0:0|1:2,0:0:0:0:
372,201,20712,6,0,B|410:162|410:162|392:96,1,100,6|10,1:2|0:0,0:0:0:0:
389,68,21162,1,0,1:0:0:0:
389,68,21312,2,0,L|277:92,1,100,2|10,1:2|0:0,0:0:0:0:
211,149,21912,2,0,P|180:147|155:78,1,100,2|10,1:2|0:0,0:0:0:0:
181,51,22362,1,2,0:0:0:0:
181,51,22512,2,0,L|81:38,1,100,2|10,1:2|0:0,0:0:0:0:
24,120,23112,6,0,P|36:170|42:232,1,100,2|10,1:2|0:0,0:0:0:0:
26,266,23562,1,2,1:2:0:0:
26,266,23712,2,0,P|62:238|134:242,1,100,2|10,1:2|0:0,0:0:0:0:
211,258,24312,2,0,P|247:286|319:282,2,100,2|8|0,1:2|0:0|1:0,0:0:0:0:
173,165,25212,1,8,0:0:0:0:
235,87,25512,6,0,B|280:64|280:64|345:87,1,100,6|8,1:2|0:0,0:0:0:0:
420,115,26112,1,2,1:2:0:0:
400,213,26412,2,0,L|345:225,1,50,10|2,0:0|0:0,0:0:0:0:
311,254,26712,2,0,P|267:236|208:240,1,100,2|10,1:2|0:0,0:0:0:0:
182,276,27162,1,2,0:0:0:0:
182,276,27312,2,0,P|138:294|79:290,1,100,2|10,1:2|0:0,0:0:0:0:
39,203,27912,6,0,L|52:96,1,100,2|10,1:2|0:0,0:0:0:0:
136,52,28512,2,0,B|183:31|183:31|236:61,1,100,2|10,1:2|0:2,0:0:0:0:
264,85,28962,1,2,0:0:0:0:
264,85,29112,2,0,P|304:96|361:70,1,100,2|8,1:2|0:0,0:0:0:0:
453,49,29712,2,0,L|440:148,1,100,0|10,1:0|0:0,0:0:0:0:
498,230,30312,6,0,L|485:329,1,100,6|10,1:2|0:0,0:0:0:0:
395,374,30912,1,2,1:2:0:0:
311,318,31212,2,0,L|304:268,1,50,10|2,0:0|0:0,0:0:0:0:
300,218,31512,2,0,P|259:211|207:254,1,100,2|10,1:2|0:0,0:0:0:0:
192,287,31962,1,0,0:0:0:0:
192,287,32112,2,0,P|153:316|104:311,1,100,2|10,1:2|0:0,0:0:0:0:
30,243,32712,6,0,P|68:213|117:218,1,100,2|10,1:2|0:0,0:0:0:0:
212,242,33312,2,0,P|228:218|236:193,1,50,2|2,1:2|0:0,0:0:0:0:
227,148,33612,1,10,0:0:0:0:
322,177,33912,2,0,L|421:158,1,100,2|8,1:2|0:0,0:0:0:0:
469,70,34512,1,0,1:0:0:0:
387,11,34812,2,0,L|337:20,1,50,10|2,0:2|0:2,0:0:0:0:
308,60,35112,6,0,L|208:42,1,100,6|10,1:2|0:0,0:0:0:0:
134,108,35712,2,0,L|34:90,1,100,2|10,1:2|0:0,0:0:0:0:
51,188,36312,2,0,L|60:238,1,50,2|2,1:2|0:2,0:0:0:0:
68,287,36612,1,10,0:2:0:0:
165,309,36912,2,0,L|147:209,1,100,2|10,1:2|0:2,0:0:0:0:
221,143,37512,6,0,P|269:126|321:152,1,100,2|10,1:2|0:0,0:0:0:0:
388,78,38112,2,0,P|426:111|430:169,1,100,2|10,1:2|0:0,0:0:0:0:
377,240,38712,1,2,1:2:0:0:
411,333,39012,2,0,L|311:350,1,100,10|2,0:2|1:2,0:0:0:0:
240,280,39612,1,10,0:2:0:0:
144,310,39912,6,0,B|117:265|117:265|136:219,1,100,6|10,1:2|0:0,0:0:0:0:
192,138,40512,2,0,L|291:155,1,100,2|10,1:2|0:0,0:0:0:0:
371,214,41112,2,0,P|388:182|378:112,1,100,2|10,1:2|0:2,0:0:0:0:
364,73,41562,1,2,0:2:0:0:
364,73,41712,2,0,L|264:55,1,100,2|10,1:2|0:2,0:0:0:0:
166,41,42312,6,0,P|121:53|99:107,1,100,2|10,1:2|0:0,0:0:0:0:
120,143,42762,1,2,0:0:0:0:
120,143,42912,2,0,L|102:241,2,100,2|10|10,1:2|0:2|0:2,0:0:0:0:
218,161,43812,5,10,0:2:0:0:
200,259,44112,1,2,1:2:0:0:
299,277,44412,1,10,0:0:0:0:
317,179,44712,6,0,P|346:155|413:156,1,100,6|8,1:2|0:0,0:0:0:0:
489,209,45312,2,0,P|491:245|484:262,1,50,2|2,1:2|1:2,0:0:0:0:
458,299,45612,1,10,0:0:0:0:
367,340,45912,2,0,L|258:324,1,100,2|8,1:2|0:0,0:0:0:0:
222,345,46362,1,0,1:0:0:0:
222,345,46512,2,0,L|206:236,1,100,0|8,1:0|0:0,0:0:0:0:
271,168,47112,6,0,L|287:59,1,100,2|8,1:2|0:0,0:0:0:0:
259,26,47562,1,2,0:0:0:0:
259,26,47712,2,0,P|193:26|162:54,1,100,2|10,1:2|0:0,0:0:0:0:
117,133,48312,1,2,1:2:0:0:
23,98,48612,2,0,L|39:-11,2,100,10|2|10,0:0|1:2|0:0,0:0:0:0:
11,197,49512,6,0,P|66:200|101:290,1,150,6|2,1:2|0:0,0:0:0:0:
86,324,50112,2,0,L|184:309,1,100,2|10,1:2|0:0,0:0:0:0:
270,361,50712,2,0,B|293:320|293:320|280:264,1,100,2|10,1:2|0:0,0:0:0:0:
252,227,51162,1,2,0:0:0:0:
252,227,51312,2,0,L|350:212,1,100,2|10,1:2|0:0,0:0:0:0:
436,263,51912,6,0,L|450:164,1,100,2|10,1:2|0:0,0:0:0:0:
466,65,52512,2,0,P|419:42|357:61,1,100,2|10,1:2|0:0,0:0:0:0:
308,125,53112,2,0,L|209:139,1,100,2|10,1:2|0:0,0:0:0:0:
177,178,53562,1,2,1:2:0:0:
177,178,53712,2,0,L|78:163,1,100,2|10,1:2|0:2,0:0:0:0:
42,69,54312,6,0,P|75:40|148:50,1,100,6|8,1:2|0:2,0:0:0:0:
211,96,54912,2,0,L|260:88,1,50,2|2,1:2|0:0,0:0:0:0:
309,80,55212,1,10,0:2:0:0:
386,16,55512,2,0,P|408:63|403:117,1,100,2|8,1:2|0:0,0:0:0:0:
374,149,55962,1,0,1:0:0:0:
374,149,56112,2,0,P|371:198|393:243,1,100,0|8,1:0|0:0,0:0:0:0:
456,320,56712,6,0,B|411:345|411:345|359:333,1,100,2|8,1:2|0:0,0:0:0:0:
320,309,57162,1,2,0:0:0:0:
320,309,57312,2,0,L|200:327,1,100,2|10,1:2|0:0,0:0:0:0:
149,253,57912,1,2,1:2:0:0:
186,160,58212,2,0,L|284:145,2,100,10|2|10,0:0|1:2|0:0,0:0:0:0:
116,88,59112,6,0,P|60:95|31:181,1,150,6|2,1:2|0:0,0:0:0:0:
68,204,59712,2,0,L|53:302,1,100,2|10,1:2|0:0,0:0:0:0:
135,359,60312,2,0,P|181:365|229:338,1,100,2|10,1:2|0:2,0:0:0:0:
242,293,60762,1,2,0:2:0:0:
242,293,60912,2,0,P|284:268|333:274,1,100,2|10,1:2|0:0,0:0:0:0:
423,320,61512,6,0,P|432:287|416:214,1,100,2|10,1:2|0:0,0:0:0:0:
409,174,61962,1,2,0:0:0:0:
409,174,62112,2,0,L|310:188,1,100,2|10,1:2|0:2,0:0:0:0:
211,202,62712,6,0,L|234:43,1,150,2|2,1:2|0:2,0:0:0:0:
243,4,63312,2,0,P|298:22|321:75,2,100,0|8|4,1:0|0:0|0:0,0:0:0:0:
56,111,68712,5,4,1:2:0:0:
88,274,69312,1,4,1:2:0:0:
252,293,69912,1,4,1:2:0:0:
321,143,70512,1,4,1:2:0:0:
199,30,71112,6,0,P|187:82|180:133,1,100,4|0,1:2|1:2,0:0:0:0:
208,169,71562,1,0,0:0:0:0:
208,169,71712,2,0,P|158:176|109:187,1,100,0|0,1:2|1:2,0:0:0:0:
72,280,72312,6,0,B|108:312|108:312|163:297,1,100,12|8,0:0|0:0,0:0:0:0:
199,271,72762,1,8,0:0:0:0:
199,271,72912,2,0,L|317:290,1,100,4|0,1:2|1:0,0:0:0:0:
395,307,73512,6,0,L|367:139,1,150,6|0,1:2|1:0,0:0:0:0:
363,109,74112,2,0,P|333:84|266:90,1,100,2|10,1:2|0:0,0:0:0:0:
212,164,74712,2,0,L|113:179,1,100,2|10,1:2|0:0,0:0:0:0:
64,191,75162,1,2,1:2:0:0:
64,191,75312,2,0,P|39:161|45:94,1,100,2|10,1:2|0:0,0:0:0:0:
111,31,75912,6,0,L|209:15,1,100,2|10,1:2|0:0,0:0:0:0:
278,87,76512,2,0,L|327:94,1,50,2|2,1:2|1:2,0:0:0:0:
377,101,76812,1,10,0:0:0:0:
469,62,77112,2,0,P|476:120|453:165,1,100,2|8,1:2|0:0,0:0:0:0:
429,197,77562,1,0,0:0:0:0:
429,197,77712,2,0,L|330:181,1,100,0|10,1:0|0:0,0:0:0:0:
256,248,78312,6,0,L|157:264,1,100,6|10,1:2|0:0,0:0:0:0:
65,224,78912,2,0,P|44:192|60:123,1,100,2|10,1:2|0:0,0:0:0:0:
129,70,79512,2,0,L|228:86,1,100,2|10,1:2|0:0,0:0:0:0:
268,114,79962,1,2,1:2:0:0:
268,114,80112,2,0,L|367:98,1,100,2|10,1:2|0:2,0:0:0:0:
437,168,80712,6,0,L|421:267,1,100,2|10,1:2|0:0,0:0:0:0:
451,306,81162,1,2,0:0:0:0:
451,306,81312,2,0,L|352:322,1,100,2|10,1:2|0:0,0:0:0:0:
277,255,81912,2,0,P|236:252|187:347,1,150,2|0,1:2|1:0,0:0:0:0:
197,384,82512,2,0,L|98:368,1,100,2|10,1:2|0:0,0:0:0:0:
56,277,83112,5,6,1:2:0:0:
109,192,83412,2,0,L|158:200,1,50,8|0,0:0|0:0,0:0:0:0:
194,234,83712,2,0,P|243:241|294:212,1,100,2|10,1:2|0:0,0:0:0:0:
312,176,84162,1,2,0:0:0:0:
312,176,84312,2,0,L|296:77,1,100,2|10,1:2|0:0,0:0:0:0:
382,27,84912,1,2,1:2:0:0:
462,86,85212,2,0,L|454:135,1,50,10|2,0:2|0:0,0:0:0:0:
476,180,85512,6,0,P|444:193|407:248,1,100,2|10,1:2|0:2,0:0:0:0:
457,332,86112,2,0,L|506:324,2,50,2|2|10,1:2|1:2|0:0,0:0:0:0:
361,360,86712,2,0,L|258:343,1,100,2|8,1:2|0:0,0:0:0:0:
168,377,87312,2,0,L|151:274,1,100,0|10,1:0|0:0,0:0:0:0:
231,217,87912,6,0,B|257:178|257:178|247:123,1,100,6|10,1:2|0:0,0:0:0:0:
183,48,88512,1,2,1:2:0:0:
100,104,88812,2,0,L|50:111,1,50,10|2,0:0|0:0,0:0:0:0:
1,122,89112,2,0,P|15:161|25:223,1,100,2|10,1:2|0:0,0:0:0:0:
97,287,89712,2,0,P|136:273|198:263,1,100,2|10,1:2|0:0,0:0:0:0:
258,186,90312,6,0,P|297:200|359:210,1,100,2|10,1:2|0:2,0:0:0:0:
395,239,90762,1,0,0:0:0:0:
395,239,90912,2,0,P|402:189|418:142,1,100,2|10,1:2|0:2,0:0:0:0:
467,54,91512,2,0,P|415:41|333:91,1,150,2|0,1:2|0:0,0:0:0:0:
328,136,92112,2,0,P|280:119|231:112,1,100,0|10,1:2|0:2,0:0:0:0:
138,149,92712,6,0,L|124:34,1,100,6|10,1:2|0:2,0:0:0:0:
219,12,93312,2,0,L|231:111,1,100,2|10,1:2|0:0,0:0:0:0:
303,179,93912,2,0,L|296:228,1,50,2|2,1:2|0:0,0:0:0:0:
289,277,94212,1,10,0:0:0:0:
353,355,94512,2,0,L|452:342,1,100,2|10,1:2|0:0,0:0:0:0:
487,249,95112,6,0,L|387:236,1,100,2|10,1:2|0:0,0:0:0:0:
303,179,95712,2,0,L|203:191,1,100,2|10,1:2|0:2,0:0:0:0:
123,251,96312,1,2,1:2:0:0:
51,180,96612,2,0,L|57:130,1,50,10|2,0:0|0:0,0:0:0:0:
39,83,96912,2,0,B|84:54|84:54|141:70,1,100,2|10,1:2|0:0,0:0:0:0:
202,133,97512,6,0,L|301:120,1,100,6|10,1:2|0:0,0:0:0:0:
386,68,98112,2,0,P|400:107|389:167,1,100,2|10,1:2|0:0,0:0:0:0:
338,249,98712,2,0,L|238:236,1,100,2|10,1:2|0:0,0:0:0:0:
193,214,99162,1,2,0:0:0:0:
193,214,99312,2,0,L|205:313,1,100,2|10,1:2|0:0,0:0:0:0:
283,374,99912,6,0,P|340:381|389:349,1,100,2|10,1:2|0:0,0:0:0:0:
373,312,100362,1,2,0:0:0:0:
373,312,100512,2,0,L|472:324,2,100,2|10|10,1:2|0:2|0:2,0:0:0:0:
385,212,101412,5,10,0:2:0:0:
485,225,101712,1,10,0:0:0:0:
498,126,102012,1,0,1:0:0:0:
398,113,102312,6,0,P|343:120|296:136,1,100,6|8,1:2|0:0,0:0:0:0:
222,196,102912,2,0,P|203:163|203:129,1,50,2|2,1:2|1:2,0:0:0:0:
210,102,103212,1,10,0:0:0:0:
273,24,103512,2,0,P|226:14|175:3,1,100,2|8,1:2|0:0,0:0:0:0:
149,45,103962,1,0,1:0:0:0:
149,45,104112,2,0,P|102:55|51:65,1,100,0|8,1:0|0:0,0:0:0:0:
8,156,104712,6,0,P|18:204|29:253,1,100,2|8,1:2|0:0,0:0:0:0:
70,281,105162,1,2,1:2:0:0:
70,281,105312,2,0,P|118:270|167:259,1,100,2|10,1:2|0:0,0:0:0:0:
253,312,105912,1,2,1:2:0:0:
316,234,106212,2,0,P|364:244|413:255,2,100,10|2|10,0:0|1:2|0:0,0:0:0:0:
243,164,107112,6,0,P|227:121|304:67,1,150,6|2,1:2|1:2,0:0:0:0:
343,42,107712,2,0,P|353:90|364:139,1,100,2|10,1:2|0:0,0:0:0:0:
413,226,108312,2,0,P|364:236|315:247,1,100,2|10,1:2|0:2,0:0:0:0:
282,285,108762,1,2,1:2:0:0:
282,285,108912,2,0,P|233:274|184:263,1,100,2|10,1:2|0:0,0:0:0:0:
101,320,109512,6,0,B|77:277|77:277|94:226,1,100,2|10,1:2|0:0,0:0:0:0:
184,189,110112,2,0,B|200:140|200:140|176:97,1,100,2|10,1:2|0:2,0:0:0:0:
100,31,110712,2,0,P|148:20|197:9,1,100,2|10,1:2|0:0,0:0:0:0:
241,34,111162,1,2,1:2:0:0:
241,34,111312,2,0,P|289:44|338:55,1,100,2|10,1:2|0:0,0:0:0:0:
432,20,111912,6,0,P|439:57|414:119,1,100,6|8,1:2|0:2,0:0:0:0:
337,173,112512,2,0,L|278:162,1,50,2|2,1:2|1:2,0:0:0:0:
238,154,112812,1,10,0:2:0:0:
171,79,113112,2,0,P|134:72|72:97,1,100,2|8,1:2|0:0,0:0:0:0:
45,132,113562,1,0,1:0:0:0:
45,132,113712,2,0,L|63:230,1,100,0|8,1:2|0:0,0:0:0:0:
32,325,114312,6,0,P|82:330|133:303,1,100,2|8,1:2|0:0,0:0:0:0:
157,269,114762,1,2,1:2:0:0:
157,269,114912,2,0,P|201:248|251:253,1,100,2|10,1:2|0:0,0:0:0:0:
325,320,115512,1,2,1:2:0:0:
391,245,115812,2,0,L|489:263,2,100,10|2|10,0:0|1:2|0:2,0:0:0:0:
338,159,116712,6,0,P|277:143|217:210,1,150,6|2,1:2|1:2,0:0:0:0:
226,247,117312,2,0,L|127:228,1,100,2|10,1:2|0:2,0:0:0:0:
69,146,117912,2,0,P|52:92|90:44,1,100,2|10,1:2|0:2,0:0:0:0:
112,27,118362,1,2,0:2:0:0:
112,27,118512,2,0,L|210:45,1,100,2|10,1:2|0:0,0:0:0:0:
260,132,119112,6,0,L|358:113,1,100,2|10,1:2|0:0,0:0:0:0:
402,138,119562,1,2,1:2:0:0:
402,138,119712,2,0,L|383:236,2,100,2|10|2,1:2|0:2|1:2,0:0:0:0:
420,39,120612,1,10,0:2:0:0:
321,20,120912,1,2,1:2:0:0:
303,119,121212,1,8,0:2:0:0:
204,100,121512,6,0,L|106:81,1,100,6|10,1:2|0:2,0:0:0:0:
39,155,122112,2,0,P|34:195|45:226,1,50,2|0,1:2|0:0,0:0:0:0:
67,242,122412,2,0,P|113:258|162:243,1,100,10|2,0:0|1:2,0:0:0:0:
241,184,123012,1,10,0:2:0:0:
321,243,123312,2,0,P|312:288|305:358,1,100,2|10,1:2|0:0,0:0:0:0:
404,359,123912,6,0,P|413:314|420:244,1,100,2|10,1:2|0:2,0:0:0:0:
381,167,124512,1,2,1:2:0:0:
450,94,124812,2,0,P|452:69|457:44,1,50,10|2,0:2|0:0,0:0:0:0:
432,1,125112,2,0,P|386:10|317:17,1,100,2|10,1:2|0:2,0:0:0:0:
306,58,125562,1,0,0:0:0:0:
306,58,125712,2,0,P|260:49|191:42,1,100,2|10,1:2|0:2,0:0:0:0:
114,79,126312,6,0,P|108:128|98:177,1,100,6|10,1:2|0:0,0:0:0:0:
169,249,126912,2,0,P|193:244|218:241,1,50,2|0,1:2|0:0,0:0:0:0:
266,255,127212,2,0,P|315:249|364:239,1,100,10|2,0:2|1:2,0:0:0:0:
442,302,127812,1,10,0:0:0:0:
367,369,128112,2,0,P|317:374|268:384,1,100,2|10,1:2|0:2,0:0:0:0:
176,344,128712,6,0,P|170:294|160:245,1,100,2|10,1:2|0:2,0:0:0:0:
222,166,129312,1,2,1:2:0:0:
150,95,129612,2,0,P|125:92|100:87,1,50,10|0,0:0|0:0,0:0:0:0:
54,69,129912,2,0,P|63:118|69:167,1,100,2|10,1:2|0:2,0:0:0:0:
49,214,130362,1,2,1:2:0:0:
49,214,130512,2,0,P|98:219|147:229,1,100,2|10,1:2|0:2,0:0:0:0:
204,311,131112,6,0,P|282:295|362:286,1,150,6|2,1:2|0:0,0:0:0:0:
400,299,131712,2,0,B|424:260|424:260|407:202,1,100,2|10,1:2|0:2,0:0:0:0:
347,128,132312,2,0,P|297:137|248:143,1,100,2|10,1:2|0:2,0:0:0:0:
219,184,132762,1,2,1:2:0:0:
219,184,132912,2,0,P|169:174|120:168,1,100,2|10,1:2|0:2,0:0:0:0:
30,213,133512,6,0,P|19:158|43:105,1,100,2|10,1:2|0:0,0:0:0:0:
107,50,134112,2,0,P|156:59|205:65,1,100,2|10,1:2|0:0,0:0:0:0:
237,103,134562,1,2,0:0:0:0:
237,103,134712,2,0,P|286:93|335:87,1,100,2|10,1:2|0:0,0:0:0:0:
430,56,135312,2,0,P|420:105|414:154,1,100,2|10,1:2|0:2,0:0:0:0:
447,249,135912,6,0,P|397:239|348:233,1,100,6|10,1:2|0:0,0:0:0:0:
319,192,136362,1,2,1:2:0:0:
319,192,136512,2,0,P|269:201|220:207,1,100,2|10,1:2|0:0,0:0:0:0:
135,153,137112,2,0,P|125:202|119:251,1,100,2|10,1:2|0:0,0:0:0:0:
150,291,137562,1,2,1:2:0:0:
150,291,137712,2,0,P|199:296|248:306,1,100,2|10,1:2|0:2,0:0:0:0:
320,376,138312,6,0,P|369:366|418:360,1,100,2|10,1:2|0:0,0:0:0:0:
466,375,138762,1,2,1:2:0:0:
466,375,138912,2,0,P|456:325|450:276,1,100,2|10,1:2|0:0,0:0:0:0:
364,226,139512,6,0,P|358:176|348:127,1,100,14|10,0:0|0:2,0:0:0:0:
422,59,140112,1,2,0:0:0:0:
63,87,159912,6,0,L|170:72,1,100,6|8,1:2|0:0,0:0:0:0:
247,20,160512,2,0,L|296:26,1,50,2|2,1:2|1:2,0:0:0:0:
346,33,160812,1,10,0:0:0:0:
421,98,161112,2,0,P|442:135|415:190,1,100,2|8,1:2|0:0,0:0:0:0:
386,220,161562,1,0,1:0:0:0:
386,220,161712,2,0,L|279:205,1,100,0|8,1:0|0:0,0:0:0:0:
219,131,162312,6,0,L|119:144,1,100,2|8,1:2|0:0,0:0:0:0:
70,152,162762,1,2,0:0:0:0:
70,152,162912,2,0,P|49:189|76:244,1,100,2|10,1:2|0:0,0:0:0:0:
150,297,163512,1,2,1:2:0:0:
238,249,163812,2,0,L|337:262,2,100,10|2|10,0:0|1:2|0:0,0:0:0:0:
202,155,164712,6,0,P|197:94|285:74,1,150,6|2,1:2|0:0,0:0:0:0:
307,98,165312,2,0,L|406:84,1,100,2|10,1:2|0:0,0:0:0:0:
480,151,165912,2,0,L|442:243,1,100,2|10,1:2|0:2,0:0:0:0:
447,293,166362,1,2,1:2:0:0:
447,293,166512,2,0,P|405:301|350:265,1,100,2|10,1:2|0:0,0:0:0:0:
285,204,167112,6,0,B|241:182|241:182|189:208,1,100,2|10,1:2|0:0,0:0:0:0:
122,273,167712,2,0,B|78:295|78:295|26:269,1,100,2|10,1:2|0:2,0:0:0:0:
52,174,168312,2,0,P|51:132|40:65,1,100,2|10,1:2|0:0,0:0:0:0:
65,30,168762,1,2,1:2:0:0:
65,30,168912,2,0,P|114:28|164:20,1,100,2|10,1:2|0:2,0:0:0:0:
212,107,169512,6,0,P|261:108|311:116,1,100,6|8,1:2|0:2,0:0:0:0:
386,183,170112,2,0,P|388:218|378:242,1,50,2|2,1:2|1:2,0:0:0:0:
357,275,170412,1,10,0:2:0:0:
394,367,170712,2,0,P|441:350|490:340,1,100,2|8,1:2|0:0,0:0:0:0:
503,291,171162,1,0,1:0:0:0:
503,291,171312,2,0,P|486:243|476:194,1,100,0|8,1:2|0:2,0:0:0:0:
486,95,171912,6,0,P|443:59|390:76,1,100,2|8,1:2|0:0,0:0:0:0:
361,93,172362,1,2,0:0:0:0:
361,93,172512,2,0,L|250:77,1,100,2|10,1:2|0:0,0:0:0:0:
180,137,173112,1,2,1:2:0:0:
92,88,173412,2,0,P|76:51|95:-2,2,100,10|2|10,0:2|1:2|0:2,0:0:0:0:
180,137,174312,6,0,P|225:184|173:241,1,150,6|2,1:2|0:0,0:0:0:0:
129,236,174912,2,0,L|30:221,1,100,2|10,1:2|0:0,0:0:0:0:
54,318,175512,2,0,L|152:332,1,100,2|10,1:2|0:2,0:0:0:0:
202,339,175962,1,2,0:2:0:0:
202,339,176112,2,0,B|233:303|233:303|217:250,1,100,2|10,1:2|0:0,0:0:0:0:
171,163,176712,6,0,L|269:148,1,100,2|10,1:2|0:0,0:0:0:0:
311,177,177162,1,2,0:0:0:0:
311,177,177312,2,0,L|325:78,1,100,2|10,1:2|0:0,0:0:0:0:
424,64,177912,2,0,L|409:162,1,100,2|8,1:2|0:0,0:0:0:0:
468,243,178512,1,0,1:2:0:0:
410,324,178812,2,0,L|360:331,1,50,10|2,0:2|1:2,0:0:0:0:
319,360,179112,6,0,L|220:345,1,100,6|10,1:2|0:0,0:0:0:0:
173,364,179562,1,2,0:0:0:0:
173,364,179712,2,0,P|138:328|143:268,1,100,2|10,1:2|0:0,0:0:0:0:
205,207,180312,2,0,L|219:108,1,100,2|8,1:2|0:0,0:0:0:0:
148,37,180912,1,0,1:0:0:0:
67,96,181212,2,0,L|17:103,2,50,10|0|4,0:0|0:0|1:2,0:0:0:0:
136,226,182112,5,4,1:2:0:0:
236,106,182712,6,0,P|286:90|352:158,1,150,6|0,1:2|1:0,0:0:0:0:
355,200,183312,2,0,P|309:214|258:243,1,100,0|8,1:0|0:0,0:0:0:0:
211,324,183912,1,6,1:2:0:0:
118,286,184212,2,0,P|111:258|115:227,1,50,8|0,0:0|1:0,0:0:0:0:
134,192,184512,2,0,P|85:190|29:175,1,100,2|8,1:2|0:2,0:0:0:0:
8,81,185112,6,0,L|166:57,1,150,6|0,1:2|1:0,0:0:0:0:
205,49,185712,2,0,P|233:82|230:139,1,100,0|8,1:0|0:2,0:0:0:0:
216,184,186162,1,2,0:0:0:0:
216,184,186312,2,0,P|264:171|314:170,1,100,6|8,1:2|0:0,0:0:0:0:
326,269,186912,2,0,P|277:281|227:282,1,100,2|10,1:2|0:0,0:0:0:0:
137,240,187512,5,6,1:2:0:0:
46,282,187812,2,0,P|47:331|59:380,2,100,8|0|8,0:2|1:0|0:0,0:0:0:0:
86,190,188712,1,4,0:0:0:0:
