osu file format v14

[General]
AudioFilename: audio.mp3
AudioLeadIn: 0
PreviewTime: 44308
Countdown: 0
SampleSet: Soft
StackLeniency: 0.7
Mode: 0
LetterboxInBreaks: 0
WidescreenStoryboard: 1

[Editor]
Bookmarks: 1558,41458,46258,75358,76708,81658,86758,105283,115633,118408,118858,164008
DistanceSpacing: 1.2
BeatDivisor: 4
GridSize: 32
TimelineZoom: 1.6

[Metadata]
Title:My Little Hero
TitleUnicode:My Little Hero
Artist:a_hisa
ArtistUnicode:a_hisa
Creator:_Epreus
Version:Hard
Source:
Tags:electronic instrumental chiptune Single Collection ahisa
BeatmapID:2313822
BeatmapSetID:1105378

[Difficulty]
HPDrainRate:4
CircleSize:3.8
OverallDifficulty:7
ApproachRate:8
SliderMultiplier:1.4
SliderTickRate:1

[Events]
//Background and Video events
0,0,"sky-3054732_1920.jpg",0,0
//Break Periods
2,64112,67962
2,140712,159162
//Storyboard Layer 0 (Background)
//Storyboard Layer 1 (Fail)
//Storyboard Layer 2 (Pass)
//Storyboard Layer 3 (Foreground)
//Storyboard Layer 4 (Overlay)
//Storyboard Sound Samples

[TimingPoints]
312,300,4,2,3,45,1,0
7512,-100,4,2,3,45,0,0
8112,-100,4,2,3,45,0,0
9912,-90.9090909090909,4,2,3,45,0,0
15462,-100,4,2,3,45,0,0
15912,-100,4,2,3,45,0,0
35112,-100,4,2,3,55,0,0
35337,-100,4,2,3,5,0,0
35412,-100,4,2,3,55,0,0
35937,-100,4,2,3,5,0,0
36012,-100,4,2,3,55,0,0
37737,-100,4,2,3,5,0,0
37812,-100,4,2,3,55,0,0
38337,-100,4,2,3,5,0,0
38412,-100,4,2,3,55,0,0
40137,-100,4,2,3,5,0,0
40212,-100,4,2,3,55,0,0
40737,-100,4,2,3,5,0,0
40812,-100,4,2,3,55,0,0
42537,-100,4,2,3,5,0,0
42612,-100,4,2,3,55,0,0
43137,-100,4,2,3,5,0,0
43212,-100,4,2,3,55,0,0
44712,-86.9565217391304,4,2,3,65,0,1
63912,-100,4,2,3,65,0,0
68712,-100,4,2,3,55,0,0
70512,-100,4,2,3,55,0,0
72312,-100,4,2,3,55,0,0
72612,-100,4,2,3,55,0,0
73512,-100,4,2,3,50,0,0
92712,-100,4,2,3,55,0,0
92937,-100,4,2,3,5,0,0
93012,-100,4,2,3,55,0,0
93537,-100,4,2,3,5,0,0
93612,-100,4,2,3,55,0,0
95337,-100,4,2,3,5,0,0
95412,-100,4,2,3,55,0,0
95937,-100,4,2,3,5,0,0
96012,-100,4,2,3,55,0,0
97737,-100,4,2,3,5,0,0
97812,-100,4,2,3,55,0,0
98337,-100,4,2,3,5,0,0
98412,-100,4,2,3,55,0,0
99537,-100,4,2,3,5,0,0
99612,-100,4,2,3,55,0,0
100137,-100,4,2,3,5,0,0
100212,-100,4,2,3,55,0,0
100737,-100,4,2,3,5,0,0
100812,-100,4,2,3,55,0,0
102312,-86.9565217391304,4,2,3,65,0,1
121512,-95.2380952380952,4,2,3,55,0,0
159912,-86.9565217391304,4,2,3,65,0,1
181512,-100,4,2,3,65,0,0
182712,-90.9090909090909,4,2,3,65,0,1
189012,-100,4,2,3,65,0,0

[Colours]
Combo1 : 128,0,255
Combo2 : 255,128,192
Combo3 : 255,128,255
Combo4 : 128,255,255
Combo5 : 128,128,255

[HitObjects]
48,352,7512,6,0,B|58:267|58:267|30:232|30:232|40:152,1,210,4|0,1:2|0:0,0:0:0:0:
120,126,8112,2,0,B|110:205|110:205|138:241|138:241|127:325,1,210,4|0,1:2|0:0,0:0:0:0:
206,298,8712,6,0,L|286:308,1,70,8|0,0:0|0:0,0:0:0:0:
322,236,9012,2,0,L|252:227,1,70,8|0,0:0|0:0,0:0:0:0:
169,217,9312,2,0,L|151:78,1,140,8|8,0:0|0:0,0:0:0:0:
223,34,9762,1,8,0:0:0:0:
223,34,9837,1,8,0:0:0:0:
223,34,9912,6,0,P|261:35|296:60,1,77.0000023498536,4|0,1:2|0:0,0:0:0:0:
382,32,10212,1,8,0:0:0:0:
442,102,10362,1,0,0:2:0:0:
442,102,10437,1,0,0:0:0:0:
442,102,10512,2,0,P|430:138|423:179,1,77.0000023498536,0|0,1:0|1:0,0:0:0:0:
337,210,10812,2,0,P|330:172|318:135,1,77.0000023498536,8|0,0:0|0:0,0:0:0:0:
286,289,11112,6,0,P|323:255|426:265,2,154.000004699707,0|8|0,1:0|0:0|1:0,0:0:0:0:
216,349,11862,1,0,1:0:0:0:
158,276,12012,2,0,P|120:269|83:257,1,77.0000023498536,8|0,0:0|0:2,0:0:0:0:
45,341,12312,6,0,P|31:265|7:192,1,154.000004699707,4|8,1:2|0:0,0:0:0:0:
58,114,12762,1,0,0:0:0:0:
58,114,12837,1,0,0:0:0:0:
58,114,12912,2,0,P|94:126|132:132,1,77.0000023498536,0|0,1:0|1:0,0:0:0:0:
198,198,13212,2,0,P|160:204|123:216,1,77.0000023498536,8|0,0:0|0:0,0:0:0:0:
220,97,13512,6,0,P|284:88|312:176,1,154.000004699707,0|8,1:0|0:0,0:0:0:0:
308,251,13962,1,0,1:0:0:0:
308,251,14037,1,8,0:0:0:0:
308,251,14112,2,0,P|344:238|382:232,1,77.0000023498536,0|0,1:0|1:0,0:0:0:0:
426,150,14412,2,0,P|413:113|407:75,2,77.0000023498536,8|0|12,0:0|1:0|0:2,0:0:0:0:
426,150,15912,6,0,L|279:136,1,140,6|8,1:2|0:0,0:0:0:0:
209,170,16362,1,0,1:0:0:0:
148,111,16512,2,0,P|153:72|163:17,1,70,2|0,1:2|1:0,0:0:0:0:
73,33,16812,2,0,P|68:72|58:127,1,70,10|2,0:0|1:2,0:0:0:0:
0,158,17112,6,0,P|41:146|78:237,1,140,2|10,1:2|0:0,0:0:0:0:
47,289,17562,1,2,1:2:0:0:
107,347,17712,2,0,P|165:337|224:329,1,105,2|0,1:2|0:0,0:0:0:0:
252,341,18012,2,0,P|257:302|267:247,1,70,10|2,0:0|1:2,0:0:0:0:
232,193,18312,6,0,P|186:173|176:68,2,140,2|10|2,1:2|0:2|1:2,0:0:0:0:
308,157,19062,1,2,1:2:0:0:
369,213,19212,2,0,P|408:218|463:228,1,70,10|0,0:2|0:0,0:0:0:0:
483,152,19512,6,0,P|490:92|505:8,1,140,2|8,1:2|0:0,0:0:0:0:
422,32,19962,1,0,0:0:0:0:
339,15,20112,2,0,P|344:49|349:84,1,70,0|0,1:0|1:0,0:0:0:0:
298,151,20412,2,0,P|263:156|228:161,1,70,10|2,0:0|1:2,0:0:0:0:
165,41,20712,6,0,B|189:116|121:100|147:178,1,140,6|10,1:2|0:0,0:0:0:0:
195,241,21162,1,0,1:0:0:0:
129,294,21312,2,0,P|94:288|59:283,1,70,2|0,1:2|1:0,0:0:0:0:
178,362,21612,2,0,P|212:357|247:351,1,70,10|0,0:0|0:0,0:0:0:0:
295,283,21912,6,0,P|359:263|415:301,1,140,2|10,1:2|0:0,0:0:0:0:
491,265,22362,1,2,0:0:0:0:
478,181,22512,2,0,P|472:146|467:111,1,70,2|0,1:2|1:0,0:0:0:0:
396,67,22812,2,0,P|361:72|326:77,1,70,10|2,0:0|1:2,0:0:0:0:
222,146,23112,6,0,P|289:143|333:195,1,140,2|10,1:2|0:0,0:0:0:0:
289,266,23562,1,2,1:2:0:0:
297,349,23712,2,0,P|231:338|165:329,1,105,2|0,1:2|0:0,0:0:0:0:
150,337,24012,2,0,P|144:302|139:267,1,70,10|0,0:0|1:0,0:0:0:0:
216,233,24312,6,0,P|146:223|77:211,1,140,2|8,1:2|0:0,0:0:0:0:
42,135,24762,1,0,1:0:0:0:
90,66,24912,1,0,1:0:0:0:
90,66,24987,1,8,0:0:0:0:
90,66,25062,2,0,P|125:60|160:55,1,70,0|8,1:0|0:0,0:0:0:0:
228,104,25362,1,0,0:0:0:0:
311,3,25512,6,0,B|299:66|299:66|312:84|312:84|298:163,1,140,6|8,1:2|0:0,0:0:0:0:
252,203,25962,1,0,0:0:0:0:
310,263,26112,2,0,P|344:257|379:252,1,70,2|0,1:2|1:0,0:0:0:0:
393,334,26412,2,0,P|358:339|323:344,1,70,10|2,0:0|0:0,0:0:0:0:
246,379,26712,6,0,P|202:327|134:329,1,140,2|10,1:2|0:0,0:0:0:0:
55,356,27162,1,2,0:0:0:0:
3,289,27312,2,0,P|12:234|20:179,1,105,2|0,1:2|0:0,0:0:0:0:
10,144,27612,2,0,P|44:139|79:133,1,70,10|2,0:0|1:2,0:0:0:0:
147,181,27912,6,0,P|181:134|274:134,2,140,2|10|2,1:2|0:0|1:2,0:0:0:0:
187,254,28662,1,2,1:2:0:0:
187,254,28737,1,2,0:2:0:0:
187,254,28812,2,0,P|221:259|256:265,1,70,10|2,0:2|0:0,0:0:0:0:
323,314,29112,6,0,P|333:246|345:176,1,140,2|8,1:2|0:0,0:0:0:0:
410,122,29562,1,0,0:0:0:0:
370,47,29712,2,0,P|336:42|301:36,1,70,0|0,1:0|1:0,0:0:0:0:
238,92,30012,2,0,P|203:86|168:80,1,70,10|2,0:0|0:0,0:0:0:0:
111,199,30312,6,0,B|129:122|62:143|83:63,2,140,6|10|2,1:2|0:0|1:2,0:0:0:0:
62,268,31062,1,0,1:0:0:0:
101,342,31212,2,0,P|145:332|193:326,1,70,10|2,0:0|0:0,0:0:0:0:
253,333,31512,6,0,P|266:285|278:254,1,70,2|0,1:2|0:0,0:0:0:0:
211,209,31812,2,0,P|198:161|186:130,1,70,10|0,0:0|0:0,0:0:0:0:
253,85,32112,2,0,P|328:81|369:143,1,140,2|10,1:2|0:0,0:0:0:0:
345,208,32562,1,0,0:0:0:0:
406,265,32712,6,0,P|452:252|490:243,1,70,2|0,1:2|0:0,0:0:0:0:
366,346,33012,2,0,P|314:336|213:323,1,140,10|2,0:0|1:2,0:0:0:0:
150,359,33462,1,2,0:0:0:0:
82,308,33612,2,0,P|73:274|63:240,1,70,10|2,0:0|0:0,0:0:0:0:
113,172,33912,6,0,P|170:168|193:255,2,140,2|8|0,1:2|0:0|1:0,0:0:0:0:
79,94,34662,1,0,0:0:0:0:
137,34,34812,2,0,P|171:40|206:45,1,70,10|2,0:2|0:2,0:0:0:0:
277,89,35112,6,0,P|323:73|428:62,1,140,6|10,1:2|0:0,0:0:0:0:
467,126,35562,1,0,0:0:0:0:
443,206,35712,2,0,P|397:222|292:233,1,140,2|10,1:2|0:0,0:0:0:0:
146,183,36312,6,0,P|137:221|135:256,1,70,2|2,1:2|0:2,0:0:0:0:
217,266,36612,2,0,P|226:228|228:193,1,70,10|2,0:2|0:2,0:0:0:0:
202,117,36912,1,2,1:2:0:0:
341,23,37212,2,0,P|379:32|414:34,1,70,10|2,0:2|0:2,0:0:0:0:
467,95,37512,6,0,P|420:114|409:198,1,140,2|10,1:2|0:0,0:0:0:0:
465,256,37962,1,0,0:0:0:0:
416,324,38112,2,0,B|341:343|365:265|256:298,1,140,2|10,1:2|0:0,0:0:0:0:
217,339,38562,1,2,0:0:0:0:
163,274,38712,6,0,P|129:282|86:286,1,70,2|2,1:2|0:2,0:0:0:0:
80,202,39012,2,0,P|114:194|157:190,1,70,10|2,0:2|0:2,0:0:0:0:
227,219,39312,1,2,1:2:0:0:
289,63,39612,2,0,P|323:71|366:75,1,70,10|0,0:2|0:0,0:0:0:0:
417,134,39912,6,0,P|403:175|386:287,1,140,6|10,1:2|0:0,0:0:0:0:
309,304,40362,1,0,0:0:0:0:
254,240,40512,2,0,P|268:199|285:87,1,140,2|10,1:2|0:0,0:0:0:0:
117,87,41112,6,0,P|79:86|37:76,1,70,2|2,1:2|0:2,0:0:0:0:
40,163,41412,2,0,P|78:164|120:174,1,70,10|2,0:2|0:2,0:0:0:0:
171,227,41712,2,0,P|185:281|194:372,1,140,2|10,1:2|0:2,0:0:0:0:
270,328,42162,1,2,0:0:0:0:
348,358,42312,6,0,P|396:335|404:247,1,140,2|10,1:2|0:0,0:0:0:0:
354,189,42762,1,2,0:0:0:0:
391,114,42912,2,0,P|425:118|467:119,1,70,2|0,1:2|0:0,0:0:0:0:
464,35,43212,2,0,P|429:30|394:29,1,70,10|2,0:2|1:2,0:0:0:0:
326,77,43512,6,0,P|291:72|256:71,1,70,10|2,0:2|1:2,0:0:0:0:
197,130,43812,2,0,P|162:135|127:136,1,70,10|2,0:2|1:2,0:0:0:0:
52,98,44112,1,2,1:2:0:0:
52,98,44187,1,8,0:0:0:0:
52,98,44262,2,0,P|47:63|46:28,2,70,10|10|2,0:0|0:0|1:2,0:0:0:0:
22,217,44712,6,0,P|95:203|162:290,1,161.000003070831,6|8,1:2|0:0,0:0:0:0:
211,335,45162,1,2,0:0:0:0:
211,335,45237,1,2,0:0:0:0:
211,335,45312,2,0,P|250:340|290:348,1,80.5000015354157,2|2,1:2|1:2,0:0:0:0:
332,261,45612,2,0,P|387:271|443:276,1,80.5000015354157,10|2,0:0|1:2,0:0:0:0:
487,334,45912,6,0,B|516:282|516:282|492:210,1,120.750002303124,2|0,1:2|0:0,0:0:0:0:
506,176,46212,2,0,P|466:170|426:162,1,80.5000015354157,8|0,0:0|0:0,0:0:0:0:
333,185,46512,2,0,P|324:118|306:13,1,161.000003070831,0|8,1:0|0:0,0:0:0:0:
224,73,46962,1,2,0:0:0:0:
224,73,47037,1,0,0:0:0:0:
224,73,47112,6,0,P|164:61|104:53,1,120.750002303124,2|0,1:2|0:0,0:0:0:0:
64,28,47412,2,0,P|55:67|50:107,1,80.5000015354157,8|2,0:0|0:0,0:0:0:0:
81,144,47637,1,2,0:0:0:0:
81,144,47712,2,0,P|41:148|1:158,1,80.5000015354157,2|2,1:2|1:2,0:0:0:0:
20,253,48012,2,0,P|59:248|99:238,1,80.5000015354157,10|2,0:0|0:0,0:0:0:0:
182,189,48312,6,0,P|233:201|252:308,1,161.000003070831,2|10,1:2|0:0,0:0:0:0:
329,361,48762,1,0,1:0:0:0:
400,296,48912,2,0,P|439:291|479:281,1,80.5000015354157,2|0,1:2|1:2,0:0:0:0:
467,186,49212,2,0,P|427:190|387:200,1,80.5000015354157,10|0,0:0|0:0,0:0:0:0:
301,243,49512,6,0,P|293:163|273:83,1,161.000003070831,6|8,1:2|0:0,0:0:0:0:
183,49,49962,1,2,0:0:0:0:
115,118,50112,2,0,P|74:122|35:131,1,80.5000015354157,2|0,1:2|0:0,0:0:0:0:
2,223,50412,2,0,P|11:262|15:302,1,80.5000015354157,10|2,0:0|0:0,0:0:0:0:
88,366,50712,6,0,P|127:356|167:352,1,80.5000015354157,2|2,1:2|0:0,0:0:0:0:
203,319,50937,1,2,0:0:0:0:
203,319,51012,2,0,P|242:328|282:332,1,80.5000015354157,10|2,0:0|0:0,0:0:0:0:
369,374,51312,2,0,B|412:343|412:343|399:268,1,120.750002303124,2|0,1:2|0:0,0:0:0:0:
391,228,51612,2,0,P|351:237|311:241,1,80.5000015354157,10|0,0:0|0:0,0:0:0:0:
195,146,51912,6,0,P|234:154|274:158,1,80.5000015354157,2|0,1:2|0:0,0:0:0:0:
347,95,52212,2,0,P|386:87|471:165,2,161.000003070831,10|2|10,0:0|1:2|0:0,0:0:0:0:
272,32,52962,1,0,0:0:0:0:
197,93,53112,6,0,P|156:97|117:105,1,80.5000015354157,2|0,1:2|0:0,0:0:0:0:
274,158,53412,1,10,0:0:0:0:
200,221,53562,1,2,1:2:0:0:
200,221,53637,1,10,0:0:0:0:
200,221,53712,2,0,P|191:260|187:300,1,80.5000015354157,2|2,1:2|1:2,0:0:0:0:
91,283,54012,2,0,P|100:244|104:204,1,80.5000015354157,10|2,0:2|1:2,0:0:0:0:
36,78,54312,6,0,P|81:114|201:92,1,161.000003070831,6|8,1:2|0:2,0:0:0:0:
258,50,54762,1,2,0:0:0:0:
258,50,54837,1,2,0:0:0:0:
258,50,54912,2,0,P|297:59|337:63,1,80.5000015354157,2|2,1:2|0:0,0:0:0:0:
373,152,55212,2,0,P|332:155|293:165,1,80.5000015354157,10|2,0:2|0:2,0:0:0:0:
220,227,55512,6,0,P|233:285|239:345,1,120.750002303124,2|0,1:2|0:0,0:0:0:0:
279,373,55812,2,0,P|318:363|358:359,1,80.5000015354157,8|0,0:0|1:0,0:0:0:0:
452,337,56112,2,0,B|474:249|406:282|426:168,1,161.000003070831,0|8,1:0|0:0,0:0:0:0:
471,99,56562,1,2,0:0:0:0:
471,99,56637,1,2,0:0:0:0:
471,99,56712,6,0,P|412:85|352:79,1,120.750002303124,2|0,1:2|0:0,0:0:0:0:
326,38,57012,2,0,P|273:50|219:55,1,80.5000015354157,8|2,0:0|0:0,0:0:0:0:
215,90,57237,1,2,0:0:0:0:
215,90,57312,2,0,P|227:142|232:196,1,80.5000015354157,2|2,1:2|1:2,0:0:0:0:
302,233,57612,2,0,P|307:193|317:154,1,80.5000015354157,10|2,0:0|0:0,0:0:0:0:
383,266,57912,6,0,P|305:252|237:292,1,161.000003070831,2|10,1:2|0:0,0:0:0:0:
170,361,58362,1,0,1:0:0:0:
107,287,58512,2,0,P|112:247|122:208,1,80.5000015354157,2|0,1:2|1:0,0:0:0:0:
42,153,58812,2,0,P|36:113|26:74,1,80.5000015354157,10|0,0:0|0:0,0:0:0:0:
113,30,59112,6,0,B|197:12|180:82|268:65,1,161.000003070831,6|8,1:2|0:0,0:0:0:0:
353,30,59562,1,2,0:0:0:0:
427,91,59712,2,0,P|417:130|411:169,1,80.5000015354157,2|0,1:2|0:0,0:0:0:0:
339,234,60012,2,0,P|299:224|260:218,1,80.5000015354157,10|2,0:0|0:0,0:0:0:0:
209,301,60312,6,0,P|169:295|130:285,1,80.5000015354157,2|2,1:2|0:0,0:0:0:0:
90,313,60537,1,2,0:0:0:0:
90,313,60612,2,0,P|80:273|74:234,1,80.5000015354157,10|2,0:2|0:2,0:0:0:0:
132,157,60912,2,0,B|172:127|172:127|269:148,1,120.750002303124,2|0,1:2|0:0,0:0:0:0:
287,158,61212,2,0,P|292:118|302:79,1,80.5000015354157,10|2,0:0|0:0,0:0:0:0:
223,23,61512,6,0,B|138:16|138:16|76:80,1,161.000003070831,2|10,1:2|0:0,0:0:0:0:
132,157,61962,1,2,0:0:0:0:
79,237,62112,2,0,P|39:227|0:221,1,80.5000015354157,2|0,1:2|0:0,0:0:0:0:
125,323,62412,2,0,P|164:313|203:307,1,80.5000015354157,10|2,0:2|0:2,0:0:0:0:
280,248,62712,6,0,P|316:314|397:313,1,161.000003070831,2|10,1:2|0:2,0:0:0:0:
437,226,63162,1,2,0:2:0:0:
437,226,63237,1,2,0:2:0:0:
437,226,63312,2,0,P|398:232|359:242,1,80.5000015354157,0|0,1:0|0:0,0:0:0:0:
337,147,63612,2,0,P|376:141|415:131,2,80.5000015354157,8|0|4,0:0|1:0|0:0,0:0:0:0:
48,192,68712,6,0,B|100:153|94:87|94:87|106:144|170:159,1,210,4|0,1:2|0:0,0:0:0:0:
233,163,69312,2,0,B|307:153|307:153|334:117|334:117|427:103,1,210,4|0,1:2|0:0,0:0:0:0:
506,93,69912,6,0,P|491:147|476:232,1,140,4|0,1:2|0:0,0:0:0:0:
321,296,70512,2,0,P|309:226|291:159,1,140,4|0,1:2|0:0,0:0:0:0:
151,66,71112,6,0,B|111:107|111:107|136:197,1,140,4|0,1:2|1:2,0:0:0:0:
183,254,71562,1,0,0:0:0:0:
260,220,71712,2,0,P|293:212|358:209,1,70,0|0,1:2|0:0,0:0:0:0:
313,125,72012,2,0,P|280:133|215:136,1,70,0|0,1:2|0:0,0:0:0:0:
180,80,72312,6,0,P|127:67|23:62,2,140,12|8|4,0:0|0:0|1:2,0:0:0:0:
150,158,73062,1,0,0:0:0:0:
150,158,73137,1,8,0:0:0:0:
150,158,73212,2,0,P|142:191|139:256,1,70,0|0,1:0|1:0,0:0:0:0:
237,147,73512,6,0,B|295:141|295:141|316:157|316:157|377:149,1,140,6|8,1:2|0:0,0:0:0:0:
438,200,73962,1,0,1:0:0:0:
395,272,74112,2,0,P|387:309|379:368,1,70,2|0,1:2|0:0,0:0:0:0:
300,321,74412,2,0,P|306:286|312:252,1,70,10|2,0:0|0:0,0:0:0:0:
231,228,74712,6,0,P|172:233|151:307,1,140,2|10,1:2|0:0,0:0:0:0:
74,341,75162,1,2,1:2:0:0:
5,247,75312,2,0,P|39:253|73:259,1,70,2|0,1:2|1:0,0:0:0:0:
112,184,75612,2,0,P|77:178|43:171,1,70,10|2,0:0|1:2,0:0:0:0:
182,244,75912,6,0,P|194:164|210:85,1,140,2|10,1:2|0:0,0:0:0:0:
154,39,76362,1,0,0:0:0:0:
85,88,76512,2,0,P|50:93|16:100,2,70,2|2|10,1:2|1:2|0:0,0:0:0:0:
248,46,77112,6,0,B|323:27|310:91|389:73,1,140,2|8,1:2|0:0,0:0:0:0:
448,123,77562,1,0,0:0:0:0:
417,201,77712,2,0,P|382:206|348:213,1,70,0|0,1:0|1:0,0:0:0:0:
316,184,77937,1,0,0:0:0:0:
316,184,78012,2,0,P|281:178|247:171,1,70,10|2,0:0|1:2,0:0:0:0:
191,234,78312,6,0,P|156:240|122:247,1,70,6|0,1:2|0:0,0:0:0:0:
71,313,78612,2,0,P|21:283|29:187,2,140,10|2|10,0:0|1:2|0:0,0:0:0:0:
141,360,79362,1,0,0:0:0:0:
215,320,79512,6,0,P|277:330|337:343,1,105,2|0,1:2|0:0,0:0:0:0:
357,354,79812,2,0,P|363:319|370:285,1,70,10|2,0:0|1:2,0:0:0:0:
444,245,80112,2,0,B|469:168|395:189|417:102,1,140,2|10,1:2|0:2,0:0:0:0:
470,52,80562,1,2,1:2:0:0:
399,6,80712,6,0,P|329:20|260:32,1,140,2|10,1:2|0:0,0:0:0:0:
214,101,81162,1,2,0:0:0:0:
265,167,81312,2,0,P|257:201|252:235,1,70,2|0,1:2|0:0,0:0:0:0:
176,273,81612,2,0,P|170:238|163:204,1,70,10|0,0:0|0:0,0:0:0:0:
82,178,81912,6,0,P|38:153|38:56,1,140,2|8,1:2|0:0,0:0:0:0:
100,25,82362,1,0,1:0:0:0:
168,73,82512,2,0,P|202:67|236:60,1,70,2|2,1:2|0:0,0:0:0:0:
268,88,82737,1,2,0:0:0:0:
268,88,82812,2,0,P|302:93|336:100,1,70,10|2,0:0|1:2,0:0:0:0:
448,34,83112,6,0,P|433:102|422:171,1,140,6|8,1:2|0:0,0:0:0:0:
478,233,83562,1,0,0:0:0:0:
441,308,83712,2,0,P|391:297|341:290,1,70,2|0,1:2|0:0,0:0:0:0:
292,320,84012,2,0,P|287:286|280:252,1,70,10|2,0:0|0:0,0:0:0:0:
298,168,84312,6,0,P|229:181|160:191,1,140,2|10,1:2|0:0,0:0:0:0:
98,249,84762,1,2,0:0:0:0:
39,188,84912,2,0,P|34:154|27:120,1,70,2|0,1:2|0:0,0:0:0:0:
82,55,85212,2,0,P|116:50|150:43,1,70,10|2,0:2|0:0,0:0:0:0:
215,97,85512,6,0,P|269:104|323:116,1,105,2|0,1:2|0:0,0:0:0:0:
359,102,85812,2,0,P|364:136|371:170,1,70,10|0,0:2|0:0,0:0:0:0:
437,223,86112,1,2,1:2:0:0:
384,288,86262,1,2,1:2:0:0:
384,288,86337,1,2,0:0:0:0:
384,288,86412,2,0,P|349:293|315:300,1,70,10|2,0:0|1:2,0:0:0:0:
250,355,86712,6,0,P|239:285|225:217,1,140,2|8,1:2|0:0,0:0:0:0:
270,145,87162,1,0,0:0:0:0:
338,193,87312,2,0,P|372:185|406:180,1,70,0|0,1:0|0:0,0:0:0:0:
437,102,87612,2,0,P|402:96|368:89,1,70,10|2,0:0|1:2,0:0:0:0:
270,145,87912,6,0,P|236:117|141:122,1,140,6|10,1:2|0:0,0:0:0:0:
86,180,88362,1,0,0:0:0:0:
118,257,88512,2,0,B|146:303|146:303|116:366,1,105,2|0,1:2|0:0,0:0:0:0:
91,375,88812,2,0,P|56:367|22:362,1,70,10|2,0:0|0:0,0:0:0:0:
25,277,89112,6,0,P|16:225|6:173,1,105,2|0,1:2|0:0,0:0:0:0:
27,137,89412,2,0,P|62:145|96:150,1,70,10|0,0:0|0:0,0:0:0:0:
179,163,89712,2,0,P|171:198|166:232,1,70,2|0,1:2|1:0,0:0:0:0:
249,245,90012,2,0,P|257:210|262:176,1,70,10|0,0:0|0:0,0:0:0:0:
239,95,90312,6,0,P|265:63|372:72,1,140,2|10,1:2|0:2,0:0:0:0:
417,120,90762,1,0,0:0:0:0:
401,202,90912,2,0,P|366:207|332:214,1,70,2|2,1:2|1:2,0:0:0:0:
294,290,91212,2,0,P|259:282|225:277,1,70,10|2,0:2|1:2,0:0:0:0:
335,362,91512,6,0,P|372:336|484:335,2,140,2|8|0,1:2|0:0|1:2,0:0:0:0:
294,290,92262,1,0,0:0:0:0:
215,319,92412,2,0,P|209:284|202:250,1,70,10|2,0:2|0:0,0:0:0:0:
162,176,92712,6,0,B|221:142|221:142|291:165,1,140,6|10,1:2|0:2,0:0:0:0:
322,242,93162,1,0,0:0:0:0:
354,319,93312,2,0,B|422:341|422:341|481:307,1,140,2|10,1:2|0:0,0:0:0:0:
447,142,93912,6,0,P|453:107|460:73,1,70,2|2,1:2|0:0,0:0:0:0:
377,58,94212,2,0,P|371:93|364:127,1,70,10|2,0:0|0:0,0:0:0:0:
281,110,94512,1,2,1:2:0:0:
135,27,94812,2,0,P|100:34|66:39,1,70,10|2,0:0|0:0,0:0:0:0:
15,106,95112,6,0,P|29:174|41:244,1,140,2|10,1:2|0:0,0:0:0:0:
117,278,95562,1,0,0:0:0:0:
187,232,95712,2,0,P|221:239|255:244,1,70,2|0,1:2|0:0,0:0:0:0:
320,298,96012,2,0,P|354:290|388:285,1,70,10|2,0:2|0:0,0:0:0:0:
439,218,96312,6,0,B|461:167|461:167|436:109,1,105,2|0,1:2|0:0,0:0:0:0:
456,82,96612,2,0,P|421:76|387:68,1,70,10|2,0:0|0:0,0:0:0:0:
333,133,96912,2,0,P|263:143|195:159,1,140,2|10,1:2|0:0,0:0:0:0:
114,135,97362,1,2,0:0:0:0:
68,208,97512,6,0,P|33:202|0:194,1,70,6|0,1:2|0:0,0:0:0:0:
0,279,97812,2,0,P|34:284|68:292,1,70,10|0,0:0|0:0,0:0:0:0:
111,364,98112,2,0,P|167:325|235:334,1,140,2|10,1:2|0:0,0:0:0:0:
393,281,98712,6,0,P|401:246|406:212,1,70,2|2,1:2|0:0,0:0:0:0:
470,157,99012,2,0,P|461:122|456:88,1,70,10|2,0:0|0:0,0:0:0:0:
390,35,99312,2,0,B|337:22|337:22|273:59,1,105,2|0,1:2|0:0,0:0:0:0:
268,81,99612,2,0,P|233:72|199:67,1,70,10|2,0:0|0:0,0:0:0:0:
124,30,99912,6,0,B|98:118|155:95|127:180,1,140,2|10,1:2|0:0,0:0:0:0:
77,230,100362,1,2,0:0:0:0:
139,286,100512,2,0,P|173:291|207:299,1,70,2|0,1:2|0:0,0:0:0:0:
272,245,100812,2,0,P|306:239|340:231,1,70,10|2,0:2|1:2,0:0:0:0:
318,150,101112,6,0,P|283:155|249:163,1,70,10|2,0:2|1:2,0:0:0:0:
207,89,101412,2,0,P|172:83|138:75,1,70,10|2,0:2|1:2,0:0:0:0:
105,152,101712,1,10,0:0:0:0:
105,152,101787,1,8,0:0:0:0:
105,152,101862,2,0,P|70:157|36:165,2,70,10|0|10,0:0|1:0|0:0,0:0:0:0:
242,212,102312,6,0,P|225:258|201:373,1,161.000003070831,6|8,1:2|0:0,0:0:0:0:
115,323,102762,1,2,0:2:0:0:
115,323,102837,1,2,0:2:0:0:
115,323,102912,2,0,P|75:332|34:338,1,80.5000015354157,2|2,1:2|1:2,0:0:0:0:
18,243,103212,2,0,P|57:233|98:227,1,80.5000015354157,10|2,0:0|1:2,0:0:0:0:
191,246,103512,6,0,B|222:191|222:191|201:120,1,120.750002303124,2|0,1:2|0:0,0:0:0:0:
181,93,103812,2,0,P|220:83|261:77,1,80.5000015354157,8|0,0:0|1:0,0:0:0:0:
345,123,104112,2,0,B|424:145|416:56|509:84,1,161.000003070831,0|8,1:0|0:0,0:0:0:0:
484,176,104562,1,2,0:0:0:0:
484,176,104637,1,0,0:0:0:0:
484,176,104712,6,0,P|498:235|506:296,1,120.750002303124,2|0,1:2|0:0,0:0:0:0:
476,332,105012,2,0,P|436:337|397:347,1,80.5000015354157,8|2,0:0|1:2,0:0:0:0:
373,304,105237,1,2,0:0:0:0:
373,304,105312,2,0,P|333:298|294:288,1,80.5000015354157,2|2,1:2|1:2,0:0:0:0:
206,330,105612,2,0,P|196:290|190:251,1,80.5000015354157,10|2,0:0|0:0,0:0:0:0:
264,187,105912,6,0,P|336:148|319:58,1,161.000003070831,2|10,1:2|0:0,0:0:0:0:
258,17,106362,1,0,1:0:0:0:
182,77,106512,2,0,P|142:82|103:92,1,80.5000015354157,2|0,1:2|1:0,0:0:0:0:
48,171,106812,2,0,P|57:210|63:249,1,80.5000015354157,10|0,0:0|1:0,0:0:0:0:
180,324,107112,6,0,B|231:282|231:282|206:159,1,161.000003070831,6|8,1:2|0:0,0:0:0:0:
159,107,107562,1,2,1:2:0:0:
218,30,107712,2,0,P|257:39|296:45,1,80.5000015354157,2|0,1:2|0:0,0:0:0:0:
365,114,108012,2,0,P|355:153|349:192,1,80.5000015354157,10|2,0:0|0:0,0:0:0:0:
258,224,108312,6,0,P|267:184|273:145,1,80.5000015354157,2|2,1:2|0:0,0:0:0:0:
265,96,108537,1,2,0:0:0:0:
265,96,108612,2,0,P|225:90|186:80,1,80.5000015354157,10|2,0:2|1:2,0:0:0:0:
116,149,108912,2,0,P|56:163|37:242,1,120.750002303124,2|0,1:2|0:0,0:0:0:0:
58,253,109212,2,0,P|97:243|136:237,1,80.5000015354157,10|0,0:0|0:0,0:0:0:0:
213,296,109512,6,0,P|252:306|291:312,1,80.5000015354157,2|0,1:2|0:0,0:0:0:0:
376,265,109812,2,0,P|431:267|477:363,2,161.000003070831,10|2|10,0:0|1:2|0:2,0:0:0:0:
319,186,110562,1,0,0:0:0:0:
380,111,110712,6,0,P|419:120|458:126,1,80.5000015354157,2|0,1:2|0:0,0:0:0:0:
320,32,111012,1,10,0:0:0:0:
245,93,111162,1,2,1:2:0:0:
245,93,111237,1,10,0:2:0:0:
245,93,111312,2,0,P|205:99|166:108,1,80.5000015354157,2|2,1:2|1:2,0:0:0:0:
99,37,111612,2,0,P|59:30|20:21,1,80.5000015354157,10|2,0:0|1:2,0:0:0:0:
86,138,111912,6,0,P|74:199|56:319,1,161.000003070831,6|8,1:2|0:2,0:0:0:0:
138,351,112362,1,2,1:2:0:0:
138,351,112437,1,2,0:2:0:0:
138,351,112512,2,0,P|177:357|216:366,1,80.5000015354157,2|2,1:2|1:2,0:0:0:0:
300,315,112812,2,0,P|306:275|315:236,1,80.5000015354157,10|2,0:2|1:2,0:0:0:0:
274,147,113112,6,0,B|338:134|338:134|386:172,1,120.750002303124,2|0,1:2|0:0,0:0:0:0:
425,189,113412,2,0,P|431:149|440:110,1,80.5000015354157,8|0,0:0|1:0,0:0:0:0:
377,35,113712,2,0,B|301:9|311:82|223:62,1,161.000003070831,0|8,1:2|0:0,0:0:0:0:
137,21,114162,1,2,0:0:0:0:
137,21,114237,1,2,0:0:0:0:
137,21,114312,6,0,B|99:75|99:75|129:148,1,120.750002303124,2|0,1:2|0:0,0:0:0:0:
139,170,114612,2,0,P|178:176|217:185,1,80.5000015354157,8|2,0:0|1:2,0:0:0:0:
259,211,114837,1,2,0:0:0:0:
259,211,114912,2,0,P|268:171|274:132,1,80.5000015354157,2|2,1:2|1:2,0:0:0:0:
369,115,115212,2,0,P|359:154|353:193,1,80.5000015354157,10|2,0:0|0:0,0:0:0:0:
435,246,115512,6,0,P|368:233|341:330,1,161.000003070831,2|10,1:2|0:0,0:0:0:0:
254,366,115962,1,0,1:0:0:0:
197,287,116112,2,0,P|157:277|118:271,1,80.5000015354157,2|0,1:2|1:0,0:0:0:0:
42,333,116412,2,0,P|35:293|26:254,1,80.5000015354157,10|0,0:2|0:0,0:0:0:0:
2,160,116712,6,0,P|47:119|148:141,1,161.000003070831,6|8,1:2|0:0,0:0:0:0:
214,195,117162,1,2,1:2:0:0:
293,139,117312,2,0,P|286:99|277:60,1,80.5000015354157,2|0,1:2|1:0,0:0:0:0:
373,41,117612,2,0,P|379:80|388:119,1,80.5000015354157,10|2,0:2|0:2,0:0:0:0:
512,174,117912,6,0,P|472:180|433:189,1,80.5000015354157,2|2,1:2|0:0,0:0:0:0:
404,228,118137,1,2,0:0:0:0:
404,228,118212,2,0,P|364:218|325:212,1,80.5000015354157,10|2,0:2|0:2,0:0:0:0:
236,250,118512,2,0,P|209:318|261:360,1,120.750002303124,2|0,1:2|0:0,0:0:0:0:
274,377,118812,2,0,P|313:367|352:361,1,80.5000015354157,10|2,0:0|1:2,0:0:0:0:
442,323,119112,6,0,P|454:240|473:159,1,161.000003070831,2|10,1:2|0:0,0:0:0:0:
411,89,119562,1,2,1:2:0:0:
332,145,119712,2,0,P|292:151|253:160,1,80.5000015354157,2|0,1:2|0:0,0:0:0:0:
205,75,120012,2,0,P|165:68|126:59,1,80.5000015354157,10|2,0:2|1:2,0:0:0:0:
3,90,120312,6,0,P|44:73|128:166,1,161.000003070831,2|10,1:2|0:2,0:0:0:0:
87,226,120762,1,2,0:2:0:0:
87,226,120837,1,2,0:2:0:0:
87,226,120912,2,0,P|47:219|8:210,1,80.5000015354157,2|0,1:2|0:0,0:0:0:0:
134,304,121212,2,0,P|173:294|212:288,1,80.5000015354157,8|0,0:2|1:2,0:0:0:0:
288,333,121512,6,0,B|336:283|336:283|316:205,1,146.999995513916,6|10,1:2|0:2,0:0:0:0:
261,138,121962,1,2,0:0:0:0:
321,73,122112,2,0,P|360:83|399:89,1,73.4999977569581,2|0,1:2|0:0,0:0:0:0:
448,157,122412,2,0,P|438:196|432:235,1,73.4999977569581,10|2,0:0|0:0,0:0:0:0:
481,303,122712,6,0,P|448:271|353:292,1,146.999995513916,2|10,1:2|0:2,0:0:0:0:
290,346,123162,1,2,1:2:0:0:
223,287,123312,2,0,P|186:293|151:302,1,73.4999977569581,2|2,1:2|1:2,0:0:0:0:
80,249,123612,2,0,P|73:212|64:177,1,73.4999977569581,10|2,0:0|0:0,0:0:0:0:
119,108,123912,6,0,B|198:88|180:162|270:138,1,146.999995513916,2|10,1:2|0:2,0:0:0:0:
332,98,124362,1,2,0:2:0:0:
388,165,124512,2,0,P|423:155|459:149,1,73.4999977569581,2|2,1:2|0:0,0:0:0:0:
499,70,124812,2,0,P|489:34|483:-1,1,73.4999977569581,10|2,0:2|0:0,0:0:0:0:
406,40,125112,6,0,P|334:22|262:11,1,146.999995513916,2|10,1:2|0:2,0:0:0:0:
188,59,125562,1,2,1:2:0:0:
108,20,125712,1,2,1:2:0:0:
108,20,125787,1,8,0:0:0:0:
108,20,125862,2,0,P|101:56|92:91,1,73.4999977569581,2|10,0:0|0:2,0:0:0:0:
153,155,126162,1,2,0:0:0:0:
95,256,126312,6,0,P|129:212|227:222,1,146.999995513916,6|10,1:2|0:0,0:0:0:0:
281,271,126762,1,2,0:0:0:0:
355,223,126912,2,0,P|364:187|370:151,1,73.4999977569581,2|0,1:2|0:0,0:0:0:0:
458,149,127212,2,0,P|448:184|442:220,1,73.4999977569581,10|2,0:2|1:2,0:0:0:0:
493,293,127512,6,0,P|420:305|349:323,1,146.999995513916,2|10,1:2|0:0,0:0:0:0:
276,374,127962,1,2,0:0:0:0:
212,312,128112,2,0,P|218:275|227:240,1,73.4999977569581,2|0,1:2|0:0,0:0:0:0:
149,198,128412,2,0,P|142:161|133:126,1,73.4999977569581,10|2,0:2|0:0,0:0:0:0:
218,100,128712,6,0,P|139:86|62:66,1,146.999995513916,2|10,1:2|0:2,0:0:0:0:
15,135,129162,1,0,0:0:0:0:
65,207,129312,2,0,P|74:242|80:278,1,73.4999977569581,2|2,1:2|0:0,0:0:0:0:
147,335,129612,2,0,P|182:325|218:319,1,73.4999977569581,10|0,0:0|0:0,0:0:0:0:
298,357,129912,6,0,P|323:338|334:313,3,36.749998878479,2|2|2|2,1:2|0:2|1:2|0:2,0:0:0:0:
369,338,130212,2,0,P|373:306|363:281,3,36.749998878479,10|2|2|10,0:2|0:2|1:2|0:2,0:0:0:0:
405,274,130512,2,0,P|386:248|360:237,3,36.749998878479,2|10|2|2,1:2|0:2|1:2|0:2,0:0:0:0:
386,203,130812,2,0,P|354:198|329:208,3,36.749998878479,10|2|2|10,0:2|0:2|1:2|0:2,0:0:0:0:
322,167,131112,6,0,P|315:130|306:95,1,73.4999977569581,6|0,1:2|0:0,0:0:0:0:
361,25,131412,2,0,P|280:9|219:71,1,146.999995513916,10|2,0:0|1:2,0:0:0:0:
172,109,131862,1,2,0:0:0:0:
106,50,132012,2,0,P|70:59|34:65,1,73.4999977569581,10|2,0:2|1:2,0:0:0:0:
0,149,132312,6,0,P|68:158|85:250,1,146.999995513916,2|10,1:2|0:2,0:0:0:0:
161,282,132762,1,2,1:2:0:0:
161,282,132837,1,8,0:0:0:0:
161,282,132912,2,0,P|196:272|232:266,1,73.4999977569581,2|2,1:2|1:2,0:0:0:0:
291,199,133212,2,0,P|326:208|362:214,1,73.4999977569581,10|2,0:2|0:2,0:0:0:0:
445,246,133512,6,0,P|368:258|345:330,1,146.999995513916,2|10,1:2|0:0,0:0:0:0:
273,370,133962,1,2,0:0:0:0:
211,306,134112,2,0,P|174:299|139:290,1,73.4999977569581,2|2,1:2|1:2,0:0:0:0:
62,334,134412,2,0,P|52:298|46:262,1,73.4999977569581,10|2,0:0|0:0,0:0:0:0:
77,230,134637,1,2,0:0:0:0:
77,230,134712,6,0,P|86:194|92:158,1,73.4999977569581,2|2,1:2|0:0,0:0:0:0:
178,141,135012,2,0,P|168:176|162:212,1,73.4999977569581,10|2,0:0|0:0,0:0:0:0:
237,259,135312,2,0,B|284:225|284:225|339:247,1,110.249996635437,2|0,1:2|0:0,0:0:0:0:
373,260,135612,2,0,P|379:223|388:188,1,73.4999977569581,10|2,0:2|0:0,0:0:0:0:
443,118,135912,6,0,P|365:105|290:85,1,146.999995513916,6|10,1:2|0:0,0:0:0:0:
244,157,136362,1,2,1:2:0:0:
244,157,136437,1,2,0:0:0:0:
244,157,136512,2,0,P|207:163|172:172,1,73.4999977569581,2|2,1:2|0:0,0:0:0:0:
111,107,136812,2,0,P|104:70|95:35,2,73.4999977569581,10|2|2,0:0|1:2|1:2,0:0:0:0:
72,186,137262,5,2,0:0:0:0:
135,247,137412,2,0,B|164:289|164:289|140:346,1,110.249996635437,10|10,0:0|0:0,0:0:0:0:
120,382,137712,2,0,P|201:351|269:362,1,146.999995513916,2|10,1:2|0:2,0:0:0:0:
322,296,138162,1,2,1:2:0:0:
270,224,138312,6,0,P|263:187|254:152,1,73.4999977569581,2|2,1:2|0:0,0:0:0:0:
333,111,138612,2,0,P|339:74|348:39,1,73.4999977569581,10|2,0:0|1:2,0:0:0:0:
434,17,138912,2,0,B|485:30|485:30|514:77|475:133,1,146.999995513916,2|10,1:2|0:0,0:0:0:0:
433,192,139362,1,2,1:2:0:0:
496,253,139512,6,0,P|486:288|480:324,1,73.4999977569581,14|2,0:0|1:2,0:0:0:0:
396,353,139812,2,0,P|389:316|380:281,1,73.4999977569581,10|2,0:2|1:2,0:0:0:0:
296,254,140112,1,2,0:0:0:0:
0,291,159912,6,0,B|63:241|63:241|145:273,1,161.000003070831,6|8,1:2|0:0,0:0:0:0:
210,334,160362,1,2,0:2:0:0:
210,334,160437,1,2,0:2:0:0:
210,334,160512,2,0,P|259:322|310:318,1,80.5000015354157,2|2,1:2|1:2,0:0:0:0:
354,247,160812,2,0,P|314:241|275:231,1,80.5000015354157,10|2,0:0|1:2,0:0:0:0:
181,254,161112,6,0,P|174:198|147:126,1,120.750002303124,2|0,1:2|0:0,0:0:0:0:
124,98,161412,2,0,P|163:92|202:82,1,80.5000015354157,8|0,0:0|0:0,0:0:0:0:
290,41,161712,2,0,P|341:41|383:151,1,161.000003070831,0|8,1:0|0:0,0:0:0:0:
344,213,162162,1,2,0:0:0:0:
344,213,162237,1,0,0:0:0:0:
344,213,162312,6,0,P|272:222|202:240,1,120.750002303124,2|0,1:2|0:0,0:0:0:0:
182,256,162612,2,0,P|176:216|166:177,1,80.5000015354157,8|2,0:0|0:0,0:0:0:0:
185,132,162837,1,2,0:0:0:0:
185,132,162912,2,0,P|145:126|106:116,1,80.5000015354157,2|2,1:2|1:2,0:0:0:0:
124,21,163212,2,0,P|163:26|202:36,1,80.5000015354157,10|2,0:0|0:0,0:0:0:0:
283,90,163512,6,0,P|318:77|448:62,1,161.000003070831,2|10,1:2|0:0,0:0:0:0:
502,135,163962,1,0,1:0:0:0:
442,211,164112,2,0,P|403:200|363:195,1,80.5000015354157,2|0,1:2|1:0,0:0:0:0:
294,263,164412,2,0,P|254:268|215:278,1,80.5000015354157,10|0,0:0|0:0,0:0:0:0:
134,332,164712,6,0,B|89:264|89:264|129:189,1,161.000003070831,6|8,1:2|0:0,0:0:0:0:
208,142,165162,1,2,0:0:0:0:
145,68,165312,2,0,P|106:57|66:52,1,80.5000015354157,2|0,1:2|0:0,0:0:0:0:
216,0,165612,2,0,P|254:10|294:15,1,80.5000015354157,10|2,0:0|0:0,0:0:0:0:
361,84,165912,6,0,P|350:122|345:162,1,80.5000015354157,2|2,1:2|0:0,0:0:0:0:
303,187,166137,1,2,0:0:0:0:
303,187,166212,2,0,P|313:225|318:265,1,80.5000015354157,10|2,0:2|1:2,0:0:0:0:
383,338,166512,2,0,P|458:319|453:267,1,120.750002303124,2|0,1:2|0:0,0:0:0:0:
432,248,166812,2,0,P|471:242|510:232,1,80.5000015354157,10|0,0:0|1:0,0:0:0:0:
501,137,167112,6,0,P|461:142|422:152,1,80.5000015354157,2|0,1:2|0:0,0:0:0:0:
327,173,167412,2,0,B|308:86|377:109|356:16,2,161.000003070831,10|2|10,0:0|1:2|0:2,0:0:0:0:
241,218,168162,1,0,0:0:0:0:
170,151,168312,6,0,P|131:161|91:166,1,80.5000015354157,2|0,1:2|0:0,0:0:0:0:
30,241,168612,1,10,0:0:0:0:
105,301,168762,1,2,1:2:0:0:
105,301,168837,1,10,0:2:0:0:
105,301,168912,2,0,P|94:339|89:379,1,80.5000015354157,2|2,1:2|1:2,0:0:0:0:
186,380,169212,2,0,P|196:341|201:301,1,80.5000015354157,10|2,0:2|0:0,0:0:0:0:
136,181,169512,6,0,P|180:220|287:179,1,161.000003070831,6|8,1:2|0:2,0:0:0:0:
254,103,169962,1,2,0:2:0:0:
254,103,170037,1,2,0:0:0:0:
254,103,170112,2,0,P|214:97|175:87,1,80.5000015354157,2|2,1:2|1:2,0:0:0:0:
333,142,170412,2,0,P|371:131|411:126,1,80.5000015354157,10|2,0:2|0:2,0:0:0:0:
470,203,170712,6,0,P|453:265|445:329,1,120.750002303124,2|0,1:2|0:0,0:0:0:0:
466,365,171012,2,0,P|427:354|387:349,1,80.5000015354157,8|0,0:0|1:0,0:0:0:0:
326,273,171312,2,0,B|268:282|268:282|246:312|246:312|161:325,1,161.000003070831,0|8,1:2|0:2,0:0:0:0:
106,381,171762,1,2,0:0:0:0:
106,381,171837,1,0,0:0:0:0:
106,381,171912,6,0,B|76:334|76:334|100:267,1,120.750002303124,2|0,1:2|0:0,0:0:0:0:
71,232,172212,2,0,P|110:226|149:216,1,80.5000015354157,8|2,0:0|0:0,0:0:0:0:
192,240,172437,1,2,0:0:0:0:
192,240,172512,2,0,P|197:200|207:161,1,80.5000015354157,2|2,1:2|1:2,0:0:0:0:
302,177,172812,2,0,P|296:216|286:255,1,80.5000015354157,10|2,0:0|0:0,0:0:0:0:
249,344,173112,6,0,P|267:306|383:323,1,161.000003070831,2|10,1:2|0:2,0:0:0:0:
455,356,173562,1,0,1:0:0:0:
496,268,173712,2,0,P|506:229|511:189,1,80.5000015354157,2|0,1:2|1:0,0:0:0:0:
424,147,174012,2,0,P|413:108|408:68,1,80.5000015354157,10|0,0:2|0:0,0:0:0:0:
484,8,174312,6,0,P|399:30|312:41,1,161.000003070831,6|8,1:2|0:0,0:0:0:0:
263,114,174762,1,2,0:0:0:0:
167,102,174912,2,0,P|172:141|182:180,1,80.5000015354157,2|0,1:2|0:0,0:0:0:0:
241,257,175212,2,0,P|201:262|162:272,1,80.5000015354157,10|2,0:0|0:0,0:0:0:0:
76,316,175512,6,0,P|65:277|60:237,1,80.5000015354157,2|2,1:2|0:0,0:0:0:0:
14,221,175737,1,2,0:0:0:0:
14,221,175812,2,0,P|24:182|29:142,1,80.5000015354157,10|2,0:2|0:2,0:0:0:0:
90,67,176112,2,0,B|161:54|143:110|218:94,1,120.750002303124,2|0,1:2|0:0,0:0:0:0:
240,126,176412,2,0,P|278:109|326:101,1,80.5000015354157,10|2,0:0|0:0,0:0:0:0:
381,31,176712,6,0,P|360:108|350:188,1,161.000003070831,2|10,1:2|0:0,0:0:0:0:
425,248,177162,1,2,0:0:0:0:
360,320,177312,2,0,P|300:328|241:343,1,120.750002303124,2|0,1:2|0:0,0:0:0:0:
193,352,177612,2,0,P|203:313|208:273,1,80.5000015354157,10|2,0:0|1:2,0:0:0:0:
183,179,177912,6,0,P|104:175|74:272,2,161.000003070831,2|8|0,1:2|0:0|1:2,0:0:0:0:
270,222,178662,1,0,1:2:0:0:
327,144,178812,2,0,P|337:105|342:65,1,80.5000015354157,10|2,0:2|1:2,0:0:0:0:
254,22,179112,6,0,B|175:0|175:0|104:65,1,161.000003070831,6|10,1:2|0:0,0:0:0:0:
184,122,179562,1,2,0:0:0:0:
135,205,179712,2,0,P|95:210|56:220,1,80.5000015354157,2|0,1:2|0:0,0:0:0:0:
74,315,180012,2,0,P|113:309|152:299,1,80.5000015354157,10|2,0:0|0:0,0:0:0:0:
237,253,180312,6,0,P|286:298|392:289,2,161.000003070831,2|8|0,1:2|0:0|1:0,0:0:0:0:
286,169,181062,1,0,1:0:0:0:
376,203,181212,2,0,P|414:192|454:187,1,80.5000015354157,10|0,0:0|0:0,0:0:0:0:
357,102,181512,5,4,1:2:0:0:
114,157,182112,5,4,1:2:0:0:
260,313,182712,6,0,P|331:294|321:208,1,154.000004699707,6|8,1:2|0:0,0:0:0:0:
281,147,183162,1,0,1:0:0:0:
281,147,183237,1,8,0:0:0:0:
281,147,183312,2,0,P|243:158|197:163,1,77.0000023498536,0|0,1:0|1:0,0:0:0:0:
139,227,183612,2,0,P|150:264|155:310,1,77.0000023498536,8|2,0:0|1:2,0:0:0:0:
182,339,183837,1,2,0:0:0:0:
182,339,183912,6,0,P|137:306|26:323,1,154.000004699707,6|8,1:2|0:0,0:0:0:0:
11,225,184362,1,0,1:0:0:0:
60,147,184512,2,0,P|98:142|134:130,1,77.0000023498536,2|0,1:2|1:0,0:0:0:0:
203,192,184812,2,0,P|239:180|277:175,1,77.0000023498536,8|0,0:2|1:0,0:0:0:0:
335,248,185112,6,0,B|391:193|391:193|354:120,1,154.000004699707,6|8,1:2|0:0,0:0:0:0:
290,62,185562,1,0,1:0:0:0:
290,62,185637,1,8,0:0:0:0:
290,62,185712,2,0,P|253:73|215:78,1,77.0000023498536,0|0,1:0|1:0,0:0:0:0:
158,151,186012,2,0,P|119:155|83:167,1,77.0000023498536,8|2,0:2|0:0,0:0:0:0:
47,136,186237,1,2,0:0:0:0:
47,136,186312,6,0,P|69:209|78:286,1,154.000004699707,6|8,1:2|0:0,0:0:0:0:
160,329,186762,1,0,1:0:0:0:
160,329,186837,1,8,0:0:0:0:
160,329,186912,2,0,P|198:333|234:345,1,77.0000023498536,2|0,1:2|1:0,0:0:0:0:
305,285,187212,2,0,P|293:248|288:210,1,77.0000023498536,10|0,0:0|1:0,0:0:0:0:
341,134,187512,6,0,P|264:124|191:100,2,154.000004699707,6|8|0,1:2|0:2|1:0,0:0:0:0:
406,199,188262,1,0,1:0:0:0:
473,136,188412,2,0,P|461:99|456:61,1,77.0000023498536,8|0,0:0|1:0,0:0:0:0:
369,28,188712,5,4,0:0:0:0:
