osu file format v14

[General]
AudioFilename: audio.mp3
AudioLeadIn: 0
PreviewTime: 293643
Countdown: 0
SampleSet: Soft
StackLeniency: 0.7
Mode: 0
LetterboxInBreaks: 0
WidescreenStoryboard: 1

[Editor]
Bookmarks: 151569,235252
DistanceSpacing: 1.6
BeatDivisor: 4
GridSize: 4
TimelineZoom: 2.3

[Metadata]
Title:Mind Palette
TitleUnicode:Mind Palette
Artist:a_hisa
ArtistUnicode:a_hisa
Creator:serperoe
Version:Extrasensory
Source:
Tags:Colors4 Spiritual Core
BeatmapID:1651677
BeatmapSetID:786863

[Difficulty]
HPDrainRate:6.5
CircleSize:4.2
OverallDifficulty:8
ApproachRate:9.2
SliderMultiplier:1.4
SliderTickRate:1

[Events]
//Background and Video events
0,0,"maxresdefault.jpg",0,0
//Break Periods
2,214295,223630
//Storyboard Layer 0 (Background)
//Storyboard Layer 1 (Fail)
//Storyboard Layer 2 (Pass)
//Storyboard Layer 3 (Foreground)
//Storyboard Sound Samples

[TimingPoints]
5043,315.789473684211,4,2,1,50,1,0
15148,-83.3333333333333,4,2,1,70,0,0
25253,-83.3333333333333,4,2,2,70,0,0
26200,-133.333333333333,4,2,2,70,0,0
26279,-133.333333333333,4,2,1,5,0,0
27779,-83.3333333333333,4,2,1,60,0,0
37253,-83.3333333333333,4,2,1,70,0,0
68200,-83.3333333333333,4,2,2,70,0,0
87621,-83.3333333333333,4,2,2,70,0,0
87700,-83.3333333333333,4,2,1,70,0,0
88095,-500,4,2,1,70,0,0
88411,-74.0740740740741,4,2,1,85,0,1
108621,-74.0740740740741,4,2,1,70,0,0
113674,-83.3333333333333,4,2,2,70,0,0
143990,-133.333333333333,4,2,3,60,0,0
163885,-100,4,2,3,80,0,0
172411,-133.333333333333,4,2,3,80,0,0
172964,-100,4,2,1,5,0,0
173674,631.578947368421,4,2,1,30,1,0
173674,-100,4,2,1,30,0,0
183779,-100,4,2,1,40,0,0
193885,-100,4,2,1,60,0,0
203989,-66.6666666666667,4,2,1,60,0,0
214095,315.789473684211,4,2,1,60,1,0
224200,-83.3333333333333,4,2,1,60,0,0
233042,-66.6666666666667,4,2,1,70,0,0
233516,-500,4,2,1,70,0,0
233989,-50,4,2,1,70,0,0
234305,-83.3333333333333,4,2,1,70,0,0
274727,-83.3333333333333,4,2,2,70,0,0
294148,-83.3333333333333,4,2,1,70,0,0
294621,-500,4,2,1,70,0,0
294937,-74.0740740740741,4,2,1,85,0,1
335358,-83.3333333333333,4,2,1,85,0,0

[Colours]
Combo1 : 179,109,255
Combo2 : 26,255,26
Combo3 : 81,255,239
Combo4 : 0,128,255
SliderBorder : 255,255,248

[HitObjects]
365,26,5043,6,0,B|337:75|396:94|357:157,1,122.5,2|0,0:0|0:0,0:0:0:0:
271,213,5516,2,0,P|240:281|279:344,1,140
355,384,5990,2,0,P|395:390|427:384,1,70
480,272,6306,6,0,B|510:190|434:144,1,140,2|0,0:1|0:0,0:0:0:0:
335,138,6779,2,0,L|187:146,1,140
141,240,7253,2,0,P|145:284|121:328,1,70
12,248,7569,6,0,P|0:180|24:96,1,140,2|0,0:1|0:0,0:0:0:0:
132,75,8043,2,0,L|280:71,1,140
343,157,8516,2,0,L|259:153,1,70
148,212,8832,6,0,P|128:104|140:58,1,140,2|0,0:1|0:0,0:0:0:0:
44,164,9306,2,0,P|52:233|85:295,1,140
203,272,9779,2,0,P|243:268|279:272,1,70
361,364,10095,6,0,P|297:352|209:364,1,140,2|0,0:0|0:0,0:0:0:0:
113,333,10569,2,0,P|122:267|63:233,1,140
5,137,11043,2,0,P|9:61|13:53,1,70
132,29,11358,6,0,P|136:93|212:125,1,140,2|0,0:1|0:0,0:0:0:0:
299,164,11832,2,0,B|371:160|348:226|429:219,1,140
506,160,12306,2,0,P|511:125|494:64,1,70
374,94,12621,5,0,0:0:0:0:
406,57,12779,1,0,0:0:0:0:
379,18,12937,1,0,0:0:0:0:
335,21,13095,1,0,0:0:0:0:
200,60,13253,2,0,L|277:63,1,70
188,140,13569,2,0,L|104:136,1,70
192,220,13885,6,0,L|324:232,1,70,2|0,0:0|0:0,0:0:0:0:
400,208,14200,1,0,0:0:0:0:
368,336,14358,1,0,0:0:0:0:
368,336,14437,1,0,0:0:0:0:
368,336,14516,2,0,P|316:328|284:336,1,70
218,338,14753,1,0,0:0:0:0:
218,338,14832,2,0,P|171:338|122:318,1,70
66,158,15148,6,0,L|206:142,1,125.999996154785,2|0,0:0|0:0,0:0:0:0:
270,111,15464,2,0,P|322:95|354:55,1,83.9999974365235,8|0,0:0|0:0,0:0:0:0:
442,55,15779,2,0,L|518:63,2,41.9999987182618
470,204,16095,2,0,P|417:217|406:298,1,125.999996154785,8|0,0:0|0:0,0:0:0:0:
316,345,16411,6,0,P|220:365|176:349,1,125.999996154785,2|0,0:0|0:0,0:0:0:0:
145,284,16727,2,0,L|137:164,1,83.9999974365235,8|0,0:0|0:0,0:0:0:0:
290,106,17043,2,0,L|233:106,2,41.9999987182618
423,221,17358,2,0,P|351:225|307:185,1,125.999996154785,8|0,0:0|0:0,0:0:0:0:
383,149,17674,6,0,B|394:88|394:88|371:60|368:20,1,125.999996154785,2|0,0:0|0:0,0:0:0:0:
277,18,17990,2,0,P|242:24|181:22,1,83.9999974365235,8|0,0:0|0:0,0:0:0:0:
38,109,18306,2,0,L|2:89,2,41.9999987182618
152,232,18621,2,0,P|144:136|180:100,1,125.999996154785,8|0,0:0|0:0,0:0:0:0:
220,176,18937,6,0,P|244:244|208:300,1,125.999996154785,2|0,0:0|0:0,0:0:0:0:
279,351,19253,2,0,L|391:315,1,83.9999974365235,8|0,0:0|0:0,0:0:0:0:
497,228,19569,2,0,L|441:228,2,41.9999987182618
330,199,19885,2,0,B|345:155|345:106|345:106|369:117|402:108,1,125.999996154785,8|0,0:0|0:0,0:0:0:0:
464,54,20200,6,0,P|412:14|340:22,1,125.999996154785,2|0,0:0|0:0,0:0:0:0:
277,52,20516,2,0,P|266:95|263:142,1,83.9999974365235,8|0,0:0|0:0,0:0:0:0:
290,291,20832,2,0,L|362:295,2,41.9999987182618
143,260,21148,2,0,B|183:248|215:256|215:256|231:224|263:196,1,125.999996154785,8|0,0:0|0:0,0:0:0:0:
162,169,21464,6,0,P|110:158|38:169,1,125.999996154785,2|0,0:0|0:0,0:0:0:0:
16,248,21779,2,0,B|8:309|26:351,1,83.9999974365235,8|0,0:0|0:0,0:0:0:0:
186,366,22095,2,0,L|142:362,2,41.9999987182618
345,298,22411,2,0,P|290:280|223:292,1,125.999996154785,8|0,0:0|0:0,0:0:0:0:
165,225,22727,6,0,P|169:141|189:97,1,125.999996154785,2|0,0:0|0:0,0:0:0:0:
248,40,23043,2,0,P|296:48|360:36,1,83.9999974365235,8|0,0:0|0:0,0:0:0:0:
439,174,23358,2,0,L|451:222,2,41.9999987182618
353,320,23674,2,0,P|357:220|381:172,1,125.999996154785,8|0,0:0|0:0,0:0:0:0:
387,114,23990,6,0,B|439:93|477:113|477:113|518:77,1,125.999996154785,2|0,0:0|0:0,0:0:0:0:
445,27,24306,2,0,L|345:35,1,83.9999974365235,8|0,0:0|0:0,0:0:0:0:
204,94,24621,2,0,L|148:90,2,41.9999987182618,8|0|0,0:0|0:0|0:0,0:0:0:0:
46,15,24937,2,0,L|58:159,1,125.999996154785,8|0,0:0|0:0,0:0:0:0:
138,170,25253,6,2,L|138:246,1,41.9999987182618
209,259,25411,2,0,B|193:332|247:373,1,125.999996154785,2|0,0:0|0:0,0:0:0:0:
325,360,25727,2,0,P|405:360|485:388,1,125.999996154785,2|0,0:0|0:0,0:0:0:0:
502,310,26043,2,0,L|506:258,1,41.9999987182618
431,231,26200,2,0,B|411:171|443:87|443:87|359:127|311:171|311:171|323:123|279:47,1,420.000016021729,2|0,0:0|0:0,0:0:0:0:
76,140,27779,6,0,P|64:216|80:252,1,83.9999974365235,2|0,0:0|0:0,0:0:0:0:
224,280,28095,2,0,P|292:268|328:280,1,83.9999974365235
396,128,28411,2,0,B|398:128|390:44,1,83.9999974365235,8|0,0:0|0:0,0:0:0:0:
236,116,28727,2,0,P|232:155|250:200,1,83.9999974365235
156,72,29043,6,0,P|146:163|180:248,1,167.999994873047,2|0,0:0|0:0,0:0:0:0:
301,309,29516,1,0,0:0:0:0:
301,309,29595,1,0,0:0:0:0:
301,309,29674,2,0,P|225:301|153:341,1,125.999996154785,8|0,0:0|0:0,0:0:0:0:
105,300,29990,2,0,P|101:180|109:144,1,125.999996154785
180,128,30306,6,0,P|276:116|336:88,1,125.999996154785,2|0,0:0|0:0,0:0:0:0:
388,112,30621,1,0,0:0:0:0:
472,8,30779,1,0,0:0:0:0:
470,174,30937,2,0,P|476:263|448:317,1,125.999996154785,8|0,0:0|0:0,0:0:0:0:
392,348,31253,1,0,0:0:0:0:
276,224,31411,1,0,0:0:0:0:
151,336,31569,6,0,L|32:329,1,83.9999974365235,2|0,0:0|0:0,0:0:0:0:
46,248,31806,1,0,0:0:0:0:
46,248,31885,2,0,B|58:196|59:146,1,83.9999974365235
144,132,32121,1,0,0:0:0:0:
144,132,32200,2,0,P|188:142|236:136,1,83.9999974365235,8|0,0:0|0:0,0:0:0:0:
432,108,32516,1,0,0:0:0:0:
276,44,32674,1,0,0:0:0:0:
368,184,32832,6,0,P|365:254|378:299,1,83.9999974365235,2|0,0:0|0:0,0:0:0:0:
265,127,33148,2,0,B|277:67|277:47|273:27,1,83.9999974365235
144,152,33464,2,0,P|148:244|160:268,1,83.9999974365235,8|0,0:0|0:0,0:0:0:0:
204,296,33700,1,0,0:0:0:0:
204,296,33779,2,0,P|243:290|308:300,1,83.9999974365235
454,246,34095,6,0,L|447:338,1,83.9999974365235,2|0,0:0|0:0,0:0:0:0:
394,384,34332,1,0,0:0:0:0:
394,384,34411,2,0,P|452:368|502:393,1,83.9999974365235
303,300,34727,2,0,P|286:241|306:180,1,125.999996154785,8|0,0:0|0:0,0:0:0:0:
349,110,35043,2,0,L|465:114,1,83.9999974365235
259,87,35358,6,0,B|227:86|206:110|206:110|118:83,1,125.999996154785,2|0,0:0|0:0,0:0:0:0:
53,116,35674,1,0,0:0:0:0:
170,209,35832,1,0,0:0:0:0:
170,209,35911,1,0,0:0:0:0:
170,209,35990,2,0,P|215:202|253:210,1,83.9999974365235,8|0,0:0|0:0,0:0:0:0:
363,295,36306,1,0,0:0:0:0:
464,183,36464,1,0,0:0:0:0:
363,71,36621,6,0,P|287:79|259:79,1,83.9999974365235,2|0,0:0|0:0,0:0:0:0:
131,45,36937,1,0,0:0:0:0:
57,177,37095,1,0,0:0:0:0:
57,177,37174,1,0,0:0:0:0:
57,177,37253,6,0,P|51:254|57:275,1,83.9999974365235,8|0,0:0|0:0,0:0:0:0:
96,332,37490,1,8,0:0:0:0:
159,270,37569,2,0,B|176:221|158:172,1,83.9999974365235,8|0,0:0|0:0,0:0:0:0:
258,90,37885,6,0,B|327:82|320:120|401:112,1,125.999996154785,2|0,0:0|0:0,0:0:0:0:
441,170,38200,2,0,P|461:134|453:66,1,83.9999974365235,8|0,0:0|0:0,0:0:0:0:
420,16,38437,1,0,0:0:0:0:
420,16,38516,2,0,P|340:16|308:32,1,83.9999974365235,2|0,0:1|0:0,0:0:0:0:
179,59,38832,2,0,L|173:153,1,83.9999974365235,8|0,0:0|0:0,0:0:0:0:
218,282,39148,6,0,P|264:273|326:282,1,83.9999974365235,2|0,0:0|0:0,0:0:0:0:
414,206,39464,2,0,B|397:156|438:125,1,83.9999974365235,8|0,0:0|0:0,0:0:0:0:
488,186,39700,1,0,0:0:0:0:
488,186,39779,2,0,P|487:244|448:278,1,83.9999974365235,2|0,0:1|0:0,0:0:0:0:
340,359,40095,2,0,B|273:337|214:364,1,125.999996154785,8|0,0:0|0:0,0:0:0:0:
151,322,40411,6,0,B|133:303|133:303|139:182,1,125.999996154785,2|0,0:0|0:0,0:0:0:0:
210,152,40727,2,0,P|225:115|210:68,1,83.9999974365235,8|0,0:0|0:0,0:0:0:0:
140,41,40964,1,0,0:0:0:0:
140,41,41043,2,0,P|96:43|40:35,1,83.9999974365235,2|0,0:1|0:0,0:0:0:0:
23,186,41358,1,8,0:0:0:0:
142,295,41516,1,0,0:0:0:0:
339,261,41674,6,0,L|455:265,1,83.9999974365235,2|0,0:0|0:0,0:0:0:0:
262,301,41990,2,0,P|254:249|286:189,1,83.9999974365235,8|0,0:0|0:0,0:0:0:0:
332,163,42227,1,0,0:0:0:0:
332,163,42306,2,0,B|376:163|433:153,1,83.9999974365235,2|0,0:1|0:0,0:0:0:0:
359,21,42621,2,0,B|315:21|258:31,1,83.9999974365235,8|0,0:0|0:0,0:0:0:0:
148,120,42937,6,0,B|136:75|136:75|166:40|181:-12,1,125.999996154785,2|0,0:0|0:0,0:0:0:0:
231,96,43253,2,0,P|235:176|223:200,1,83.9999974365235,8|0,0:0|0:0,0:0:0:0:
144,200,43490,1,0,0:0:0:0:
144,200,43569,2,0,P|109:206|36:201,1,83.9999974365235,2|0,0:1|0:0,0:0:0:0:
13,345,43885,2,0,B|68:293|165:323,1,125.999996154785,8|0,0:0|0:0,0:0:0:0:
210,311,44200,6,0,P|254:312|299:302,1,83.9999974365235,2|0,0:0|0:0,0:0:0:0:
440,192,44516,2,0,P|452:256|432:308,1,83.9999974365235,8|0,0:0|0:0,0:0:0:0:
376,232,44753,1,0,0:0:0:0:
376,232,44832,2,0,P|364:200|380:136,1,83.9999974365235,2|0,0:1|0:0,0:0:0:0:
504,47,45148,2,0,P|460:67|400:55,1,83.9999974365235,8|0,0:0|0:0,0:0:0:0:
256,70,45464,6,0,B|224:68|200:52|200:52|180:68|119:86,1,125.999996154785,2|0,0:0|0:0,0:0:0:0:
84,143,45779,2,0,L|76:226,1,83.9999974365235,8|0,0:0|0:0,0:0:0:0:
217,344,46095,2,0,L|225:260,1,83.9999974365235
337,166,46411,1,8,0:0:0:0:
448,48,46569,1,0,0:0:0:0:
435,215,46727,6,0,L|435:323,2,83.9999974365235,2|0|8,0:0|0:0|0:0,0:0:0:0:
276,124,47200,1,0,0:0:0:0:
276,124,47279,1,0,0:0:0:0:
276,124,47358,2,0,P|212:132|176:124,1,83.9999974365235,8|0,0:0|0:0,0:0:0:0:
111,151,47595,1,0,0:0:0:0:
111,151,47674,2,0,P|103:227|107:247,1,83.9999974365235,8|0,0:0|0:0,0:0:0:0:
92,318,47911,1,0,0:0:0:0:
175,314,47990,6,0,B|204:304|232:320|232:320|276:296,1,83.9999974365235,2|0,0:0|0:0,0:0:0:0:
400,216,48306,2,0,P|396:128|400:116,1,83.9999974365235,8|0,0:0|0:0,0:0:0:0:
320,92,48543,1,0,0:0:0:0:
320,92,48621,2,0,P|276:88|212:92,2,83.9999974365235,0|0|8,0:1|0:0|0:0,0:0:0:0:
476,24,49095,1,0,0:0:0:0:
448,188,49253,6,0,P|436:276|432:304,1,83.9999974365235,2|0,0:0|0:0,0:0:0:0:
364,120,49569,2,0,L|356:220,1,83.9999974365235,8|0,0:0|0:0,0:0:0:0:
292,264,49806,1,0,0:0:0:0:
292,264,49885,2,0,P|216:256|180:272,1,83.9999974365235,0|0,0:1|0:0,0:0:0:0:
60,332,50200,2,0,P|136:312|176:316,1,83.9999974365235,8|0,0:0|0:0,0:0:0:0:
200,156,50516,6,0,B|156:148|128:176|128:176|48:144|48:140,1,125.999996154785,2|0,0:0|0:0,0:0:0:0:
32,88,50832,2,0,P|40:40|64:-4,1,83.9999974365235,8|0,0:0|0:0,0:0:0:0:
140,20,51069,1,0,0:0:0:0:
140,20,51148,2,0,P|200:36|248:36,1,83.9999974365235,0|0,0:1|0:0,0:0:0:0:
384,84,51464,2,0,L|388:180,1,83.9999974365235,8|0,0:0|0:0,0:0:0:0:
227,220,51779,6,0,L|223:124,1,83.9999974365235,2|0,0:0|0:0,0:0:0:0:
268,299,52095,2,0,P|228:311|164:283,1,83.9999974365235,8|0,0:0|0:0,0:0:0:0:
119,250,52332,1,0,0:0:0:0:
119,250,52411,2,0,L|127:154,1,83.9999974365235,0|0,0:1|0:0,0:0:0:0:
43,38,52727,2,0,B|80:68|80:68|115:41,1,83.9999974365235,8|0,0:0|0:0,0:0:0:0:
244,39,53043,6,0,L|348:43,1,83.9999974365235,2|0,0:0|0:0,0:0:0:0:
481,128,53358,2,0,P|457:212|457:220,1,83.9999974365235,8|0,0:0|0:0,0:0:0:0:
400,272,53595,1,0,0:0:0:0:
400,272,53674,2,0,P|372:228|372:168,1,83.9999974365235
260,88,53990,2,0,B|268:59|278:46|278:46|253:11,1,83.9999974365235,8|0,0:0|0:0,0:0:0:0:
120,108,54306,6,0,P|119:170|156:212,1,83.9999974365235,2|0,0:0|0:0,0:0:0:0:
208,340,54621,2,0,L|320:348,1,83.9999974365235,8|0,0:0|0:0,0:0:0:0:
264,264,54858,1,0,0:0:0:0:
264,264,54937,2,0,P|168:264|164:264,1,83.9999974365235
35,359,55253,2,0,B|11:322|11:322|40:272,1,83.9999974365235,8|0,0:0|0:0,0:0:0:0:
118,106,55569,6,0,P|130:162|114:234,1,125.999996154785,2|0,0:0|0:0,0:0:0:0:
48,152,55885,2,0,P|34:112|51:42,1,83.9999974365235,8|0,0:0|0:0,0:0:0:0:
107,24,56121,1,0,0:0:0:0:
107,24,56200,2,0,P|171:20|215:12,1,83.9999974365235
272,164,56516,1,8,0:0:0:0:
416,78,56674,1,0,0:0:0:0:
416,78,56753,1,0,0:0:0:0:
416,78,56832,5,2,0:0:0:0:
272,164,56990,1,0,0:0:0:0:
186,28,57148,1,8,0:0:0:0:
115,180,57306,1,0,0:0:0:0:
115,180,57385,1,0,0:0:0:0:
115,180,57464,2,0,P|103:225|113:270,1,83.9999974365235,8|0,0:0|0:0,0:0:0:0:
178,308,57700,1,0,0:0:0:0:
178,308,57779,2,0,P|225:298|282:311,1,83.9999974365235,8|0,0:0|0:0,0:0:0:0:
442,286,58095,5,2,0:0:0:0:
312,178,58253,1,0,0:0:0:0:
469,119,58411,1,8,0:0:0:0:
364,247,58569,1,0,0:0:0:0:
364,247,58648,1,0,0:0:0:0:
364,247,58727,2,0,P|314:260|273:251,1,83.9999974365235
156,145,59043,1,8,0:0:0:0:
188,296,59200,1,0,0:0:0:0:
53,195,59358,6,0,P|49:139|65:95,1,83.9999974365235,2|0,0:0|0:0,0:0:0:0:
212,52,59674,1,8,0:0:0:0:
304,192,59832,1,0,0:0:0:0:
304,192,59911,1,0,0:0:0:0:
304,192,59990,1,0,0:0:0:0:
175,228,60148,1,0,0:0:0:0:
272,116,60306,2,0,P|312:97|380:112,1,83.9999974365235,8|0,0:0|0:0,0:0:0:0:
440,252,60621,6,0,P|444:212|440:144,1,83.9999974365235,2|0,0:0|0:0,0:0:0:0:
376,12,60937,1,8,0:0:0:0:
334,175,61095,1,0,0:0:0:0:
334,175,61174,1,0,0:0:0:0:
334,175,61253,1,0,0:0:0:0:
204,59,61411,1,0,0:0:0:0:
97,165,61569,2,0,P|54:169|-22:163,1,83.9999974365235,8|0,0:0|0:0,0:0:0:0:
153,231,61885,6,0,P|197:231|253:243,1,83.9999974365235,2|0,0:0|0:0,0:0:0:0:
353,324,62200,1,8,0:0:0:0:
468,226,62358,1,0,0:0:0:0:
468,226,62437,1,0,0:0:0:0:
468,226,62516,2,0,P|464:150|460:114,1,83.9999974365235
352,51,62832,2,0,P|296:79|260:79,1,83.9999974365235,8|0,0:0|0:0,0:0:0:0:
109,109,63148,6,0,P|105:41|121:9,1,83.9999974365235,2|0,0:0|0:0,0:0:0:0:
195,173,63464,2,0,P|203:225|191:269,1,83.9999974365235,8|0,0:0|0:0,0:0:0:0:
133,316,63700,1,0,0:0:0:0:
133,316,63779,2,0,L|29:332,1,83.9999974365235
208,358,64095,2,0,P|251:364|305:343,1,83.9999974365235,8|0,0:0|0:0,0:0:0:0:
411,268,64411,6,0,P|366:255|315:280,1,83.9999974365235,2|0,0:0|0:0,0:0:0:0:
488,328,64727,1,8,0:0:0:0:
463,161,64885,1,0,0:0:0:0:
463,161,64964,1,0,0:0:0:0:
463,161,65043,2,0,L|467:37,1,83.9999974365235
304,28,65358,2,0,L|304:112,1,83.9999974365235,8|0,0:0|0:0,0:0:0:0:
428,228,65674,6,0,P|376:256|304:248,1,125.999996154785,2|0,0:0|0:0,0:0:0:0:
232,280,65990,2,0,B|220:328|220:328|200:312|164:308,1,83.9999974365235,8|0,0:0|0:0,0:0:0:0:
104,308,66227,1,0,0:0:0:0:
104,308,66306,2,0,P|96:252|116:204,1,83.9999974365235
40,72,66621,1,8,0:0:0:0:
200,100,66779,1,0,0:0:0:0:
40,72,66937,6,0,B|44:116|33:141|33:141|69:157,1,83.9999974365235,2|0,0:0|0:0,0:0:0:0:
200,184,67253,2,0,P|244:200|292:180,1,83.9999974365235,8|0,0:0|0:0,0:0:0:0:
328,168,67490,1,0,0:0:0:0:
328,168,67569,1,8,0:0:0:0:
456,60,67727,1,0,0:0:0:0:
456,60,67806,1,0,0:0:0:0:
456,60,67885,2,0,P|464:140|472:164,1,83.9999974365235,8|0,0:0|0:0,0:0:0:0:
448,224,68121,1,0,0:0:0:0:
368,256,68200,6,0,P|280:280|209:268,1,125.999996154785,2|0,0:0|0:0,0:0:0:0:
160,306,68516,2,0,L|152:360,2,41.9999987182618
214,167,68832,2,0,P|218:114|199:56,1,83.9999974365235
54,21,69148,2,0,P|41:64|53:129,1,83.9999974365235
81,267,69464,6,0,L|60:364,2,83.9999974365235,2|0|0,0:0|0:0|0:0,0:0:0:0:
238,180,69937,1,0,0:0:0:0:
238,180,70016,1,0,0:0:0:0:
238,180,70095,2,0,P|283:192|342:160,1,83.9999974365235
428,20,70411,2,0,P|436:120|436:140,1,83.9999974365235
268,72,70727,6,0,B|216:60|216:60|184:84|140:84|140:84,1,125.999996154785,2|0,0:0|0:0,0:0:0:0:
72,124,71043,2,0,B|60:188|64:216|64:224,1,83.9999974365235
100,284,71279,1,0,0:0:0:0:
100,284,71358,2,0,P|160:276|204:264,1,83.9999974365235
348,296,71674,2,0,P|272:308|260:284,1,83.9999974365235
444,312,71990,6,0,P|456:200|448:176,1,125.999996154785,2|0,0:0|0:0,0:0:0:0:
424,108,72306,2,0,P|380:112|336:104,1,83.9999974365235
272,144,72543,1,0,0:0:0:0:
272,144,72621,2,0,L|276:240,1,83.9999974365235
112,184,72937,1,0,0:0:0:0:
48,32,73095,1,0,0:0:0:0:
198,109,73253,6,0,P|238:69|346:117,1,167.999994873047,2|0,0:0|0:0,0:0:0:0:
436,228,73727,2,0,L|504:236,2,41.9999987182618
272,276,74043,1,0,0:0:0:0:
160,152,74200,1,0,0:0:0:0:
328,176,74358,1,0,0:0:0:0:
174,244,74516,6,0,B|122:292|122:348|122:348|98:308|62:308,1,167.999994873047,2|0,0:0|0:0,0:0:0:0:
36,156,74990,1,0,0:0:0:0:
36,156,75069,1,0,0:0:0:0:
36,156,75148,2,0,P|44:84|56:56,1,83.9999974365235
216,92,75464,2,0,P|176:120|128:124,1,83.9999974365235
280,28,75779,6,0,P|304:108|260:160,1,125.999996154785,2|0,0:0|0:0,0:0:0:0:
216,192,76095,2,0,L|124:204,1,83.9999974365235
116,288,76332,1,0,0:0:0:0:
116,288,76411,2,0,L|224:276,1,83.9999974365235
368,272,76727,1,0,0:0:0:0:
436,120,76885,1,0,0:0:0:0:
436,120,76964,1,0,0:0:0:0:
436,120,77043,6,0,P|448:176|440:216,1,83.9999974365235,2|0,0:0|0:0,0:0:0:0:
344,68,77358,2,0,P|386:29|425:16,1,94.4999971160889
340,160,77674,2,0,P|285:142|254:115,1,83.9999974365235
108,116,77990,2,0,L|48:112,2,41.9999987182618
4,248,78306,6,0,P|120:216|160:220,1,125.999996154785,4|0,0:0|0:0,0:0:0:0:
188,272,78621,2,0,L|308:272,1,83.9999974365235,12|0,0:0|0:0,0:0:0:0:
408,172,78937,2,0,B|300:180|304:180,1,83.9999974365235,4|0,0:0|0:0,0:0:0:0:
455,320,79253,2,0,P|451:279|470:237,1,83.9999974365235,12|0,0:0|0:0,0:0:0:0:
488,158,79490,1,0,0:0:0:0:
488,158,79569,6,0,P|473:73|480:42,1,83.9999974365235,4|0,0:0|0:0,0:0:0:0:
399,35,79806,1,0,0:0:0:0:
399,35,79885,2,0,P|335:55|293:40,1,83.9999974365235,12|0,0:0|0:0,0:0:0:0:
148,52,80200,2,0,P|99:44|57:53,1,83.9999974365235,4|0,0:0|0:0,0:0:0:0:
9,213,80516,2,0,L|19:95,1,83.9999974365235,12|0,0:0|0:0,0:0:0:0:
83,284,80832,6,0,L|109:151,1,125.999996154785,4|0,0:0|0:0,0:0:0:0:
196,148,81148,2,0,P|260:148|284:132,1,83.9999974365235,12|0,0:0|0:0,0:0:0:0:
420,224,81464,1,4,0:0:0:0:
400,56,81621,1,0,0:0:0:0:
324,204,81779,2,0,P|320:276|328:300,1,83.9999974365235,12|0,0:0|0:0,0:0:0:0:
156,320,82095,6,0,L|256:312,1,83.9999974365235,4|0,0:0|0:0,0:0:0:0:
88,240,82411,2,0,P|38:240|-4:210,1,83.9999974365235,12|0,0:0|0:0,0:0:0:0:
60,156,82648,1,0,0:0:0:0:
60,156,82727,2,0,P|134:158|164:152,1,83.9999974365235,4|0,0:0|0:0,0:0:0:0:
280,56,83043,2,0,P|188:60|168:56,1,83.9999974365235,12|0,0:0|0:0,0:0:0:0:
360,20,83358,5,4,0:0:0:0:
468,120,83516,1,4,0:0:0:0:
328,168,83674,1,4,0:0:0:0:
384,100,83832,1,4,0:0:0:0:
448,240,83990,6,0,L|428:348,1,83.9999974365235,2|0,0:0|0:0,0:0:0:0:
304,288,84306,2,0,L|320:388,1,83.9999974365235,2|0,0:0|0:0,0:0:0:0:
156,336,84621,5,4,0:0:0:0:
30,258,84779,1,4,0:0:0:0:
141,156,84937,1,4,0:0:0:0:
128,256,85095,1,4,0:0:0:0:
0,90,85253,6,0,L|104:78,1,83.9999974365235,2|0,0:0|0:0,0:0:0:0:
224,166,85569,2,0,L|92:150,1,83.9999974365235,2|0,0:0|0:0,0:0:0:0:
364,32,85885,6,0,L|344:144,1,83.9999974365235,4|4,0:0|0:0,0:0:0:0:
280,228,86200,1,4,0:0:0:0:
140,108,86358,1,4,0:0:0:0:
240,128,86516,5,4,0:0:0:0:
180,246,86674,1,4,0:0:0:0:
73,188,86832,1,4,0:0:0:0:
0,295,86990,1,4,0:0:0:0:
99,296,87148,5,0,0:0:0:0:
132,262,87227,1,0,0:0:0:0:
180,246,87306,1,0,0:0:0:0:
231,248,87385,1,0,0:0:0:0:
277,266,87464,1,0,0:0:0:0:
312,300,87543,1,0,0:0:0:0:
376,303,87621,5,2,0:0:0:0:
432,279,87700,1,2,0:0:0:0:
449,221,87779,1,2,0:0:0:0:
306,68,87937,1,2,0:0:0:0:
65,184,88095,6,0,L|65:160,1,21,8|0,0:0|0:0,0:0:0:0:
101,120,88411,6,0,B|208:86|172:172|283:146,1,189.000000720978,2|8,0:0|0:0,0:0:0:0:
412,244,88885,1,0,0:0:0:0:
412,244,88964,1,0,0:0:0:0:
412,244,89043,2,0,L|410:129,1,94.5000003604889
500,24,89358,2,0,L|510:126,1,94.5000003604889,8|0,0:0|0:0,0:0:0:0:
312,184,89674,6,0,P|292:276|308:308,1,94.5000003604889,2|0,0:0|0:0,0:0:0:0:
131,376,89990,2,0,B|239:372,1,94.5000003604889,8|0,0:0|0:0,0:0:0:0:
178,289,90227,1,0,0:0:0:0:
178,289,90306,2,0,B|70:293,1,94.5000003604889
225,166,90621,2,0,P|317:178|329:178,1,94.5000003604889,8|0,0:0|0:0,0:0:0:0:
138,119,90937,6,0,P|48:112|44:28,1,189.000000720978,2|8,0:0|0:0,0:0:0:0:
233,26,91411,1,0,0:0:0:0:
233,26,91490,1,0,0:0:0:0:
233,26,91569,2,0,B|280:-3|328:18,1,94.5000003604889
399,190,91885,2,0,B|406:309,1,94.5000003604889,8|0,0:0|0:0,0:0:0:0:
491,116,92200,6,0,L|497:227,1,94.5000003604889,2|0,0:0|0:0,0:0:0:0:
308,261,92516,2,0,L|299:145,1,94.5000003604889,8|0,0:0|0:0,0:0:0:0:
287,87,92753,1,0,0:0:0:0:
287,87,92832,2,0,P|232:78|182:98,1,94.5000003604889
162,279,93148,2,0,P|168:334|153:395,1,94.5000003604889,8|0,0:0|0:0,0:0:0:0:
26,250,93464,6,0,B|24:201|24:201|-1:212|-1:212|27:167|15:75,1,189.000000720978,2|8,0:0|0:0,0:0:0:0:
260,40,93937,1,0,0:0:0:0:
260,40,94016,1,0,0:0:0:0:
260,40,94095,2,0,P|192:48|164:52,1,94.5000003604889
356,76,94411,2,0,P|424:84|452:88,1,94.5000003604889,8|0,0:0|0:0,0:0:0:0:
282,133,94727,6,0,L|285:257,1,94.5000003604889,2|0,0:0|0:0,0:0:0:0:
484,216,95043,2,0,P|484:328|484:336,1,94.5000003604889,8|0,0:0|0:0,0:0:0:0:
400,352,95279,1,0,0:0:0:0:
400,352,95358,2,0,P|328:340|288:360,1,94.5000003604889
124,304,95674,1,8,0:0:0:0:
224,144,95832,1,0,0:0:0:0:
48,76,95990,6,0,B|91:68|113:47|113:47|184:64|240:35,1,189.000000720978,2|8,0:0|0:0,0:0:0:0:
396,85,96464,1,0,0:0:0:0:
396,85,96543,1,0,0:0:0:0:
396,85,96621,2,0,P|408:141|404:181,1,94.5000003604889
246,231,96937,2,0,P|198:241|124:226,1,94.5000003604889,8|0,0:0|0:0,0:0:0:0:
57,83,97253,6,0,L|60:180,1,94.5000003604889,2|0,0:0|0:0,0:0:0:0:
17,348,97569,1,8,0:0:0:0:
179,331,97727,1,0,0:0:0:0:
179,331,97806,1,0,0:0:0:0:
179,331,97885,2,0,P|222:314|287:337,1,94.5000003604889
322,331,98121,1,0,0:0:0:0:
374,333,98200,1,8,0:0:0:0:
421,309,98279,1,0,0:0:0:0:
453,268,98358,1,0,0:0:0:0:
451,214,98437,1,0,0:0:0:0:
410,180,98516,6,0,B|406:168|318:118|331:211|222:151,1,189.000000720978,2|8,0:0|0:0,0:0:0:0:
22,201,98990,1,0,0:0:0:0:
22,201,99069,1,0,0:0:0:0:
22,201,99148,2,0,P|19:259|22:301,1,94.5000003604889
198,352,99464,2,0,P|201:294|198:252,1,94.5000003604889,8|0,0:0|0:0,0:0:0:0:
148,49,99779,6,0,B|269:63,1,94.5000003604889,2|0,0:0|0:0,0:0:0:0:
412,104,100095,2,0,L|318:109,1,94.5000003604889,8|0,0:0|0:0,0:0:0:0:
234,156,100332,1,0,0:0:0:0:
234,156,100411,2,0,P|238:248|242:264,1,94.5000003604889
62,256,100727,2,0,P|78:356|90:388,1,94.5000003604889,8|0,0:0|0:0,0:0:0:0:
99,167,101043,6,0,B|130:125|119:32|119:32|169:67,1,189.000000720978,2|8,0:0|0:0,0:0:0:0:
408,52,101516,1,0,0:0:0:0:
416,60,101595,1,0,0:0:0:0:
416,60,101674,2,0,L|321:63,1,94.5000003604889
344,252,101990,2,0,P|368:200|424:232,1,94.5000003604889,8|0,0:0|0:0,0:0:0:0:
424,336,102306,6,0,P|336:340|304:320,1,94.5000003604889,2|0,0:0|0:0,0:0:0:0:
148,294,102621,2,0,L|152:178,1,94.5000003604889,8|0,0:0|0:0,0:0:0:0:
85,142,102858,1,0,0:0:0:0:
85,142,102937,2,0,P|36:171|25:232,1,94.5000003604889
164,118,103253,2,0,P|163:80|91:32,1,94.5000003604889,8|0,0:0|0:0,0:0:0:0:
341,73,103569,6,0,B|373:81|405:61|405:61|421:145|473:165,1,189.000000720978,2|8,0:0|0:0,0:0:0:0:
483,344,104043,1,0,0:0:0:0:
483,344,104121,1,0,0:0:0:0:
483,344,104200,2,0,P|482:288|471:244,1,94.5000003604889
283,243,104516,2,0,L|395:231,1,94.5000003604889,8|0,0:0|0:0,0:0:0:0:
176,142,104832,6,0,L|63:152,1,94.5000003604889,2|0,0:0|0:0,0:0:0:0:
192,308,105148,1,8,0:0:0:0:
299,166,105306,1,0,0:0:0:0:
308,119,105385,1,0,0:0:0:0:
282,77,105464,2,0,P|241:36|185:35,1,94.5000003604889
37,72,105779,1,8,0:0:0:0:
26,266,105937,1,0,0:0:0:0:
58,231,106016,1,0,0:0:0:0:
96,211,106095,6,0,P|208:202|263:224,1,141.750000540733,2|0,0:0|0:0,0:0:0:0:
320,244,106411,2,0,B|348:240|372:252|372:252|392:240|420:240,1,94.5000003604889,8|0,0:0|0:0,0:0:0:0:
488,184,106648,1,0,0:0:0:0:
488,184,106727,2,0,P|496:140|484:72,1,94.5000003604889
304,44,107043,2,0,P|324:104|372:108,1,94.5000003604889,8|0,0:0|0:0,0:0:0:0:
176,32,107358,6,0,B|44:48|48:48,1,94.5000003604889,2|0,0:0|0:0,0:0:0:0:
168,212,107674,1,8,0:0:0:0:
356,184,107832,1,0,0:0:0:0:
216,312,107990,1,0,0:0:0:0:
252,128,108148,1,0,0:0:0:0:
332,300,108306,1,8,0:0:0:0:
168,212,108464,1,0,0:0:0:0:
356,184,108621,6,2,L|460:180,1,94.5000003604889
155,99,109095,6,8,L|31:91,1,94.5000003604889
347,43,109569,6,2,L|459:43,1,94.5000003604889
230,247,110043,6,8,L|226:343,1,94.5000003604889
52,112,110516,6,0,B|112:112|144:144|144:144|184:110|256:112,1,189.000000720978,2|0,0:0|0:0,0:0:0:0:
392,88,110990,1,0,0:0:0:0:
364,296,111148,6,2,L|256:288,1,94.5000003604889
80,304,111464,1,8,0:0:0:0:
180,64,111621,6,2,L|168:176,1,94.5000003604889
356,195,111937,1,8,0:0:0:0:
445,28,112095,6,2,L|329:44,1,94.5000003604889
240,196,112411,1,8,0:0:0:0:
72,112,112569,6,2,L|80:0,1,94.5000003604889
143,196,112885,1,8,0:0:0:0:
418,96,113043,5,0,0:0:0:0:
397,138,113121,1,0,0:0:0:0:
365,169,113200,1,0,0:0:0:0:
327,185,113279,1,0,0:0:0:0:
289,179,113358,1,0,0:0:0:0:
260,159,113437,1,0,0:0:0:0:
244,129,113516,1,0,0:0:0:0:
232,101,113595,1,0,0:0:0:0:
228,79,113674,6,0,B|152:108|144:49|55:90,1,167.999994873047,2|8,0:0|0:0,0:0:0:0:
9,246,114148,1,0,0:0:0:0:
9,246,114227,1,0,0:0:0:0:
9,246,114306,2,0,P|5:287|7:329,1,83.9999974365235
172,361,114621,2,0,P|217:364|268:354,1,83.9999974365235,8|0,0:0|0:0,0:0:0:0:
324,200,114937,5,2,0:0:0:0:
464,296,115095,1,2,0:0:0:0:
412,136,115253,1,8,0:0:0:0:
344,288,115411,1,0,0:0:0:0:
344,288,115490,1,0,0:0:0:0:
344,288,115569,2,0,L|240:304,1,83.9999974365235
159,146,115885,2,0,P|199:186|183:238,1,83.9999974365235,8|0,0:0|0:0,0:0:0:0:
36,180,116200,6,0,B|56:164|56:164|56:140|72:164|72:164|60:100|132:52,1,167.999994873047,2|8,0:0|0:0,0:0:0:0:
280,36,116674,1,0,0:0:0:0:
280,36,116753,1,0,0:0:0:0:
280,36,116832,2,0,P|352:32|380:36,1,83.9999974365235
452,180,117148,2,0,P|440:108|440:80,1,83.9999974365235,8|0,0:0|0:0,0:0:0:0:
272,120,117464,5,2,0:0:0:0:
116,196,117621,1,2,0:0:0:0:
188,48,117779,1,8,0:0:0:0:
216,212,117937,1,0,0:0:0:0:
216,212,118016,1,0,0:0:0:0:
216,212,118095,2,0,P|212:292|208:312,1,83.9999974365235
50,346,118411,2,0,P|54:266|58:246,1,83.9999974365235,8|0,0:0|0:0,0:0:0:0:
166,139,118727,6,0,B|217:107|250:164|330:123,1,167.999994873047,2|8,0:0|0:0,0:0:0:0:
452,237,119200,1,0,0:0:0:0:
452,237,119279,1,0,0:0:0:0:
452,237,119358,2,0,P|448:317|444:333,1,83.9999974365235
339,190,119674,2,0,P|367:270|363:298,1,83.9999974365235,8|0,0:0|0:0,0:0:0:0:
232,370,119990,5,2,0:0:0:0:
103,297,120148,1,2,0:0:0:0:
198,158,120306,1,8,0:0:0:0:
35,200,120464,1,0,0:0:0:0:
35,200,120543,1,0,0:0:0:0:
35,200,120621,2,0,P|37:139|61:95,1,83.9999974365235
200,157,120937,2,0,P|211:107|206:60,1,83.9999974365235,8|0,0:0|0:0,0:0:0:0:
364,20,121253,6,0,P|442:33|427:116,1,167.999994873047,2|8,0:0|0:0,0:0:0:0:
382,248,121727,1,0,0:0:0:0:
382,248,121806,1,0,0:0:0:0:
382,248,121885,2,0,P|337:239|294:253,1,83.9999974365235
153,290,122200,2,0,P|102:303|55:288,1,83.9999974365235,8|0,0:0|0:0,0:0:0:0:
100,124,122516,5,2,0:0:0:0:
252,52,122674,1,2,0:0:0:0:
84,28,122832,1,8,0:0:0:0:
204,144,122990,2,0,L|216:204,2,41.9999987182618,0|0|8,0:0|0:0|0:0,0:0:0:0:
376,144,123306,1,0,0:0:0:0:
358,171,123385,1,0,0:0:0:0:
354,219,123464,1,8,0:0:0:0:
390,259,123543,1,8,0:0:0:0:
440,259,123621,1,8,0:0:0:0:
468,212,123700,1,8,0:0:0:0:
462,161,123779,6,0,B|462:93|438:29|438:29|410:65,1,167.999994873047,2|8,0:0|0:0,0:0:0:0:
274,145,124253,1,0,0:0:0:0:
274,145,124332,1,0,0:0:0:0:
274,145,124411,2,0,P|274:225|286:253,1,83.9999974365235
398,331,124727,2,0,P|403:250|391:218,1,83.9999974365235,8|0,0:0|0:0,0:0:0:0:
339,65,125043,5,2,0:0:0:0:
184,100,125200,1,2,0:0:0:0:
35,39,125358,1,8,0:0:0:0:
122,178,125516,1,0,0:0:0:0:
122,178,125595,1,0,0:0:0:0:
122,178,125674,2,0,P|122:250|126:278,1,83.9999974365235
278,328,125990,2,0,P|242:312|202:328,1,83.9999974365235,8|0,0:0|0:0,0:0:0:0:
21,341,126306,6,0,B|52:251|-3:263|42:158,1,167.999994873047,2|8,0:0|0:0,0:0:0:0:
137,43,126779,1,0,0:0:0:0:
137,43,126858,1,0,0:0:0:0:
137,43,126937,2,0,P|188:50|233:47,1,83.9999974365235
382,97,127253,2,0,P|331:104|286:101,1,83.9999974365235,8|0,0:0|0:0,0:0:0:0:
164,206,127569,5,2,0:0:0:0:
328,307,127727,1,2,0:0:0:0:
145,315,127885,1,8,0:0:0:0:
302,175,128043,1,0,0:0:0:0:
302,175,128121,1,0,0:0:0:0:
302,175,128200,2,0,P|378:199|390:231,1,83.9999974365235
456,48,128516,2,0,L|456:144,1,83.9999974365235,8|0,0:0|0:0,0:0:0:0:
415,303,128832,6,0,B|372:281|372:281|319:307|239:283,1,167.999994873047,2|8,0:0|0:0,0:0:0:0:
92,244,129306,1,0,0:0:0:0:
92,244,129385,1,0,0:0:0:0:
92,244,129464,2,0,P|96:168|96:152,1,83.9999974365235
0,300,129779,2,0,P|12:208|16:188,1,83.9999974365235,8|0,0:0|0:0,0:0:0:0:
88,64,130095,5,2,0:0:0:0:
233,122,130253,1,2,0:0:0:0:
376,20,130411,1,8,0:0:0:0:
327,180,130569,1,0,0:0:0:0:
327,180,130648,1,0,0:0:0:0:
327,180,130727,2,0,P|320:222|327:266,1,83.9999974365235
488,214,131043,2,0,P|495:172|488:128,1,83.9999974365235,8|0,0:0|0:0,0:0:0:0:
324,96,131358,6,0,B|245:82|244:138|156:120,1,167.999994873047,2|8,0:0|0:0,0:0:0:0:
4,160,131832,1,0,0:0:0:0:
4,160,131911,1,0,0:0:0:0:
4,160,131990,2,0,P|36:156|96:180,1,83.9999974365235
168,316,132306,1,8,0:0:0:0:
324,256,132464,1,0,0:0:0:0:
324,256,132543,1,0,0:0:0:0:
324,256,132621,6,0,L|324:160,1,83.9999974365235,2|2,0:0|0:0,0:0:0:0:
484,80,132937,1,8,0:0:0:0:
437,241,133095,2,0,L|437:289,2,41.9999987182618,0|0|8,0:0|0:0|0:0,0:0:0:0:
254,145,133411,1,0,0:0:0:0:
250,172,133490,1,0,0:0:0:0:
268,201,133569,1,8,0:0:0:0:
305,213,133648,1,8,0:0:0:0:
344,192,133727,1,8,0:0:0:0:
355,148,133806,1,8,0:0:0:0:
331,103,133885,6,0,P|255:59|171:115,1,167.999994873047,2|8,0:0|0:0,0:0:0:0:
32,148,134358,1,0,0:0:0:0:
32,148,134437,1,0,0:0:0:0:
32,148,134516,2,0,L|20:32,1,83.9999974365235
133,193,134832,2,0,P|137:261|125:301,1,83.9999974365235,8|0,0:0|0:0,0:0:0:0:
268,328,135148,5,2,0:0:0:0:
452,236,135306,1,0,0:0:0:0:
296,172,135464,1,10,0:0:0:0:
400,312,135621,1,0,0:0:0:0:
400,312,135700,1,0,0:0:0:0:
400,312,135779,2,0,P|343:315|312:304,1,83.9999974365235
296,172,136095,2,0,P|240:172|212:188,1,83.9999974365235,8|0,0:0|0:0,0:0:0:0:
89,114,136411,5,2,0:0:0:0:
48,288,136569,1,0,0:0:0:0:
7,194,136727,1,8,0:0:0:0:
168,252,136885,1,0,0:0:0:0:
168,252,136964,1,0,0:0:0:0:
168,252,137043,2,0,P|236:252|264:248,1,83.9999974365235
266,84,137358,2,0,P|254:131|272:174,1,83.9999974365235,8|0,0:0|0:0,0:0:0:0:
412,184,137674,5,2,0:0:0:0:
476,28,137832,1,0,0:0:0:0:
333,125,137990,1,10,0:0:0:0:
496,176,138148,1,0,0:0:0:0:
496,176,138227,1,0,0:0:0:0:
496,176,138306,2,0,P|488:228|456:256,1,83.9999974365235
304,296,138621,2,0,P|252:292|196:300,1,83.9999974365235,8|0,0:0|0:0,0:0:0:0:
236,128,138937,6,0,B|272:164|252:208|252:208|284:176|320:152,1,167.999994873047,2|8,0:0|0:0,0:0:0:0:
400,16,139411,1,0,0:0:0:0:
400,16,139490,1,0,0:0:0:0:
400,16,139569,2,0,P|320:12|304:24,1,83.9999974365235
152,44,139885,2,0,P|232:48|248:36,1,83.9999974365235,8|0,0:0|0:0,0:0:0:0:
72,100,140200,5,2,0:0:0:0:
208,200,140358,1,0,0:0:0:0:
41,223,140516,1,8,0:0:0:0:
153,340,140674,1,0,0:0:0:0:
186,313,140753,1,0,0:0:0:0:
230,301,140832,2,0,P|269:304|317:329,1,83.9999974365235
494,349,141148,2,0,L|381:371,1,83.9999974365235,8|0,0:0|0:0,0:0:0:0:
365,242,141464,6,0,B|353:198|369:150,1,83.9999974365235,2|0,0:0|0:0,0:0:0:0:
480,60,141779,1,8,0:0:0:0:
260,44,141937,1,0,0:0:0:0:
260,44,142016,1,0,0:0:0:0:
260,44,142095,2,0,P|316:40|360:52,1,83.9999974365235
184,100,142411,2,0,P|112:100|88:88,1,83.9999974365235,8|0,0:0|0:0,0:0:0:0:
260,160,142727,5,2,0:0:0:0:
301,313,142885,1,2,0:0:0:0:
188,222,143043,1,10,0:0:0:0:
337,230,143200,1,2,0:0:0:0:
205,306,143358,2,0,L|109:302,1,83.9999974365235,8|8,0:0|0:0,0:0:0:0:
106,303,143595,1,8,0:0:0:0:
85,301,143674,1,8,0:0:0:0:
60,289,143753,1,8,0:0:0:0:
33,257,143832,1,8,0:0:0:0:
30,209,143911,1,8,0:0:0:0:
62,175,143990,6,0,B|106:179|153:169|153:169|174:199,1,105.000004005432,2|0,0:0|0:0,0:0:0:0:
252,200,144464,1,0,0:0:0:0:
252,200,144621,2,0,P|300:208|352:188,1,105.000004005432,8|0,0:0|0:0,0:0:0:0:
438,123,145095,1,0,0:0:0:0:
438,123,145253,6,0,P|446:231|446:239,1,105.000004005432,2|0,0:0|0:0,0:0:0:0:
328,312,145885,2,0,L|332:376,2,52.5000020027161,8|0|0,0:0|0:0|0:0,0:0:0:0:
216,240,146516,6,0,B|192:236|168:214|168:214|150:237|114:240,1,105.000004005432,2|0,0:0|0:0,0:0:0:0:
30,81,147148,2,0,P|34:145|70:179,1,105.000004005432,8|0,0:0|0:0,0:0:0:0:
136,96,147621,1,0,0:0:0:0:
136,96,147779,6,0,B|136:64|136:64|177:81|216:60,1,105.000004005432,2|0,0:0|0:0,0:0:0:0:
360,120,148411,2,0,P|368:200|352:240,1,105.000004005432,8|0,0:0|0:0,0:0:0:0:
275,113,149043,6,0,P|295:61|347:38,1,105.000004005432,2|0,0:0|0:0,0:0:0:0:
438,48,149516,1,0,0:0:0:0:
499,128,149674,2,0,L|499:197,1,52.5000020027161,8|0,0:0|0:0,0:0:0:0:
412,256,149990,2,0,L|404:195,1,52.5000020027161
313,158,150306,6,0,B|265:170|205:170,1,105.000004005432,2|0,0:0|0:0,0:0:0:0:
131,232,150779,1,0,0:0:0:0:
131,232,150937,2,0,P|114:290|136:339,1,105.000004005432,8|0,0:0|0:0,0:0:0:0:
220,280,151411,1,0,0:0:0:0:
220,280,151569,6,0,P|237:222|215:173,1,105.000004005432,2|0,0:0|0:0,0:0:0:0:
249,90,152043,1,0,0:0:0:0:
249,90,152200,2,0,L|313:78,2,52.5000020027161,8|0|0,0:0|0:0|0:0,0:0:0:0:
139,55,152674,1,0,0:0:0:0:
58,128,152832,5,2,0:0:0:0:
200,255,153148,1,0,0:0:0:0:
32,242,153464,1,8,0:0:0:0:
179,162,153779,1,0,0:0:0:0:
299,265,154095,6,0,P|284:333|305:381,1,105.000004005432,2|0,0:0|0:0,0:0:0:0:
421,330,154569,1,0,0:0:0:0:
421,330,154727,2,0,P|433:266|417:218,1,105.000004005432,8|0,0:0|0:0,0:0:0:0:
372,124,155200,1,0,0:0:0:0:
372,124,155358,6,0,P|288:128|256:116,1,105.000004005432,2|0,0:0|0:0,0:0:0:0:
104,84,155990,2,0,L|108:24,2,52.5000020027161,8|0|0,0:0|0:0|0:0,0:0:0:0:
164,284,156621,6,0,B|168:244|164:196|164:196|204:208,1,105.000004005432,2|0,0:0|0:0,0:0:0:0:
338,218,157253,2,0,P|382:170|374:114,1,105.000004005432,8|0,0:0|0:0,0:0:0:0:
316,48,157727,1,0,0:0:0:0:
316,48,157885,6,0,P|265:33|201:59,1,105.000004005432,2|0,0:0|0:0,0:0:0:0:
85,152,158516,2,0,P|71:205|83:258,1,105.000004005432,8|0,0:0|0:0,0:0:0:0:
263,346,159148,6,0,P|281:293|264:245,1,105.000004005432,2|0,0:0|0:0,0:0:0:0:
220,160,159621,1,0,0:0:0:0:
220,160,159779,2,0,P|239:117|296:121,1,105.000004005432,8|0,0:0|0:0,0:0:0:0:
461,180,160411,6,0,B|476:146|476:146|445:75,1,105.000004005432,2|0,0:0|0:0,0:0:0:0:
393,244,161043,2,0,P|381:300|401:368,1,105.000004005432,8|0,0:0|0:0,0:0:0:0:
502,308,161516,1,0,0:0:0:0:
502,308,161674,6,0,P|514:260|498:204,1,105.000004005432,2|0,0:0|0:0,0:0:0:0:
408,44,162306,2,0,P|340:64|296:40,1,105.000004005432,8|0,0:0|0:0,0:0:0:0:
104,80,162937,6,0,B|136:100|136:100|160:88|224:92,1,105.000004005432,2|0,0:0|0:0,0:0:0:0:
292,148,163411,1,0,0:0:0:0:
292,148,163569,2,0,L|292:240,1,78.7500030040742,8|0,0:0|0:0,0:0:0:0:
280,283,163885,2,0,P|246:292|208:310,1,46.6666666666667,8|8,0:0|0:0,0:0:0:0:
155,326,164095,1,8,0:0:0:0:
68,276,164200,6,0,L|22:266,2,46.6666666666667,8|0|0,0:0|0:0|0:0,0:0:0:0:
148,223,164516,2,0,L|193:213,2,46.6666666666667,8|0|0,0:0|0:0|0:0,0:0:0:0:
79,147,164832,2,0,L|33:137,2,46.6666666666667,8|0|0,0:0|0:0|0:0,0:0:0:0:
135,70,165148,2,0,L|180:60,2,46.6666666666667,8|0|0,0:0|0:0|0:0,0:0:0:0:
220,132,165464,6,0,L|308:136,1,46.6666666666667,8|0,0:0|0:0,0:0:0:0:
324,208,165674,1,0,0:0:0:0:
324,208,165779,2,0,L|370:208,1,46.6666666666667,8|0,0:0|0:0,0:0:0:0:
448,156,165990,1,0,0:0:0:0:
448,156,166095,2,0,L|448:108,2,46.6666666666667,8|0|0,0:0|0:0|0:0,0:0:0:0:
448,236,166411,2,0,L|448:284,2,46.6666666666667,8|0|0,0:0|0:0|0:0,0:0:0:0:
356,260,166727,5,8,0:0:0:0:
308,244,166832,1,0,0:0:0:0:
252,244,166937,1,0,0:0:0:0:
204,268,167043,1,8,0:0:0:0:
176,316,167148,1,0,0:0:0:0:
184,372,167253,1,0,0:0:0:0:
233,348,167358,5,8,0:0:0:0:
257,302,167464,1,0,0:0:0:0:
252,244,167569,1,0,0:0:0:0:
223,199,167674,1,8,0:0:0:0:
173,173,167779,1,0,0:0:0:0:
123,163,167885,1,0,0:0:0:0:
52,100,167990,6,0,L|56:20,2,46.6666666666667,8|0|0,0:0|0:0|0:0,0:0:0:0:
123,163,168306,2,0,L|123:223,2,46.6666666666667,8|0|0,0:0|0:0|0:0,0:0:0:0:
184,96,168621,5,8,0:0:0:0:
226,58,168727,1,0,0:0:0:0:
282,49,168832,1,0,0:0:0:0:
334,72,168937,1,8,0:0:0:0:
372,114,169043,1,0,0:0:0:0:
381,167,169148,1,0,0:0:0:0:
324,240,169253,6,0,L|240:252,1,46.6666666666667,8|0,0:0|0:0,0:0:0:0:
220,324,169464,1,0,0:0:0:0:
220,324,169569,2,0,L|300:324,2,46.6666666666667,8|0|0,0:0|0:0|0:0,0:0:0:0:
136,284,169885,6,0,L|136:228,1,46.6666666666667,8|0,0:0|0:0,0:0:0:0:
48,264,170095,1,0,0:0:0:0:
48,264,170200,2,0,L|44:328,2,46.6666666666667,8|0|0,0:0|0:0|0:0,0:0:0:0:
84,176,170516,5,8,0:0:0:0:
141,176,170621,1,0,0:0:0:0:
198,177,170727,1,0,0:0:0:0:
252,100,170832,5,8,0:0:0:0:
309,100,170937,1,0,0:0:0:0:
366,101,171043,1,0,0:0:0:0:
456,116,171148,5,8,0:0:0:0:
427,165,171253,1,0,0:0:0:0:
398,214,171358,1,0,0:0:0:0:
336,284,171464,5,8,0:0:0:0:
308,234,171569,1,0,0:0:0:0:
280,184,171674,1,0,0:0:0:0:
252,100,171779,6,0,L|252:48,2,46.6666666666667,8|0|0,0:0|0:0|0:0,0:0:0:0:
176,160,172095,2,0,L|172:244,2,46.6666666666667,8|0|0,0:0|0:0|0:0,0:0:0:0:
90,310,172411,6,0,B|197:234|207:362|335:296,1,236.250009012223,8|0,0:0|0:0,0:0:0:0:
396,128,173674,6,0,P|400:196|324:208,1,140
228,216,174621,1,0,0:0:0:0:
140,140,174937,2,0,L|60:144,1,70
200,72,175568,2,0,L|284:80,1,70
388,64,176200,6,0,P|384:112|408:200,1,140
464,280,177147,1,0,0:0:0:0:
352,280,177463,2,0,B|308:280|284:300|284:300|236:272|208:280,1,140
30,310,178726,6,0,P|26:242|98:206,1,140
327,112,179989,2,0,L|327:200,1,70
234,218,180621,2,0,P|197:218|163:204,1,70
263,63,181252,6,0,P|323:35|391:71,2,140
420,268,183779,6,0,B|360:236|368:304|268:256,1,140
176,240,184726,1,0,0:0:0:0:
84,180,185042,2,0,P|80:112|152:88,1,140
291,246,186305,6,0,B|276:282|295:347|295:347|259:338,1,140
180,264,187252,1,0,0:0:0:0:
243,163,187568,2,0,P|355:147|383:167,1,140
180,264,188831,5,0,0:0:0:0:
84,24,189463,1,0,0:0:0:0:
108,215,190095,2,0,P|96:177|111:138,1,70
216,103,190726,2,0,P|228:141|213:180,1,70
320,228,191358,6,0,P|392:236|464:240,2,140
280,100,193884,6,0,P|280:168|348:172,1,140
388,76,194831,1,0,0:0:0:0:
288,28,195147,2,0,P|220:20|140:48,1,140
96,140,196095,1,0,0:0:0:0:
40,236,196410,6,0,B|44:296|28:336|28:336|68:308,1,140
172,284,197358,1,0,0:0:0:0:
276,248,197674,2,0,P|320:252|352:248,1,70
432,164,198305,2,0,P|395:162|348:148,1,70
252,128,198937,6,0,P|168:96|169:39,1,140
276,44,199884,1,0,0:0:0:0:
380,88,200200,2,0,P|401:160|392:236,1,140
376,280,200989,1,0,0:0:0:0:
376,280,201147,1,0,0:0:0:0:
275,239,201463,6,0,P|247:227|143:246,1,140
38,252,202252,2,0,L|-6:252,2,35
85,168,202726,2,0,B|81:116|73:124|73:124|85:76|81:24,1,140
428,88,203989,6,0,P|352:84|320:92,1,105.000004005432
268,152,204463,1,0,0:0:0:0:
268,152,204621,2,0,P|280:240|264:272,1,105.000004005432
144,356,205252,6,0,L|260:352,1,105.000004005432
94,285,205884,2,0,B|93:255|85:232|85:232|97:209|98:176,1,105.000004005432
156,25,206516,6,0,B|38:34|41:34,1,105.000004005432
88,108,206989,1,0,0:0:0:0:
88,108,207147,2,0,P|177:110|199:116,1,105.000004005432
359,129,207779,6,0,L|357:29,2,78.7500030040742
434,167,208410,2,0,L|441:263,2,78.7500030040742
350,178,209042,6,0,P|302:189|225:194,1,105.000004005432
179,248,209516,1,0,0:0:0:0:
179,248,209674,2,0,P|184:318|162:373,1,105.000004005432
101,189,210305,6,0,P|43:187|-5:157,1,105.000004005432
166,67,210937,2,0,L|235:71,2,52.5000020027161
334,56,211568,6,0,B|380:70|392:92|392:92|452:93,1,105.000004005432
511,89,212042,1,0,0:0:0:0:
501,171,212200,2,0,L|501:223,2,52.5000020027161
511,89,212674,1,0,0:0:0:0:
431,124,212831,6,0,B|375:130|341:154|341:154|313:131|229:127,1,210.000008010865
68,104,213779,1,0,0:0:0:0:
144,256,214095,1,0,0:0:0:0:
172,144,224200,6,0,L|64:148,1,83.9999974365235,4|0,0:0|0:0,0:0:0:0:
220,220,224516,2,0,L|316:216,1,83.9999974365235,4|0,0:0|0:0,0:0:0:0:
452,252,224831,2,0,P|463:297|431:345,1,83.9999974365235,4|0,0:0|0:0,0:0:0:0:
396,188,225147,2,0,P|400:140|424:116,1,83.9999974365235,4|0,0:0|0:0,0:0:0:0:
280,64,225463,6,0,P|348:68|372:60,1,83.9999974365235,4|0,0:0|0:0,0:0:0:0:
220,16,225779,2,0,P|128:16|120:20,1,83.9999974365235,4|0,0:0|0:0,0:0:0:0:
64,144,226095,2,0,L|68:52,1,83.9999974365235,4|0,0:0|0:0,0:0:0:0:
136,196,226410,2,0,L|148:92,1,83.9999974365235,4|0,0:0|0:0,0:0:0:0:
244,232,226726,6,0,P|196:268|152:272,1,83.9999974365235,4|0,0:0|0:0,0:0:0:0:
36,340,227042,2,0,L|140:344,1,83.9999974365235,4|0,0:0|0:0,0:0:0:0:
276,320,227358,2,0,P|320:264|316:228,1,83.9999974365235,4|0,0:0|0:0,0:0:0:0:
408,128,227673,2,0,L|400:244,1,83.9999974365235,4|0,0:0|0:0,0:0:0:0:
368,64,227989,6,0,P|432:52|468:88,1,83.9999974365235,4|0,0:0|0:0,0:0:0:0:
304,116,228305,2,0,L|204:116,1,83.9999974365235,4|0,0:0|0:0,0:0:0:0:
93,223,228621,2,0,L|97:311,1,83.9999974365235,4|0,0:0|0:0,0:0:0:0:
150,152,228937,2,0,P|142:110|174:51,1,83.9999974365235,4|0,0:0|0:0,0:0:0:0:
339,32,229252,5,4,0:0:0:0:
429,90,229410,1,0,0:0:0:0:
381,224,229568,1,4,0:0:0:0:
467,179,229726,1,0,0:0:0:0:
288,149,229884,5,4,0:0:0:0:
288,149,230042,2,0,L|285:248,1,83.9999974365235,0|4,0:0|0:0,0:0:0:0:
147,351,230358,1,0,0:0:0:0:
147,351,230516,6,0,P|199:330|246:351,1,83.9999974365235,4|0,0:0|0:0,0:0:0:0:
56,254,230831,2,0,P|53:182|54:145,1,83.9999974365235,4|0,0:0|0:0,0:0:0:0:
188,56,231147,2,0,P|229:63|290:63,1,83.9999974365235,4|0,0:0|0:0,0:0:0:0:
432,142,231463,2,0,L|428:245,1,83.9999974365235,4|0,0:0|0:0,0:0:0:0:
302,329,231779,5,4,0:0:0:0:
193,245,231937,1,4,0:0:0:0:
317,156,232095,1,4,0:0:0:0:
287,243,232252,1,4,0:0:0:0:
133,161,232410,5,4,0:0:0:0:
135,16,232568,1,4,0:0:0:0:
290,70,232726,1,4,0:0:0:0:
196,97,232884,1,4,0:0:0:0:
41,135,233042,6,0,L|36:174,12,26.2500010013581
160,236,233595,1,0,0:0:0:0:
160,236,233673,6,0,L|160:220,1,14
212,188,233989,6,0,B|276:144|316:192|316:192|402:156,1,210,8|0,0:0|0:0,0:0:0:0:
452,52,234305,6,0,P|408:59|356:57,1,83.9999974365235,2|0,0:0|0:0,0:0:0:0:
217,77,234621,1,8,0:0:0:0:
67,102,234779,1,0,0:0:0:0:
67,102,234858,1,0,0:0:0:0:
67,102,234937,2,0,P|59:62|71:6,1,83.9999974365235,2|0,0:1|0:0,0:0:0:0:
142,149,235252,2,0,P|150:189|138:245,1,83.9999974365235,8|0,0:0|0:0,0:0:0:0:
77,379,235568,6,0,L|187:370,1,83.9999974365235,2|0,0:0|0:0,0:0:0:0:
280,280,235884,1,8,0:0:0:0:
143,231,236042,1,0,0:0:0:0:
143,231,236121,1,0,0:0:0:0:
143,231,236200,2,0,P|94:217|52:216,1,83.9999974365235,2|0,0:1|0:0,0:0:0:0:
197,152,236516,2,0,P|167:126|106:105,1,83.9999974365235,8|0,0:0|0:0,0:0:0:0:
287,120,236831,6,0,P|316:103|396:127,1,83.9999974365235,2|0,0:0|0:0,0:0:0:0:
459,221,237147,1,8,0:0:0:0:
493,97,237305,1,0,0:0:0:0:
493,97,237384,1,0,0:0:0:0:
493,97,237463,2,0,L|494:-18,1,83.9999974365235,2|0,0:1|0:0,0:0:0:0:
365,104,237779,1,8,0:0:0:0:
251,35,237937,1,0,0:0:0:0:
302,172,238095,6,0,P|291:223|306:274,1,83.9999974365235,2|0,0:0|0:0,0:0:0:0:
440,310,238410,1,8,0:0:0:0:
304,371,238568,1,0,0:0:0:0:
304,371,238647,1,0,0:0:0:0:
304,371,238726,2,0,L|202:386,1,83.9999974365235
143,237,239042,2,0,L|147:343,1,83.9999974365235,8|0,0:0|0:0,0:0:0:0:
4,257,239358,6,0,B|4:152,1,83.9999974365235,2|0,0:0|0:0,0:0:0:0:
88,50,239673,2,0,P|144:37|191:52,1,83.9999974365235,8|0,0:0|0:0,0:0:0:0:
243,61,239910,1,0,0:0:0:0:
243,61,239989,2,0,P|299:57|331:37,1,83.9999974365235,2|0,0:1|0:0,0:0:0:0:
473,21,240305,2,0,P|465:113|465:125,1,83.9999974365235,8|0,0:0|0:0,0:0:0:0:
384,240,240621,6,0,P|392:292|380:340,1,83.9999974365235,2|0,0:0|0:0,0:0:0:0:
243,365,240937,1,8,0:0:0:0:
116,305,241095,1,0,0:0:0:0:
116,305,241173,1,0,0:0:0:0:
116,305,241252,2,0,P|93:258|125:190,1,125.999996154785,2|0,0:1|0:0,0:0:0:0:
186,143,241568,2,0,L|269:152,1,83.9999974365235,8|0,0:0|0:0,0:0:0:0:
392,62,241884,6,0,L|278:39,1,83.9999974365235,2|0,0:0|0:0,0:0:0:0:
163,3,242200,1,8,0:0:0:0:
190,151,242358,1,0,0:0:0:0:
190,151,242437,1,0,0:0:0:0:
190,151,242516,2,0,P|192:217|205:267,1,83.9999974365235,2|0,0:1|0:0,0:0:0:0:
358,192,242831,2,0,L|362:300,1,83.9999974365235,8|0,0:0|0:0,0:0:0:0:
437,137,243147,6,0,L|425:41,1,83.9999974365235,2|0,0:0|0:0,0:0:0:0:
276,27,243463,1,8,0:0:0:0:
180,136,243621,1,0,0:0:0:0:
180,136,243700,1,0,0:0:0:0:
180,136,243779,2,0,P|140:143|92:138,1,83.9999974365235,8|0,0:0|0:0,0:0:0:0:
42,194,244016,1,0,0:0:0:0:
42,194,244095,2,0,P|34:278|34:286,1,83.9999974365235,8|0,0:0|0:0,0:0:0:0:
108,312,244331,1,0,0:0:0:0:
108,312,244410,6,0,P|180:308|208:316,1,83.9999974365235,2|0,0:0|0:0,0:0:0:0:
340,332,244726,1,8,0:0:0:0:
436,216,244884,1,0,0:0:0:0:
436,216,244963,1,0,0:0:0:0:
436,216,245042,2,0,P|424:136|432:108,1,83.9999974365235,2|0,0:1|0:0,0:0:0:0:
276,104,245358,2,0,P|280:24|288:0,1,83.9999974365235,8|0,0:0|0:0,0:0:0:0:
324,168,245673,6,0,P|276:184|212:156,1,83.9999974365235,2|0,0:0|0:0,0:0:0:0:
88,180,245989,1,8,0:0:0:0:
164,52,246147,1,0,0:0:0:0:
164,52,246226,1,0,0:0:0:0:
164,52,246305,2,0,P|156:112|156:136,1,83.9999974365235,2|0,0:1|0:0,0:0:0:0:
104,280,246621,2,0,B|56:262|0:291,1,83.9999974365235,8|0,0:0|0:0,0:0:0:0:
176,312,246937,6,0,P|222:318|265:304,1,83.9999974365235,2|0,0:0|0:0,0:0:0:0:
388,232,247252,1,8,0:0:0:0:
332,92,247410,1,0,0:0:0:0:
332,92,247489,1,0,0:0:0:0:
332,92,247568,2,0,B|312:172|296:188|296:188|344:172,1,125.999996154785,2|0,0:1|0:0,0:0:0:0:
388,152,247884,2,0,P|412:96|408:56,1,83.9999974365235,8|0,0:0|0:0,0:0:0:0:
268,28,248200,6,0,L|176:40,1,83.9999974365235,2|0,0:0|0:0,0:0:0:0:
60,124,248516,1,8,0:0:0:0:
156,240,248673,1,0,0:0:0:0:
156,240,248752,1,0,0:0:0:0:
156,240,248831,2,0,P|160:200|152:136,1,83.9999974365235,2|0,0:1|0:0,0:0:0:0:
56,272,249147,2,0,P|52:332|56:360,1,83.9999974365235,8|0,0:0|0:0,0:0:0:0:
204,331,249463,6,0,L|312:315,1,83.9999974365235,2|0,0:0|0:0,0:0:0:0:
344,179,249779,1,8,0:0:0:0:
464,271,249937,1,0,0:0:0:0:
464,271,250016,1,0,0:0:0:0:
464,271,250095,2,0,L|360:259,1,83.9999974365235,2|0,0:1|0:0,0:0:0:0:
260,188,250410,2,0,L|368:176,1,83.9999974365235,8|0,0:0|0:0,0:0:0:0:
466,102,250726,6,0,P|434:106|374:98,1,83.9999974365235,2|0,0:0|0:0,0:0:0:0:
240,24,251042,1,8,0:0:0:0:
112,100,251200,1,0,0:0:0:0:
112,100,251279,1,0,0:0:0:0:
112,100,251358,2,0,B|120:156|92:188|92:188|152:164,1,125.999996154785,2|0,0:1|0:0,0:0:0:0:
200,180,251673,2,0,P|208:256|196:280,1,83.9999974365235,8|0,0:0|0:0,0:0:0:0:
92,360,251989,6,0,P|196:348|236:364,1,125.999996154785,2|0,0:0|0:0,0:0:0:0:
288,332,252305,1,8,0:0:0:0:
392,220,252463,1,0,0:0:0:0:
392,220,252542,1,0,0:0:0:0:
392,220,252621,2,0,P|392:276|380:304,1,83.9999974365235,2|0,0:1|0:0,0:0:0:0:
332,160,252937,2,0,P|336:80|352:60,1,83.9999974365235,8|0,0:0|0:0,0:0:0:0:
497,44,253252,6,0,L|389:52,1,83.9999974365235,2|0,0:0|0:0,0:0:0:0:
251,6,253568,2,0,L|347:2,1,83.9999974365235,8|0,0:0|0:0,0:0:0:0:
332,84,253805,1,0,0:0:0:0:
332,84,253884,2,0,L|232:96,1,83.9999974365235,8|0,0:0|0:0,0:0:0:0:
175,134,254121,1,0,0:0:0:0:
175,134,254200,2,0,P|171:226|167:238,1,83.9999974365235,8|0,0:0|0:0,0:0:0:0:
95,269,254437,1,0,0:0:0:0:
95,269,254516,6,0,B|75:317|87:341|87:341|123:321|211:325,1,167.999994873047,2|8,0:0|0:0,0:0:0:0:
340,316,254989,1,0,0:0:0:0:
340,316,255068,1,0,0:0:0:0:
340,316,255147,2,0,P|416:320|424:320,1,83.9999974365235,2|0,0:1|0:0,0:0:0:0:
276,236,255463,2,0,P|220:228|188:236,1,83.9999974365235,8|0,0:0|0:0,0:0:0:0:
301,147,255779,5,2,0:0:0:0:
437,269,255937,1,0,0:0:0:0:
391,100,256095,1,8,0:0:0:0:
276,236,256252,1,0,0:0:0:0:
276,236,256331,1,0,0:0:0:0:
276,236,256410,2,0,P|228:312|288:360,1,167.999994873047,2|8,0:1|0:0,0:0:0:0:
366,242,256884,2,0,P|370:218|358:190,1,41.9999987182618
299,147,257042,6,0,L|131:163,1,167.999994873047,2|8,0:0|0:0,0:0:0:0:
20,56,257516,1,0,0:0:0:0:
20,56,257595,1,0,0:0:0:0:
20,56,257673,2,0,B|52:76|52:76|15:144|40:216,1,167.999994873047,2|8,0:1|0:0,0:0:0:0:
160,320,258147,1,0,0:0:0:0:
304,236,258305,5,2,0:0:0:0:
181,152,258463,1,0,0:0:0:0:
249,305,258621,1,8,0:0:0:0:
391,214,258779,1,0,0:0:0:0:
391,214,258858,1,0,0:0:0:0:
391,214,258937,2,0,P|439:230|495:222,1,83.9999974365235,2|0,0:1|0:0,0:0:0:0:
304,236,259252,2,0,P|259:224|212:232,1,83.9999974365235,8|0,0:0|0:0,0:0:0:0:
73,148,259568,6,0,B|103:92|84:35|84:35|159:52,1,167.999994873047,2|8,0:0|0:0,0:0:0:0:
302,47,260042,1,0,0:0:0:0:
302,47,260121,1,0,0:0:0:0:
302,47,260200,2,0,P|347:38|394:47,1,83.9999974365235,2|0,0:1|0:0,0:0:0:0:
281,121,260516,2,0,P|242:128|190:120,1,83.9999974365235,8|0,0:0|0:0,0:0:0:0:
429,165,260831,5,2,0:0:0:0:
325,297,260989,1,0,0:0:0:0:
485,325,261147,1,8,0:0:0:0:
353,217,261305,1,0,0:0:0:0:
353,217,261384,1,0,0:0:0:0:
353,217,261463,2,0,B|293:201|253:245|253:245|169:229,1,167.999994873047,2|8,0:1|0:0,0:0:0:0:
29,204,261937,1,0,0:0:0:0:
184,140,262095,6,0,P|236:74|168:36,1,167.999994873047,2|8,0:0|0:0,0:0:0:0:
43,121,262568,1,0,0:0:0:0:
43,121,262647,1,0,0:0:0:0:
43,121,262726,2,0,L|24:226,1,83.9999974365235,2|0,0:1|0:0,0:0:0:0:
100,341,263042,2,0,P|144:334|183:336,1,83.9999974365235,8|0,0:0|0:0,0:0:0:0:
344,336,263358,6,0,P|364:272|356:244,1,83.9999974365235,2|0,0:0|0:0,0:0:0:0:
372,172,263595,1,0,0:0:0:0:
372,172,263673,2,0,P|396:124|460:124,1,83.9999974365235,8|0,0:0|0:0,0:0:0:0:
484,52,263910,1,0,0:0:0:0:
484,52,263989,2,0,P|436:32|388:36,1,83.9999974365235,8|0,0:0|0:0,0:0:0:0:
356,44,264226,1,0,0:0:0:0:
312,68,264305,1,0,0:0:0:0:
260,76,264384,1,0,0:0:0:0:
208,80,264463,1,0,0:0:0:0:
156,72,264542,1,0,0:0:0:0:
108,48,264621,6,0,P|20:46|52:0,1,167.999994873047,2|8,0:0|0:0,0:0:0:0:
136,144,265095,1,0,0:0:0:0:
136,144,265173,1,0,0:0:0:0:
136,144,265252,2,0,P|140:196|132:244,1,83.9999974365235,2|0,0:1|0:0,0:0:0:0:
44,368,265568,2,0,P|44:296|52:272,1,83.9999974365235,8|0,0:0|0:0,0:0:0:0:
212,240,265884,6,0,P|196:280|152:316,1,83.9999974365235,2|0,0:0|0:0,0:0:0:0:
92,156,266200,1,8,0:0:0:0:
256,112,266358,1,0,0:0:0:0:
256,112,266437,1,0,0:0:0:0:
256,112,266516,2,0,B|307:135|356:108|356:108|373:137|412:160,1,167.999994873047,2|8,0:1|0:0,0:0:0:0:
400,304,266989,2,0,L|400:348,1,41.9999987182618
484,300,267147,6,0,P|484:144|468:112,1,167.999994873047,2|8,0:0|0:0,0:0:0:0:
356,24,267621,1,0,0:0:0:0:
356,24,267700,1,0,0:0:0:0:
356,24,267779,2,0,P|350:90|360:136,1,83.9999974365235,2|0,0:1|0:0,0:0:0:0:
236,232,268095,2,0,B|224:156|236:116|240:116,1,83.9999974365235,8|0,0:0|0:0,0:0:0:0:
296,304,268410,6,0,P|252:324|192:312,1,83.9999974365235,2|0,0:0|0:0,0:0:0:0:
52,284,268726,1,8,0:0:0:0:
192,192,268884,1,0,0:0:0:0:
192,192,268963,1,0,0:0:0:0:
192,192,269042,2,0,B|288:152|264:252|376:192,1,167.999994873047,2|8,0:1|0:0,0:0:0:0:
476,92,269516,6,0,P|412:112|444:44,1,167.999994873047
416,212,269989,1,8,0:0:0:0:
288,292,270147,1,0,0:0:0:0:
288,292,270226,1,0,0:0:0:0:
288,292,270305,2,0,B|256:256|248:216|248:216|236:252|184:280,1,167.999994873047,2|8,0:1|0:0,0:0:0:0:
60,172,270779,1,0,0:0:0:0:
196,72,270937,6,0,P|208:136|184:176,1,83.9999974365235,2|0,0:0|0:0,0:0:0:0:
76,263,271252,1,8,0:0:0:0:
210,160,271410,1,0,0:0:0:0:
210,160,271489,1,0,0:0:0:0:
210,160,271568,2,0,P|292:130|385:149,1,167.999994873047,2|8,0:1|0:0,0:0:0:0:
509,242,272042,1,0,0:0:0:0:
398,368,272200,6,0,P|338:312|382:254,1,167.999994873047,2|8,0:0|0:0,0:0:0:0:
441,107,272673,1,0,0:0:0:0:
441,107,272752,1,0,0:0:0:0:
441,107,272831,2,0,B|357:63|369:155|265:99,1,167.999994873047,2|8,0:1|0:0,0:0:0:0:
110,78,273305,1,0,0:0:0:0:
110,78,273384,1,0,0:0:0:0:
110,78,273463,6,0,L|102:194,1,83.9999974365235,2|0,0:0|0:0,0:0:0:0:
204,288,273779,2,0,P|264:284|296:296,1,83.9999974365235,8|0,0:0|0:0,0:0:0:0:
368,320,274016,1,0,0:0:0:0:
368,320,274095,2,0,P|432:304|464:324,1,83.9999974365235,8|0,0:0|0:0,0:0:0:0:
508,252,274331,1,0,0:0:0:0:
508,252,274410,2,0,L|508:152,1,83.9999974365235,8|0,0:0|0:0,0:0:0:0:
388,48,274726,6,0,B|321:23|299:79|208:40,1,167.999994873047,14|0,0:0|0:0,0:0:0:0:
94,128,275200,1,0,0:0:0:0:
94,128,275279,1,0,0:0:0:0:
94,128,275358,2,0,L|86:232,1,83.9999974365235
244,324,275673,2,0,L|256:224,1,83.9999974365235
177,100,275989,6,0,P|120:45|12:89,1,167.999994873047,2|0,0:0|0:0,0:0:0:0:
156,204,276463,1,0,0:0:0:0:
156,204,276542,1,0,0:0:0:0:
156,204,276621,2,0,L|276:208,1,83.9999974365235
400,156,276937,2,0,L|284:164,1,83.9999974365235
400,307,277252,6,0,B|420:271|412:247|412:247|476:247|496:167,1,167.999994873047,2|0,0:0|0:0,0:0:0:0:
440,28,277726,1,0,0:0:0:0:
440,28,277805,1,0,0:0:0:0:
440,28,277884,2,0,P|372:16|344:28,1,83.9999974365235
204,88,278200,2,0,P|272:92|308:76,1,83.9999974365235
124,139,278516,6,0,L|104:262,1,83.9999974365235,2|0,0:0|0:0,0:0:0:0:
166,357,278831,1,0,0:0:0:0:
308,307,278989,1,0,0:0:0:0:
308,307,279068,1,0,0:0:0:0:
308,307,279147,2,0,B|357:256|389:331|467:289,1,167.999994873047
503,141,279621,1,0,0:0:0:0:
394,35,279779,6,0,P|300:16|229:66,1,167.999994873047
131,154,280252,1,0,0:0:0:0:
131,154,280331,1,0,0:0:0:0:
131,154,280410,2,0,P|135:202|119:250,1,83.9999974365235
20,92,280726,2,0,P|20:40|44:-4,1,83.9999974365235
190,87,281042,6,0,B|210:114|228:126|228:126|211:262,1,167.999994873047,2|0,0:0|0:0,0:0:0:0:
126,362,281516,1,0,0:0:0:0:
126,362,281595,1,0,0:0:0:0:
126,362,281673,2,0,P|76:364|10:351,1,83.9999974365235
219,325,281989,2,0,P|269:323|335:336,1,83.9999974365235
440,261,282305,6,0,B|414:201|454:142|454:142|415:93,1,167.999994873047,2|0,0:0|0:0,0:0:0:0:
298,55,282779,1,0,0:0:0:0:
298,55,282858,1,0,0:0:0:0:
298,55,282937,2,0,P|216:46|190:60,1,83.9999974365235
82,146,283252,1,0,0:0:0:0:
230,224,283410,1,0,0:0:0:0:
230,224,283489,1,0,0:0:0:0:
230,224,283568,5,0,0:0:0:0:
180,134,283726,1,0,0:0:0:0:
107,285,283884,1,2,0:0:0:0:
230,224,284042,1,0,0:0:0:0:
230,224,284121,1,0,0:0:0:0:
230,224,284200,2,0,L|320:212,1,83.9999974365235,2|0,0:0|0:0,0:0:0:0:
480,239,284516,2,0,L|380:253,1,83.9999974365235,2|2,0:0|0:0,0:0:0:0:
431,74,284831,6,0,P|394:91|343:90,1,83.9999974365235,4|0,0:0|0:0,0:0:0:0:
188,44,285147,2,0,P|251:26|284:32,1,83.9999974365235,4|0,0:0|0:0,0:0:0:0:
120,108,285463,2,0,B|84:112|32:84,1,83.9999974365235,4|0,0:0|0:0,0:0:0:0:
204,136,285779,1,4,0:0:0:0:
136,288,285937,1,0,0:0:0:0:
136,288,286016,1,0,0:0:0:0:
136,288,286095,6,0,L|240:304,1,83.9999974365235,4|0,0:0|0:0,0:0:0:0:
384,256,286410,2,0,P|388:336|372:372,1,83.9999974365235,4|0,0:0|0:0,0:0:0:0:
476,192,286726,2,0,P|480:276|476:300,1,83.9999974365235,4|0,0:0|0:0,0:0:0:0:
372,144,287042,2,0,L|272:156,1,83.9999974365235,4|0,0:0|0:0,0:0:0:0:
436,76,287358,6,0,L|528:80,1,83.9999974365235,4|0,0:0|0:0,0:0:0:0:
356,32,287673,2,0,L|252:16,1,83.9999974365235,4|0,0:0|0:0,0:0:0:0:
192,48,287910,1,0,0:0:0:0:
192,48,287989,2,0,P|204:104|196:144,1,83.9999974365235,4|0,0:0|0:0,0:0:0:0:
68,236,288305,2,0,P|68:172|80:140,1,83.9999974365235,4|0,0:0|0:0,0:0:0:0:
192,272,288621,5,4,0:0:0:0:
356,304,288779,1,0,0:0:0:0:
240,184,288937,1,2,0:0:0:0:
260,352,289095,1,0,0:0:0:0:
340,204,289252,5,4,0:0:0:0:
500,156,289410,1,0,0:0:0:0:
332,109,289568,1,2,0:0:0:0:
496,60,289726,1,0,0:0:0:0:
328,15,289884,5,4,0:0:0:0:
234,154,290042,1,4,0:0:0:0:
179,67,290200,1,4,0:0:0:0:
332,109,290358,1,4,0:0:0:0:
429,220,290516,6,0,L|418:327,1,83.9999974365235,2|0,0:0|0:0,0:0:0:0:
276,286,290831,2,0,L|298:381,1,83.9999974365235,2|0,0:0|0:0,0:0:0:0:
171,226,291147,5,4,0:0:0:0:
123,85,291305,1,4,0:0:0:0:
213,133,291463,1,4,0:0:0:0:
53,172,291621,1,4,0:0:0:0:
213,133,291779,6,0,L|302:124,1,83.9999974365235,2|0,0:0|0:0,0:0:0:0:
482,51,292095,2,0,L|379:50,1,83.9999974365235,2|0,0:0|0:0,0:0:0:0:
363,219,292410,6,0,L|344:313,1,83.9999974365235,4|4,0:0|0:0,0:0:0:0:
201,260,292726,1,4,0:0:0:0:
117,140,292884,1,4,0:0:0:0:
217,107,293042,5,4,0:0:0:0:
115,232,293200,1,4,0:0:0:0:
274,188,293358,1,4,0:0:0:0:
115,232,293516,1,4,0:0:0:0:
45,300,293673,5,0,0:0:0:0:
87,332,293752,1,0,0:0:0:0:
140,335,293831,1,0,0:0:0:0:
185,309,293910,1,0,0:0:0:0:
214,265,293989,1,0,0:0:0:0:
209,212,294068,1,0,0:0:0:0:
187,153,294147,5,0,0:0:0:0:
205,94,294226,1,2,0:0:0:0:
261,71,294305,1,2,0:0:0:0:
428,78,294463,1,2,0:0:0:0:
436,268,294621,6,0,L|432:248,1,21,8|0,0:0|0:0,0:0:0:0:
388,216,294937,6,0,B|324:200|300:296|184:224,1,189.000000720978,2|8,0:0|0:0,0:0:0:0:
80,96,295410,1,0,0:0:0:0:
80,96,295489,1,0,0:0:0:0:
80,96,295568,2,0,L|192:92,1,94.5000003604889,2|0,0:1|0:0,0:0:0:0:
352,156,295884,2,0,L|244:168,1,94.5000003604889,8|0,0:0|0:0,0:0:0:0:
176,336,296200,6,0,L|184:220,1,94.5000003604889,2|0,0:2|0:0,0:0:0:0:
352,156,296516,2,0,L|352:40,1,94.5000003604889,8|0,0:0|0:0,0:0:0:0:
427,12,296752,1,0,0:0:0:0:
427,12,296831,2,0,P|327:28|307:28,1,94.5000003604889,2|0,0:1|0:0,0:0:0:0:
272,208,297147,2,0,P|312:248|368:248,1,94.5000003604889,8|0,0:0|0:0,0:0:0:0:
196,136,297463,6,0,B|164:132|164:132|148:144|148:144|96:124|8:140,1,189.000000720978,2|8,0:0|0:0,0:0:0:0:
176,248,297937,1,0,0:0:0:0:
176,248,298016,1,0,0:0:0:0:
176,248,298095,2,0,P|252:224|272:204,1,94.5000003604889,2|0,0:1|0:0,0:0:0:0:
452,208,298410,2,0,P|392:192|348:196,1,94.5000003604889,8|0,0:0|0:0,0:0:0:0:
284,28,298726,6,0,P|296:124|296:136,1,94.5000003604889,2|0,0:2|0:0,0:0:0:0:
108,160,299042,2,0,P|92:116|112:52,1,94.5000003604889,8|0,0:0|0:0,0:0:0:0:
184,116,299279,1,0,0:0:0:0:
184,116,299358,2,0,P|200:200|188:228,1,94.5000003604889,2|0,0:1|0:0,0:0:0:0:
368,288,299673,2,0,L|488:296,1,94.5000003604889,8|0,0:0|0:0,0:0:0:0:
282,343,299989,6,0,B|202:316|187:396|95:353,1,189.000000720978,2|8,0:0|0:0,0:0:0:0:
52,161,300463,1,0,0:0:0:0:
52,161,300542,1,0,0:0:0:0:
52,161,300621,2,0,P|39:231|65:284,1,94.5000003604889,2|0,0:1|0:0,0:0:0:0:
214,146,300937,2,0,L|330:154,1,94.5000003604889,8|0,0:0|0:0,0:0:0:0:
146,54,301252,6,0,L|244:41,1,94.5000003604889,2|0,0:0|0:0,0:0:0:0:
437,68,301568,2,0,P|451:111|436:169,1,94.5000003604889,8|0,0:0|0:0,0:0:0:0:
412,239,301805,1,0,0:0:0:0:
412,239,301884,2,0,P|466:252|528:235,1,94.5000003604889,2|0,0:1|0:0,0:0:0:0:
340,360,302200,2,0,P|286:350|230:369,1,94.5000003604889,8|0,0:0|0:0,0:0:0:0:
82,267,302516,6,0,B|83:234|61:218|61:218|88:197|88:197|72:132|98:89,1,189.000000720978,2|8,0:0|0:0,0:0:0:0:
278,30,302989,1,0,0:0:0:0:
278,30,303068,1,0,0:0:0:0:
278,30,303147,2,0,P|331:20|403:40,1,94.5000003604889,2|0,0:1|0:0,0:0:0:0:
202,120,303463,2,0,P|247:131|319:120,1,94.5000003604889,8|0,0:0|0:0,0:0:0:0:
462,236,303779,6,0,P|418:248|350:232,1,94.5000003604889,2|0,0:2|0:0,0:0:0:0:
202,120,304095,1,8,0:0:0:0:
69,216,304252,1,0,0:0:0:0:
69,216,304331,1,0,0:0:0:0:
69,216,304410,2,0,L|81:316,1,94.5000003604889,2|0,0:1|0:0,0:0:0:0:
93,352,304647,1,0,0:0:0:0:
141,372,304726,1,0,0:0:0:0:
189,360,304805,1,0,0:0:0:0:
233,340,304884,1,0,0:0:0:0:
285,348,304963,1,0,0:0:0:0:
333,364,305042,6,0,P|405:380|489:264,1,189.000000720978,2|8,0:0|0:0,0:0:0:0:
392,132,305516,1,0,0:0:0:0:
392,132,305595,1,0,0:0:0:0:
392,132,305673,2,0,L|388:228,1,94.5000003604889,2|0,0:1|0:0,0:0:0:0:
220,118,305989,2,0,L|220:10,1,94.5000003604889,8|0,0:0|0:0,0:0:0:0:
280,200,306305,6,0,P|236:224|160:192,1,94.5000003604889,2|0,0:2|0:0,0:0:0:0:
24,144,306621,2,0,L|16:256,1,94.5000003604889,8|0,0:0|0:0,0:0:0:0:
84,308,306858,1,0,0:0:0:0:
84,308,306937,2,0,P|136:331|184:324,1,94.5000003604889,2|0,0:1|0:0,0:0:0:0:
366,285,307252,2,0,P|317:262|266:269,1,94.5000003604889,8|0,0:0|0:0,0:0:0:0:
153,108,307568,6,0,B|253:65|239:171|361:120,1,189.000000720978,2|8,0:0|0:0,0:0:0:0:
508,24,308042,1,0,0:0:0:0:
508,24,308121,1,0,0:0:0:0:
508,24,308200,2,0,L|396:32,1,94.5000003604889,2|0,0:1|0:0,0:0:0:0:
340,216,308516,2,0,L|456:224,1,94.5000003604889,8|0,0:0|0:0,0:0:0:0:
244,276,308831,6,0,P|240:192|260:144,1,94.5000003604889,2|0,0:0|0:0,0:0:0:0:
52,172,309147,2,0,P|56:52|64:40,1,94.5000003604889,8|0,0:0|0:0,0:0:0:0:
128,36,309384,1,0,0:0:0:0:
128,36,309463,2,0,L|240:32,1,94.5000003604889,2|0,0:1|0:0,0:0:0:0:
168,212,309779,2,0,P|136:260|96:272,1,94.5000003604889,8|0,0:0|0:0,0:0:0:0:
224,132,310095,6,0,B|264:176|264:176|276:248|224:328,1,189.000000720978,2|8,0:0|0:0,0:0:0:0:
428,340,310568,1,0,0:0:0:0:
428,340,310647,1,0,0:0:0:0:
428,340,310726,2,0,L|300:344,1,94.5000003604889,2|0,0:1|0:0,0:0:0:0:
468,156,311042,2,0,L|480:292,1,94.5000003604889,8|0,0:0|0:0,0:0:0:0:
368,56,311358,6,0,L|348:192,1,94.5000003604889,2|0,0:0|0:0,0:0:0:0:
204,264,311673,1,8,0:0:0:0:
84,80,311831,1,0,0:0:0:0:
84,80,311910,1,0,0:0:0:0:
84,80,311989,2,0,P|140:70|182:77,1,94.5000003604889,2|0,0:1|0:0,0:0:0:0:
336,169,312305,1,8,0:0:0:0:
157,187,312463,1,0,0:0:0:0:
157,187,312542,1,0,0:0:0:0:
157,187,312621,6,0,B|240:129|268:230|356:155,1,189.000000720978,2|8,0:0|0:0,0:0:0:0:
484,48,313095,1,0,0:0:0:0:
484,48,313173,1,0,0:0:0:0:
484,48,313252,2,0,B|492:152,1,94.5000003604889,2|0,0:1|0:0,0:0:0:0:
365,297,313568,1,8,0:0:0:0:
194,214,313726,1,0,0:0:0:0:
276,38,313884,5,2,0:0:0:0:
121,145,314042,1,0,0:0:0:0:
124,159,314121,1,0,0:0:0:0:
129,170,314200,1,0,0:0:0:0:
322,189,314358,1,0,0:0:0:0:
336,183,314437,1,0,0:0:0:0:
348,180,314516,2,0,P|394:176|464:205,1,94.5000003604889
340,356,314831,1,0,0:0:0:0:
356,308,314910,1,0,0:0:0:0:
396,276,314989,1,0,0:0:0:0:
448,276,315068,1,0,0:0:0:0:
496,288,315147,6,0,L|448:64,1,189.000000720978,2|8,0:0|0:0,0:0:0:0:
282,29,315621,1,0,0:0:0:0:
282,29,315700,1,0,0:0:0:0:
282,29,315779,2,0,L|386:45,1,94.5000003604889,2|0,0:1|0:0,0:0:0:0:
368,233,316095,2,0,L|360:109,1,94.5000003604889,8|0,0:0|0:0,0:0:0:0:
185,66,316410,6,0,P|177:126|181:174,1,94.5000003604889,2|0,0:0|0:0,0:0:0:0:
3,234,316726,2,0,L|125:234,1,94.5000003604889,8|0,0:0|0:0,0:0:0:0:
146,316,316963,1,0,0:0:0:0:
146,316,317042,2,0,L|38:323,1,94.5000003604889,2|0,0:1|0:0,0:0:0:0:
225,248,317358,2,0,P|240:325|225:371,1,94.5000003604889,8|0,0:0|0:0,0:0:0:0:
284,155,317673,6,0,B|332:179|340:215|340:215|338:153|376:107,1,189.000000720978,2|8,0:0|0:0,0:0:0:0:
481,40,318147,1,0,0:0:0:0:
481,40,318226,1,0,0:0:0:0:
481,40,318305,2,0,L|481:168,1,94.5000003604889,2|0,0:1|0:0,0:0:0:0:
411,292,318621,2,0,P|419:200|419:180,1,94.5000003604889,8|0,0:0|0:0,0:0:0:0:
291,53,318937,6,0,P|226:42|171:53,1,94.5000003604889,2|0,0:0|0:0,0:0:0:0:
71,187,319252,1,8,0:0:0:0:
266,144,319410,1,0,0:0:0:0:
266,144,319489,1,0,0:0:0:0:
266,144,319568,2,0,P|318:151|359:142,1,94.5000003604889,2|0,0:1|0:0,0:0:0:0:
169,164,319884,2,0,P|165:268|177:297,1,94.5000003604889,8|0,0:0|0:0,0:0:0:0:
326,353,320200,6,0,B|390:369|390:369|418:321|394:245,1,189.000000720978,2|8,0:0|0:0,0:0:0:0:
453,68,320673,1,0,0:0:0:0:
453,68,320752,1,0,0:0:0:0:
453,68,320831,2,0,P|464:126|457:172,1,94.5000003604889,2|0,0:1|0:0,0:0:0:0:
324,12,321147,2,0,P|337:73|333:118,1,94.5000003604889,8|0,0:0|0:0,0:0:0:0:
178,153,321463,6,0,P|135:145|71:161,1,94.5000003604889,2|0,0:0|0:0,0:0:0:0:
2,308,321779,1,8,0:0:0:0:
153,240,321937,1,0,0:0:0:0:
153,240,322016,1,0,0:0:0:0:
153,240,322095,2,0,P|196:248|260:232,1,94.5000003604889
378,373,322410,2,0,P|334:357|354:325,1,94.5000003604889,8|0,0:0|0:0,0:0:0:0:
413,146,322726,6,0,B|407:37|407:37|441:78|437:138,1,189.000000720978,2|8,0:0|0:0,0:0:0:0:
481,288,323200,1,0,0:0:0:0:
481,288,323279,1,0,0:0:0:0:
481,288,323358,2,0,L|365:248,1,94.5000003604889,2|0,0:1|0:0,0:0:0:0:
216,223,323673,2,0,P|284:235|316:231,1,94.5000003604889,8|0,0:0|0:0,0:0:0:0:
127,173,323989,6,0,P|111:229|131:289,1,94.5000003604889,2|0,0:0|0:0,0:0:0:0:
234,113,324305,1,8,0:0:0:0:
61,36,324463,1,0,0:0:0:0:
61,36,324542,1,0,0:0:0:0:
61,36,324621,2,0,P|49:93|61:152,1,94.5000003604889,2|0,0:1|0:0,0:0:0:0:
70,172,324858,1,0,0:0:0:0:
110,204,324937,1,0,0:0:0:0:
158,192,325016,1,0,0:0:0:0:
189,145,325095,1,0,0:0:0:0:
192,87,325173,1,0,0:0:0:0:
236,65,325252,6,0,B|282:48|320:84|320:84|447:30,1,189.000000720978,2|8,0:0|0:0,0:0:0:0:
505,210,325726,1,0,0:0:0:0:
505,210,325805,1,0,0:0:0:0:
505,210,325884,2,0,L|505:116,1,94.5000003604889,2|0,0:1|0:0,0:0:0:0:
390,265,326200,2,0,L|393:148,1,94.5000003604889,8|0,0:0|0:0,0:0:0:0:
450,351,326516,6,0,P|390:369|330:351,1,94.5000003604889,2|0,0:0|0:0,0:0:0:0:
178,306,326831,2,0,P|269:301|285:309,1,94.5000003604889,8|0,0:0|0:0,0:0:0:0:
339,235,327068,1,0,0:0:0:0:
339,235,327147,2,0,L|240:209,1,94.5000003604889,2|0,0:1|0:0,0:0:0:0:
65,154,327463,2,0,L|53:22,1,94.5000003604889,8|0,0:0|0:0,0:0:0:0:
141,229,327779,6,0,B|127:271|105:256|105:256|121:332|23:359,1,189.000000720978,2|8,0:0|0:0,0:0:0:0:
70,159,328252,1,0,0:0:0:0:
70,159,328331,1,0,0:0:0:0:
70,159,328410,2,0,P|115:128|180:138,1,94.5000003604889,2|0,0:1|0:0,0:0:0:0:
339,167,328726,2,0,P|294:198|229:188,1,94.5000003604889,8|0,0:0|0:0,0:0:0:0:
429,121,329042,6,0,L|440:238,1,94.5000003604889,2|0,0:0|0:0,0:0:0:0:
274,120,329358,2,0,L|260:18,1,94.5000003604889,8|0,0:0|0:0,0:0:0:0:
179,76,329595,1,0,0:0:0:0:
179,76,329673,2,0,L|189:185,1,94.5000003604889,2|0,0:1|0:0,0:0:0:0:
79,326,329989,2,0,L|75:222,1,94.5000003604889,8|0,0:0|0:0,0:0:0:0:
249,308,330305,6,0,B|297:295|318:280|318:280|327:300|327:300|341:290|447:263,1,189.000000720978,2|8,0:0|0:0,0:0:0:0:
451,86,330779,1,0,0:0:0:0:
451,86,330858,1,0,0:0:0:0:
451,86,330937,2,0,P|394:115|359:123,1,94.5000003604889,2|0,0:1|0:0,0:0:0:0:
200,219,331252,2,0,P|208:121|213:112,1,94.5000003604889,8|0,0:0|0:0,0:0:0:0:
369,29,331568,6,0,P|286:46|265:44,1,94.5000003604889,2|0,0:0|0:0,0:0:0:0:
82,91,331884,1,8,0:0:0:0:
200,219,332042,1,0,0:0:0:0:
221,177,332121,1,0,0:0:0:0:
228,130,332200,2,0,P|227:86|184:16,1,94.5000003604889,2|0,0:1|0:0,0:0:0:0:
11,174,332516,1,8,0:0:0:0:
92,348,332673,1,0,0:0:0:0:
136,317,332752,1,0,0:0:0:0:
187,307,332831,6,0,B|267:266|280:358|376:307,1,189.000000720978,2|8,0:0|0:0,0:0:0:0:
423,136,333305,1,0,0:0:0:0:
423,136,333384,1,0,0:0:0:0:
423,136,333463,2,0,L|417:265,1,94.5000003604889,2|0,0:1|0:0,0:0:0:0:
250,143,333779,1,8,0:0:0:0:
381,7,333937,1,0,0:0:0:0:
327,188,334095,6,0,L|318:301,1,94.5000003604889,2|0,0:0|0:0,0:0:0:0:
149,197,334410,1,8,0:0:0:0:
58,31,334568,1,0,0:0:0:0:
101,42,334647,1,0,0:0:0:0:
147,53,334726,1,2,0:1:0:0:
322,123,334884,1,2,0:1:0:0:
149,197,335042,1,2,0:1:0:0:
260,45,335200,1,2,0:1:0:0:
340,228,335358,5,6,0:1:0:0:
256,192,335516,12,0,337884,0:0:0:0:
