osu file format v14

[General]
AudioFilename: audio.mp3
AudioLeadIn: 0
PreviewTime: 55100
Countdown: 0
SampleSet: Normal
StackLeniency: 0.7
Mode: 0
LetterboxInBreaks: 0
WidescreenStoryboard: 0

[Editor]
Bookmarks: 50267,54100,54767,55100,55433,55683,56017,56433,56933
DistanceSpacing: 0.8
BeatDivisor: 4
GridSize: 16
TimelineZoom: 2.4

[Metadata]
Title:Magic Logic Labyrinth
TitleUnicode:Magic Logic Labyrinth
Artist:a_hisa
ArtistUnicode:a_hisa
Creator:Lmby
Version:Expert
Source:
Tags:Gothic Metal Instrumental a_hisa
BeatmapID:2046201
BeatmapSetID:977665

[Difficulty]
HPDrainRate:6
CircleSize:4.2
OverallDifficulty:7.8
ApproachRate:9.3
SliderMultiplier:2
SliderTickRate:1

[Events]
//Background and Video events
0,0,"witchy.jpg",0,0
//Break Periods
//Storyboard Layer 0 (Background)
//Storyboard Layer 1 (Fail)
//Storyboard Layer 2 (Pass)
//Storyboard Layer 3 (Foreground)
//Storyboard Sound Samples

[TimingPoints]
434,333.333333333333,4,1,0,100,1,0

[HitObjects]
163,97,434,5,8,0:0:0:0:
322,92,600,1,8,0:0:0:0:
163,97,767,1,8,0:0:0:0:
163,131,850,1,8,0:0:0:0:
162,165,933,1,8,0:0:0:0:
163,200,1017,1,8,0:0:0:0:
166,234,1100,2,8,P|180:288|227:312,1,100
378,309,1433,1,4,0:0:0:0:
399,191,1600,1,4,0:0:0:0:
349,97,1767,5,8,0:0:0:0:
195,95,1933,1,8,0:0:0:0:
349,97,2100,1,8,0:0:0:0:
349,131,2183,1,8,0:0:0:0:
350,165,2266,1,8,0:0:0:0:
349,200,2350,1,8,0:0:0:0:
346,234,2433,2,8,P|332:288|296:322,1,100
151,318,2766,1,4,0:0:0:0:
87,207,2933,1,4,0:0:0:0:
161,89,3100,5,8,0:0:0:0:
283,134,3267,1,8,0:0:0:0:
394,67,3433,1,8,0:0:0:0:
395,102,3517,1,8,0:0:0:0:
398,136,3600,1,8,0:0:0:0:
399,170,3683,1,8,0:0:0:0:
402,205,3767,2,8,P|392:270|347:301,1,100
241,318,4100,1,4,0:0:0:0:
120,256,4267,1,4,0:0:0:0:
233,184,4433,5,0,0:0:0:0:
111,111,4600,1,0,0:0:0:0:
294,95,4766,1,0,0:0:0:0:
338,100,4850,1,0,0:0:0:0:
379,118,4933,1,0,0:0:0:0:
408,142,5016,1,0,0:0:0:0:
432,166,5100,2,0,P|448:202|419:265,1,100
367,295,5433,1,4,0:0:0:0:
188,176,5600,1,4,0:0:0:0:
365,174,5767,1,8,0:0:0:0:
188,176,5933,5,8,0:0:0:0:
188,176,6100,2,8,L|164:222,4,50
228,48,6600,1,8,0:0:0:0:
208,304,6767,1,8,0:0:0:0:
320,160,6933,1,12,0:0:0:0:
96,160,7100,1,8,0:0:0:0:
208,304,7267,1,8,0:0:0:0:
344,294,7433,1,8,0:0:0:0:
375,277,7517,1,8,0:0:0:0:
399,252,7600,1,8,0:0:0:0:
423,227,7683,1,8,0:0:0:0:
442,193,7767,2,8,P|430:111|406:95,1,100
339,56,8100,5,4,0:0:0:0:
120,112,8267,1,4,0:0:0:0:
340,184,8433,1,8,0:0:0:0:
120,112,8600,1,8,0:0:0:0:
255,178,8767,5,8,0:0:0:0:
287,191,8850,1,8,0:0:0:0:
318,206,8933,1,8,0:0:0:0:
347,225,9017,1,8,0:0:0:0:
377,241,9100,1,8,0:0:0:0:
263,284,9267,5,4,0:0:0:0:
425,134,9433,1,8,0:0:0:0:
262,75,9600,1,8,0:0:0:0:
80,128,9767,1,8,0:0:0:0:
262,75,9933,1,8,0:0:0:0:
171,86,10100,5,8,0:0:0:0:
137,108,10183,1,8,0:0:0:0:
117,143,10267,1,8,0:0:0:0:
112,182,10350,1,8,0:0:0:0:
123,220,10433,1,8,0:0:0:0:
151,248,10517,1,8,0:0:0:0:
188,261,10600,1,8,0:0:0:0:
227,262,10683,1,8,0:0:0:0:
264,246,10767,1,8,0:0:0:0:
283,211,10850,1,8,0:0:0:0:
288,171,10933,6,8,L|275:108,1,50
256,87,11100,1,8,0:0:0:0:
221,67,11183,1,8,0:0:0:0:
180,66,11267,1,8,0:0:0:0:
146,87,11350,1,8,0:0:0:0:
130,123,11433,1,8,0:0:0:0:
140,161,11517,1,8,0:0:0:0:
169,187,11600,1,8,0:0:0:0:
208,184,11683,5,8,0:0:0:0:
243,165,11767,1,8,0:0:0:0:
264,131,11850,1,8,0:0:0:0:
294,105,11933,1,8,0:0:0:0:
331,90,12017,1,8,0:0:0:0:
370,96,12100,1,8,0:0:0:0:
403,116,12183,1,8,0:0:0:0:
432,143,12267,1,8,0:0:0:0:
461,180,12350,2,0,P|479:226|481:236,3,50
480,314,12767,5,4,0:0:0:0:
320,288,13100,1,4,0:0:0:0:
320,144,13433,1,4,0:0:0:0:
320,144,13767,1,8,0:0:0:0:
357,158,13850,1,8,0:0:0:0:
386,184,13933,1,8,0:0:0:0:
408,217,14017,1,8,0:0:0:0:
409,256,14100,1,8,0:0:0:0:
396,293,14183,5,8,0:0:0:0:
365,318,14267,1,8,0:0:0:0:
325,320,14350,1,8,0:0:0:0:
287,305,14433,1,8,0:0:0:0:
248,291,14517,1,8,0:0:0:0:
208,292,14600,1,8,0:0:0:0:
169,303,14683,1,8,0:0:0:0:
134,323,14767,1,8,0:0:0:0:
141,283,14850,1,8,0:0:0:0:
138,243,14933,5,8,0:0:0:0:
125,204,15017,1,8,0:0:0:0:
107,168,15100,1,8,0:0:0:0:
89,132,15183,1,8,0:0:0:0:
85,94,15267,1,8,0:0:0:0:
100,57,15350,1,8,0:0:0:0:
131,32,15433,1,8,0:0:0:0:
170,22,15517,1,8,0:0:0:0:
208,32,15600,1,8,0:0:0:0:
237,58,15683,5,8,0:0:0:0:
255,93,15767,1,8,0:0:0:0:
283,120,15850,1,8,0:0:0:0:
322,126,15933,1,8,0:0:0:0:
359,110,16017,1,8,0:0:0:0:
383,78,16100,1,8,0:0:0:0:
396,115,16183,1,8,0:0:0:0:
409,152,16267,1,8,0:0:0:0:
419,180,16350,2,2,L|435:235,3,50
214,46,16767,1,12,0:0:0:0:
94,114,16933,1,12,0:0:0:0:
218,185,17100,1,12,0:0:0:0:
338,101,17267,1,12,0:0:0:0:
453,187,17433,1,12,0:0:0:0:
339,264,17600,1,12,0:0:0:0:
218,185,17767,1,12,0:0:0:0:
424,174,17933,5,12,0:0:0:0:
218,185,18100,1,12,0:0:0:0:
400,102,18267,1,12,0:0:0:0:
284,231,18433,1,12,0:0:0:0:
334,44,18600,1,12,0:0:0:0:
369,221,18767,1,12,0:0:0:0:
242,34,18933,1,12,0:0:0:0:
146,38,19100,5,4,0:0:0:0:
109,63,19183,1,8,0:0:0:0:
87,102,19267,1,8,0:0:0:0:
79,146,19350,1,8,0:0:0:0:
86,190,19433,1,12,0:0:0:0:
103,231,19517,1,8,0:0:0:0:
135,254,19600,1,8,0:0:0:0:
173,260,19683,1,8,0:0:0:0:
208,251,19767,1,12,0:0:0:0:
244,258,19850,5,8,0:0:0:0:
278,279,19933,1,8,0:0:0:0:
300,308,20017,1,8,0:0:0:0:
341,326,20100,1,12,0:0:0:0:
384,336,20183,1,8,0:0:0:0:
433,313,20267,1,8,0:0:0:0:
463,272,20350,1,8,0:0:0:0:
460,228,20433,1,12,0:0:0:0:
443,186,20517,1,8,0:0:0:0:
412,152,20600,5,8,0:0:0:0:
372,131,20683,1,8,0:0:0:0:
326,133,20767,1,12,0:0:0:0:
283,153,20850,1,8,0:0:0:0:
247,180,20933,1,8,0:0:0:0:
202,188,21017,1,8,0:0:0:0:
157,179,21100,1,12,0:0:0:0:
73,131,21267,5,12,0:0:0:0:
348,91,21433,1,12,0:0:0:0:
348,91,21767,2,0,P|296:177|173:174,1,200
70,158,22267,1,12,0:0:0:0:
239,317,22433,1,12,0:0:0:0:
80,148,22600,1,12,0:0:0:0:
261,254,22767,1,12,0:0:0:0:
165,222,22933,1,12,0:0:0:0:
215,129,23100,2,0,B|276:67|310:104|310:104|346:143|374:101|374:101|435:43|528:156|451:173|414:213|414:213|451:246|510:304|399:379|355:304,1,600
390,207,24267,5,8,0:0:0:0:
390,207,24350,1,8,0:0:0:0:
390,207,24433,2,8,B|320:259|264:207|264:207|206:191,1,200
116,160,24933,1,8,0:0:0:0:
356,67,25100,1,8,0:0:0:0:
304,272,25267,1,8,0:0:0:0:
100,152,25433,1,8,0:0:0:0:
365,47,25600,1,8,0:0:0:0:
315,288,25767,1,8,0:0:0:0:
166,310,25933,5,8,0:0:0:0:
166,310,26017,1,8,0:0:0:0:
166,310,26100,1,8,0:0:0:0:
223,40,26267,1,12,0:0:0:0:
269,300,26433,1,12,0:0:0:0:
223,40,26600,1,12,0:0:0:0:
223,40,26767,2,8,B|297:133|367:114|367:114|375:175,1,200
390,223,27267,1,8,0:0:0:0:
317,310,27433,1,8,0:0:0:0:
219,338,27600,5,8,0:0:0:0:
124,300,27767,1,12,0:0:0:0:
311,183,27933,1,8,0:0:0:0:
124,300,28100,1,8,0:0:0:0:
28,172,28267,1,8,0:0:0:0:
28,172,28433,2,12,P|124:185|247:186,1,200
296,186,28933,1,8,0:0:0:0:
322,258,29100,2,12,P|226:271|103:272,1,200
27,274,29600,5,8,0:0:0:0:
27,274,29683,1,8,0:0:0:0:
27,274,29767,1,8,0:0:0:0:
153,78,29933,1,8,0:0:0:0:
292,273,30100,1,8,0:0:0:0:
153,49,30267,5,12,0:0:0:0:
41,267,30433,1,8,0:0:0:0:
350,282,30600,1,8,0:0:0:0:
350,282,30683,1,8,0:0:0:0:
350,282,30767,1,8,0:0:0:0:
152,60,30933,1,12,0:0:0:0:
152,60,31100,2,0,B|151:123|151:123|81:221|202:224|202:224|264:292|264:292|345:237,1,400
81,156,31933,5,0,0:0:0:0:
81,156,32100,1,8,0:0:0:0:
255,39,32267,1,8,0:0:0:0:
427,156,32433,5,8,0:0:0:0:
427,201,32517,1,8,0:0:0:0:
412,243,32600,1,8,0:0:0:0:
388,281,32683,1,8,0:0:0:0:
344,294,32767,1,8,0:0:0:0:
299,292,32850,1,8,0:0:0:0:
261,267,32933,1,8,0:0:0:0:
231,232,33017,1,8,0:0:0:0:
216,189,33100,1,8,0:0:0:0:
188,153,33183,5,8,0:0:0:0:
148,131,33267,1,8,0:0:0:0:
103,138,33350,1,8,0:0:0:0:
63,159,33433,1,8,0:0:0:0:
52,212,33517,1,8,0:0:0:0:
65,254,33600,1,8,0:0:0:0:
99,270,33683,1,8,0:0:0:0:
146,263,33767,1,8,0:0:0:0:
180,242,33850,1,8,0:0:0:0:
212,218,33933,5,8,0:0:0:0:
243,193,34017,1,8,0:0:0:0:
278,175,34100,1,8,0:0:0:0:
317,174,34183,1,8,0:0:0:0:
356,179,34267,1,8,0:0:0:0:
391,197,34350,1,8,0:0:0:0:
416,226,34433,2,0,P|408:304|301:290,1,200
80,46,34933,5,12,0:0:0:0:
80,46,35017,1,12,0:0:0:0:
80,46,35100,1,12,0:0:0:0:
101,85,35183,1,8,0:0:0:0:
110,129,35267,1,8,0:0:0:0:
99,172,35350,1,8,0:0:0:0:
78,212,35433,1,8,0:0:0:0:
65,255,35517,1,8,0:0:0:0:
81,296,35600,1,8,0:0:0:0:
110,329,35683,5,8,0:0:0:0:
153,341,35767,1,8,0:0:0:0:
196,328,35850,1,8,0:0:0:0:
232,301,35933,1,8,0:0:0:0:
259,265,36017,1,8,0:0:0:0:
276,223,36100,1,8,0:0:0:0:
276,223,36183,2,8,P|287:183|302:155,1,50
338,60,36433,1,12,0:0:0:0:
148,162,36600,1,8,0:0:0:0:
148,162,36683,1,8,0:0:0:0:
148,162,36767,1,8,0:0:0:0:
337,251,36933,5,8,0:0:0:0:
129,316,37100,1,8,0:0:0:0:
151,175,37267,1,8,0:0:0:0:
151,175,37433,2,12,B|255:152|301:111|301:111|355:139,1,200
373,146,37850,1,8,0:0:0:0:
411,169,37933,1,8,0:0:0:0:
436,206,38017,1,8,0:0:0:0:
436,250,38100,1,8,0:0:0:0:
412,288,38183,1,8,0:0:0:0:
372,309,38267,5,8,0:0:0:0:
327,305,38350,1,8,0:0:0:0:
290,278,38433,1,8,0:0:0:0:
265,239,38517,1,8,0:0:0:0:
271,194,38600,1,8,0:0:0:0:
305,165,38683,1,8,0:0:0:0:
341,143,38767,1,8,0:0:0:0:
367,115,38850,1,8,0:0:0:0:
379,77,38933,6,8,P|365:27|293:39,1,100
114,82,39267,1,8,0:0:0:0:
135,223,39433,1,8,0:0:0:0:
253,276,39600,1,0,0:0:0:0:
253,276,39683,2,8,L|321:268,1,50
344,253,39850,1,8,0:0:0:0:
363,212,39933,5,8,0:0:0:0:
356,175,40017,1,8,0:0:0:0:
318,150,40100,1,8,0:0:0:0:
273,154,40183,1,8,0:0:0:0:
239,184,40267,1,8,0:0:0:0:
223,225,40350,1,8,0:0:0:0:
199,263,40433,2,12,P|162:308|96:334,2,100
302,53,40933,1,8,0:0:0:0:
325,269,41100,1,8,0:0:0:0:
313,40,41267,5,8,0:0:0:0:
313,40,41350,1,8,0:0:0:0:
313,40,41433,1,8,0:0:0:0:
61,134,41600,1,8,0:0:0:0:
175,197,41767,1,8,0:0:0:0:
297,124,41933,1,8,0:0:0:0:
474,159,42100,1,8,0:0:0:0:
361,197,42267,1,8,0:0:0:0:
474,159,42433,2,0,P|459:264|386:375,1,200
129,332,43100,6,0,P|81:244|93:153,1,150
128,48,43600,1,8,0:0:0:0:
176,224,43767,1,8,0:0:0:0:
224,48,43933,1,8,0:0:0:0:
272,224,44100,1,8,0:0:0:0:
320,48,44267,1,8,0:0:0:0:
381,223,44433,2,0,P|336:317|235:283,1,200
84,84,44933,1,8,0:0:0:0:
84,84,45017,1,8,0:0:0:0:
84,84,45100,2,0,L|123:284,1,200
400,96,45600,5,8,0:0:0:0:
400,96,45683,1,8,0:0:0:0:
400,96,45767,2,8,P|417:190|380:308,1,200
96,48,46267,1,8,0:0:0:0:
352,96,46433,1,8,0:0:0:0:
96,160,46600,1,8,0:0:0:0:
96,160,46683,1,8,0:0:0:0:
96,160,46767,1,8,0:0:0:0:
253,252,46933,1,8,0:0:0:0:
96,272,47100,5,12,0:0:0:0:
356,202,47350,1,8,0:0:0:0:
97,144,47600,1,12,0:0:0:0:
356,202,47767,2,8,B|266:290|174:210,1,200
97,144,48267,1,8,0:0:0:0:
47,226,48433,5,8,0:0:0:0:
35,269,48517,1,8,0:0:0:0:
54,312,48600,1,8,0:0:0:0:
99,316,48683,1,8,0:0:0:0:
136,290,48767,1,8,0:0:0:0:
176,269,48850,1,8,0:0:0:0:
215,271,48933,1,8,0:0:0:0:
256,289,49017,1,8,0:0:0:0:
300,287,49100,2,8,L|358:273,1,50
381,262,49267,5,8,0:0:0:0:
410,244,49350,1,8,0:0:0:0:
425,212,49433,1,8,0:0:0:0:
430,177,49517,1,8,0:0:0:0:
422,143,49600,1,8,0:0:0:0:
406,111,49683,1,8,0:0:0:0:
383,83,49767,2,8,P|356:60|319:51,1,50
308,48,49933,1,8,0:0:0:0:
272,45,50017,1,8,0:0:0:0:
237,48,50100,5,8,0:0:0:0:
204,60,50183,1,8,0:0:0:0:
176,81,50267,1,8,0:0:0:0:
158,111,50350,1,8,0:0:0:0:
143,142,50433,2,8,P|145:174|162:202,1,50
171,219,50600,5,8,0:0:0:0:
188,249,50683,1,8,0:0:0:0:
190,284,50767,1,8,0:0:0:0:
173,314,50850,1,8,0:0:0:0:
150,340,50933,1,8,0:0:0:0:
114,343,51017,1,8,0:0:0:0:
82,328,51100,1,8,0:0:0:0:
32,197,51433,5,8,0:0:0:0:
211,68,51767,1,8,0:0:0:0:
297,270,52100,1,8,0:0:0:0:
395,73,52433,5,8,0:0:0:0:
431,177,52600,1,8,0:0:0:0:
400,283,52767,1,8,0:0:0:0:
279,192,52933,1,8,0:0:0:0:
136,58,53100,5,12,0:0:0:0:
69,145,53267,1,12,0:0:0:0:
77,254,53433,1,12,0:0:0:0:
157,329,53600,1,12,0:0:0:0:
266,321,53767,1,8,0:0:0:0:
279,192,53933,1,8,0:0:0:0:
376,278,54100,1,8,0:0:0:0:
362,148,54267,1,8,0:0:0:0:
310,51,54433,5,8,0:0:0:0:
274,46,54517,1,8,0:0:0:0:
239,47,54600,1,8,0:0:0:0:
204,50,54683,1,8,0:0:0:0:
169,57,54767,1,8,0:0:0:0:
137,72,54850,1,8,0:0:0:0:
109,93,54933,1,8,0:0:0:0:
89,122,55017,1,8,0:0:0:0:
78,155,55100,1,8,0:0:0:0:
77,284,55267,5,12,0:0:0:0:
77,284,55350,1,12,0:0:0:0:
77,284,55433,1,12,0:0:0:0:
188,136,55600,1,8,0:0:0:0:
276,285,55767,1,8,0:0:0:0:
379,146,55933,1,8,0:0:0:0:
231,26,56100,1,8,0:0:0:0:
91,145,56267,1,8,0:0:0:0:
70,323,56433,5,12,0:0:0:0:
244,116,56683,5,8,0:0:0:0:
414,325,56933,5,12,0:0:0:0:
446,161,57100,1,8,0:0:0:0:
446,161,57183,1,8,0:0:0:0:
446,161,57267,1,8,0:0:0:0:
442,70,57433,2,4,P|331:53|265:93,1,150
256,96,57767,5,8,0:0:0:0:
212,65,57850,2,4,P|140:48|70:69,1,150
41,157,58267,1,8,0:0:0:0:
41,157,58350,1,8,0:0:0:0:
41,157,58433,2,8,P|68:204|123:258,1,100
197,302,58767,5,12,0:0:0:0:
251,160,58933,1,8,0:0:0:0:
329,288,59100,1,12,0:0:0:0:
406,141,59267,1,8,0:0:0:0:
406,141,59350,1,8,0:0:0:0:
406,141,59433,1,8,0:0:0:0:
278,43,59600,1,12,0:0:0:0:
121,79,59767,1,8,0:0:0:0:
250,171,59933,1,12,0:0:0:0:
90,186,60100,1,8,0:0:0:0:
216,283,60267,1,8,0:0:0:0:
363,222,60433,1,8,0:0:0:0:
451,148,60600,5,8,0:0:0:0:
451,148,60683,1,8,0:0:0:0:
451,148,60767,2,8,P|423:91|386:61,1,100
299,42,61100,1,8,0:0:0:0:
140,69,61267,1,8,0:0:0:0:
72,213,61433,1,8,0:0:0:0:
365,213,61600,1,8,0:0:0:0:
365,213,61767,6,12,L|469:232,2,100
212,176,62267,1,8,0:0:0:0:
82,129,62433,1,12,0:0:0:0:
82,129,62517,1,12,0:0:0:0:
82,129,62600,1,12,0:0:0:0:
215,47,62767,5,8,0:0:0:0:
386,100,63100,5,8,0:0:0:0:
243,224,63433,5,8,0:0:0:0:
70,209,63600,1,8,0:0:0:0:
70,209,63683,1,8,0:0:0:0:
70,209,63767,2,8,B|41:157|41:157|32:113,1,100
73,41,64100,1,8,0:0:0:0:
183,111,64267,1,8,0:0:0:0:
306,68,64433,2,8,L|410:30,2,100
292,196,64933,1,8,0:0:0:0:
293,195,65016,1,8,0:0:0:0:
292,196,65100,1,8,0:0:0:0:
103,120,65267,1,12,0:0:0:0:
264,53,65433,2,8,B|402:64|420:208,1,200
394,266,65933,5,8,0:0:0:0:
364,312,66017,1,8,0:0:0:0:
313,329,66100,1,8,0:0:0:0:
151,279,66267,1,8,0:0:0:0:
151,127,66433,2,8,P|248:82|352:67,1,200
444,71,66933,1,8,0:0:0:0:
399,220,67100,5,8,0:0:0:0:
94,75,67350,1,8,0:0:0:0:
400,226,67600,1,8,0:0:0:0:
309,297,67767,6,12,B|198:348|118:254,1,200
138,95,68433,2,12,B|238:31|348:110,1,200
399,174,68933,1,8,0:0:0:0:
399,174,69017,1,8,0:0:0:0:
399,174,69100,1,8,0:0:0:0:
442,308,69267,1,8,0:0:0:0:
315,113,69433,1,8,0:0:0:0:
248,305,69600,1,8,0:0:0:0:
171,111,69767,1,8,0:0:0:0:
90,304,69933,5,12,0:0:0:0:
90,304,70017,1,12,0:0:0:0:
90,304,70100,1,12,0:0:0:0:
171,140,70267,1,8,0:0:0:0:
329,74,70433,1,8,0:0:0:0:
329,74,70767,2,8,P|393:149|352:264,1,200
284,309,71267,5,12,0:0:0:0:
284,309,71350,1,12,0:0:0:0:
284,309,71433,1,12,0:0:0:0:
127,264,71600,1,8,0:0:0:0:
267,198,71767,1,8,0:0:0:0:
111,163,71933,1,8,0:0:0:0:
224,79,72100,1,8,0:0:0:0:
74,48,72267,1,8,0:0:0:0:
243,84,72433,5,12,0:0:0:0:
421,33,72683,1,8,0:0:0:0:
94,36,72933,1,12,0:0:0:0:
257,122,73100,2,8,L|257:332,1,200
140,279,73767,5,8,0:0:0:0:
84,140,73933,1,8,0:0:0:0:
215,44,74100,1,8,0:0:0:0:
384,93,74267,1,12,0:0:0:0:
384,93,74350,1,12,0:0:0:0:
384,93,74433,1,12,0:0:0:0:
390,238,74600,1,8,0:0:0:0:
252,302,74767,1,8,0:0:0:0:
106,237,74933,1,8,0:0:0:0:
92,110,75100,5,8,0:0:0:0:
115,83,75183,1,8,0:0:0:0:
145,65,75267,1,8,0:0:0:0:
178,55,75350,1,8,0:0:0:0:
212,60,75433,1,8,0:0:0:0:
244,74,75517,1,8,0:0:0:0:
278,76,75600,1,8,0:0:0:0:
311,65,75683,1,8,0:0:0:0:
345,56,75767,1,8,0:0:0:0:
379,59,75850,5,8,0:0:0:0:
409,76,75933,1,8,0:0:0:0:
437,96,76017,1,8,0:0:0:0:
458,123,76100,1,8,0:0:0:0:
469,155,76183,1,8,0:0:0:0:
466,190,76267,1,8,0:0:0:0:
451,221,76350,1,8,0:0:0:0:
426,245,76433,2,8,B|341:324|269:299|202:239|202:239|153:257|112:243,1,300
152,107,77100,2,8,B|237:28|309:53|376:113|376:113|425:95|466:109,1,300
450,240,77767,6,8,B|394:268|394:268|321:227|296:290|145:262,1,300
100,137,78433,2,8,B|156:109|156:109|229:150|254:87|405:115,1,300
470,228,79100,1,8,0:0:0:0:
445,252,79183,1,8,0:0:0:0:
416,273,79267,1,8,0:0:0:0:
385,290,79350,1,8,0:0:0:0:
351,299,79433,1,8,0:0:0:0:
316,305,79517,1,8,0:0:0:0:
281,300,79600,1,8,0:0:0:0:
250,282,79683,5,8,0:0:0:0:
227,255,79767,1,12,0:0:0:0:
192,261,79850,1,8,0:0:0:0:
157,256,79933,1,8,0:0:0:0:
129,233,80017,1,8,0:0:0:0:
114,201,80100,1,8,0:0:0:0:
118,166,80183,1,8,0:0:0:0:
137,136,80267,1,8,0:0:0:0:
167,118,80350,1,8,0:0:0:0:
201,115,80433,5,12,0:0:0:0:
233,127,80517,1,8,0:0:0:0:
259,149,80600,1,8,0:0:0:0:
282,174,80683,1,8,0:0:0:0:
313,189,80767,1,8,0:0:0:0:
347,188,80850,1,8,0:0:0:0:
374,167,80933,1,8,0:0:0:0:
390,135,81017,1,8,0:0:0:0:
394,100,81100,1,12,0:0:0:0:
382,67,81183,5,8,0:0:0:0:
356,42,81267,1,8,0:0:0:0:
321,37,81350,1,8,0:0:0:0:
288,50,81433,1,8,0:0:0:0:
264,76,81517,1,8,0:0:0:0:
256,115,81600,1,0,0:0:0:0:
274,143,81683,1,0,0:0:0:0:
308,164,81767,2,0,P|371:259|328:331,1,200
124,87,82433,1,0,0:0:0:0:
360,168,82600,1,0,0:0:0:0:
118,212,82767,1,0,0:0:0:0:
350,69,82933,1,0,0:0:0:0:
286,207,83100,1,0,0:0:0:0:
217,339,83267,1,8,0:0:0:0:
139,242,83433,1,8,0:0:0:0:
211,139,83600,1,8,0:0:0:0:
135,16,83767,5,8,0:0:0:0:
83,144,83933,1,12,0:0:0:0:
83,144,84100,1,8,0:0:0:0:
83,144,84267,1,12,0:0:0:0:
83,144,84433,2,0,B|277:303|267:47|477:142,1,400
448,130,85433,1,0,0:0:0:0:
421,49,85600,5,8,0:0:0:0:
421,49,85683,1,8,0:0:0:0:
421,49,85767,1,8,0:0:0:0:
334,206,85933,1,12,0:0:0:0:
253,42,86100,1,8,0:0:0:0:
170,202,86267,1,12,0:0:0:0:
90,44,86433,1,8,0:0:0:0:
48,214,86600,1,12,0:0:0:0:
48,214,86767,2,8,P|61:265|103:318,2,100
78,61,87267,5,8,0:0:0:0:
78,61,87350,1,8,0:0:0:0:
78,61,87433,1,8,0:0:0:0:
200,188,87600,1,8,0:0:0:0:
327,52,87767,2,8,P|379:34|434:39,2,100
201,212,88267,1,8,0:0:0:0:
261,298,88433,6,8,P|367:297|470:232,1,200
485,164,88933,1,12,0:0:0:0:
357,130,89100,1,8,0:0:0:0:
451,49,89267,1,12,0:0:0:0:
485,164,89433,1,8,0:0:0:0:
357,130,89600,1,12,0:0:0:0:
357,130,89767,6,8,B|254:70|140:131,1,200
73,176,90267,1,8,0:0:0:0:
126,283,90433,1,8,0:0:0:0:
201,176,90600,1,8,0:0:0:0:
239,281,90767,1,8,0:0:0:0:
352,82,90933,5,12,0:0:0:0:
352,82,91017,1,12,0:0:0:0:
352,82,91100,1,12,0:0:0:0:
414,197,91267,1,8,0:0:0:0:
308,302,91433,1,8,0:0:0:0:
164,257,91600,1,8,0:0:0:0:
125,111,91767,1,8,0:0:0:0:
129,260,91933,5,8,0:0:0:0:
129,260,92017,1,8,0:0:0:0:
129,260,92100,1,8,0:0:0:0:
105,111,92267,1,12,0:0:0:0:
105,111,92433,2,8,B|144:166|330:183|279:68|473:76|510:126,1,400
253,302,93433,1,8,0:0:0:0:
154,72,93767,6,8,P|248:53|368:58,1,200
437,73,94267,1,8,0:0:0:0:
304,142,94433,1,12,0:0:0:0:
452,166,94600,1,8,0:0:0:0:
313,223,94767,1,12,0:0:0:0:
457,261,94933,1,8,0:0:0:0:
287,301,95100,6,12,P|173:322|49:301,1,200
25,291,95600,1,8,0:0:0:0:
154,215,95767,1,12,0:0:0:0:
14,161,95933,1,8,0:0:0:0:
146,90,96100,1,8,0:0:0:0:
23,44,96267,5,12,0:0:0:0:
23,44,96350,1,12,0:0:0:0:
23,44,96433,1,12,0:0:0:0:
148,80,96600,1,8,0:0:0:0:
275,54,96767,2,8,B|344:96|369:-8|457:110,1,200
506,221,97267,1,8,0:0:0:0:
421,318,97433,1,8,0:0:0:0:
325,229,97600,1,8,0:0:0:0:
236,324,97767,1,8,0:0:0:0:
147,191,97933,5,12,0:0:0:0:
147,191,98017,1,12,0:0:0:0:
147,191,98100,1,12,0:0:0:0:
232,55,98267,1,8,0:0:0:0:
316,190,98433,1,8,0:0:0:0:
230,325,98600,1,8,0:0:0:0:
75,274,98767,2,8,P|46:240|48:177,2,100
234,290,99267,5,8,0:0:0:0:
393,286,99433,1,8,0:0:0:0:
234,290,99600,1,8,0:0:0:0:
393,286,99767,1,8,0:0:0:0:
277,176,99933,1,8,0:0:0:0:
436,187,100100,1,8,0:0:0:0:
292,51,100267,1,8,0:0:0:0:
453,83,100433,2,8,B|332:25|368:168|227:98,1,200
76,91,100933,1,8,0:0:0:0:
167,230,101100,1,12,0:0:0:0:
200,87,101267,1,8,0:0:0:0:
293,209,101433,1,12,0:0:0:0:
388,75,101600,5,8,0:0:0:0:
388,75,101683,1,8,0:0:0:0:
388,75,101767,1,8,0:0:0:0:
278,213,101933,1,8,0:0:0:0:
198,309,102100,1,8,0:0:0:0:
100,240,102267,1,8,0:0:0:0:
177,147,102433,1,8,0:0:0:0:
350,266,102600,5,12,0:0:0:0:
350,266,102683,1,12,0:0:0:0:
350,266,102767,1,12,0:0:0:0:
250,82,102933,1,8,0:0:0:0:
130,255,103100,5,8,0:0:0:0:
340,259,103267,1,8,0:0:0:0:
250,69,103433,1,8,0:0:0:0:
136,246,103600,1,8,0:0:0:0:
340,259,103767,2,8,L|392:265,4,50
118,82,104433,5,12,0:0:0:0:
449,82,104933,5,8,0:0:0:0:
330,255,105100,1,8,0:0:0:0:
449,82,105267,1,8,0:0:0:0:
330,255,105433,1,8,0:0:0:0:
210,81,105600,1,8,0:0:0:0:
330,255,105767,1,12,0:0:0:0:
210,81,105933,1,8,0:0:0:0:
435,83,106267,5,12,0:0:0:0:
431,125,106350,1,12,0:0:0:0:
427,174,106433,2,12,B|383:244|272:225|118:180,1,300
137,180,107017,1,8,0:0:0:0:
117,169,107100,1,8,0:0:0:0:
48,76,107267,5,8,0:0:0:0:
137,180,107433,1,8,0:0:0:0:
224,70,107600,1,8,0:0:0:0:
329,162,107767,1,8,0:0:0:0:
425,60,107933,5,12,0:0:0:0:
425,60,108017,1,12,0:0:0:0:
425,60,108100,1,12,0:0:0:0:
441,199,108267,1,8,0:0:0:0:
375,289,108433,2,8,P|327:309|255:318,1,100
254,321,108683,1,8,0:0:0:0:
236,322,108767,1,8,0:0:0:0:
115,235,108933,5,8,0:0:0:0:
287,178,109100,1,8,0:0:0:0:
118,96,109267,1,8,0:0:0:0:
242,42,109433,1,8,0:0:0:0:
276,48,109517,1,8,0:0:0:0:
308,61,109600,1,8,0:0:0:0:
342,71,109683,1,8,0:0:0:0:
373,87,109767,2,8,P|416:128|423:195,1,100
117,60,110267,5,8,0:0:0:0:
117,60,110350,1,8,0:0:0:0:
117,60,110433,1,8,0:0:0:0:
248,249,110600,1,8,0:0:0:0:
378,54,110767,1,8,0:0:0:0:
117,60,110933,1,8,0:0:0:0:
123,55,111100,6,8,L|249:55,1,100
219,319,111433,2,12,L|108:317,1,100
338,127,111767,2,8,L|342:246,1,100
48,230,112100,2,12,L|51:110,1,100
184,317,112433,2,8,L|48:318,1,100
123,55,112767,2,12,L|236:55,1,100
184,317,113100,5,8,0:0:0:0:
218,317,113183,1,8,0:0:0:0:
253,315,113267,1,8,0:0:0:0:
287,310,113350,1,8,0:0:0:0:
320,299,113433,1,12,0:0:0:0:
350,282,113517,1,8,0:0:0:0:
374,257,113600,1,8,0:0:0:0:
386,224,113683,1,8,0:0:0:0:
388,178,113767,1,12,0:0:0:0:
371,136,113850,5,8,0:0:0:0:
336,107,113933,1,8,0:0:0:0:
293,90,114017,1,8,0:0:0:0:
248,83,114100,1,8,0:0:0:0:
205,97,114183,1,8,0:0:0:0:
172,128,114267,1,8,0:0:0:0:
156,168,114350,1,8,0:0:0:0:
154,208,114433,1,8,0:0:0:0:
178,246,114517,1,8,0:0:0:0:
216,268,114600,5,8,0:0:0:0:
260,274,114683,1,8,0:0:0:0:
305,276,114767,2,12,L|352:226,4,50
115,248,115350,1,12,0:0:0:0:
115,248,115433,2,8,L|116:196,1,50
381,248,115683,1,12,0:0:0:0:
381,248,115767,2,8,L|381:189,1,50
114,56,116017,1,12,0:0:0:0:
114,56,116100,2,8,L|115:116,1,50
383,53,116350,5,12,0:0:0:0:
383,53,116433,2,8,L|383:113,1,50
89,172,116683,1,12,0:0:0:0:
89,172,116767,2,8,L|145:169,1,50
379,157,117017,1,8,0:0:0:0:
379,157,117100,2,8,L|441:154,1,50
256,192,117350,1,8,0:0:0:0:
256,192,117433,2,8,L|254:249,1,50
254,320,117767,1,8,0:0:0:0:
113,208,118100,5,8,0:0:0:0:
112,165,118183,1,8,0:0:0:0:
121,118,118267,1,8,0:0:0:0:
146,80,118350,1,8,0:0:0:0:
178,50,118433,1,12,0:0:0:0:
258,320,118767,1,8,0:0:0:0:
399,208,119100,5,8,0:0:0:0:
401,163,119183,1,8,0:0:0:0:
391,118,119267,1,8,0:0:0:0:
372,84,119350,1,8,0:0:0:0:
334,50,119433,1,12,0:0:0:0:
128,64,119683,2,12,L|207:22,1,50
258,221,120017,2,8,L|195:251,1,50
86,67,120433,5,8,0:0:0:0:
340,65,120683,1,8,0:0:0:0:
340,65,120767,1,12,0:0:0:0:
104,163,121017,1,8,0:0:0:0:
104,163,121100,1,12,0:0:0:0:
358,174,121350,1,8,0:0:0:0:
358,174,121433,1,12,0:0:0:0:
134,297,121683,1,8,0:0:0:0:
134,297,121767,1,12,0:0:0:0:
358,174,122017,5,8,0:0:0:0:
358,174,122100,1,12,0:0:0:0:
104,163,122350,1,8,0:0:0:0:
104,163,122433,1,12,0:0:0:0:
339,65,122683,1,8,0:0:0:0:
339,65,122767,2,12,L|306:284,1,200
368,48,123267,5,8,0:0:0:0:
144,272,123433,1,8,0:0:0:0:
144,48,123600,1,8,0:0:0:0:
368,272,123767,1,8,0:0:0:0:
368,48,123933,1,8,0:0:0:0:
144,272,124100,1,8,0:0:0:0:
144,48,124267,1,8,0:0:0:0:
368,272,124433,2,8,L|373:163,2,100
259,338,124933,5,8,0:0:0:0:
144,272,125100,1,12,0:0:0:0:
83,60,125350,5,8,0:0:0:0:
83,60,125433,1,12,0:0:0:0:
186,167,125683,1,8,0:0:0:0:
186,167,125767,1,12,0:0:0:0:
307,52,126017,1,8,0:0:0:0:
307,52,126100,1,12,0:0:0:0:
186,167,126350,1,8,0:0:0:0:
186,167,126433,1,12,0:0:0:0:
72,279,126683,1,8,0:0:0:0:
72,279,126767,1,12,0:0:0:0:
285,282,127017,1,8,0:0:0:0:
285,282,127100,1,12,0:0:0:0:
396,169,127350,5,8,0:0:0:0:
396,169,127433,1,12,0:0:0:0:
285,42,127683,1,8,0:0:0:0:
285,42,127767,1,12,0:0:0:0:
178,170,128017,1,8,0:0:0:0:
178,170,128100,1,12,0:0:0:0:
296,303,128350,1,8,0:0:0:0:
296,303,128433,1,12,0:0:0:0:
430,170,128683,1,8,0:0:0:0:
430,170,128767,1,12,0:0:0:0:
295,54,129017,2,8,L|238:57,1,50
137,83,129433,5,8,0:0:0:0:
127,127,129517,1,8,0:0:0:0:
127,171,129600,1,8,0:0:0:0:
142,212,129683,1,8,0:0:0:0:
172,245,129767,1,12,0:0:0:0:
298,270,129933,1,8,0:0:0:0:
299,139,130100,1,8,0:0:0:0:
422,180,130267,1,8,0:0:0:0:
407,51,130433,1,12,0:0:0:0:
292,113,130600,5,8,0:0:0:0:
176,52,130767,1,8,0:0:0:0:
110,163,130933,1,8,0:0:0:0:
176,274,131100,1,12,0:0:0:0:
306,273,131267,1,8,0:0:0:0:
381,167,131433,1,8,0:0:0:0:
321,51,131600,1,8,0:0:0:0:
136,84,131767,5,8,0:0:0:0:
109,114,131850,1,8,0:0:0:0:
129,148,131933,1,8,0:0:0:0:
101,177,132017,1,8,0:0:0:0:
120,211,132100,1,8,0:0:0:0:
94,241,132183,1,8,0:0:0:0:
117,273,132267,1,8,0:0:0:0:
154,285,132350,1,8,0:0:0:0:
191,273,132433,1,12,0:0:0:0:
257,228,132600,1,8,0:0:0:0:
309,167,132767,1,8,0:0:0:0:
372,118,132933,1,8,0:0:0:0:
434,67,133100,6,8,L|436:308,1,200
78,67,133767,2,8,L|76:308,1,200
242,61,134433,2,8,L|244:302,1,200
256,192,135767,12,0,138017,0:0:0:0:
