osu file format v14

[General]
AudioFilename: audio.mp3
AudioLeadIn: 0
PreviewTime: 171988
Countdown: 1
SampleSet: Soft
StackLeniency: 0.7
Mode: 0
LetterboxInBreaks: 0
WidescreenStoryboard: 1

[Editor]
Bookmarks: 22502,22799,35447,36745,38042,39339,40636,41934,43231,44556,54907,60096,65285,74609,96420,99015,100636,101123,101609,102096,102420,102745,103231,103717,104204,104366,104528,104853,115231,118961,124150,125609,153096,182690,193069,195663,198258,203447,208636,220312,240745,259636,261826,274474
DistanceSpacing: 0.3
BeatDivisor: 4
GridSize: 16
TimelineZoom: 2.999999

[Metadata]
Title:Logical Stimulus
TitleUnicode:Logical Stimulus
Artist:a_hisa
ArtistUnicode:a_hisa
Creator:My Angel Jeremy
Version:Indefinite
Source:
Tags:Spiritual core
BeatmapID:2005932
BeatmapSetID:853489

[Difficulty]
HPDrainRate:5
CircleSize:4
OverallDifficulty:8.5
ApproachRate:9.7
SliderMultiplier:1.4
SliderTickRate:1

[Events]
//Background and Video events
0,0,"769160.jpg",0,0
//Break Periods
//Storyboard Layer 0 (Background)
//Storyboard Layer 1 (Fail)
//Storyboard Layer 2 (Pass)
//Storyboard Layer 3 (Foreground)
//Storyboard Layer 4 (Overlay)
//Storyboard Sound Samples

[TimingPoints]
1718,324.324324324324,4,2,1,48,1,0
1718,-133.333333333333,4,2,1,48,0,0
10799,-303.030303030303,4,2,1,48,0,0
12096,-200,4,2,1,48,0,0
13717,-133.333333333333,4,2,1,48,0,0
19150,-100,4,2,1,48,0,0
19880,-80,4,2,1,48,0,0
21177,-66.6666666666667,4,2,1,48,0,0
22474,-100,4,2,1,48,0,0
23123,-66.6666666666667,4,2,1,48,0,0
33501,-100,4,2,1,48,0,0
34150,-133.333333333333,4,2,1,48,0,0
39663,-117.647058823529,4,2,1,48,0,0
44528,-100,4,2,1,48,0,0
53609,-83.3333333333333,4,2,1,48,0,0
53934,-71.4285714285714,4,2,1,48,0,0
54258,-100,4,2,1,48,0,0
72096,-83.3333333333333,4,2,1,48,0,0
72745,-71.4285714285714,4,2,1,48,0,0
73069,-133.333333333333,4,2,1,48,0,0
74366,-66.6666666666667,4,2,1,48,0,0
75663,-66.6666666666667,4,2,1,48,0,1
85880,-50,4,2,1,48,0,1
86042,-66.6666666666667,4,2,1,48,0,1
89447,-100,4,2,1,48,0,1
89609,-66.6666666666667,4,2,1,48,0,1
90745,-100,4,2,1,48,0,1
90907,-66.6666666666667,4,2,1,48,0,1
95690,-57.1428571428571,4,2,1,48,0,1
96420,-133.333333333333,4,2,1,48,0,0
100636,-83.3333333333333,4,2,1,48,0,0
101123,-76.9230769230769,4,2,1,48,0,0
101609,-71.4285714285714,4,2,1,48,0,0
102096,-35.7142857142857,4,2,1,48,0,0
102420,-33.3333333333333,4,2,1,48,0,0
102745,-31.25,4,2,1,48,0,0
103231,-83.3333333333333,4,2,1,48,0,0
103717,-62.5,4,2,1,48,0,0
104366,-43.4782608695652,4,2,1,48,0,0
104528,-33.3333333333333,4,2,1,48,0,0
104853,-80,4,2,1,48,0,0
115231,-227.272727272727,4,2,1,48,0,0
125528,-181.818181818182,4,2,1,48,0,0
130799,-200,4,2,1,48,0,0
135988,-200,4,2,1,48,0,0
141825,-166.666666666667,4,2,1,48,0,0
146366,-100,4,2,1,48,0,0
148961,-83.3333333333333,4,2,1,48,0,0
151555,-71.4285714285714,4,2,1,48,0,0
152528,-133.333333333333,4,2,1,48,0,0
152853,-71.4285714285714,4,2,1,48,0,0
155447,-50,4,2,1,48,0,0
155609,-66.6666666666667,4,2,1,48,0,0
155772,-40,4,2,1,48,0,0
155934,-66.6666666666667,4,2,1,48,0,0
156096,-33.3333333333333,4,2,1,48,0,0
156258,-66.6666666666667,4,2,1,48,0,0
156745,-50,4,2,1,48,0,0
157231,-40,4,2,1,48,0,0
157393,-33.3333333333333,4,2,1,48,0,0
158366,-100,4,2,1,48,0,0
158528,-66.6666666666667,4,2,1,48,0,0
158690,-33.3333333333333,4,2,1,48,0,0
159015,-66.6666666666667,4,2,1,48,0,0
159826,-40,4,2,1,48,0,0
159988,-33.3333333333333,4,2,1,48,0,0
161934,-33.3333333333333,4,2,1,48,0,0
162258,-50,4,2,1,48,0,0
162582,-33.3333333333333,4,2,1,48,0,0
163231,-50,4,2,1,48,0,0
163880,-33.3333333333333,4,2,1,48,0,0
164853,-66.6666666666667,4,2,1,48,0,0
165015,-33.3333333333333,4,2,1,48,0,0
167123,-40,4,2,1,48,0,0
167285,-66.6666666666667,4,2,1,48,0,0
167772,-40,4,2,1,48,0,0
168745,-66.6666666666667,4,2,1,48,0,0
168907,-40,4,2,1,48,0,0
169069,-33.3333333333333,4,2,1,48,0,0
169717,-40,4,2,1,48,0,0
170204,-66.6666666666667,4,2,1,48,0,0
170366,-33.3333333333333,4,2,1,48,0,0
171015,-66.6666666666667,4,2,1,48,0,0
171663,-33.3333333333333,4,2,1,48,0,0
171988,-44.4444444444445,4,2,1,48,0,0
172312,-44.4444444444445,4,2,1,48,0,1
172961,-33.3333333333333,4,2,1,48,0,1
173609,-66.6666666666667,4,2,1,48,0,1
173772,-33.3333333333333,4,2,1,48,0,1
174745,-44.4444444444445,4,2,1,48,0,1
175231,-66.6666666666667,4,2,1,48,0,1
175555,-40,4,2,1,48,0,1
176042,-66.6666666666667,4,2,1,48,0,1
176204,-50,4,2,1,48,0,1
176853,-33.3333333333333,4,2,1,48,0,1
177177,-66.6666666666667,4,2,1,48,0,1
177501,-40,4,2,1,48,0,1
177988,-50,4,2,1,48,0,1
178150,-33.3333333333333,4,2,1,48,0,1
178312,-66.6666666666667,4,2,1,48,0,1
178799,-33.3333333333333,4,2,1,48,0,1
178961,-50,4,2,1,48,0,1
179447,-33.3333333333333,4,2,1,48,0,1
179609,-66.6666666666667,4,2,1,48,0,1
180582,-50,4,2,1,48,0,1
180745,-33.3333333333333,4,2,1,48,0,1
180907,-66.6666666666667,4,2,1,48,0,1
181393,-50,4,2,1,48,0,1
182042,-33.3333333333333,4,2,1,48,0,1
183015,-66.6666666666667,4,2,1,48,0,1
183663,-44.4444444444445,4,2,1,48,0,1
184799,-66.6666666666667,4,2,1,48,0,1
184961,-44.4444444444445,4,2,1,48,0,1
185123,-66.6666666666667,4,2,1,48,0,1
185285,-44.4444444444445,4,2,1,48,0,1
186745,-40,4,2,1,48,0,1
186907,-33.3333333333333,4,2,1,48,0,1
187150,-44.4444444444445,4,2,1,48,0,1
187555,-40,4,2,1,48,0,1
188204,-66.6666666666667,4,2,1,48,0,1
189339,-66.6666666666667,4,2,1,48,0,1
189501,-40,4,2,1,48,0,1
189826,-66.6666666666667,4,2,1,48,0,1
190474,-33.3333333333333,4,2,1,48,0,1
190799,-66.6666666666667,4,2,1,48,0,1
191447,-44.4444444444445,4,2,1,48,0,1
191772,-40,4,2,1,48,0,1
191934,-30.3030303030303,4,2,1,48,0,1
192096,-36.3636363636364,4,2,1,48,0,1
193069,-100,4,2,1,48,0,0
195663,-66.6666666666667,4,2,1,48,0,0
196474,-66.6666666666667,4,2,1,48,0,0
198258,-100,4,2,1,48,0,0
217717,-66.6666666666667,4,2,1,48,0,0
218934,-200,4,2,1,48,0,0
219177,-66.6666666666667,4,2,1,48,0,0
220312,-66.6666666666667,4,2,1,48,0,1
223717,-100,4,2,1,48,0,1
223880,-66.6666666666667,4,2,1,48,0,1
227609,-100,4,2,1,48,0,1
227772,-66.6666666666667,4,2,1,48,0,1
230528,-44.4444444444445,4,2,1,48,0,1
230690,-66.6666666666667,4,2,1,48,0,1
231501,-100,4,2,1,48,0,1
231663,-66.6666666666667,4,2,1,48,0,1
237339,-100,4,2,1,48,0,1
237501,-62.5,4,2,1,48,0,1
237663,-90.9090909090909,4,2,1,48,0,1
237826,-58.8235294117647,4,2,1,48,0,1
237988,-83.3333333333333,4,2,1,48,0,1
238150,-55.5555555555556,4,2,1,48,0,1
238312,-76.9230769230769,4,2,1,48,0,1
238474,-66.6666666666667,4,2,1,48,0,1
240096,-44.4444444444445,4,2,1,48,0,1
240258,-66.6666666666667,4,2,1,48,0,1
240745,-44.4444444444445,4,2,1,48,0,1
245772,-66.6666666666667,4,2,1,48,0,1
245934,-44.4444444444445,4,2,1,48,0,1
246420,-66.6666666666667,4,2,1,48,0,1
246582,-44.4444444444445,4,2,1,48,0,1
247069,-66.6666666666667,4,2,1,48,0,1
247231,-44.4444444444445,4,2,1,48,0,1
251123,-66.6666666666667,4,2,1,48,0,1
251285,-44.4444444444445,4,2,1,48,0,1
252258,-66.6666666666667,4,2,1,48,0,1
252420,-44.4444444444445,4,2,1,48,0,1
254366,-66.6666666666667,4,2,1,48,0,1
255015,-44.4444444444445,4,2,1,48,0,1
256150,-66.6666666666667,4,2,1,48,0,1
256312,-44.4444444444445,4,2,1,48,0,1
261826,-526.315789473684,4,2,1,48,0,0
268312,-500,4,2,1,48,0,0

[HitObjects]
117,117,1718,6,0,B|170:161|220:134|220:134|277:185|319:175,1,210.000008010865
409,153,2690,2,0,P|418:193|411:228,1,52.5000020027161
387,355,3015,2,0,P|282:323|314:227,1,210.000008010865
359,104,3988,2,0,P|332:96|298:91,1,52.5000020027161
174,60,4312,6,0,B|183:113|176:166|176:166|236:190|267:228,1,210.000008010865
189,343,5285,2,0,P|181:308|198:282,1,52.5000020027161
302,80,5609,2,0,P|393:50|394:147,1,210.000008010865
309,336,6582,6,0,P|318:306|311:264,1,52.5000020027161
186,85,6907,2,0,P|92:53|36:146,1,210.000008010865
136,340,7880,6,0,P|143:312|138:273,1,52.5000020027161
265,250,8205,2,0,B|295:209|311:141|311:141|369:137|398:90,1,210.000008010865
200,22,9177,2,0,P|201:47|216:78,1,52.5000020027161
392,241,9501,2,0,P|424:325|324:367,1,210.000008010865
286,63,10474,6,0,P|298:97|294:127,1,52.5000020027161
132,334,10798,2,0,P|54:288|104:196,1,210.000008010865
232,36,11772,6,0,P|235:47|234:64,1,23.0999999295044
276,200,12096,2,0,B|269:239|253:270|253:270|282:302|285:341,1,140
383,71,13069,5,0,0:0:0:0:
376,95,13231,1,0,0:0:0:0:
372,114,13393,5,0,0:0:0:0:
173,198,13717,1,0,0:0:0:0:
387,170,14042,1,0,0:0:0:0:
180,130,14366,1,0,0:0:0:0:
300,349,14690,6,0,P|401:319|362:232,1,210.000008010865
264,40,15663,2,0,B|244:74|239:108,1,52.5000020027161
216,223,15988,6,0,P|122:238|107:145,1,210.000008010865
356,118,16961,2,0,B|386:139|386:139|425:144,1,52.5000020027161
319,360,17285,6,0,B|305:329|303:304|303:304|271:297|255:272,1,105.000004005432
151,153,17934,2,0,B|125:178|125:178|89:190,1,52.5000020027161
387,224,18258,2,0,L|448:251,2,52.5000020027161
176,349,18907,6,0,L|179:282,1,52.5000020027161
246,45,19231,2,0,L|280:140,1,70
392,354,19555,2,0,L|401:265,1,70
94,126,19880,6,0,B|174:137|186:213|186:213|226:137|323:177|323:298|218:286,1,350
404,120,20853,1,0,0:0:0:0:
418,156,21177,6,0,B|397:108|427:65|427:65|353:27|292:72|292:72|322:121|300:167|300:167|230:210|186:154,1,420.000016021729
97,129,22474,6,0,L|178:144,1,70
275,26,22799,1,0,0:0:0:0:
309,248,22961,1,0,0:0:0:0:
380,68,23123,1,0,0:0:0:0:
422,285,23285,1,0,0:0:0:0:
286,159,23447,1,0,0:0:0:0:
470,154,23609,1,0,0:0:0:0:
305,287,23772,5,0,0:0:0:0:
236,80,23934,1,0,0:0:0:0:
169,320,24096,1,0,0:0:0:0:
352,186,24258,2,0,L|413:209,1,52.5000020027161
151,161,24421,5,0,0:0:0:0:
348,107,24583,1,0,0:0:0:0:
229,22,24745,1,0,0:0:0:0:
272,204,24907,1,0,0:0:0:0:
417,102,25069,2,0,L|409:238,1,105.000004005432
306,323,25393,1,0,0:0:0:0:
262,139,25555,1,0,0:0:0:0:
170,265,25717,5,0,0:0:0:0:
341,219,25879,1,0,0:0:0:0:
189,350,26041,1,0,0:0:0:0:
240,195,26203,1,0,0:0:0:0:
261,347,26366,5,0,0:0:0:0:
155,109,26528,1,0,0:0:0:0:
359,233,26690,1,0,0:0:0:0:
125,238,26853,2,0,L|62:263,1,52.5000020027161
298,81,27015,1,0,0:0:0:0:
150,177,27177,1,0,0:0:0:0:
359,104,27339,1,0,0:0:0:0:
158,86,27501,1,0,0:0:0:0:
248,190,27663,6,0,L|346:258,1,105.000004005432
285,343,27988,1,0,0:0:0:0:
347,134,28150,1,0,0:0:0:0:
401,344,28312,1,0,0:0:0:0:
251,128,28474,1,0,0:0:0:0:
416,208,28636,1,0,0:0:0:0:
210,213,28798,1,0,0:0:0:0:
361,300,28961,5,0,0:0:0:0:
303,67,29123,1,0,0:0:0:0:
204,292,29285,1,0,0:0:0:0:
342,147,29447,2,0,L|403:134,1,52.5000020027161
148,186,29609,5,0,0:0:0:0:
351,110,29772,1,0,0:0:0:0:
131,93,29934,1,0,0:0:0:0:
295,223,30096,1,0,0:0:0:0:
212,51,30258,5,0,0:0:0:0:
207,321,30420,1,0,0:0:0:0:
290,52,30582,5,0,0:0:0:0:
297,321,30745,1,0,0:0:0:0:
120,210,30907,5,0,0:0:0:0:
389,151,31069,1,0,0:0:0:0:
110,134,31231,5,0,0:0:0:0:
390,227,31393,1,0,0:0:0:0:
255,17,31555,5,0,0:0:0:0:
181,302,31717,1,0,0:0:0:0:
188,315,31799,1,0,0:0:0:0:
196,328,31880,1,0,0:0:0:0:
372,114,32042,5,0,0:0:0:0:
364,134,32123,1,0,0:0:0:0:
352,150,32204,1,0,0:0:0:0:
187,67,32366,5,0,0:0:0:0:
244,332,32528,1,0,0:0:0:0:
298,65,32690,1,0,0:0:0:0:
103,154,32853,5,0,0:0:0:0:
412,231,33015,1,0,0:0:0:0:
117,236,33177,5,0,0:0:0:0:
380,148,33339,1,0,0:0:0:0:
234,37,33501,5,0,0:0:0:0:
319,358,33663,1,0,0:0:0:0:
108,165,33826,5,0,0:0:0:0:
411,186,33988,1,0,0:0:0:0:
239,250,34150,2,0,L|270:310,2,52.5000020027161
248,120,34636,1,0,0:0:0:0:
248,120,34717,1,0,0:0:0:0:
248,120,34799,6,0,L|227:79,1,26.2500010013581
356,203,34961,1,0,0:0:0:0:
374,67,35123,2,0,P|364:27|348:-1,1,52.5000020027161
218,224,35447,5,0,0:0:0:0:
298,64,35609,1,0,0:0:0:0:
122,104,35772,1,0,0:0:0:0:
274,160,35934,1,0,0:0:0:0:
274,160,36015,1,0,0:0:0:0:
274,160,36096,6,0,L|262:203,1,26.2500010013581
202,32,36258,1,0,0:0:0:0:
128,256,36420,2,0,P|137:293|160:321,1,52.5000020027161
336,208,36745,5,0,0:0:0:0:
208,288,36907,1,0,0:0:0:0:
344,320,37069,1,0,0:0:0:0:
258,180,37231,1,0,0:0:0:0:
258,180,37312,1,0,0:0:0:0:
258,180,37393,6,0,L|248:132,1,26.2500010013581
208,328,37555,1,0,0:0:0:0:
344,256,37717,1,0,0:0:0:0:
175,206,37880,1,0,0:0:0:0:
161,204,37961,1,0,0:0:0:0:
148,203,38042,5,0,0:0:0:0:
304,128,38204,1,0,0:0:0:0:
112,72,38366,1,0,0:0:0:0:
152,248,38528,5,0,0:0:0:0:
171,245,38609,1,0,0:0:0:0:
191,243,38690,1,0,0:0:0:0:
210,240,38771,1,0,0:0:0:0:
230,238,38852,1,0,0:0:0:0:
328,96,39015,6,0,L|261:103,1,52.5000020027161
257,104,39258,1,0,0:0:0:0:
242,105,39339,1,0,0:0:0:0:
328,224,39501,1,0,0:0:0:0:
136,272,39663,6,0,P|172:232|200:222,1,59.5000011348725
202,221,39907,1,0,0:0:0:0:
228,218,39988,1,0,0:0:0:0:
254,222,40069,1,0,0:0:0:0:
278,232,40150,1,0,0:0:0:0:
408,344,40312,6,0,P|373:340|337:323,1,59.5000011348725
336,325,40555,1,0,0:0:0:0:
323,316,40636,1,0,0:0:0:0:
456,248,40799,1,0,0:0:0:0:
352,160,40961,6,0,P|326:145|297:139,1,59.5000011348725
270,143,41205,1,0,0:0:0:0:
245,152,41286,1,0,0:0:0:0:
224,167,41367,1,0,0:0:0:0:
206,186,41448,1,0,0:0:0:0:
64,56,41609,6,0,L|130:62,1,59.5000011348725
144,65,41853,1,0,0:0:0:0:
168,67,41934,5,0,0:0:0:0:
232,200,42096,1,0,0:0:0:0:
320,24,42258,1,0,0:0:0:0:
136,177,42420,5,0,0:0:0:0:
165,182,42501,1,0,0:0:0:0:
194,187,42582,1,0,0:0:0:0:
223,192,42663,1,0,0:0:0:0:
253,197,42744,1,0,0:0:0:0:
72,80,42907,5,0,0:0:0:0:
128,272,43069,5,0,0:0:0:0:
128,272,43150,1,0,0:0:0:0:
128,272,43231,6,0,L|174:253,1,29.7500005674362
323,272,43393,2,0,L|289:264,1,29.7500005674362
117,159,43555,6,0,L|170:147,1,29.7500005674362
320,160,43717,5,0,0:0:0:0:
320,160,43799,1,0,0:0:0:0:
320,160,43880,2,0,L|269:137,1,29.7500005674362
144,48,44042,2,0,L|174:87,1,29.7500005674362
216,280,44204,2,0,L|246:236,1,29.7500005674362
120,192,44366,5,0,0:0:0:0:
120,192,44447,1,0,0:0:0:0:
120,192,44528,5,0,0:0:0:0:
221,135,44690,1,0,0:0:0:0:
329,224,44853,2,0,L|329:144,1,70
395,42,45096,1,0,0:0:0:0:
395,42,45177,1,0,0:0:0:0:
395,42,45258,2,0,P|396:71|392:107,1,35
281,187,45501,5,0,0:0:0:0:
438,193,45663,1,0,0:0:0:0:
282,272,45826,1,0,0:0:0:0:
368,126,45988,1,0,0:0:0:0:
368,283,46150,2,0,L|369:368,1,70
200,275,46393,1,0,0:0:0:0:
200,275,46474,1,0,0:0:0:0:
200,275,46555,2,0,L|200:214,1,35
186,113,46799,5,0,0:0:0:0:
320,218,46961,1,0,0:0:0:0:
153,193,47123,1,0,0:0:0:0:
319,140,47285,1,0,0:0:0:0:
204,72,47447,6,0,P|176:99|156:130,1,70
218,295,47690,1,0,0:0:0:0:
218,295,47772,1,0,0:0:0:0:
218,295,47853,2,0,L|233:238,1,35
290,111,48096,5,0,0:0:0:0:
373,270,48258,1,0,0:0:0:0:
389,145,48420,1,0,0:0:0:0:
262,215,48582,1,0,0:0:0:0:
221,119,48744,6,0,L|256:50,1,70
70,38,48988,1,0,0:0:0:0:
70,38,49069,1,0,0:0:0:0:
70,38,49150,2,0,P|105:31|133:30,1,35
253,77,49393,1,0,0:0:0:0:
131,254,49555,1,0,0:0:0:0:
136,225,49636,1,0,0:0:0:0:
139,197,49717,5,0,0:0:0:0:
203,23,49879,1,0,0:0:0:0:
258,172,50041,6,0,P|266:212|258:252,1,70
321,79,50285,1,0,0:0:0:0:
321,79,50366,1,0,0:0:0:0:
321,79,50447,2,0,L|371:75,1,35
383,250,50690,1,0,0:0:0:0:
441,111,50853,1,0,0:0:0:0:
446,87,50934,1,0,0:0:0:0:
452,57,51015,5,0,0:0:0:0:
335,198,51177,1,0,0:0:0:0:
280,32,51339,2,0,P|240:24|201:25,1,70
131,151,51582,1,0,0:0:0:0:
131,151,51663,1,0,0:0:0:0:
131,151,51745,2,0,L|129:211,1,35
225,319,51988,5,0,0:0:0:0:
260,153,52150,1,0,0:0:0:0:
264,123,52231,1,0,0:0:0:0:
273,93,52312,1,0,0:0:0:0:
127,323,52474,1,0,0:0:0:0:
197,82,52636,6,0,P|235:72|275:80,1,70
410,172,52880,1,0,0:0:0:0:
410,172,52961,1,0,0:0:0:0:
410,172,53042,2,0,L|345:170,1,35
199,241,53285,1,0,0:0:0:0:
318,90,53447,1,0,0:0:0:0:
320,267,53609,6,0,L|324:341,1,41.9999987182618
172,109,53772,2,0,L|172:168,1,41.9999987182618
151,297,53934,6,0,L|162:384,1,48.9999985046387
344,80,54096,2,0,L|338:133,1,48.9999985046387
214,197,54258,5,0,0:0:0:0:
178,195,54339,1,0,0:0:0:0:
137,199,54420,1,0,0:0:0:0:
96,196,54501,1,0,0:0:0:0:
55,197,54582,2,0,P|16:192|-12:158,1,70
137,0,54907,6,0,B|132:72,1,70
190,310,55231,1,0,0:0:0:0:
248,63,55393,1,0,0:0:0:0:
379,318,55717,5,0,0:0:0:0:
357,55,55880,1,0,0:0:0:0:
204,191,56204,5,0,0:0:0:0:
435,166,56366,1,0,0:0:0:0:
207,293,56528,5,0,0:0:0:0:
390,106,56690,1,0,0:0:0:0:
172,104,56853,5,0,0:0:0:0:
420,223,57015,1,0,0:0:0:0:
136,237,57177,5,0,0:0:0:0:
418,149,57339,1,0,0:0:0:0:
209,43,57501,5,0,0:0:0:0:
255,240,57663,1,0,0:0:0:0:
255,264,57745,1,0,0:0:0:0:
254,290,57826,2,0,L|253:332,1,35
309,104,57988,1,0,0:0:0:0:
340,89,58069,1,0,0:0:0:0:
377,85,58150,1,0,0:0:0:0:
411,91,58231,1,0,0:0:0:0:
445,107,58312,1,0,0:0:0:0:
442,285,58474,6,0,P|397:286|358:282,1,70
275,132,58799,5,0,0:0:0:0:
217,326,58961,1,0,0:0:0:0:
135,200,59123,2,0,L|58:204,1,70
297,191,59366,1,0,0:0:0:0:
332,207,59447,1,0,0:0:0:0:
354,237,59528,2,0,L|355:289,2,35
446,50,59772,2,0,L|348:50,1,70
258,64,60096,6,0,P|258:104|250:144,1,70
170,334,60420,1,0,0:0:0:0:
131,57,60582,1,0,0:0:0:0:
281,264,60745,2,0,L|308:308,2,35
115,181,61069,2,0,P|75:188|41:195,1,70
293,119,61393,2,0,L|353:118,1,35
131,262,61555,1,0,0:0:0:0:
224,37,61717,5,0,0:0:0:0:
229,329,61880,1,0,0:0:0:0:
119,88,62042,5,0,0:0:0:0:
332,268,62204,1,0,0:0:0:0:
90,225,62366,5,0,0:0:0:0:
346,153,62528,1,0,0:0:0:0:
281,346,62690,5,0,0:0:0:0:
208,168,62853,1,0,0:0:0:0:
200,136,62934,1,0,0:0:0:0:
200,96,63015,2,0,P|200:72|216:48,1,35
335,20,63177,1,0,0:0:0:0:
367,33,63258,1,0,0:0:0:0:
398,61,63339,5,0,0:0:0:0:
420,96,63420,1,0,0:0:0:0:
427,141,63501,2,0,L|427:189,1,35
343,334,63663,2,0,P|336:293|338:251,1,70
268,87,63988,5,0,0:0:0:0:
149,318,64150,1,0,0:0:0:0:
149,318,64231,1,0,0:0:0:0:
149,318,64312,2,0,L|160:255,1,35
162,81,64474,2,0,L|179:138,1,35
272,256,64636,2,0,L|226:246,1,35
55,202,64799,2,0,L|100:197,1,35
268,120,64961,5,0,0:0:0:0:
320,90,65042,1,0,0:0:0:0:
372,95,65123,1,0,0:0:0:0:
422,122,65204,1,0,0:0:0:0:
437,176,65285,2,0,L|439:268,1,70
239,334,65609,5,0,0:0:0:0:
263,90,65772,1,0,0:0:0:0:
353,324,65934,1,2,0:0:0:0:
138,177,66096,1,0,0:0:0:0:
373,146,66258,1,0,0:0:0:0:
165,283,66420,1,0,0:0:0:0:
267,50,66582,1,0,0:0:0:0:
226,351,66745,1,0,0:0:0:0:
309,54,66907,5,0,0:0:0:0:
362,350,67069,1,0,0:0:0:0:
194,213,67231,5,0,0:0:0:0:
465,144,67393,1,0,0:0:0:0:
189,133,67555,5,0,0:0:0:0:
455,217,67717,1,0,0:0:0:0:
365,49,67880,5,0,0:0:0:0:
270,334,68042,1,0,0:0:0:0:
328,45,68204,1,0,0:0:0:0:
300,345,68366,1,0,0:0:0:0:
140,228,68528,5,0,0:0:0:0:
405,163,68690,1,0,0:0:0:0:
130,75,68853,1,0,0:0:0:0:
359,261,69015,1,0,0:0:0:0:
359,261,69096,1,0,0:0:0:0:
359,261,69177,5,0,0:0:0:0:
240,24,69339,1,0,0:0:0:0:
241,263,69501,1,0,0:0:0:0:
337,63,69663,1,0,0:0:0:0:
163,238,69826,1,0,0:0:0:0:
354,193,69988,1,0,0:0:0:0:
354,193,70069,1,0,0:0:0:0:
354,193,70150,2,0,L|391:207,1,35
137,79,70312,6,0,L|101:39,2,35
362,221,70636,1,0,0:0:0:0:
105,202,70799,1,0,0:0:0:0:
310,82,70961,1,0,0:0:0:0:
249,309,71123,5,0,0:0:0:0:
249,309,71204,1,0,0:0:0:0:
249,309,71285,2,0,L|240:255,1,35
190,26,71447,2,0,L|227:115,1,70
111,247,71772,5,0,0:0:0:0:
372,135,71934,1,0,0:0:0:0:
70,165,72096,5,0,0:0:0:0:
391,209,72258,1,0,0:0:0:0:
46,214,72420,5,0,0:0:0:0:
444,191,72582,1,0,0:0:0:0:
212,88,72745,5,0,0:0:0:0:
202,127,72826,1,0,0:0:0:0:
219,162,72907,1,0,0:0:0:0:
215,196,72988,1,0,0:0:0:0:
206,230,73069,2,0,P|232:319|291:372,1,157.500006008148
124,223,73717,5,0,0:0:0:0:
237,59,74366,5,0,0:0:0:0:
188,344,74528,1,0,0:0:0:0:
341,55,74690,5,0,0:0:0:0:
401,348,74853,1,0,0:0:0:0:
100,153,75015,5,0,0:0:0:0:
453,127,75177,1,0,0:0:0:0:
252,239,75339,1,0,0:0:0:0:
256,274,75420,1,0,0:0:0:0:
249,312,75501,1,0,0:0:0:0:
218,349,75582,1,0,0:0:0:0:
168,370,75663,6,2,P|128:354|79:305,1,105.000004005432
55,171,75988,1,0,0:0:0:0:
157,37,76150,1,0,0:0:0:0:
157,37,76231,1,0,0:0:0:0:
157,37,76312,2,0,L|226:39,1,52.5000020027161
303,145,76474,2,0,L|361:146,1,52.5000020027161
478,37,76636,2,0,P|491:102|486:191,1,105.000004005432
250,301,76961,5,0,0:0:0:0:
344,59,77123,1,0,0:0:0:0:
413,237,77285,1,0,0:0:0:0:
188,98,77447,1,0,0:0:0:0:
188,98,77528,1,0,0:0:0:0:
188,98,77609,2,0,L|136:98,1,52.5000020027161
332,288,77772,2,0,L|347:374,1,52.5000020027161
404,101,77934,6,0,L|280:68,1,105.000004005432
115,233,78258,1,0,0:0:0:0:
355,159,78420,1,0,0:0:0:0:
269,345,78582,1,0,0:0:0:0:
207,90,78745,1,0,0:0:0:0:
207,90,78826,1,0,0:0:0:0:
207,90,78907,2,0,L|195:23,1,52.5000020027161
137,296,79069,2,0,L|121:350,1,52.5000020027161
77,110,79231,6,0,L|78:2,1,105.000004005432
262,255,79555,1,0,0:0:0:0:
221,34,79717,1,0,0:0:0:0:
121,233,79880,1,0,0:0:0:0:
340,100,80042,1,0,0:0:0:0:
340,100,80123,1,0,0:0:0:0:
340,100,80204,2,0,L|393:87,1,52.5000020027161
196,278,80366,2,0,L|179:333,1,52.5000020027161
365,216,80528,6,0,L|494:229,1,105.000004005432
107,125,80853,1,0,0:0:0:0:
361,176,81015,1,0,0:0:0:0:
98,251,81177,1,0,0:0:0:0:
271,88,81339,1,0,0:0:0:0:
271,88,81420,1,0,0:0:0:0:
271,88,81501,2,0,L|325:53,1,52.5000020027161
211,288,81663,2,0,L|151:314,1,52.5000020027161
107,106,81826,6,0,L|16:42,1,105.000004005432
324,272,82150,1,0,0:0:0:0:
221,51,82312,1,0,0:0:0:0:
161,301,82474,1,0,0:0:0:0:
344,116,82636,1,0,0:0:0:0:
344,116,82717,1,0,0:0:0:0:
344,116,82799,2,0,L|394:76,1,52.5000020027161
126,185,82961,2,0,L|58:194,1,52.5000020027161
338,242,83123,6,0,L|456:272,1,105.000004005432
186,306,83447,5,0,0:0:0:0:
186,40,83609,1,0,0:0:0:0:
273,309,83772,6,0,L|269:244,1,52.5000020027161
270,37,83934,2,0,L|277:117,1,52.5000020027161
72,153,84096,5,0,0:0:0:0:
384,224,84258,1,0,0:0:0:0:
77,240,84420,6,0,L|139:239,1,52.5000020027161
385,141,84582,2,0,L|314:140,1,52.5000020027161
187,321,84745,1,0,0:0:0:0:
274,25,84907,1,0,0:0:0:0:
309,322,85069,2,0,L|301:258,1,52.5000020027161
204,92,85231,5,0,0:0:0:0:
170,68,85312,1,0,0:0:0:0:
125,62,85393,1,0,0:0:0:0:
80,80,85474,1,0,0:0:0:0:
53,118,85555,1,0,0:0:0:0:
44,164,85636,1,0,0:0:0:0:
55,214,85717,2,0,L|55:270,1,52.5000020027161
235,101,85880,2,0,L|235:29,1,70
215,330,86042,6,0,P|275:336|341:324,1,105.000004005432
409,203,86366,1,0,0:0:0:0:
318,55,86528,1,0,0:0:0:0:
318,55,86609,1,0,0:0:0:0:
318,55,86690,2,0,L|316:-9,1,52.5000020027161
232,253,86853,2,0,L|238:319,1,52.5000020027161
123,69,87015,6,2,L|5:45,1,105.000004005432
144,286,87339,1,0,0:0:0:0:
251,53,87501,1,0,0:0:0:0:
304,290,87663,1,0,0:0:0:0:
116,99,87826,1,0,0:0:0:0:
116,99,87907,1,0,0:0:0:0:
116,99,87988,2,0,L|46:63,1,52.5000020027161
345,123,88150,2,0,L|397:84,1,52.5000020027161
211,268,88312,6,0,L|177:375,1,105.000004005432
244,59,88636,5,0,0:0:0:0:
346,279,88799,1,0,0:0:0:0:
121,158,88961,1,0,0:0:0:0:
412,209,89123,1,0,0:0:0:0:
412,209,89204,1,0,0:0:0:0:
412,209,89285,2,0,L|477:234,1,52.5000020027161
265,56,89447,2,0,L|267:12,1,35
176,255,89609,6,0,L|145:363,1,105.000004005432
355,137,89934,1,0,0:0:0:0:
109,104,90096,1,0,0:0:0:0:
324,246,90258,1,0,0:0:0:0:
85,212,90420,1,0,0:0:0:0:
85,212,90501,1,0,0:0:0:0:
85,212,90582,2,0,L|9:226,1,52.5000020027161
282,58,90745,2,0,L|312:-2,1,35
204,253,90907,6,0,L|100:330,1,105.000004005432
265,346,91231,5,0,0:0:0:0:
270,37,91393,1,0,0:0:0:0:
111,256,91555,1,0,0:0:0:0:
368,83,91717,1,0,0:0:0:0:
368,83,91799,1,0,0:0:0:0:
368,83,91880,2,0,L|399:24,1,52.5000020027161
378,301,92042,2,0,L|420:353,1,52.5000020027161
205,200,92204,6,0,L|78:172,1,105.000004005432
211,342,92528,5,0,0:0:0:0:
229,48,92690,1,0,0:0:0:0:
330,355,92853,5,0,0:0:0:0:
341,52,93015,1,0,0:0:0:0:
341,52,93096,1,0,0:0:0:0:
341,52,93177,1,0,0:0:0:0:
196,362,93339,1,0,0:0:0:0:
86,99,93501,2,0,L|29:70,1,52.5000020027161
384,231,93663,1,0,0:0:0:0:
384,231,93745,1,0,0:0:0:0:
384,231,93826,6,0,L|486:294,1,105.000004005432
96,176,94149,1,0,0:0:0:0:
276,71,94312,1,0,0:0:0:0:
316,60,94393,1,0,0:0:0:0:
354,51,94474,1,0,0:0:0:0:
386,44,94555,1,0,0:0:0:0:
424,37,94636,1,0,0:0:0:0:
223,260,94799,6,0,L|151:349,1,105.000004005432
199,44,95123,5,0,0:0:0:0:
194,304,95285,1,0,0:0:0:0:
316,40,95447,5,0,0:0:0:0:
328,306,95609,1,0,0:0:0:0:
328,306,95690,1,0,0:0:0:0:
328,306,95772,2,0,L|329:223,1,61.2500005841255
68,165,95934,1,0,0:0:0:0:
417,167,96096,5,0,0:0:0:0:
78,258,96258,1,0,0:0:0:0:
45,269,96339,1,0,0:0:0:0:
7,281,96420,5,0,0:0:0:0:
38,142,96582,1,0,0:0:0:0:
38,142,96745,1,0,0:0:0:0:
38,142,96907,2,0,L|109:141,1,52.5000020027161
204,242,97231,1,0,0:0:0:0:
204,242,97393,2,0,L|256:238,1,52.5000020027161
396,206,97717,1,0,0:0:0:0:
396,206,97880,6,0,L|398:280,1,52.5000020027161
302,85,98204,2,0,L|291:11,1,52.5000020027161
236,235,98528,2,0,L|191:293,1,52.5000020027161
113,89,98853,1,0,0:0:0:0:
113,89,99015,2,0,P|111:45|115:15,1,52.5000020027161
291,231,99339,1,0,0:0:0:0:
291,231,99501,2,0,L|288:304,1,52.5000020027161
234,107,99826,1,0,0:0:0:0:
234,107,99988,2,0,L|296:67,1,52.5000020027161
184,258,100312,5,0,0:0:0:0:
184,258,100474,1,0,0:0:0:0:
184,258,100636,6,0,L|154:369,1,83.9999974365235
349,126,100961,1,0,0:0:0:0:
349,126,101123,2,0,L|376:237,1,90.9999958343508
152,39,101447,1,0,0:0:0:0:
152,39,101609,2,0,L|100:145,1,97.9999970092774
212,319,101934,1,0,0:0:0:0:
226,133,102096,6,0,P|267:69|174:14,1,195.999994018555
368,110,102420,2,0,P|432:150|352:214,1,210.000008010865
324,286,102745,2,0,P|311:350|204:278,1,224
125,133,103069,1,0,0:0:0:0:
356,99,103231,6,0,L|445:57,2,83.9999974365235
141,288,103717,6,0,L|28:304,2,112
299,27,104204,6,0,L|300:117,1,56
269,322,104366,2,0,L|246:299|246:219,1,80.5000015354157
376,160,104528,2,0,P|461:187|396:269,1,210.000008010865
193,109,104853,6,0,L|144:29,1,87.5
110,260,105177,2,0,L|60:339,1,87.5
310,204,105501,5,0,0:0:0:0:
326,205,105582,1,0,0:0:0:0:
340,211,105663,1,0,0:0:0:0:
354,222,105745,1,0,0:0:0:0:
371,237,105826,2,0,L|376:288,3,43.75
417,104,106150,6,0,L|342:51,1,87.5
188,92,106474,5,0,0:0:0:0:
187,121,106555,1,0,0:0:0:0:
193,152,106636,1,0,0:0:0:0:
209,183,106718,1,0,0:0:0:0:
231,208,106799,2,0,L|190:245,3,43.75
32,317,107123,6,0,L|17:221,1,87.5
123,15,107447,2,0,P|123:58|127:106,1,87.5
233,330,107772,2,0,L|234:220,1,87.5
153,259,108096,5,0,0:0:0:0:
275,58,108258,1,0,0:0:0:0:
353,242,108420,1,0,0:0:0:0:
119,144,108582,1,0,0:0:0:0:
374,172,108745,2,0,L|464:143,1,87.5
225,318,109069,2,0,L|110:281,1,87.5
238,41,109312,1,0,0:0:0:0:
238,41,109393,2,0,L|235:124,1,43.75
107,162,109555,2,0,L|108:227,1,43.75
284,206,109717,5,0,0:0:0:0:
296,244,109799,1,0,0:0:0:0:
309,281,109880,1,0,0:0:0:0:
323,325,109961,1,0,0:0:0:0:
342,361,110042,2,0,L|462:325,1,87.5
459,162,110366,6,0,L|456:41,1,87.5
246,59,110690,1,0,0:0:0:0:
244,102,110772,1,0,0:0:0:0:
260,144,110853,1,0,0:0:0:0:
257,195,110934,1,0,0:0:0:0:
231,250,111015,6,0,P|184:269|119:274,1,87.5
41,85,111339,2,0,P|97:77|153:85,1,87.5
307,306,111663,2,0,L|305:212,1,87.5
369,48,111988,5,0,0:0:0:0:
418,65,112069,1,0,0:0:0:0:
455,102,112150,1,0,0:0:0:0:
468,152,112231,1,0,0:0:0:0:
469,204,112312,2,0,P|449:253|417:295,1,87.5
256,94,112636,6,0,L|215:12,1,87.5
145,254,112961,2,0,L|120:342,1,87.5
335,242,113285,5,0,0:0:0:0:
162,105,113447,1,0,0:0:0:0:
197,302,113609,1,0,0:0:0:0:
330,100,113772,1,0,0:0:0:0:
91,195,113934,6,0,L|14:252,1,87.5
325,337,114258,5,0,0:0:0:0:
218,51,114420,1,0,0:0:0:0:
218,51,114501,1,0,0:0:0:0:
218,51,114582,2,0,L|219:101,1,43.75
91,195,114745,5,0,0:0:0:0:
97,273,114826,1,0,0:0:0:0:
143,336,114907,1,0,0:0:0:0:
219,354,114988,1,0,0:0:0:0:
296,343,115069,1,0,0:0:0:0:
355,291,115150,1,0,0:0:0:0:
365,267,115231,1,0,0:0:0:0:
256,192,116366,12,0,119772,0:0:0:0:
371,94,120420,6,0,B|242:52|242:52|339:168|365:244|320:330|232:369|150:334|99:258|116:205|149:157|197:139,1,708.400021618653
249,23,125609,2,0,B|211:117|127:107|127:107|144:188|94:241|94:241|152:257|209:295|209:295|466:342|401:39|401:39|340:88|249:103|245:215,1,1078.00003289795
111,180,130799,5,0,0:0:0:0:
111,180,131123,1,0,0:0:0:0:
111,180,131447,2,0,L|192:181,1,70
418,170,132096,5,0,0:0:0:0:
416,178,132420,1,0,0:0:0:0:
416,178,132745,2,0,L|331:180,1,70
248,274,133393,6,0,L|247:353,1,70
251,98,134042,2,0,L|250:19,2,70
212,257,135339,5,0,0:0:0:0:
268,170,135663,1,0,0:0:0:0:
326,248,135988,2,0,L|327:329,1,70,0|0,2:2|2:2,2:2:0:0:
402,170,136636,2,0,L|401:97,1,70,0|0,2:2|2:2,2:2:0:0:
288,4,137285,2,0,L|282:81,1,70,0|0,2:2|2:2,2:2:0:0:
190,206,137934,5,0,0:0:0:0:
297,140,138258,1,0,0:0:0:0:
143,65,138582,2,0,L|66:40,2,70
270,227,139555,2,0,L|291:301,1,70
128,220,140528,5,0,0:0:0:0:
219,71,140853,1,0,0:0:0:0:
258,256,141177,2,0,L|242:334,1,70,0|0,2:2|2:2,2:2:0:0:
348,134,141826,2,0,L|442:116,1,83.9999974365235,0|0,2:2|2:2,2:2:0:0:
307,65,142474,5,0,0:0:0:0:
217,221,142799,1,0,0:0:0:0:
360,158,143123,1,0,0:0:0:0:
186,109,143447,1,0,0:0:0:0:
330,239,143772,2,0,L|383:310,1,83.9999974365235
107,166,144420,2,0,L|35:236,1,83.9999974365235
249,55,145069,5,0,0:0:0:0:
272,51,145393,1,0,0:0:0:0:
295,48,145717,1,0,0:0:0:0:
322,42,146042,1,0,0:0:0:0:
211,178,146366,6,0,L|163:287,1,105
321,131,146690,5,0,0:0:0:0:
321,131,146772,1,0,0:0:0:0:
321,131,146853,1,0,0:0:0:0:
321,131,146934,1,0,0:0:0:0:
337,155,147015,5,0,0:0:0:0:
337,155,147096,1,0,0:0:0:0:
337,155,147177,1,0,0:0:0:0:
337,155,147258,1,0,0:0:0:0:
346,184,147339,5,0,0:0:0:0:
346,184,147420,1,0,0:0:0:0:
346,184,147501,1,0,0:0:0:0:
346,184,147582,1,0,0:0:0:0:
361,207,147663,6,0,L|397:204,3,35
257,308,147988,2,0,L|257:372,3,35
253,120,148312,2,0,L|253:64,3,35
66,235,148636,1,0,0:0:0:0:
64,194,148717,1,0,0:0:0:0:
66,153,148799,1,0,0:0:0:0:
68,114,148880,1,0,0:0:0:0:
66,78,148961,6,0,L|197:27,1,125.999996154785
232,95,149285,5,0,0:0:0:0:
254,102,149366,1,0,0:0:0:0:
277,105,149447,1,0,0:0:0:0:
301,99,149528,1,0,0:0:0:0:
318,63,149609,5,0,0:0:0:0:
341,67,149690,1,0,0:0:0:0:
364,76,149772,1,0,0:0:0:0:
391,87,149853,1,0,0:0:0:0:
393,124,149934,5,0,0:0:0:0:
407,148,150015,1,0,0:0:0:0:
415,177,150096,1,0,0:0:0:0:
418,211,150177,1,0,0:0:0:0:
411,247,150258,2,0,L|397:310,3,41.9999987182618
257,337,150583,2,0,L|247:389,3,41.9999987182618
145,241,150907,2,0,L|123:177,3,41.9999987182618
200,26,151231,5,0,0:0:0:0:
239,10,151312,1,0,0:0:0:0:
279,7,151393,1,0,0:0:0:0:
319,24,151474,1,0,0:0:0:0:
348,57,151555,6,0,L|350:173,1,97.9999970092774
271,301,151799,1,0,0:0:0:0:
271,301,151880,2,0,L|267:225,1,48.9999985046387
189,77,152042,2,0,L|191:149,1,48.9999985046387
136,286,152204,5,0,0:0:0:0:
100,275,152285,1,0,0:0:0:0:
66,250,152366,1,0,0:0:0:0:
44,213,152447,1,0,0:0:0:0:
45,174,152528,6,0,L|22:212,1,26.2500010013581
120,39,152690,2,0,L|86:22,1,26.2500010013581
201,230,152853,2,0,L|228:333,1,97.9999970092774
303,89,153096,1,0,0:0:0:0:
303,89,153177,2,0,L|299:13,1,48.9999985046387
382,237,153339,2,0,L|453:293,1,48.9999985046387
229,176,153501,5,0,0:0:0:0:
191,179,153582,1,0,0:0:0:0:
149,198,153663,1,0,0:0:0:0:
122,228,153744,1,0,0:0:0:0:
103,271,153826,2,0,L|86:344,1,48.9999985046387
69,65,153988,2,0,L|44:19,1,48.9999985046387
288,261,154150,6,0,L|416:310,1,97.9999970092774
219,67,154393,1,0,0:0:0:0:
219,67,154474,2,0,L|216:13,1,48.9999985046387
141,221,154636,1,0,0:0:0:0:
127,245,154717,1,0,0:0:0:0:
106,279,154799,2,0,L|23:345,1,97.9999970092774
392,237,155123,1,0,0:0:0:0:
66,160,155285,1,0,0:0:0:0:
318,27,155447,6,0,B|299:108,1,70
191,351,155609,2,0,P|199:319|210:284,1,52.5000020027161
180,27,155772,6,0,B|204:130,1,87.5
328,355,155934,2,0,P|320:320|304:290,1,52.5000020027161
41,191,156096,6,0,L|162:187,1,105.000004005432
444,235,156258,2,0,L|361:237,1,52.5000020027161
168,52,156420,6,0,L|144:15,1,26.2500010013581
113,65,156501,2,0,L|77:35,1,26.2500010013581
75,101,156582,2,0,L|33:75,1,26.2500010013581
51,145,156663,2,0,L|15:149,1,26.2500010013581
38,197,156745,6,0,B|108:251|94:343|94:343|179:260|277:318,1,350
436,189,157231,6,0,P|386:183|326:157,1,87.5
219,9,157393,6,0,P|205:73|227:145,1,105.000004005432
220,297,157555,5,0,0:0:0:0:
214,319,157636,1,0,0:0:0:0:
203,337,157717,1,0,0:0:0:0:
190,351,157799,1,0,0:0:0:0:
177,362,157880,1,0,0:0:0:0:
156,372,157961,1,0,0:0:0:0:
125,373,158042,2,0,P|105:316|106:230,1,105.000004005432
267,3,158204,2,0,P|274:63|252:115,1,105.000004005432
58,163,158366,6,0,L|100:162,1,35
352,285,158528,6,0,P|326:288|300:285,1,52.5000020027161
178,73,158690,6,0,L|72:38,1,105.000004005432
334,132,158853,1,0,0:0:0:0:
362,135,158934,1,0,0:0:0:0:
393,144,159015,2,0,L|503:208,1,105.000004005432
105,309,159339,6,0,B|171:365|232:307|232:307|302:350|368:281,1,262.500010013581
314,15,159826,2,0,P|306:71|314:127,1,87.5
448,363,159988,2,0,P|459:303|442:243,1,105.000004005432
221,103,160150,5,0,0:0:0:0:
180,73,160231,1,0,0:0:0:0:
143,70,160312,1,0,0:0:0:0:
99,81,160393,1,0,0:0:0:0:
67,108,160474,1,0,0:0:0:0:
46,143,160555,1,0,0:0:0:0:
44,193,160636,6,0,P|148:233|124:105,1,210.000008010865
289,221,160880,2,0,P|381:243|365:337,1,210.000008010865
260,90,161123,2,0,L|206:1,1,105.000004005432
174,306,161285,2,0,L|88:381,1,105.000004005432
325,127,161447,5,0,0:0:0:0:
364,119,161528,1,0,0:0:0:0:
403,134,161609,1,0,0:0:0:0:
435,159,161690,1,0,0:0:0:0:
460,197,161772,1,0,0:0:0:0:
466,238,161853,1,0,0:0:0:0:
460,288,161934,6,0,B|415:387|325:343|325:343|235:302|162:346|162:346|175:243|80:177,1,525.000020027161
361,17,162420,2,0,P|354:61|321:102,1,70
291,242,162582,6,0,P|241:138|122:149,1,210.000008010865
99,295,162826,1,0,0:0:0:0:
67,256,162907,1,0,0:0:0:0:
53,216,162988,1,0,0:0:0:0:
53,171,163069,1,0,0:0:0:0:
66,131,163150,1,0,0:0:0:0:
93,88,163231,6,0,L|163:48,1,70
250,297,163393,1,0,0:0:0:0:
250,297,163474,2,0,B|294:393,1,70
357,104,163636,1,0,0:0:0:0:
365,88,163717,6,0,P|373:32|357:-8,1,70
181,208,163880,6,0,P|104:150|157:71,1,210.000008010865
343,193,164123,1,0,0:0:0:0:
370,217,164204,1,0,0:0:0:0:
381,244,164285,1,0,0:0:0:0:
385,273,164366,1,0,0:0:0:0:
372,306,164447,1,0,0:0:0:0:
346,339,164528,2,0,P|254:367|222:277,1,210.000008010865
336,83,164772,5,0,0:0:0:0:
337,63,164853,6,0,B|283:14|219:51,1,105.000004005432
179,198,165096,5,0,0:0:0:0:
166,217,165177,2,0,P|74:189|97:96,1,210.000008010865
314,140,165501,1,0,0:0:0:0:
358,120,165582,1,0,0:0:0:0:
402,115,165663,1,0,0:0:0:0:
442,132,165745,1,0,0:0:0:0:
475,159,165826,6,0,B|468:212|468:212|429:287,1,105.000004005432
276,381,165988,1,0,0:0:0:0:
276,381,166069,2,0,B|266:325|266:325|283:281,1,105.000004005432
370,106,166312,6,0,P|334:65|283:65,1,105.000004005432
124,156,166474,2,0,P|77:233|170:309,1,210.000008010865
326,328,166717,5,0,0:0:0:0:
362,305,166799,1,0,0:0:0:0:
382,260,166880,1,0,0:0:0:0:
379,219,166961,1,0,0:0:0:0:
356,176,167042,1,0,0:0:0:0:
321,148,167123,6,0,P|265:148|217:196,1,87.5
49,117,167285,6,0,L|-7:13,2,105.000004005432
136,327,167772,6,0,P|203:340|253:255,1,175
422,178,168015,1,0,0:0:0:0:
430,146,168096,1,0,0:0:0:0:
438,114,168177,1,0,0:0:0:0:
446,82,168258,1,0,0:0:0:0:
454,50,168339,1,0,0:0:0:0:
454,18,168420,6,0,L|334:18,1,87.5
296,168,168582,1,0,0:0:0:0:
280,168,168663,2,0,L|184:168,1,87.5
52,50,168907,6,0,L|52:194,1,87.5
56,320,169069,6,0,L|320:320,1,210.000008010865
384,264,169312,1,0,0:0:0:0:
408,240,169393,1,0,0:0:0:0:
424,208,169474,1,0,0:0:0:0:
424,176,169555,1,0,0:0:0:0:
408,144,169636,1,0,0:0:0:0:
392,112,169717,6,0,P|344:72|288:56,1,87.5
168,24,169880,5,0,0:0:0:0:
104,264,170042,1,0,0:0:0:0:
16,120,170204,6,0,P|16:160|32:192,1,52.5000020027161
200,336,170366,6,0,P|200:280|144:144,1,105.000004005432
160,128,170528,1,0,0:0:0:0:
176,96,170609,1,0,0:0:0:0:
208,80,170690,1,0,0:0:0:0:
240,72,170772,1,0,0:0:0:0:
272,80,170853,1,0,0:0:0:0:
296,96,170934,1,0,0:0:0:0:
320,120,171015,6,0,L|320:240,1,105.000004005432
320,280,171258,1,0,0:0:0:0:
320,280,171339,1,0,0:0:0:0:
192,320,171501,1,0,0:0:0:0:
152,312,171582,1,0,0:0:0:0:
120,288,171663,6,0,P|104:160|160:88,1,210.000008010865
304,32,171988,6,0,L|304:128,1,78.7500030040742
384,168,172150,1,0,0:0:0:0:
384,200,172231,1,0,0:0:0:0:
384,232,172312,6,0,P|384:272|368:320,1,78.7500030040742
231,336,172474,1,0,0:0:0:0:
223,336,172555,1,0,0:0:0:0:
207,336,172636,1,0,0:0:0:0:
199,336,172717,1,0,0:0:0:0:
183,336,172799,6,0,P|143:344|103:336,1,78.7500030040742
37,110,172961,6,0,P|101:94|149:110,1,105.000004005432
254,191,173123,1,0,0:0:0:0:
270,215,173204,1,0,0:0:0:0:
294,231,173285,1,0,0:0:0:0:
318,239,173366,1,0,0:0:0:0:
342,239,173447,6,0,P|390:247|446:215,1,105.000004005432
377,47,173609,6,0,P|329:23|257:63,1,105.000004005432
119,23,173853,2,0,P|103:87|119:175,1,105.000004005432
217,346,174015,1,0,0:0:0:0:
233,346,174096,2,0,P|255:300|259:215,1,105.000004005432
197,79,174258,6,0,P|267:-7|360:94,1,210.000008010865
433,154,174501,1,0,0:0:0:0:
433,178,174582,2,0,L|441:346,1,105.000004005432
173,304,174745,5,0,0:0:0:0:
149,320,174826,1,0,0:0:0:0:
117,328,174907,2,0,P|101:233|115:153,1,157.500006008148
256,14,175231,6,0,L|288:85,1,52.5000020027161
343,322,175393,2,0,L|272:260,1,52.5000020027161
170,68,175555,6,0,P|91:20|1:76,1,175
344,216,175799,1,0,0:0:0:0:
376,216,175880,1,0,0:0:0:0:
400,200,175961,1,0,0:0:0:0:
424,184,176042,6,0,P|432:152|424:112,1,52.5000020027161
285,107,176204,6,0,P|213:147|125:91,1,140
29,96,176447,2,0,L|29:216,1,70
75,347,176690,2,0,L|180:325,1,70
327,350,176853,6,0,P|350:248|341:127,1,210.000008010865
190,18,177096,1,0,0:0:0:0:
190,18,177177,6,0,P|180:60|195:104,1,52.5000020027161
210,317,177339,2,0,P|225:271|217:226,1,52.5000020027161
320,26,177501,6,0,B|411:14|411:14|524:63,1,175
113,234,177826,1,0,0:0:0:0:
367,146,177988,6,0,P|427:130|479:145,1,70
136,16,178150,6,0,P|152:72|136:176,1,105.000004005432
240,240,178312,5,0,0:0:0:0:
272,216,178393,1,0,0:0:0:0:
288,192,178474,1,0,0:0:0:0:
296,160,178555,1,0,0:0:0:0:
288,128,178636,1,0,0:0:0:0:
272,96,178717,1,0,0:0:0:0:
232,80,178799,6,0,P|208:135|227:193,1,105.000004005432
376,365,178961,1,0,0:0:0:0:
393,346,179042,1,0,0:0:0:0:
401,325,179123,2,0,P|412:282|413:233,1,70
418,43,179285,2,0,P|376:45|311:75,1,70
225,354,179447,6,0,P|201:290|249:194,1,105.000004005432
152,42,179609,6,0,P|107:38|64:52,1,52.5000020027161
414,115,179772,2,0,P|451:118|492:127,1,52.5000020027161
126,200,179934,2,0,P|86:198|38:207,1,52.5000020027161
392,265,180096,6,0,P|365:333|319:397,1,105.000004005432
231,46,180420,1,0,0:0:0:0:
111,341,180582,6,0,L|111:269,1,70
356,164,180745,6,0,P|422:155|524:164,1,105.000004005432
93,114,180907,6,0,P|60:124|19:115,1,52.5000020027161
263,235,181069,1,0,0:0:0:0:
263,251,181150,1,0,0:0:0:0:
263,267,181231,2,0,L|263:338,1,52.5000020027161
96,344,181393,6,0,P|77:263|131:253,1,140
383,178,181636,2,0,P|399:94|312:82,1,140
135,44,181880,2,0,P|132:99|200:130,1,70
368,288,182042,6,0,P|310:384|227:361,1,210.000008010865
239,128,182285,1,0,0:0:0:0:
259,98,182366,1,0,0:0:0:0:
274,69,182447,1,0,0:0:0:0:
296,46,182528,1,0,0:0:0:0:
320,22,182609,1,0,0:0:0:0:
349,10,182690,6,0,B|436:84|436:84|477:212,1,210.000008010865
313,340,183015,2,0,P|306:297|309:248,1,52.5000020027161
184,48,183177,1,0,0:0:0:0:
146,45,183258,1,0,0:0:0:0:
109,51,183339,1,0,0:0:0:0:
74,67,183420,1,0,0:0:0:0:
53,95,183501,6,0,P|45:135|53:167,1,52.5000020027161
203,362,183663,6,0,P|211:318|203:266,1,78.7500030040742
272,72,183826,5,0,0:0:0:0:
296,64,183907,1,0,0:0:0:0:
328,64,183988,2,0,L|405:88,1,78.7500030040742
102,190,184150,2,0,L|4:233,1,78.7500030040742
361,251,184312,2,0,L|485:287,1,78.7500030040742
205,248,184474,5,0,0:0:0:0:
221,203,184555,1,0,0:0:0:0:
222,163,184636,1,0,0:0:0:0:
208,123,184717,1,0,0:0:0:0:
178,87,184799,6,0,L|168:36,1,52.5000020027161
279,369,184961,6,0,P|289:318|279:265,1,78.7500030040742
270,41,185123,6,0,P|301:34|335:42,1,52.5000020027161
148,312,185285,1,0,0:0:0:0:
327,129,185447,1,0,0:0:0:0:
367,130,185528,1,0,0:0:0:0:
401,156,185609,2,0,P|378:238|277:267,1,157.500006008148
54,199,185853,5,0,0:0:0:0:
38,175,185934,1,0,0:0:0:0:
30,143,186015,1,0,0:0:0:0:
30,111,186096,6,0,B|71:100|71:100|101:114|121:110,1,78.7500030040742
373,128,186258,2,0,B|376:168|376:168|354:211,1,78.7500030040742
186,372,186420,1,0,0:0:0:0:
180,344,186501,1,0,0:0:0:0:
174,315,186582,2,0,B|184:274|184:274|201:237,1,78.7500030040742
284,16,186745,6,0,L|284:120,1,87.5
337,296,186907,6,0,P|419:357|466:255,1,210.000008010865
157,117,187150,1,0,0:0:0:0:
147,123,187231,2,0,L|59:123,1,78.7500030040742
339,151,187393,2,0,L|480:182,1,78.7500030040742
124,171,187555,6,0,L|17:186,1,87.5
359,204,187717,2,0,L|464:222,1,87.5
192,340,187880,5,0,0:0:0:0:
251,82,188042,1,0,0:0:0:0:
256,50,188123,1,0,0:0:0:0:
244,12,188204,6,0,L|120:25,1,105.000004005432
57,183,188447,1,0,0:0:0:0:
46,212,188528,1,0,0:0:0:0:
38,244,188609,1,0,0:0:0:0:
38,276,188690,6,0,L|118:276,1,52.5000020027161
336,41,188853,2,0,L|336:129,1,52.5000020027161
259,335,189015,1,0,0:0:0:0:
237,352,189096,1,0,0:0:0:0:
210,357,189177,6,0,L|207:276,1,52.5000020027161
201,23,189339,2,0,L|202:117,1,52.5000020027161
349,349,189501,6,0,P|348:312|341:254,1,87.5
192,201,189663,5,0,0:0:0:0:
156,169,189745,1,0,0:0:0:0:
119,163,189826,2,0,L|63:163,1,52.5000020027161
370,133,189988,2,0,L|446:133,1,52.5000020027161
97,109,190150,2,0,L|29:102,1,52.5000020027161
369,78,190312,2,0,L|447:61,1,52.5000020027161
88,22,190474,6,0,P|11:81|50:197,1,210.000008010865
190,374,190799,6,0,P|188:339|174:288,1,52.5000020027161
240,90,190961,1,0,0:0:0:0:
277,65,191042,1,0,0:0:0:0:
321,55,191123,1,0,0:0:0:0:
368,61,191204,1,0,0:0:0:0:
409,96,191285,6,0,L|412:190,1,52.5000020027161
324,375,191447,6,0,L|318:248,1,78.7500030040742
182,17,191609,1,0,0:0:0:0:
150,25,191690,1,0,0:0:0:0:
126,49,191772,6,0,L|126:177,1,87.5
226,384,191934,6,0,L|226:224,1,115.500001101494
311,14,192096,6,0,L|311:190,1,96.2500009179115
128,220,192258,5,0,0:0:0:0:
108,249,192339,1,0,0:0:0:0:
90,271,192420,1,0,0:0:0:0:
73,293,192501,1,0,0:0:0:0:
52,318,192582,6,0,P|25:264|24:230,1,96.2500009179115
425,158,192745,2,0,P|419:99|385:48,1,96.2500009179115
84,29,192907,5,0,0:0:0:0:
52,33,192988,1,0,0:0:0:0:
18,38,193069,1,0,0:0:0:0:
256,192,193150,12,0,195177,0:0:0:0:
153,41,195339,6,0,B|165:141|165:141,1,70
344,186,195663,6,2,L|328:320,1,105.000004005432
179,294,195988,1,0,0:0:0:0:
316,75,196150,2,0,B|445:50,1,105.000004005432
119,193,196474,6,0,L|8:182,1,105.000004005432
259,326,196799,2,0,P|370:346|413:247,1,210.000008010865
186,44,197285,5,0,0:0:0:0:
145,340,197447,1,0,0:0:0:0:
275,37,197772,5,0,0:0:0:0:
335,339,197934,1,0,0:0:0:0:
