osu file format v14

[General]
AudioFilename: audio.mp3
AudioLeadIn: 0
PreviewTime: 61640
Countdown: 0
SampleSet: Soft
StackLeniency: 0.2
Mode: 0
LetterboxInBreaks: 1
StoryFireInFront: 0
EpilepsyWarning: 1
WidescreenStoryboard: 1

[Editor]
Bookmarks: 680,14120,16040,31400,46280,46760,60200,62120,75560,77480,90920,92840,107240,108200,121640,123560,137000,138920,145640,146600,152360,154280,156200,163880,185000,186920,188840
DistanceSpacing: 1.6
BeatDivisor: 4
GridSize: 4
TimelineZoom: 3.450002

[Metadata]
Title:Hanafubuki
TitleUnicode:花吹雪
Artist:a_hisa
ArtistUnicode:a_hisa
Creator:lililing
Version:Extra
Source:
Tags:
BeatmapID:1972451
BeatmapSetID:944470

[Difficulty]
HPDrainRate:6
CircleSize:5
OverallDifficulty:8
ApproachRate:9
SliderMultiplier:1.8
SliderTickRate:1

[Events]
//Background and Video events
0,0,"bg.jpg",0,0
//Break Periods
2,139120,167840
2,171680,183200
//Storyboard Layer 0 (Background)
//Storyboard Layer 1 (Fail)
//Storyboard Layer 2 (Pass)
//Storyboard Layer 3 (Foreground)
Sprite,Foreground,Centre,"sb\ring.png",412,330 F,0,16040,16640,1,0 S,1,16040,16640,0.3,1 P,0,16040,16640,A
Sprite,Foreground,Centre,"sb\ring.png",160,330 F,0,17960,18560,1,0 S,1,17960,18560,0.3,1 P,0,17960,18560,A
Sprite,Foreground,Centre,"sb\ring.png",285,185 F,0,19880,20480,1,0 S,1,19880,20480,0.3,1 P,0,19880,20480,A
Sprite,Foreground,Centre,"sb\ring.png",408,184 F,0,20840,21440,1,0 S,1,20840,21440,0.3,1 P,0,20840,21440,A
Sprite,Foreground,Centre,"sb\ring.png",283,364 F,0,21800,22640,1,0 S,1,21800,22640,0.3,1 P,0,21800,22640,A
Sprite,Foreground,Centre,"sb\ring.png",188,200 F,0,22760,23120,1,0 S,1,22760,23120,0.3,1 P,0,22760,23120,A
Sprite,Foreground,Centre,"sb\ring.png",310,126 F,0,23720,24320,1,0 S,1,23720,24320,0.3,1 P,0,23720,24320,A
Sprite,Foreground,Centre,"sb\ring.png",214,251 F,0,24680,25280,1,0 S,1,24680,25280,0.3,1 P,0,24680,25280,A
Sprite,Foreground,Centre,"sb\ring.png",370,377 F,0,27560,28400,1,0 S,1,27560,28400,0.3,1 P,0,27560,28400,A
Sprite,Foreground,Centre,"sb\ring.png",181,340 F,0,29480,30320,1,0 S,1,29480,30320,0.3,1 P,0,29480,30320,A
Sprite,Foreground,Centre,"sb\ring.png",271,175 F,0,30440,30800,1,0 S,1,30440,30800,0.3,1 P,0,30440,30800,A
//Storyboard Sound Samples

[TimingPoints]
-3160,240,4,2,1,80,1,0
680,-100,4,2,1,80,0,0
1640,-166.666666666666,4,2,1,80,0,0
1880,-142.857142857143,4,2,1,80,0,0
2120,-125,4,2,1,80,0,0
2360,-111.111111111111,4,2,1,80,0,0
2600,-100,4,2,1,80,0,0
3560,-100,4,2,1,80,0,0
4040,-200,4,2,1,80,0,0
4280,-100,4,2,1,80,0,0
4520,-200,4,2,1,80,0,0
4760,-100,4,2,1,80,0,0
5000,-200,4,2,1,80,0,0
5240,-100,4,2,1,80,0,0
5480,-100,4,2,1,80,0,0
6680,-100,4,2,1,80,0,0
6920,-200,4,2,1,80,0,0
7040,-100,4,2,1,80,0,0
7400,-100,4,2,1,80,0,0
7640,-200,4,2,1,80,0,0
7880,-166.666666666667,4,2,1,80,0,0
8120,-125,4,2,1,80,0,0
8360,-100,4,2,1,80,0,0
9320,-166.666666666666,4,2,1,80,0,0
9560,-142.857142857143,4,2,1,80,0,0
9800,-125,4,2,1,80,0,0
10040,-111.111111111111,4,2,1,80,0,0
10280,-100,4,2,1,80,0,0
11480,-100,4,2,1,80,0,0
12200,-100,4,2,1,80,0,0
13160,-100,4,2,1,80,0,0
13400,-111.111111111111,4,2,1,80,0,0
13640,-125,4,2,1,80,0,0
13880,-142.857142857143,4,2,1,80,0,0
14120,-166.666666666667,4,2,1,80,0,0
15080,-250,4,2,1,60,0,0
16040,-250,4,2,1,40,0,0
17240,-166.666666666667,4,2,1,40,0,0
17480,-250,4,2,1,40,0,0
25880,-166.666666666667,4,2,1,40,0,0
26120,-250,4,2,1,40,0,0
31400,-83.3333333333333,4,2,1,50,0,0
31640,-125,4,2,1,50,0,0
37160,-166.666666666667,4,2,1,50,0,0
37640,-250,4,2,1,50,0,0
38120,-500,4,2,1,50,0,0
38600,-100,4,2,1,50,0,0
38840,-125,4,2,1,50,0,0
39080,-100,4,2,1,50,0,0
39800,-125,4,2,1,50,0,0
41000,-100,4,2,1,50,0,0
41240,-125,4,2,1,50,0,0
41480,-185.185185185185,4,2,1,50,0,0
41720,-125,4,2,1,50,0,0
42440,-100,4,2,1,50,0,0
42680,-125,4,2,1,50,0,0
42920,-250,4,2,1,50,0,0
43160,-166.666666666667,4,2,1,50,0,0
43400,-125,4,2,1,50,0,0
43880,-125,4,2,1,50,0,0
44360,-125,4,2,1,50,0,0
44840,-125,4,2,1,50,0,0
45320,-166.666666666667,4,2,1,50,0,0
45560,-125,4,2,1,50,0,0
46280,-83.3333333333333,4,2,1,50,0,0
46520,-90.9090909090908,4,2,1,50,0,0
46760,-83.3333333333333,4,2,1,60,0,0
47000,-100,4,2,1,60,0,0
47960,-125,4,2,1,60,0,0
48200,-111.111111111111,4,2,1,60,0,0
48440,-100,4,2,1,60,0,0
48680,-83.3333333333333,4,2,1,60,0,0
48920,-100,4,2,1,60,0,0
50600,-83.3333333333333,4,2,1,60,0,0
50840,-100,4,2,1,60,0,0
54440,-83.3333333333333,4,2,1,60,0,0
54680,-100,4,2,1,60,0,0
60200,-83.3333333333333,4,2,1,60,0,0
60440,-100,4,2,1,60,0,0
60680,-90.9090909090909,4,2,1,60,0,0
61160,-83.3333333333333,4,2,1,60,0,0
61640,-90.9090909090909,4,2,1,60,0,0
62120,-83.3333333333333,4,2,1,80,0,1
64520,-55.5555555555556,4,2,1,80,0,1
64760,-83.3333333333333,4,2,1,80,0,1
65960,-83.3333333333333,4,2,1,80,0,1
69800,-83.3333333333333,4,2,1,80,0,1
72200,-55.5555555555556,4,2,1,80,0,1
72440,-83.3333333333333,4,2,1,80,0,1
73640,-83.3333333333333,4,2,1,80,0,1
75560,-55.5555555555556,4,2,1,80,0,1
76760,-55.5555555555556,4,2,1,80,0,1
77120,-62.5,4,2,1,80,0,1
77240,-71.4285714285714,4,2,1,80,0,1
77360,-83.3333333333333,4,2,1,80,0,1
77480,-100,4,2,1,70,0,0
78440,-166.666666666667,4,2,1,70,0,0
78680,-142.857142857143,4,2,1,70,0,0
78920,-125,4,2,1,70,0,0
79160,-111.111111111111,4,2,1,70,0,0
79400,-100,4,2,1,70,0,0
80360,-100,4,2,1,70,0,0
80600,-100,4,2,1,70,0,0
80840,-200,4,2,1,70,0,0
81080,-100,4,2,1,70,0,0
81320,-200,4,2,1,70,0,0
81560,-100,4,2,1,70,0,0
81800,-200,4,2,1,70,0,0
82040,-100,4,2,1,70,0,0
82280,-100,4,2,1,70,0,0
83480,-100,4,2,1,70,0,0
83720,-100,4,2,1,70,0,0
83960,-100,4,2,1,70,0,0
84200,-100,4,2,1,70,0,0
84440,-200,4,2,1,70,0,0
84680,-166.666666666667,4,2,1,70,0,0
84920,-125,4,2,1,70,0,0
85160,-100,4,2,1,70,0,0
86120,-166.666666666667,4,2,1,70,0,0
86360,-142.857142857143,4,2,1,70,0,0
86600,-125,4,2,1,70,0,0
86840,-111.111111111111,4,2,1,70,0,0
87080,-100,4,2,1,70,0,0
88040,-100,4,2,1,70,0,0
89000,-100,4,2,1,70,0,0
89960,-100,4,2,1,70,0,0
90200,-111.111111111111,4,2,1,70,0,0
90440,-125,4,2,1,70,0,0
90680,-142.857142857143,4,2,1,70,0,0
90920,-166.666666666667,4,2,1,70,0,0
91160,-200,4,2,1,70,0,0
91400,-200,4,2,1,70,0,0
91640,-200,4,2,1,70,0,0
91880,-200,4,2,1,50,0,0
92240,-166.666666666667,4,2,1,50,0,0
92360,-142.857142857143,4,2,1,50,0,0
92480,-125,4,2,1,50,0,0
92600,-111.111111111111,4,2,1,50,0,0
92720,-100,4,2,1,50,0,0
92840,-83.3333333333333,4,2,1,60,0,0
92840,-100,4,2,1,60,0,0
93080,-125,4,2,1,60,0,0
98840,-166.666666666667,4,2,1,60,0,0
99080,-250,4,2,1,60,0,0
99560,-500,4,2,1,60,0,0
100040,-125,4,2,1,60,0,0
100520,-83.3333333333333,4,2,1,60,0,0
101000,-125,4,2,1,60,0,0
101240,-125,4,2,1,60,0,0
101720,-250,4,2,1,60,0,0
102200,-125,4,2,1,60,0,0
102440,-125,4,2,1,60,0,0
104120,-125,4,2,1,60,0,0
104360,-250,4,2,1,60,0,0
104600,-166.666666666667,4,2,1,60,0,0
104840,-125,4,2,1,60,0,0
105080,-125,4,2,1,60,0,0
105320,-125,4,2,1,60,0,0
107240,-90.9090909090909,4,2,1,60,0,0
108200,-90.9090909090909,4,2,1,70,0,0
123080,-83.3333333333333,4,2,1,70,0,0
123320,-76.9230769230769,4,2,1,70,0,0
123560,-71.4285714285714,4,2,1,80,0,1
125960,-47.6190476190476,4,2,1,80,0,1
126440,-71.4285714285714,4,2,1,80,0,1
127400,-71.4285714285714,4,2,1,80,0,1
128600,-47.6190476190476,4,2,1,80,0,1
128840,-71.4285714285714,4,2,1,80,0,1
131240,-71.4285714285714,4,2,1,80,0,1
133640,-47.6190476190476,4,2,1,80,0,1
133880,-71.4285714285714,4,2,1,80,0,1
135080,-71.4285714285714,4,2,1,80,0,1
137000,-47.6190476190476,4,2,1,80,0,1
138200,-47.6190476190476,4,2,1,70,0,1
138440,-55.5555555555556,4,2,1,70,0,1
138680,-66.6666666666667,4,2,1,70,0,1
138920,-83.3333333333333,4,2,1,60,0,0
146600,-83.3333333333333,4,2,1,60,0,0
154280,-125,4,2,1,60,0,0
154520,-125,4,2,1,60,0,0
154760,-125,4,2,1,60,0,0
155000,-125,4,2,1,60,0,0
155240,-125,4,2,1,60,0,0
155360,-125,4,2,1,60,0,0
155480,-125,4,2,1,60,0,0
155600,-125,4,2,1,60,0,0
155720,-125,4,2,1,60,0,0
155840,-125,4,2,1,60,0,0
155960,-125,4,2,1,60,0,0
156080,-125,4,2,1,60,0,0
156200,-125,4,2,1,60,0,0
163880,-55.5555555555556,4,2,1,60,0,1
167720,-55.5555555555556,4,2,1,60,0,1
171560,-55.5555555555556,4,2,1,60,0,1
175400,-55.5555555555556,4,2,1,60,0,1
179240,-55.5555555555556,4,2,1,60,0,1
183080,-100,4,2,1,60,0,0
185000,-83.3333333333333,4,2,1,60,0,0
186920,-71.4285714285714,4,2,1,60,0,0
188840,-55.5555555555556,4,2,1,60,0,0
190280,-250,4,2,1,60,0,0
190760,-250,4,2,1,50,0,0
190760,-250,4,2,1,50,0,0
191720,-250,4,2,1,40,0,0
191720,-250,4,2,1,40,0,0
192680,-250,4,2,1,20,0,0
192680,-250,4,2,1,20,0,0
193640,-250,4,2,1,15,0,0
193640,-250,4,2,1,15,0,0
194600,-250,4,2,1,10,0,0
194600,-250,4,2,1,10,0,0
195560,-250,4,2,1,5,0,0

[Colours]
Combo1 : 225,107,140
Combo2 : 254,223,225
Combo3 : 244,167,185
Combo4 : 245,150,170

[HitObjects]
110,128,320,5,0,2:3:0:0:
90,239,440,1,0,2:3:0:0:
70,351,560,1,0,2:3:0:0:
130,17,680,6,0,P|198:73|284:47,1,180,4|8,2:3|3:0,3:3:0:0:
280,50,1040,1,0,3:3:0:0:
447,299,1160,6,0,P|358:299|309:375,1,180,0|8,2:3|3:0,3:3:0:0:
455,182,1520,1,0,3:3:0:0:
455,182,1640,6,0,L|465:121,1,53.9999983520508,0|0,2:3|3:3,3:3:0:0:
377,192,1880,6,0,L|370:128,1,62.9999980773926,0|0,2:3|3:3,3:3:0:0:
304,222,2120,6,0,L|276:150,1,72,0|0,2:3|3:3,3:3:0:0:
241,269,2360,6,0,L|193:203,1,80.9999975280763,0|0,2:3|3:3,3:3:0:0:
192,330,2600,6,0,L|144:290,10,45,0|0|0|0|0|0|0|0|0|0|0,2:3|1:3|1:3|1:3|1:3|1:3|1:3|1:3|1:3|1:3|1:3,3:3:0:0:
74,231,3320,1,0,3:1:0:0:
193,203,3440,1,0,3:1:0:0:
70,351,3560,1,0,0:0:0:0:
70,351,3800,6,0,L|72:291,1,45,8|0,3:1|3:3,3:3:0:0:
70,351,3920,6,0,L|17:379,1,45,8|0,3:1|3:3,3:3:0:0:
70,351,4040,6,0,L|120:382,1,45,8|0,3:1|3:3,3:3:0:0:
395,108,4280,6,0,L|351:89,1,45,8|0,3:1|3:3,3:3:0:0:
395,108,4400,6,0,L|432:79,1,45,8|0,3:1|3:3,3:3:0:0:
395,108,4520,6,0,L|407:201,1,90,4|8,2:3|3:0,3:3:0:0:
406,197,4880,1,0,3:3:0:0:
242,367,5000,2,0,B|246:302|246:302|242:274,1,90,0|8,2:3|3:0,3:3:0:0:
225,175,5360,1,0,3:3:0:0:
146,243,5480,6,0,B|123:260|118:283|118:283|93:284|97:255,1,90,0|0,2:3|3:3,3:3:0:0:
128,140,5720,2,0,B|101:129|78:136|78:136|65:114|92:104,1,90,0|0,2:3|3:3,3:3:0:0:
208,73,5960,2,0,B|203:44|186:28|186:28|198:6|221:24,1,90,0|0,2:3|3:3,3:3:0:0:
305,108,6200,2,0,B|327:90|332:67|332:67|357:66|353:95,1,90,0|0,2:3|3:3,3:3:0:0:
323,211,6440,2,0,B|349:221|372:214|372:214|385:236|358:246,1,90,0|0,2:3|3:3,3:3:0:0:
243,278,6680,5,8,3:3:0:0:
225,175,6800,1,0,2:2:0:0:
225,175,6920,1,0,2:2:0:0:
323,211,7160,5,8,3:3:0:0:
146,243,7280,1,0,0:0:0:0:
225,175,7400,6,0,L|216:122,1,45,8|0,3:1|3:3,3:3:0:0:
225,175,7520,6,0,L|266:187,1,45,8|0,3:1|3:3,3:3:0:0:
225,175,7640,6,0,L|184:209,1,45,8|0,3:1|3:3,3:3:0:0:
364,176,7880,6,0,L|320:213,1,53.9999983520508,8|0,3:1|3:3,3:3:0:0:
508,171,8120,6,0,L|452:217,1,72,8|0,3:1|3:3,3:3:0:0:
251,358,8360,6,0,B|225:318|225:318|393:370,1,180,4|8,2:3|3:0,3:3:0:0:
351,357,8720,1,0,3:3:0:0:
174,368,8840,2,0,B|144:322|144:322|184:192,1,180,0|8,2:3|3:0,3:3:0:0:
282,180,9200,1,0,3:3:0:0:
80,225,9320,6,0,P|55:216|31:194,1,53.9999983520508,0|0,2:3|3:3,3:3:0:0:
109,128,9560,6,0,P|105:95|114:65,1,62.9999980773926,0|0,2:3|3:3,3:3:0:0:
209,105,9800,6,0,P|241:85|281:77,1,72,0|0,2:3|3:3,3:3:0:0:
282,180,10040,6,0,P|318:201|346:237,1,80.9999975280763,0|0,2:3|3:3,3:3:0:0:
250,278,10280,6,0,P|254:301|248:336,10,45,0|0|0|0|0|0|0|0|0|0|0,2:3|1:3|1:3|1:3|1:3|1:3|1:3|1:3|1:3|1:3|1:3,3:3:0:0:
180,202,11000,1,0,3:1:0:0:
109,128,11120,1,0,3:1:0:0:
282,180,11240,1,0,2:2:0:0:
80,225,11480,5,8,3:3:0:0:
180,202,11600,1,0,2:2:0:0:
282,180,11720,1,0,2:2:0:0:
138,31,11960,1,8,3:3:0:0:
209,105,12080,1,8,3:3:0:0:
282,180,12200,6,0,B|321:208|366:208|366:208|366:253|395:293,1,180,4|8,2:3|3:3,3:3:0:0:
394,291,12560,1,0,3:3:0:0:
342,124,12680,2,0,P|430:152|447:239,1,180,0|8,2:3|3:3,3:3:0:0:
288,290,13040,1,0,2:3:0:0:
236,76,13220,6,0,L|213:168,1,80.9999975280763,0|0,2:3|3:3,3:3:0:0:
77,287,13400,6,0,L|100:195,1,80.9999975280763,0|0,2:3|3:3,3:3:0:0:
85,122,13640,6,0,L|101:38,2,48,2|0|0,3:2|3:3|3:3,3:3:0:0:
85,122,13880,2,0,P|117:125|151:143,1,62.9999980773926,0|0,2:3|3:3,3:3:0:0:
225,266,14120,2,0,P|197:270|172:267,1,53.9999983520508,4|0,2:3|3:3,3:3:0:0:
85,122,14360,1,0,2:3:0:0:
196,180,14480,1,0,2:3:0:0:
307,237,14600,1,0,2:3:0:0:
327,247,14840,1,0,2:3:0:0:
347,257,15080,5,0,2:3:0:0:
347,257,15560,1,0,3:3:0:0:
347,257,16040,6,0,L|388:280,1,36,2|0,3:2|3:3,3:3:0:0:
316,203,16280,2,0,L|316:155,1,36,2|0,3:2|3:3,3:3:0:0:
284,257,16520,2,0,L|242:281,1,36,2|0,3:2|3:3,3:3:0:0:
316,311,16760,1,0,3:3:0:0:
379,203,17000,5,0,3:3:0:0:
253,203,17240,6,0,L|221:185,3,36,0|0|0|0,3:3|3:3|3:3|3:3,3:3:0:0:
95,113,17720,1,0,3:3:0:0:
95,257,17960,6,0,L|95:304,1,36,2|0,3:2|3:3,3:3:0:0:
63,202,18200,2,0,L|21:178,1,36,2|0,3:2|3:3,3:3:0:0:
126,203,18440,2,0,L|167:179,1,36,2|0,3:2|3:3,3:3:0:0:
95,148,18680,1,0,3:3:0:0:
31,256,18920,5,0,3:3:0:0:
157,257,19160,1,0,3:3:0:0:
283,257,19400,2,0,L|301:257,1,18,4|0,3:2|3:3,3:3:0:0:
220,184,19640,1,0,3:3:0:0:
220,148,19760,1,0,3:3:0:0:
220,112,19880,6,0,L|220:76,1,36,2|0,3:2|3:3,3:3:0:0:
280,3,20120,2,0,L|238:27,1,36,2|0,3:2|3:3,3:3:0:0:
155,2,20360,2,0,L|196:26,1,36,2|0,3:2|3:3,3:3:0:0:
281,75,20600,1,0,3:3:0:0:
313,93,20720,1,0,3:3:0:0:
343,111,20840,6,0,L|384:135,1,36,2|0,3:2|3:3,3:3:0:0:
342,219,21080,2,0,L|342:183,1,36,2|0,3:2|3:3,3:3:0:0:
435,165,21320,2,0,L|393:189,1,36,2|0,3:2|3:3,3:3:0:0:
280,255,21560,1,0,3:3:0:0:
250,273,21680,1,0,3:3:0:0:
218,291,21800,6,0,L|176:315,1,36,2|0,3:2|3:3,3:3:0:0:
124,344,22040,2,0,L|82:319,1,36,2|0,3:2|3:3,3:3:0:0:
30,289,22280,2,0,L|30:240,1,36,2|0,3:2|3:3,3:3:0:0:
30,181,22520,2,0,L|71:157,1,36,2|0,3:2|3:3,3:3:0:0:
123,127,22760,5,2,3:2:0:0:
123,127,23000,1,0,3:3:0:0:
123,127,23240,2,0,L|143:139,1,18,4|0,3:2|3:3,3:3:0:0:
247,199,23480,1,0,3:3:0:0:
245,53,23720,6,0,L|286:77,1,36,2|0,3:2|3:3,3:3:0:0:
309,162,23960,2,0,L|309:126,1,36,2|0,3:2|3:3,3:3:0:0:
369,53,24200,2,0,L|327:77,1,36,2|0,3:2|3:3,3:3:0:0:
243,125,24440,1,0,3:3:0:0:
149,178,24680,6,0,L|180:160,1,36,2|0,3:2|3:3,3:3:0:0:
87,178,24920,2,0,L|55:159,1,36,2|0,3:2|3:3,3:3:0:0:
120,233,25160,2,0,L|120:269,1,36,2|0,3:2|3:3,3:3:0:0:
119,124,25400,1,0,3:3:0:0:
118,87,25520,1,0,3:3:0:0:
118,51,25640,6,0,L|118:15,1,36,2|0,3:2|3:3,3:3:0:0:
180,87,25880,2,0,L|180:123,2,36,0|0|0,3:3|3:3|3:3,3:3:0:0:
242,51,26120,1,2,3:2:0:0:
366,123,26360,1,0,3:3:0:0:
490,195,26600,5,2,3:2:0:0:
490,195,26840,1,0,3:3:0:0:
490,195,27080,2,0,L|470:207,1,18,4|0,3:2|3:3,3:3:0:0:
367,268,27320,1,0,3:3:0:0:
337,286,27440,1,0,3:3:0:0:
305,304,27560,6,0,L|274:322,1,36,2|0,3:2|3:3,3:3:0:0:
182,377,27800,1,0,3:3:0:0:
116,267,28040,1,0,3:3:0:0:
174,157,28280,1,0,3:3:0:0:
108,47,28520,1,2,3:2:0:0:
294,155,29000,1,0,3:3:0:0:
116,267,29480,6,0,L|84:249,1,36,2|0,3:2|3:3,3:3:0:0:
22,213,29720,2,0,L|21:177,1,36,2|0,3:2|3:3,3:3:0:0:
20,104,29960,2,0,L|51:86,1,36,2|0,3:2|3:3,3:3:0:0:
113,49,30200,2,0,L|144:66,1,36,2|0,3:2|3:3,3:3:0:0:
206,102,30440,1,2,3:2:0:0:
207,211,30680,5,0,3:3:0:0:
207,211,30800,1,0,3:3:0:0:
177,193,30920,1,8,3:1:0:0:
147,175,31040,1,0,2:2:0:0:
117,157,31160,1,8,3:1:0:0:
85,139,31280,1,0,2:2:0:0:
53,121,31400,6,0,L|216:138,1,161.999995056153,4|0,3:1|3:3,3:3:0:0:
218,60,31640,2,0,L|146:52,1,72,0|0,3:3|3:3,3:3:0:0:
107,47,31880,1,0,3:3:0:0:
312,33,32120,6,0,P|312:72|299:111,1,72,8|0,3:3|3:3,3:3:0:0:
312,173,32360,2,0,P|312:134|299:95,1,72,0|0,2:2|3:3,3:3:0:0:
374,103,32600,2,0,L|447:103,3,48,0|0|0|0,2:2|3:3|3:3|3:3,3:3:0:0:
415,276,33080,6,0,L|343:276,1,72,8|0,3:3|3:3,3:3:0:0:
385,171,33320,2,0,B|382:206|382:206|412:187,1,72,0|0,2:2|3:3,3:3:0:0:
412,364,33560,2,0,B|382:344|382:344|384:379,1,72,0|0,3:3|3:3,3:3:0:0:
231,292,33800,2,0,B|263:276|263:276|231:260,1,72,0|0,3:3|3:3,3:3:0:0:
56,280,34040,1,8,3:3:0:0:
136,320,34160,1,0,3:3:0:0:
136,320,34280,6,0,P|114:212|15:201,1,216,8|0,3:3|3:3,3:3:0:0:
256,160,34760,1,0,3:3:0:0:
160,91,34880,1,0,2:2:0:0:
278,91,35000,1,8,3:1:0:0:
219,48,35120,1,0,2:2:0:0:
184,160,35240,2,0,P|192:195|222:223,1,72,8|0,3:1|3:3,3:3:0:0:
326,170,35480,2,0,P|275:229|216:220,1,144,0|0,3:3|3:3,3:3:0:0:
472,191,35960,5,0,2:2:0:0:
430,57,36080,1,0,2:2:0:0:
480,107,36200,2,0,P|449:126|408:124,1,72,0|0,2:2|3:3,3:3:0:0:
373,14,36440,2,0,P|367:91|415:127,1,144,0|0,3:3|3:3,3:3:0:0:
160,91,36920,5,0,2:2:0:0:
109,251,37040,1,0,2:2:0:0:
204,194,37160,6,0,L|222:228,7,26.9999991760254,0|0|0|0|0|0|0|0,2:2|1:1|1:1|1:1|1:1|1:1|1:1|1:1,3:3:0:0:
186,263,37640,6,0,L|194:278,7,18,0|0|0|0|0|0|0|0,1:1|1:1|1:1|1:1|1:1|1:1|1:1|1:1,3:3:0:0:
169,333,38120,5,0,1:3:0:0:
171,338,38240,1,0,3:1:0:0:
174,343,38360,1,0,3:1:0:0:
177,348,38480,1,0,3:3:0:0:
16,372,38600,6,0,B|7:346|7:346|49:338|41:380,1,90,8|0,3:2|3:3,3:3:0:0:
93,245,38840,2,0,P|104:191|82:138,1,108,8|0,3:3|3:3,3:3:0:0:
5,199,39080,2,0,L|289:221,1,270,4|0,3:1|3:3,3:3:0:0:
442,234,39560,1,2,3:2:0:0:
408,154,39800,6,0,P|396:118|395:69,1,72,0|0,2:2|3:3,3:3:0:0:
400,8,40040,2,0,L|362:227,1,216,2|0,3:2|3:3,3:3:0:0:
334,362,40520,1,2,3:2:0:0:
274,219,40760,5,0,2:2:0:0:
254,154,40880,1,0,2:2:0:0:
234,89,41000,2,0,L|226:43,3,45,0|0|0|0,2:2|1:1|1:1|1:1,3:3:0:0:
167,73,41240,2,0,L|158:26,3,48,0|0|0|0,1:1|3:3|3:3|3:3,3:3:0:0:
100,57,41720,1,0,3:1:0:0:
300,101,41960,6,0,P|400:66|485:122,1,216,0|0,3:1|3:3,3:3:0:0:
384,180,42440,2,0,B|384:165|363:147|363:147|385:132|411:151,1,90,8|0,3:2|3:3,3:3:0:0:
435,320,42680,6,0,L|458:291,1,36,8|0,3:1|3:3,3:3:0:0:
435,320,42800,6,0,L|447:354,1,36,8|0,3:1|3:3,3:3:0:0:
435,320,42920,6,0,L|399:314,1,36,8|0,3:1|3:3,3:3:0:0:
303,333,43160,6,0,L|246:324,1,53.9999983520508,0|0,3:3|3:3,3:3:0:0:
175,365,43400,6,0,L|104:354,1,72,0|0,3:3|3:3,3:3:0:0:
12,371,43640,1,8,3:3:0:0:
80,237,43880,2,0,P|94:150|152:216,1,216,0|0,3:3|3:3,3:3:0:0:
264,5,44360,2,0,P|249:91|191:25,1,216,0|0,3:3|3:3,3:3:0:0:
108,198,44840,6,0,L|87:129,1,72,0|0,2:2|3:3,3:3:0:0:
236,45,45080,2,0,L|259:121,1,72,0|0,2:2|3:3,3:3:0:0:
62,42,45320,6,0,L|51:8,3,35.9999989013672,0|0|0|0,2:2|3:3|3:3|3:3,3:3:0:0:
256,113,45680,1,0,2:2:0:0:
108,198,45800,1,0,2:2:0:0:
108,198,46040,1,0,3:3:0:0:
256,271,46280,6,0,B|256:223|271:192|271:192|256:161|256:114,1,161.999995056153,4|0,2:1|3:3,3:3:0:0:
181,237,46520,1,8,3:3:0:0:
181,237,46640,1,8,3:3:0:0:
108,355,46760,6,0,B|108:307|92:276|92:276|108:245|108:198,1,161.999995056153,6|0,2:3|3:3,3:3:0:0:
68,122,47000,6,0,P|110:110|152:124,1,90,8|0,3:3|3:3,3:3:0:0:
295,192,47240,1,0,3:3:0:0:
256,271,47360,1,0,3:3:0:0:
343,114,47480,6,0,B|319:115|296:103|296:103|280:113|256:113,1,90,8|0,3:3|3:3,3:3:0:0:
256,271,47720,6,0,B|280:271|296:281|296:281|319:269|343:270,1,90,2|0,2:3|3:3,3:3:0:0:
177,308,47960,6,0,P|208:343|251:361,1,72,8|0,3:3|3:3,3:3:0:0:
86,254,48200,2,0,P|71:298|77:344,1,80.9999975280763,0|0,3:3|3:3,3:3:0:0:
88,148,48440,2,0,P|42:157|5:185,1,90,8|0,3:3|3:3,3:3:0:0:
180,96,48680,6,0,P|156:69|125:51,2,71.9999978027344,2|0|0,2:3|3:3|3:3,3:3:0:0:
180,112,48920,2,0,P|210:77|254:62,1,90,8|0,3:3|3:3,3:3:0:0:
329,102,49160,1,0,3:3:0:0:
408,142,49280,1,0,3:3:0:0:
257,153,49400,2,0,P|291:181|335:190,1,90,8|0,3:3|3:3,3:3:0:0:
402,54,49640,6,0,P|367:25|324:17,1,90,2|0,2:3|3:3,3:3:0:0:
358,368,49880,2,0,L|348:264,1,90,8|0,3:3|3:3,3:3:0:0:
162,278,50120,2,0,L|154:368,1,90,0|0,3:3|3:3,3:3:0:0:
349,278,50360,1,8,3:3:0:0:
154,368,50480,1,0,3:3:0:0:
256,192,50600,6,0,L|256:300,1,107.999996704102,2|0,2:3|3:3,3:3:0:0:
345,130,50840,1,8,3:3:0:0:
170,127,50960,1,0,3:3:0:0:
313,27,51080,1,0,3:3:0:0:
206,26,51200,1,0,3:3:0:0:
436,192,51320,6,0,L|344:204,1,90,8|0,3:3|3:3,3:3:0:0:
76,192,51560,2,0,L|168:204,1,90,2|0,2:3|3:3,3:3:0:0:
335,368,51800,2,0,P|355:329|358:283,1,90,8|0,3:3|3:3,3:3:0:0:
177,368,52040,2,0,P|157:329|154:283,1,90,0|0,3:3|3:3,3:3:0:0:
256,300,52280,6,0,B|256:96,1,180,8|2,3:3|2:3,3:3:0:0:
256,120,52640,1,0,3:3:0:0:
335,54,52760,2,0,P|355:93|358:139,1,90,8|0,3:3|3:3,3:3:0:0:
177,54,53000,2,0,P|157:93|154:139,1,90,0|0,3:3|3:3,3:3:0:0:
128,1,53240,2,0,P|84:3|42:23,1,90,8|0,3:3|3:3,3:3:0:0:
384,1,53480,2,0,P|427:3|469:23,1,90,2|0,2:3|3:3,3:3:0:0:
256,120,53720,1,8,3:3:0:0:
256,0,53840,1,0,3:3:0:0:
356,178,53960,2,0,P|353:226|336:267,1,90,0|0,3:3|3:3,3:3:0:0:
174,264,54200,2,0,P|158:222|156:178,1,90,8|0,3:3|3:3,3:3:0:0:
288,160,54440,6,0,B|295:183|295:207|288:230|272:246|256:254|256:254|240:246|225:230|217:207|217:183|225:160,1,215.999993408203,6|8,2:1|3:3,3:3:0:0:
256,104,54800,1,0,3:3:0:0:
480,336,54920,2,0,P|439:355|395:358,1,90,0|0,3:3|3:3,3:3:0:0:
116,358,55160,2,0,P|72:355|32:336,1,90,8|0,3:3|3:3,3:3:0:0:
176,336,55400,2,0,B|224:336|256:376|256:376|288:336|336:336,1,180,2|8,2:3|3:3,3:3:0:0:
330,336,55760,5,0,3:3:0:0:
464,224,55880,2,0,P|449:261|411:286,1,90,0|0,3:3|3:3,3:3:0:0:
104,286,56120,2,0,P|65:264|48:224,1,90,8|0,3:3|3:3,3:3:0:0:
256,192,56360,6,0,L|256:312,1,90,2|0,2:3|3:3,3:3:0:0:
165,164,56600,1,8,3:3:0:0:
347,164,56720,1,0,3:3:0:0:
180,249,56840,2,0,P|161:205|170:152,1,90,0|0,3:3|3:3,3:3:0:0:
332,248,57080,2,0,P|350:208|347:164,1,90,8|0,3:3|3:3,3:3:0:0:
256,192,57320,6,0,L|256:8,2,180,2|8|0,2:3|3:3|3:3,3:3:0:0:
256,312,57920,1,0,3:3:0:0:
180,249,58040,1,8,3:3:0:0:
332,248,58160,1,0,3:3:0:0:
156,177,58280,6,0,L|68:191,1,90,2|0,2:3|3:3,3:3:0:0:
68,47,58520,2,0,L|160:61,1,90,8|0,3:3|3:3,3:3:0:0:
356,177,58760,2,0,L|445:191,1,90,0|0,3:3|3:3,3:3:0:0:
445,47,59000,2,0,L|353:61,1,90,8|0,3:3|3:3,3:3:0:0:
256,6,59240,6,0,L|256:96,1,90,2|0,2:3|3:3,3:3:0:0:
256,196,59480,2,0,L|256:256,2,60,8|0|0,3:3|3:3|3:3,3:3:0:0:
67,308,59720,2,0,L|159:322,1,90,0|0,3:3|3:3,3:3:0:0:
445,308,59960,2,0,L|353:322,1,90,8|0,3:3|3:3,3:3:0:0:
256,268,60200,2,0,L|256:396,1,107.999996704102,6|0,2:1|3:3,3:3:0:0:
155,321,60440,6,0,L|139:273,3,45,0|0|0|0,1:1|1:1|1:1|1:1,3:3:0:0:
116,264,60680,2,0,L|100:216,7,49.5000015106202,0|0|0|0|0|0|0|0,1:1|1:1|1:1|1:1|3:1|1:1|1:1|1:1,3:3:0:0:
80,200,61160,2,0,L|63:149,7,53.9999983520508,0|0|0|0|0|0|0|0,1:1|1:1|1:1|1:1|1:1|1:1|1:1|1:1,3:3:0:0:
12,88,61640,6,0,P|57:72|109:84,1,99.0000030212403,4|0,2:1|3:3,3:3:0:0:
298,27,61880,2,0,P|253:43|201:31,1,99.0000030212403,8|8,3:3|3:3,3:3:0:0:
415,74,62120,2,0,B|427:144|401:181|401:181|438:207|449:270,1,215.999993408203,4|8,2:3|3:3,3:3:0:0:
449,271,62480,1,0,3:3:0:0:
254,365,62600,6,0,L|372:365,1,107.999996704102,2|0,2:2|3:3,3:3:0:0:
115,286,62840,2,0,L|7:286,1,107.999996704102,8|0,3:3|3:3,3:3:0:0:
169,384,63080,2,0,B|192:305|192:305|229:274|229:274|253:192,1,215.999993408203,2|8,2:2|3:3,3:3:0:0:
253,191,63440,1,0,3:3:0:0:
245,80,63560,6,0,B|231:61|231:61|245:42|269:42|283:61|283:61|269:80,1,107.999996704102,2|0,2:2|3:3,3:3:0:0:
326,277,63800,2,0,B|349:283|349:283|348:307|328:321|306:314|306:314|306:290,1,107.999996704102,8|0,3:3|3:3,3:3:0:0:
145,164,64040,2,0,B|123:171|123:171|108:152|115:130|138:121|138:121|152:140,1,107.999996704102,2|0,2:2|3:3,3:3:0:0:
358,149,64280,2,0,B|371:128|371:128|394:137|401:159|388:178|388:178|365:171,1,107.999996704102,8|0,3:3|3:3,3:3:0:0:
195,287,64520,2,0,B|195:309|195:309|173:316|154:303|152:280|152:280|175:272,2,107.999996704102,2|0|0,2:2|3:3|3:3,3:3:0:0:
254,192,64760,5,8,3:3:0:0:
254,192,64880,1,0,3:3:0:0:
254,192,65000,2,0,P|256:112|311:50,1,161.999995056153,2|0,2:2|3:3,3:3:0:0:
422,11,65240,5,8,3:3:0:0:
422,11,65320,1,0,3:3:0:0:
422,11,65400,1,0,3:3:0:0:
422,11,65480,2,0,L|438:129,1,107.999996704102,2|0,2:2|3:3,3:3:0:0:
468,375,65720,2,0,L|461:318,1,53.9999983520508,8|0,3:3|3:3,3:3:0:0:
385,216,65840,2,0,L|378:273,1,53.9999983520508,8|0,3:3|3:3,3:3:0:0:
360,365,65960,6,0,B|312:341|256:365|256:365|200:341|144:365,1,215.999993408203,4|8,2:3|3:3,3:3:0:0:
30,384,66320,1,0,3:3:0:0:
83,210,66440,2,0,P|95:262|76:312,1,107.999996704102,2|0,2:2|3:3,3:3:0:0:
0,130,66680,2,0,P|-12:79|6:29,1,107.999996704102,8|0,3:3|3:3,3:3:0:0:
193,87,66920,6,0,L|64:83,1,107.999996704102,2|0,2:2|3:3,3:3:0:0:
275,119,67160,2,0,P|281:83|272:46,3,71.9999978027344,8|0|0|2,3:3|3:3|3:3|2:2,3:3:0:0:
346,181,67520,1,0,3:3:0:0:
429,31,67640,6,0,L|423:147,1,107.999996704102,8|0,3:3|3:3,3:3:0:0:
465,352,67880,2,0,L|470:235,1,107.999996704102,2|0,2:2|3:3,3:3:0:0:
344,329,68120,1,8,3:3:0:0:
210,258,68240,1,0,3:3:0:0:
85,343,68360,2,0,B|86:304|74:288|74:288|86:272|86:240,1,107.999996704102,2|0,2:2|3:3,3:3:0:0:
229,8,68600,2,0,B|228:47|240:63|240:63|228:79|228:111,1,107.999996704102,8|0,3:3|3:3,3:3:0:0:
45,162,68840,6,0,B|125:158|125:158|180:189|180:189|258:184,1,215.999993408203,6|8,2:3|3:3,3:3:0:0:
425,172,69200,1,2,2:2:0:0:
278,279,69320,2,0,L|149:287,1,107.999996704102,2|0,2:2|3:3,3:3:0:0:
14,73,69560,2,0,L|143:65,1,107.999996704102,8|8,3:3|3:3,3:3:0:0:
380,46,69800,6,0,B|412:87|385:139|385:139|404:160|404:160|383:203|400:258,1,215.999993408203,4|8,2:3|3:3,3:3:0:0:
412,373,70160,1,0,3:3:0:0:
412,373,70280,2,0,P|360:354|308:372,1,107.999996704102,2|0,2:2|3:3,3:3:0:0:
96,373,70520,2,0,P|148:354|200:372,1,107.999996704102,8|0,3:3|3:3,3:3:0:0:
230,156,70760,2,0,B|230:148|230:140|238:132|246:124|254:124|262:124|270:132|278:140|278:148|278:156|270:164|262:172|254:180|254:316,1,215.999993408203,2|8,2:2|3:3,3:3:0:0:
254,291,71120,1,0,3:3:0:0:
246,52,71240,6,0,B|230:36|246:20|254:4|254:4|262:20|278:36|262:52,1,107.999996704102,2|0,2:2|3:3,3:3:0:0:
361,225,71480,2,0,B|382:219|388:241|398:255|398:255|380:254|358:260|352:238,1,107.999996704102,8|0,3:3|3:3,3:3:0:0:
154,238,71720,2,0,B|148:259|126:253|108:255|108:255|118:240|124:218|146:224,1,107.999996704102,2|0,2:2|3:3,3:3:0:0:
353,104,71960,2,0,B|359:82|381:88|399:87|399:87|389:102|383:123|362:118,1,107.999996704102,8|0,3:3|3:3,3:3:0:0:
147,118,72200,2,0,B|125:124|119:102|109:87|109:87|127:89|149:83|155:105,2,107.999996704102,2|0|0,2:2|3:3|3:3,3:3:0:0:
254,173,72440,1,8,3:3:0:0:
254,173,72560,1,0,3:3:0:0:
254,173,72680,5,2,2:2:0:0:
254,186,72740,1,0,3:3:0:0:
254,200,72800,1,0,3:3:0:0:
254,213,72860,1,0,3:3:0:0:
254,227,72920,2,0,L|254:283,3,53.9999983520508,8|0|0|0,3:3|3:3|3:3|3:3,3:3:0:0:
254,370,73160,2,0,P|198:354|135:372,1,107.999996704102,2|0,2:2|3:3,3:3:0:0:
26,277,73400,2,0,L|15:216,1,53.9999983520508,8|0,3:3|3:3,3:3:0:0:
82,150,73520,2,0,L|71:89,1,53.9999983520508,8|0,3:3|3:3,3:3:0:0:
104,5,73640,6,0,L|142:222,1,215.999993408203,4|8,2:3|3:3,3:3:0:0:
141,217,74000,1,0,3:3:0:0:
374,184,74120,2,0,B|392:169|392:169|410:184|411:208|392:222|392:222|372:208,1,107.999996704102,2|0,2:2|3:3,3:3:0:0:
161,269,74360,2,0,B|155:291|155:291|131:290|117:271|124:248|124:248|148:248,1,107.999996704102,8|0,3:3|3:3,3:3:0:0:
283,75,74600,2,0,B|274:53|274:53|295:40|317:47|325:70|325:70|306:84,1,107.999996704102,2|0,2:2|3:3,3:3:0:0:
298,303,74840,5,8,3:3:0:0:
298,303,74920,1,0,3:3:0:0:
297,303,75000,1,0,3:3:0:0:
298,303,75080,2,0,B|318:316|318:316|309:338|287:346|267:332|267:332|275:309,1,107.999996704102,2|0,2:2|3:3,3:3:0:0:
152,127,75320,2,0,B|128:129|128:129|122:106|136:86|160:86|160:86|167:109,1,107.999996704102,8|0,3:3|3:3,3:3:0:0:
298,303,75560,6,0,B|328:307|308:372|308:372|252:332|278:306,1,161.999995056153,4|0,2:3|3:3,3:3:0:0:
283,76,75800,2,0,B|261:54|316:13|316:13|337:79|303:83,1,161.999995056153,4|0,2:3|3:3,3:3:0:0:
162,268,76040,2,0,B|167:298|98:299|98:299|120:234|150:249,1,161.999995056153,4|0,2:3|3:3,3:3:0:0:
373,184,76280,2,0,B|386:156|442:196|442:196|386:236|370:204,1,161.999995056153,4|0,2:3|3:3,3:3:0:0:
153,128,76520,2,0,B|125:142|103:77|103:77|172:78|166:111,1,161.999995056153,4|0,2:3|3:3,3:3:0:0:
256,192,76760,6,0,B|240:216|240:216|240:240|224:264|224:264|224:280|224:280|208:304|208:328|208:328|192:352,1,161.999995056153,8|2,3:3|2:2,3:3:0:0:
199,340,77000,1,8,3:3:0:0:
20,301,77120,2,0,L|16:376,1,72,0|0,2:3|3:3,3:3:0:0:
23,240,77240,2,0,L|19:309,1,62.9999980773926,0|0,2:3|3:3,3:3:0:0:
26,186,77360,2,0,L|22:250,1,53.9999983520508,0|0,2:3|3:3,3:3:0:0:
35,64,77480,6,0,P|92:129|175:99,1,180,4|8,2:3|3:0,3:3:0:0:
112,55,77840,1,0,3:3:0:0:
275,333,77960,6,0,P|218:268|135:298,1,180,0|8,2:3|3:0,3:3:0:0:
369,219,78320,1,0,3:3:0:0:
447,270,78440,6,0,P|430:290|405:307,1,53.9999983520508,0|0,2:3|3:3,3:3:0:0:
294,164,78680,6,0,P|315:141|361:126,1,62.9999980773926,0|0,2:3|3:3,3:3:0:0:
410,381,78920,6,0,P|377:375|347:352,1,72,0|0,2:3|3:3,3:3:0:0:
345,46,79160,6,0,P|385:60|414:89,1,80.9999975280763,0|0,2:3|3:3,3:3:0:0:
369,219,79400,6,0,L|418:188,10,45,0|0|0|0|0|0|0|0|0|0|0,2:3|1:3|1:3|1:3|1:3|1:3|1:3|1:3|1:3|1:3|1:3,3:3:0:0:
186,333,80120,1,0,3:1:0:0:
275,170,80240,1,0,3:1:0:0:
278,277,80360,1,0,0:0:0:0:
278,277,80600,6,0,L|277:221,1,45,8|0,3:1|3:3,3:3:0:0:
278,277,80720,2,0,L|230:305,1,45,8|0,3:1|3:3,3:3:0:0:
278,277,80840,2,0,L|326:304,1,45,8|0,3:1|3:3,3:3:0:0:
71,52,81080,6,0,L|22:24,1,45,8|0,3:1|3:3,3:3:0:0:
71,52,81200,2,0,L|118:23,1,45,8|0,3:1|3:3,3:3:0:0:
71,52,81320,6,0,L|72:141,1,90,4|8,2:3|3:0,3:3:0:0:
72,141,81680,1,0,3:3:0:0:
274,371,81800,6,0,L|274:281,1,90,0|8,2:3|3:0,3:3:0:0:
275,170,82160,1,0,3:3:0:0:
371,227,82280,6,0,B|383:249|383:249|391:244|401:244|401:244|396:236|396:226|396:226|371:227,1,90,0|0,2:3|3:3,3:3:0:0:
371,114,82520,2,0,B|396:114|396:114|396:104|401:96|401:96|391:96|383:91|383:91|371:114,1,90,0|0,2:3|3:3,3:3:0:0:
275,58,82760,2,0,B|288:36|288:36|279:31|275:22|275:22|270:31|261:36|261:36|275:58,1,90,0|0,2:3|3:3,3:3:0:0:
176,114,83000,2,0,B|163:91|163:91|155:96|145:96|145:96|150:104|150:114|150:114|176:114,1,90,0|0,2:3|3:3,3:3:0:0:
176,227,83240,2,0,B|150:226|150:226|150:236|145:244|145:244|155:244|163:249|163:249|176:227,1,90,0|0,2:3|3:3,3:3:0:0:
275,282,83480,5,8,3:3:0:0:
275,170,83600,1,0,2:2:0:0:
275,170,83720,1,0,2:2:0:0:
371,227,83960,5,8,3:3:0:0:
176,227,84080,1,0,0:0:0:0:
275,170,84200,6,0,L|275:117,1,45,8|0,3:1|3:3,3:3:0:0:
275,170,84320,6,0,L|320:196,1,45,8|0,3:1|3:3,3:3:0:0:
275,170,84440,6,0,L|229:196,1,45,8|0,3:1|3:3,3:3:0:0:
176,114,84680,6,0,L|123:113,1,53.9999983520508,8|0,3:1|3:3,3:3:0:0:
78,36,84920,6,0,L|16:0,1,72,8|0,3:1|3:3,3:3:0:0:
46,241,85160,6,0,B|46:102|46:102|-8:70,1,180,4|8,2:3|3:0,3:3:0:0:
10,81,85520,1,0,3:3:0:0:
8,312,85640,2,0,P|97:303|124:222,1,180,0|8,2:3|3:0,3:3:0:0:
46,241,86000,1,0,3:3:0:0:
108,154,86120,6,0,P|134:153|166:166,1,53.9999983520508,0|0,2:3|3:3,3:3:0:0:
226,108,86360,6,0,P|240:139|244:171,1,62.9999980773926,0|0,2:3|3:3,3:3:0:0:
324,194,86600,6,0,P|309:220|277:245,1,72,0|0,2:3|3:3,3:3:0:0:
295,330,86840,6,0,P|255:329|219:311,1,80.9999975280763,0|0,2:3|3:3,3:3:0:0:
146,357,87080,6,0,P|135:337|133:315,10,45,0|0|0|0|0|0|0|0|0|0|0,2:3|1:3|1:3|1:3|1:3|1:3|1:3|1:3|1:3|1:3|1:3,3:3:0:0:
244,167,87800,5,0,3:1:0:0:
218,310,87920,1,0,3:1:0:0:
200,231,88040,1,0,2:2:0:0:
415,260,88280,5,8,3:3:0:0:
319,151,88400,1,0,2:2:0:0:
390,187,88520,1,0,2:2:0:0:
384,331,88760,5,8,3:3:0:0:
319,151,88880,1,8,3:3:0:0:
320,226,89000,6,0,P|301:287|294:223,1,180,4|8,2:3|3:3,3:3:0:0:
320,226,89360,1,0,3:3:0:0:
445,51,89480,6,0,P|506:32|442:25,1,180,0|8,2:3|3:3,3:3:0:0:
268,49,89840,1,0,2:3:0:0:
95,71,89960,2,0,L|5:82,1,90,0|0,2:3|3:3,3:3:0:0:
268,49,90200,2,0,L|357:37,1,80.9999975280763,0|0,2:3|3:3,3:3:0:0:
188,129,90440,2,0,L|181:81,2,48,2|0|0,3:2|3:3|3:3,3:3:0:0:
188,129,90680,2,0,L|195:190,1,62.9999980773926,0|0,2:3|3:3,3:3:0:0:
95,71,90920,2,0,L|87:9,1,53.9999983520508,4|0,2:3|3:3,3:3:0:0:
268,49,91160,5,0,2:3:0:0:
278,137,91280,5,0,2:3:0:0:
285,204,91400,5,0,2:3:0:0:
290,248,91640,5,0,2:3:0:0:
292,270,91880,6,0,L|301:360,1,90,0|0,2:3|3:3,3:3:0:0:
219,337,92240,5,0,3:3:0:0:
378,320,92360,1,8,3:2:0:0:
177,244,92480,5,0,3:3:0:0:
399,221,92600,1,8,3:2:0:0:
135,152,92720,1,8,3:2:0:0:
421,122,92840,6,0,B|284:137,1,107.999996704102,4|0,3:1|3:3,3:3:0:0:
307,55,93080,2,0,B|378:47,1,72,8|0,3:3|3:3,3:3:0:0:
415,42,93320,1,0,3:3:0:0:
399,221,93560,6,0,L|406:292,1,72,8|0,3:3|3:3,3:3:0:0:
481,284,93800,2,0,L|472:195,1,72,0|0,3:3|3:3,3:3:0:0:
421,122,94040,2,0,L|332:131,3,48,8|0|0|0,3:3|3:3|3:3|3:3,3:3:0:0:
285,204,94520,6,0,L|213:211,1,72,8|0,3:3|3:3,3:3:0:0:
125,212,94760,2,0,B|108:205|94:223|94:223|111:237|126:227,1,72,0|0,3:3|3:3,3:3:0:0:
256,134,95000,2,0,B|269:122|261:101|261:101|240:109|241:127,1,72,8|0,3:3|3:3,3:3:0:0:
258,287,95240,2,0,B|260:304|283:308|283:308|286:285|270:277,1,72,0|0,3:3|3:3,3:3:0:0:
101,303,95480,6,0,P|137:301|170:288,1,72,8|0,3:3|3:3,3:3:0:0:
199,352,95720,2,0,P|180:322|170:288,1,72,0|0,3:3|3:3,3:3:0:0:
213,211,95960,6,0,L|285:204,1,72,8|0,3:3|3:3,3:3:0:0:
455,128,96200,1,0,3:3:0:0:
467,243,96320,1,0,2:2:0:0:
342,104,96440,1,8,3:1:0:0:
362,290,96560,1,0,2:2:0:0:
285,204,96680,6,0,L|213:211,1,72,8|0,3:1|3:3,3:3:0:0:
132,152,96920,2,0,B|135:185|116:221|116:221|142:252|146:285,1,144,8|0,3:3|3:3,3:3:0:0:
46,92,97400,1,0,2:2:0:0:
34,194,97520,1,0,2:2:0:0:
144,50,97640,6,0,L|216:43,1,72,0|0,2:2|3:3,3:3:0:0:
341,104,97880,2,0,B|302:114|272:91|272:91|249:120|208:117,1,144,8|0,3:3|3:3,3:3:0:0:
319,32,98360,1,0,2:2:0:0:
281,178,98480,1,0,2:2:0:0:
246,312,98600,2,0,L|227:381,1,72,0|0,2:2|1:1,3:3:0:0:
171,276,98840,6,0,L|163:249,3,26.9999991760254,0|0|0|0,1:1|1:1|1:1|1:1,3:3:0:0:
103,191,99080,6,0,L|95:164,7,18,0|0|0|0|0|0|0|0,1:1|1:1|1:1|1:1|1:1|1:1|1:1|1:1,3:3:0:0:
34,122,99560,5,0,1:3:0:0:
33,119,99680,1,0,3:1:0:0:
32,116,99800,1,0,3:1:0:0:
31,113,99920,1,0,3:3:0:0:
129,43,100040,6,0,B|149:47|154:66|154:66|138:77|120:64,1,72,8|0,3:3|3:3,3:3:0:0:
368,48,100280,6,0,B|348:52|342:71|342:71|359:82|377:69,1,72,0|0,3:3|3:3,3:3:0:0:
224,134,100520,6,0,B|192:102|224:70|256:38|288:70|320:102|288:134|256:166|240:214|256:262|256:294,1,323.999990112305,4|0,3:1|3:3,3:3:0:0:
258,369,101000,1,2,3:2:0:0:
110,142,101240,6,0,B|126:130|143:140|143:140|140:159|118:163,1,72,0|0,2:2|3:3,3:3:0:0:
391,141,101480,6,0,B|374:129|357:139|357:139|360:158|382:162,1,72,2|0,3:2|3:3,3:3:0:0:
131,256,101720,6,0,B|135:246|145:246|145:246|148:256|139:263,1,36,8|0,3:3|3:3,3:3:0:0:
385,260,101960,6,0,B|380:250|370:250|370:250|367:260|376:267,1,36,2|0,3:2|3:3,3:3:0:0:
167,365,102200,5,0,2:2:0:0:
346,368,102320,5,0,2:2:0:0:
256,384,102440,6,0,L|256:288,1,72,0|0,2:2|1:1,3:3:0:0:
256,192,102680,1,0,1:1:0:0:
256,160,102760,1,0,3:3:0:0:
256,128,102840,1,0,3:3:0:0:
256,96,102920,6,0,B|246:86|246:76|246:76|256:67|256:67|265:76|265:76|265:86|256:96,1,72,0|0,3:3|3:3,3:3:0:0:
339,144,103160,2,0,B|342:130|350:126|350:126|364:129|364:129|360:142|360:142|352:147|339:144,1,72,0|0,3:1|3:3,3:3:0:0:
172,144,103400,2,0,B|169:130|161:126|161:126|147:129|147:129|151:142|151:142|159:147|172:144,1,72,0|0,3:1|3:3,3:3:0:0:
339,239,103640,6,0,P|375:225|436:225,1,72,8|0,3:3|3:3,3:3:0:0:
172,239,103880,2,0,P|137:225|76:225,1,72,0|0,3:3|3:3,3:3:0:0:
256,192,104120,6,0,L|297:168,1,36,8|0,3:1|3:3,3:3:0:0:
256,192,104240,6,0,L|214:168,1,36,8|0,3:1|3:3,3:3:0:0:
256,192,104360,6,0,L|256:240,1,36,8|0,3:1|3:3,3:3:0:0:
229,310,104600,2,0,P|207:301|186:280,1,53.9999983520508,8|0,3:3|3:3,3:3:0:0:
108,319,104840,2,0,P|99:283|105:247,1,72,0|0,3:3|3:3,3:3:0:0:
16,244,105080,2,0,P|25:212|53:177,1,72,8|0,3:3|3:3,3:3:0:0:
171,43,105320,6,0,P|224:110|138:98,1,216,0|0,3:3|3:3,3:3:0:0:
229,310,105800,6,0,P|175:242|261:254,1,216,0|0,3:3|3:3,3:3:0:0:
287,43,106280,6,0,P|296:82|291:118,1,72,0|0,2:2|3:3,3:3:0:0:
345,310,106520,2,0,P|381:315|425:308,1,72,0|0,2:2|3:3,3:3:0:0:
293,360,106760,2,0,L|240:361,3,48,0|0|0|0,2:2|3:3|3:3|3:3,3:3:0:0:
159,359,107120,5,0,2:2:0:0:
71,358,107240,6,0,B|55:326|71:294|71:294|55:262|71:230|71:230|55:198|71:158|71:158|55:126|71:94|71:94|55:62,1,297.000009063721,0|0,2:2|3:3,3:3:0:0:
147,168,107720,2,0,B|140:194|140:194|155:225|140:264|140:264|156:298,1,99.0000030212403,4|0,2:1|3:3,3:3:0:0:
219,101,107960,1,8,3:3:0:0:
219,101,108080,1,8,3:3:0:0:
219,101,108200,6,0,B|226:75|226:75|211:44|226:4|226:4|210:-29,1,99.0000030212403,6|0,2:3|3:3,3:3:0:0:
405,38,108440,2,0,P|349:30|307:42,1,99.0000030212403,8|0,3:3|3:3,3:3:0:0:
362,161,108680,1,0,3:3:0:0:
409,269,108800,1,0,3:3:0:0:
459,378,108920,2,0,B|431:378|410:366|410:366|390:376|363:376,1,99.0000030212403,8|0,3:3|3:3,3:3:0:0:
205,270,109160,6,0,B|235:271|256:282|256:282|274:271|300:271,1,99.0000030212403,2|0,2:3|3:3,3:3:0:0:
149,376,109400,2,0,B|122:376|102:366|102:366|82:377|53:376,1,99.0000030212403,8|0,3:3|3:3,3:3:0:0:
103,269,109639,1,0,3:3:0:0:
150,161,109759,1,0,3:3:0:0:
203,41,109880,2,0,P|155:29|107:38,1,99.0000030212403,8|0,3:3|3:3,3:3:0:0:
256,104,110120,5,2,2:3:0:0:
256,104,110200,1,0,3:3:0:0:
256,104,110280,1,0,3:3:0:0:
256,104,110360,2,0,L|256:242,1,99.0000030212403,8|0,3:3|3:3,3:3:0:0:
150,161,110600,1,0,3:3:0:0:
362,161,110720,1,0,3:3:0:0:
493,308,110840,6,0,P|447:293|399:309,1,99.0000030212403,8|0,3:3|3:3,3:3:0:0:
209,362,111080,2,0,P|255:377|301:362,1,99.0000030212403,2|0,2:3|3:3,3:3:0:0:
111,308,111320,2,0,P|65:292|19:308,1,99.0000030212403,8|0,3:3|3:3,3:3:0:0:
213,226,111560,5,0,3:3:0:0:
81,183,111680,1,0,3:3:0:0:
256,93,111800,1,8,3:3:0:0:
125,50,111920,1,0,3:3:0:0:
153,185,112040,2,0,B|184:91,1,99.0000030212403,2|0,2:3|3:3,3:3:0:0:
299,226,112280,5,8,3:3:0:0:
431,183,112400,1,0,3:3:0:0:
256,93,112520,1,0,3:3:0:0:
387,50,112640,1,0,3:3:0:0:
359,185,112760,2,0,B|327:91,1,99.0000030212403,8|0,3:3|3:3,3:3:0:0:
435,258,113000,6,0,P|391:285|342:288,1,99.0000030212403,2|0,2:3|3:3,3:3:0:0:
77,258,113240,2,0,P|121:285|170:288,1,99.0000030212403,8|0,3:3|3:3,3:3:0:0:
359,185,113480,1,0,3:3:0:0:
153,185,113600,1,0,3:3:0:0:
255,354,113720,6,0,L|256:130,1,198.000006042481,8|2,3:3|2:3,3:3:0:0:
256,16,114080,1,0,3:3:0:0:
67,13,114200,2,0,P|102:35|161:38,1,99.0000030212403,8|0,3:3|3:3,3:3:0:0:
445,13,114440,2,0,P|410:35|351:38,1,99.0000030212403,0|0,3:3|3:3,3:3:0:0:
72,148,114680,2,0,P|113:149|165:122,1,99.0000030212403,8|0,3:3|3:3,3:3:0:0:
440,148,114920,2,0,P|399:149|347:122,1,99.0000030212403,2|0,2:3|3:3,3:3:0:0:
152,305,115160,1,8,3:3:0:0:
360,305,115280,1,0,3:3:0:0:
152,305,115400,2,0,P|174:269|177:211,1,99.0000030212403,0|0,3:3|3:3,3:3:0:0:
360,305,115640,2,0,P|338:269|335:211,1,99.0000030212403,8|0,3:3|3:3,3:3:0:0:
256,384,115880,6,0,L|256:184,1,198.000006042481,6|8,2:1|3:3,3:3:0:0:
256,8,116240,1,0,3:3:0:0:
424,64,116360,2,0,P|372:62|330:26,1,99.0000030212403,0|0,3:3|3:3,3:3:0:0:
88,64,116600,2,0,P|140:62|182:26,1,99.0000030212403,8|0,3:3|3:3,3:3:0:0:
331,160,116840,6,0,P|255:105|180:157,1,198.000006042481,2|8,2:3|3:3,3:3:0:0:
256,384,117200,5,0,3:3:0:0:
91,322,117320,2,0,P|142:317|190:337,1,99.0000030212403,0|0,3:3|3:3,3:3:0:0:
421,322,117560,2,0,P|370:317|322:337,1,99.0000030212403,8|0,3:3|3:3,3:3:0:0:
256,187,117800,6,0,L|256:288,1,99.0000030212403,2|0,2:3|3:3,3:3:0:0:
150,242,118040,1,8,3:3:0:0:
362,242,118160,1,0,3:3:0:0:
150,242,118280,2,0,P|118:204|73:184,1,99.0000030212403,0|0,3:3|3:3,3:3:0:0:
362,242,118520,2,0,P|393:204|438:184,1,99.0000030212403,8|0,3:3|3:3,3:3:0:0:
256,286,118760,6,0,L|256:88,2,198.000006042481,2|8|0,2:3|3:3|3:3,3:3:0:0:
421,322,119360,1,0,3:3:0:0:
256,286,119480,1,8,3:3:0:0:
91,322,119600,1,0,3:3:0:0:
73,184,119720,6,0,P|43:140|36:93,1,99.0000030212403,2|0,2:3|3:3,3:3:0:0:
150,242,119960,2,0,P|180:286|187:333,1,99.0000030212403,8|0,3:3|3:3,3:3:0:0:
439,184,120200,2,0,P|469:140|476:93,1,99.0000030212403,0|0,3:3|3:3,3:3:0:0:
362,242,120440,2,0,P|332:286|325:333,1,99.0000030212403,8|0,3:3|3:3,3:3:0:0:
304,176,120680,2,0,B|280:184|256:192|231:184|208:176,1,99.0000030212403,2|0,2:3|3:3,3:3:0:0:
256,24,120920,2,0,L|256:88,2,49.5000015106202,8|0|0,3:3|3:3|3:3,3:3:0:0:
114,25,121160,2,0,B|154:59|154:59|154:114,1,99.0000030212403,0|0,3:3|3:3,3:3:0:0:
398,25,121400,2,0,B|358:59|358:59|358:114,1,99.0000030212403,8|0,3:3|3:3,3:3:0:0:
187,330,121640,5,6,2:1:0:0:
324,330,121760,1,0,3:3:0:0:
256,384,121880,2,0,L|256:328,3,49.5000015106202
256,312,122120,6,0,L|256:238,7,49.5000015106202,0|0|0|0|0|0|0|0,1:1|1:1|1:1|1:1|3:1|1:1|1:1|1:1,3:3:0:0:
256,240,122600,6,0,L|256:166,7,49.5000015106202,0|0|0|0|0|0|0|0,1:1|1:1|1:1|1:1|1:1|1:1|1:1|1:1,3:3:0:0:
187,71,123080,2,0,P|134:53|77:72,1,107.999996704102,4|0,2:1|3:3,3:3:0:0:
325,71,123320,2,0,P|378:53|436:70,1,116.999994644165,8|8,3:3|3:3,3:3:0:0:
256,272,123560,6,0,B|242:297|214:301|214:301|235:321|229:349|229:349|256:336|281:349|281:349|275:321|296:301|296:301|268:297|256:272,1,251.999992309571,4|8,2:3|3:3,3:3:0:0:
256,272,123920,1,0,3:3:0:0:
77,384,124040,2,0,B|101:378|128:345|128:345|85:351|69:370,1,125.999996154785,2|0,2:2|3:3,3:3:0:0:
435,384,124280,2,0,B|411:378|384:345|384:345|427:351|443:370,1,125.999996154785,8|0,3:3|3:3,3:3:0:0:
256,272,124520,6,0,B|269:297|297:301|297:301|276:321|282:349|282:349|256:336|230:349|230:349|236:321|215:301|215:301|243:297|256:272,1,251.999992309571,2|8,2:2|3:3,3:3:0:0:
256,272,124880,1,0,3:3:0:0:
200,98,125000,2,0,B|177:80|167:52|177:40|171:24|158:14|143:20|132:32|139:48|151:58|167:52,1,125.999996154785,2|0,2:2|3:3,3:3:0:0:
348,206,125240,2,0,B|377:207|401:223|400:239|414:248|430:249|439:235|440:219|426:210|410:209|401:223,1,125.999996154785,8|0,3:3|3:3,3:3:0:0:
165,206,125480,2,0,B|140:222|111:223|102:209|86:210|72:219|73:235|82:249|98:248|112:239|111:223,1,125.999996154785,2|0,2:2|3:3,3:3:0:0:
313,98,125720,2,0,B|322:70|345:52|361:58|373:48|380:32|369:20|354:14|341:24|335:40|345:52,1,125.999996154785,8|0,3:3|3:3,3:3:0:0:
256,272,125960,2,0,B|264:300|256:327|240:332|236:348|240:364|256:368|272:364|276:348|272:332|256:327,2,125.999996154785,2|0|0,2:2|3:3|3:3,3:3:0:0:
256,176,126200,5,8,3:3:0:0:
256,176,126320,1,0,3:3:0:0:
256,176,126440,2,0,B|256:120|224:88|224:88|256:56|256:0,1,188.999994232178,2|0,2:2|3:3,3:3:0:0:
331,132,126680,5,8,3:3:0:0:
331,132,126760,1,0,3:3:0:0:
331,132,126840,1,0,3:3:0:0:
331,132,126920,2,0,B|349:100|341:71|341:71|370:63|388:32,1,125.999996154785,2|0,2:2|3:3,3:3:0:0:
407,176,127160,2,0,B|422:166|426:152|426:152|441:156|456:147,1,62.9999980773926,8|0,3:3|3:3,3:3:0:0:
406,262,127280,2,0,B|423:260|434:250|434:250|445:261|462:261,1,62.9999980773926,8|0,3:3|3:3,3:3:0:0:
332,306,127400,6,0,P|225:344|173:236,1,251.999992309571,4|8,2:3|3:3,3:3:0:0:
330,218,127760,1,0,3:3:0:0:
257,262,127880,2,0,P|247:194|202:156,1,125.999996154785,2|0,2:2|3:3,3:3:0:0:
67,290,128120,2,0,P|135:280|173:235,1,125.999996154785,8|0,3:3|3:3,3:3:0:0:
41,96,128360,2,0,P|50:164|96:202,1,125.999996154785,2|0,2:2|3:3,3:3:0:0:
235,73,128600,2,0,P|167:83|129:128,3,125.999996154785,8|0|0|2,3:3|3:3|3:3|2:2,3:3:0:0:
235,73,128960,1,0,3:3:0:0:
232,308,129080,6,0,B|266:288|295:289|295:289|308:264|342:244,1,125.999996154785,8|0,3:3|3:3,3:3:0:0:
277,144,129320,2,0,B|242:164|213:162|213:162|200:187|166:208,1,125.999996154785,2|0,2:2|3:3,3:3:0:0:
363,163,129560,1,8,3:3:0:0:
148,287,129680,1,0,3:3:0:0:
336,247,129800,2,0,B|316:213|317:184|317:184|292:171|272:137,1,125.999996154785,2|0,2:2|3:3,3:3:0:0:
172,203,130040,2,0,B|192:236|191:266|191:266|216:279|236:313,1,125.999996154785,8|0,3:3|3:3,3:3:0:0:
282,33,130280,6,0,B|217:72|192:119|192:119|137:118|73:156,1,251.999992309571,6|8,2:3|3:3,3:3:0:0:
254,226,130640,1,2,2:2:0:0:
61,263,130760,2,0,P|112:227|171:202,1,125.999996154785,2|0,2:2|3:3,3:3:0:0:
380,75,131000,2,0,P|323:102|273:142,1,125.999996154785,8|8,3:3|3:3,3:3:0:0:
254,226,131240,6,0,B|253:249|233:261|233:261|253:273|254:296|254:296|274:285|294:296|294:296|295:273|315:261|315:261|295:249|294:226|294:226|274:236|254:226|254:226,1,251.999992309571,4|8,2:3|3:3,3:3:0:0:
257,227,131600,1,0,3:3:0:0:
169,359,131720,2,0,P|131:307|46:281,1,125.999996154785,2|0,2:2|3:3,3:3:0:0:
385,359,131960,2,0,P|423:307|508:281,1,125.999996154785,8|0,3:3|3:3,3:3:0:0:
255,227,132200,6,0,B|208:192|256:160|336:192|256:288|256:384,1,251.999992309571,2|8,2:2|3:3,3:3:0:0:
255,376,132560,1,0,3:3:0:0:
256,96,132680,2,0,B|248:88|240:80|232:64|232:56|240:48|240:48|248:48|248:48|256:56|263:48|263:48|271:48|271:48|280:56|280:64|271:80|263:88|256:96,1,125.999996154785,2|0,2:2|3:3,3:3:0:0:
339,240,132920,2,0,B|350:237|360:234|378:235|385:239|388:250|388:250|384:257|384:257|373:260|376:270|376:270|372:277|372:277|361:280|354:276|344:261|342:250|339:240,1,125.999996154785,8|0,3:3|3:3,3:3:0:0:
172,239,133160,2,0,B|169:250|167:261|157:276|150:280|139:277|139:277|135:270|135:270|138:260|127:257|127:257|123:250|123:250|126:239|133:235|151:234|161:237|172:239,1,125.999996154785,2|0,2:2|3:3,3:3:0:0:
339,144,133400,2,0,B|342:133|344:122|354:107|361:103|372:106|372:106|376:113|376:113|373:124|384:126|384:126|388:133|388:133|385:144|378:148|360:149|350:146|339:144,1,125.999996154785,8|0,3:3|3:3,3:3:0:0:
172,144,133640,2,0,B|161:146|151:149|133:148|126:144|123:133|123:133|127:126|127:126|138:124|135:113|135:113|139:106|139:106|150:103|157:107|167:122|169:133|172:144,2,125.999996154785,2|0|0,2:2|3:3|3:3,3:3:0:0:
256,192,133880,1,8,3:3:0:0:
256,192,134000,1,0,3:3:0:0:
256,192,134120,5,2,2:2:0:0:
256,205,134180,1,0,3:3:0:0:
256,219,134240,1,0,3:3:0:0:
256,232,134300,1,0,3:3:0:0:
256,246,134360,2,0,L|256:312,3,62.9999980773926,8|0|0|0,3:3|3:3|3:3|3:3,3:3:0:0:
308,364,134600,2,0,P|256:328|204:364,1,125.999996154785,2|0,2:2|3:3,3:3:0:0:
332,342,134840,2,0,L|332:278,1,62.9999980773926,8|0,3:3|3:3,3:3:0:0:
180,342,134960,2,0,L|180:279,1,62.9999980773926,8|0,3:3|3:3,3:3:0:0:
256,384,135080,6,0,B|256:304|248:256|256:224|280:216|288:192|280:168|256:160|232:168|224:192|232:216|256:224|256:192,1,251.999992309571,4|8,2:3|3:3,3:3:0:0:
256,192,135440,1,0,3:3:0:0:
339,240,135560,2,0,B|367:247|386:267|383:283|394:295|410:299|422:288|426:272|414:260|399:256|386:267,1,125.999996154785,2|0,2:2|3:3,3:3:0:0:
256,96,135800,2,0,B|248:68|255:41|271:35|276:19|271:3|256:0|240:4|236:19|240:36|255:41,1,125.999996154785,8|0,3:3|3:3,3:3:0:0:
172,239,136040,2,0,B|152:260|125:267|112:256|97:260|85:272|89:287|101:299|117:295|128:283|125:267,1,125.999996154785,2|0,2:2|3:3,3:3:0:0:
339,144,136280,5,8,3:3:0:0:
339,144,136360,1,0,3:3:0:0:
338,144,136440,1,0,3:3:0:0:
339,144,136520,2,0,B|359:123|386:116|399:127|414:123|426:111|422:96|410:84|394:88|383:100|386:116,1,125.999996154785,2|0,2:2|3:3,3:3:0:0:
172,144,136760,2,0,B|144:136|125:116|128:100|117:88|101:84|89:96|85:111|97:123|112:127|125:116,1,125.999996154785,8|0,3:3|3:3,3:3:0:0:
339,240,137000,6,0,B|356:235|372:230|400:232|411:238|415:255|415:255|409:266|409:266|392:270|397:287|397:287|391:298|391:298|374:303|363:296|348:273|343:256|339:240,1,188.999994232178,4|0,2:3|3:3,3:3:0:0:
256,96,137240,2,0,B|243:83|231:71|218:46|218:34|231:21|231:21|243:21|243:21|256:34|268:21|268:21|280:21|280:21|293:34|293:46|280:71|268:83|256:96,1,188.999994232178,4|0,2:3|3:3,3:3:0:0:
172,240,137480,2,0,B|168:256|163:273|148:296|137:303|120:298|120:298|114:287|114:287|119:270|102:266|102:266|96:255|96:255|100:238|111:232|139:230|155:235|172:240,1,188.999994232178,4|0,2:3|3:3,3:3:0:0:
339,144,137720,2,0,B|343:127|348:110|363:87|374:80|391:85|391:85|397:96|397:96|392:113|409:117|409:117|415:128|415:128|411:145|400:151|372:153|356:148|339:144,1,188.999994232178,4|0,2:3|3:3,3:3:0:0:
172,144,137960,2,0,B|155:148|139:153|111:151|100:145|96:128|96:128|102:117|102:117|119:113|114:96|114:96|120:85|120:85|137:80|148:87|163:110|168:127|172:144,1,188.999994232178,4|0,2:3|3:3,3:3:0:0:
256,192,138200,6,0,B|256:272|256:272|248:272|248:272|264:272|264:272|256:272|256:272|256:352,1,188.999994232178,8|2,3:3|2:2,3:3:0:0:
172,240,138440,1,8,3:3:0:0:
339,144,138560,1,0,2:3:0:0:
172,144,138680,1,0,2:3:0:0:
339,240,138800,1,0,2:3:0:0:
256,96,138920,5,4,2:3:0:0:
112,136,169640,6,0,P|172:46|192:205,1,323.999990112305,0|0,3:3|3:3,3:3:0:0:
149,252,170120,2,0,P|189:313|347:172,1,323.999990112305,0|0,3:3|3:3,3:3:0:0:
51,214,170600,2,0,P|152:98|338:143,1,323.999990112305,0|0,3:3|3:3,3:3:0:0:
237,224,171080,5,0,3:3:0:0:
237,159,171160,1,0,3:3:0:0:
293,192,171240,1,0,3:3:0:0:
224,246,171320,5,0,3:3:0:0:
224,138,171400,1,0,3:3:0:0:
318,192,171480,1,0,3:3:0:0:
248,120,185000,6,0,B|240:104|240:104|232:89|255:74|255:74|278:89|270:104|270:104|263:120,1,107.999996704102,6|0,2:3|3:3,3:3:0:0:
304,245,185240,2,0,B|319:253|319:253|334:261|325:286|325:286|298:287|295:270|295:270|292:254,1,107.999996704102,4|0,2:3|3:3,3:3:0:0:
185,177,185480,2,0,B|168:179|168:179|151:182|144:156|144:156|165:139|177:151|177:151|189:163,1,107.999996704102,4|0,2:3|3:3,3:3:0:0:
322,162,185720,2,0,B|333:150|333:150|345:138|367:155|367:155|359:181|343:178|343:178|326:176,1,107.999996704102,4|0,2:3|3:3,3:3:0:0:
220,254,185960,2,0,B|217:271|217:271|214:288|187:287|187:287|178:261|193:253|193:253|207:246,1,107.999996704102,6|0,2:3|3:3,3:3:0:0:
256,104,186200,5,8,3:3:0:0:
307,262,186320,1,8,3:3:0:0:
172,165,186440,1,8,3:3:0:0:
339,165,186560,1,8,3:3:0:0:
204,262,186680,1,8,3:3:0:0:
256,192,186800,1,0,3:3:0:0:
256,104,186920,6,0,B|231:79|231:79|240:65|272:65|280:79|280:79|256:104,1,125.999996154785,6|0,2:3|3:3,3:3:0:0:
307,262,187160,2,0,B|341:268|341:268|342:284|316:303|302:296|302:296|307:262,1,125.999996154785,4|0,2:3|3:3,3:3:0:0:
172,165,187400,2,0,B|141:181|141:181|130:168|140:137|156:134|156:134|172:165,1,125.999996154785,4|0,2:3|3:3,3:3:0:0:
339,165,187640,2,0,B|355:133|355:133|371:137|381:168|370:180|370:180|339:165,1,125.999996154785,4|0,2:3|3:3,3:3:0:0:
204,262,187880,2,0,B|210:297|210:297|195:303|169:284|170:268|170:268|204:262,1,125.999996154785,6|0,2:3|3:3,3:3:0:0:
256,100,188120,5,8,3:3:0:0:
310,266,188240,1,8,3:3:0:0:
168,163,188360,1,8,3:3:0:0:
343,163,188480,1,8,3:3:0:0:
202,266,188600,1,8,3:3:0:0:
256,192,188720,1,0,3:3:0:0:
256,100,188840,6,0,B|232:61|232:61|248:52|256:37|256:37|264:52|280:61|280:61|256:100,1,161.999995056153,6|0,2:3|3:3,3:3:0:0:
310,266,189080,2,0,B|351:283|351:283|343:300|347:317|347:317|330:309|312:312|312:312|310:266,1,161.999995056153,4|0,2:3|3:3,3:3:0:0:
168,163,189320,2,0,B|123:172|123:172|120:154|107:143|107:143|125:139|138:127|138:127|168:163,1,161.999995056153,4|0,2:3|3:3,3:3:0:0:
343,163,189560,2,0,B|372:129|372:129|386:141|403:143|403:143|391:156|387:174|387:174|343:163,1,161.999995056153,4|0,2:3|3:3,3:3:0:0:
202,266,189800,2,0,B|197:311|197:311|179:308|164:317|164:317|166:299|159:282|159:282|202:266,1,161.999995056153,6|0,2:3|3:3,3:3:0:0:
256,192,190040,1,0,2:2:0:0:
256,192,190160,1,0,2:2:0:0:
256,192,190280,6,0,B|226:161|219:139|226:115|212:94|205:79|205:79|196:63|205:49|220:41|234:48|256:70|256:70|279:48|294:41|309:48|317:63|309:78|309:78|302:94|287:115|295:138|287:161|276:153|295:139|319:139|336:118|348:106|348:106|360:95|377:97|388:109|386:126|371:153|371:153|399:168|412:180|409:197|398:208|381:207|381:207|364:204|337:196|319:210|295:210|299:198|319:211|325:234|350:243|366:252|366:252|381:259|383:276|376:290|359:293|327:288|327:288|322:320|315:334|299:337|284:330|281:313|281:313|278:297|277:270|257:255|250:233|264:233|256:255|237:270|236:297|233:313|233:313|230:330|215:337|199:334|192:320|186:287|186:287|155:293|138:290|131:276|133:259|148:252|148:252|163:243|189:234|195:211|215:198|219:210|195:210|177:196|150:204|133:207|133:207|116:208|105:197|102:180|115:168|143:154|143:154|128:126|126:109|137:97|154:95|166:106|166:106|178:118|194:139|219:139,1,1584,8|0,3:1|3:3,3:3:0:0:
