osu file format v14

[General]
AudioFilename: audio-1.mp3
AudioLeadIn: 0
PreviewTime: 100910
Countdown: 0
SampleSet: Soft
StackLeniency: 0.7
Mode: 3
LetterboxInBreaks: 0
SpecialStyle: 0
WidescreenStoryboard: 1

[Editor]
DistanceSpacing: 1
BeatDivisor: 3
GridSize: 4
TimelineZoom: 1.8

[Metadata]
Title:Duck Apple
TitleUnicode:Duck Apple
Artist:a_hisa
ArtistUnicode:a_hisa
Creator:Daeng Simatta
Version:Lisie's Hyper
Source:
Tags:Lisieux- Envory Single Collection Hallowen Gabba Core
BeatmapID:1970635
BeatmapSetID:943605

[Difficulty]
HPDrainRate:7.5
CircleSize:4
OverallDifficulty:7.5
ApproachRate:5
SliderMultiplier:1.4
SliderTickRate:1

[Events]
//Background and Video events
0,0,"Hallowen.jpg",0,0
//Break Periods
2,79510,88910
//Storyboard Layer 0 (Background)
//Storyboard Layer 1 (Fail)
//Storyboard Layer 2 (Pass)
//Storyboard Layer 3 (Foreground)
//Storyboard Sound Samples
Sample,29560,0,"soft-hitclap.wav",70
Sample,78160,0,"soft-hitwhistle.wav",0
Sample,98610,0,"LR_Snare Low Wet.wav",70
Sample,98910,0,"LR_Snare Low Wet.wav",70
Sample,99210,0,"LR_Snare Low Wet.wav",70
Sample,99510,0,"LR_Snare Low Wet.wav",70
Sample,110010,0,"soft-hitwhistle.wav",0
Sample,118947,0,"soft-hitwhistle.wav",0
Sample,118985,0,"soft-hitwhistle.wav",0
Sample,119022,0,"soft-hitwhistle.wav",0
Sample,119547,0,"soft-hitwhistle.wav",0
Sample,119585,0,"soft-hitwhistle.wav",0
Sample,119622,0,"soft-hitwhistle.wav",0

[TimingPoints]
110,300,4,2,1,70,1,0
60110,-100,4,2,1,70,0,1
69410,-100,4,2,1,70,0,0
69710,-100,4,2,1,70,0,1
79310,-100,4,2,1,70,0,0
100910,-100,4,2,1,70,0,1
110210,-100,4,2,1,70,0,0
110510,-100,4,2,1,70,0,1
120110,-100,4,2,1,70,0,0

[HitObjects]
64,192,110,5,0,0:0:0:0:
448,192,110,1,0,0:0:0:0:
192,192,410,1,0,0:0:0:0:
320,192,710,1,0,0:0:0:0:
448,192,710,1,0,0:0:0:0:
192,192,1010,1,0,0:0:0:0:
64,192,1310,128,0,1910:0:0:0:0:
448,192,1310,1,0,0:0:0:0:
192,192,1910,1,0,0:0:0:0:
448,192,1910,128,0,2510:0:0:0:0:
64,192,2510,1,0,0:0:0:0:
320,192,2510,1,0,0:0:0:0:
192,192,2810,1,0,0:0:0:0:
320,192,3110,1,0,0:0:0:0:
448,192,3110,1,0,0:0:0:0:
192,192,3410,1,0,0:0:0:0:
64,192,3710,1,0,0:0:0:0:
448,192,3710,128,0,4310:0:0:0:0:
64,192,4310,128,0,4910:0:0:0:0:
320,192,4310,1,0,0:0:0:0:
192,192,4910,1,0,0:0:0:0:
448,192,4910,1,0,0:0:0:0:
320,192,5210,1,0,0:0:0:0:
64,192,5510,1,0,0:0:0:0:
192,192,5510,1,0,0:0:0:0:
320,192,5810,1,0,0:0:0:0:
64,192,6110,128,0,6710:0:0:0:0:
448,192,6110,1,0,0:0:0:0:
192,192,6710,1,0,0:0:0:0:
448,192,6710,128,0,7310:0:0:0:0:
64,192,7310,1,0,0:0:0:0:
320,192,7310,1,0,0:0:0:0:
192,192,7610,1,0,0:0:0:0:
320,192,7910,1,0,0:0:0:0:
448,192,7910,1,0,0:0:0:0:
192,192,8210,1,0,0:0:0:0:
64,192,8510,1,0,0:0:0:0:
448,192,8510,128,0,9110:0:0:0:0:
64,192,9110,128,0,9710:0:0:0:0:
320,192,9110,1,0,0:0:0:0:
320,192,9710,1,8,0:0:0:0:
448,192,9710,1,0,0:0:0:70:LR_CymbalG.wav
192,192,9860,1,0,0:0:0:0:
64,192,10010,1,0,0:0:0:0:
320,192,10160,1,0,0:0:0:0:
192,192,10310,1,0,0:0:0:0:
448,192,10460,1,0,0:0:0:0:
320,192,10610,1,0,0:0:0:0:
64,192,10760,1,0,0:0:0:0:
448,192,10910,1,0,0:0:0:0:
192,192,11060,1,0,0:0:0:0:
320,192,11210,1,0,0:0:0:0:
64,192,11360,1,0,0:0:0:0:
448,192,11510,1,0,0:0:0:0:
192,192,11660,1,0,0:0:0:0:
320,192,11810,1,0,0:0:0:0:
64,192,11960,1,0,0:0:0:0:
320,192,12110,1,8,0:0:0:0:
448,192,12110,1,4,0:0:0:0:
192,192,12260,1,0,0:0:0:0:
320,192,12410,1,0,0:0:0:0:
448,192,12560,1,0,0:0:0:0:
64,192,12710,1,8,0:0:0:0:
192,192,12710,1,4,0:0:0:0:
320,192,12860,1,0,0:0:0:0:
192,192,13010,1,0,0:0:0:0:
64,192,13160,1,0,0:0:0:0:
320,192,13310,1,8,0:0:0:0:
448,192,13310,1,4,0:0:0:0:
192,192,13460,1,0,0:0:0:0:
64,192,13610,1,8,0:0:0:0:
448,192,13610,1,4,0:0:0:0:
320,192,13760,1,0,0:0:0:0:
64,192,13910,1,8,0:0:0:0:
192,192,13910,1,4,0:0:0:0:
320,192,14060,1,0,0:0:0:0:
192,192,14210,1,0,0:0:0:0:
64,192,14360,1,0,0:0:0:0:
320,192,14510,1,8,0:0:0:0:
448,192,14510,128,0,16910:0:0:0:70:LR_CymbalG.wav
192,192,14660,1,0,0:0:0:0:
64,192,14810,1,0,0:0:0:0:
320,192,14960,1,0,0:0:0:0:
192,192,15110,1,0,0:0:0:0:
64,192,15260,1,0,0:0:0:0:
192,192,15410,1,0,0:0:0:0:
320,192,15560,1,0,0:0:0:0:
64,192,15710,1,0,0:0:0:0:
192,192,15860,1,0,0:0:0:0:
320,192,16010,1,0,0:0:0:0:
64,192,16160,1,0,0:0:0:0:
192,192,16310,1,0,0:0:0:0:
320,192,16460,1,0,0:0:0:0:
64,192,16610,1,0,0:0:0:0:
192,192,16760,1,0,0:0:0:0:
64,192,16910,128,8,17510:0:0:0:0:
320,192,16910,1,4,0:0:0:0:
192,192,17060,1,0,0:0:0:0:
448,192,17210,1,0,0:0:0:0:
320,192,17360,1,0,0:0:0:0:
192,192,17510,1,8,0:0:0:0:
448,192,17510,1,4,0:0:0:0:
320,192,17660,1,0,0:0:0:0:
64,192,17810,1,0,0:0:0:0:
448,192,17960,1,0,0:0:0:0:
64,192,18110,1,8,0:0:0:0:
192,192,18110,1,4,0:0:0:0:
320,192,18260,1,0,0:0:0:0:
64,192,18410,1,8,0:0:0:0:
448,192,18410,1,4,0:0:0:0:
192,192,18560,1,0,0:0:0:0:
320,192,18710,1,8,0:0:0:0:
448,192,18710,1,4,0:0:0:0:
64,192,18810,1,2,0:0:0:0:
192,192,18810,1,0,0:0:0:0:
320,192,18910,1,2,0:0:0:0:
448,192,18910,1,0,0:0:0:0:
64,192,19010,1,2,0:0:0:0:
192,192,19010,1,0,0:0:0:0:
320,192,19110,1,2,0:0:0:0:
448,192,19110,1,0,0:0:0:0:
64,192,19210,1,2,0:0:0:0:
192,192,19210,1,0,0:0:0:0:
320,192,19310,1,2,0:0:0:0:
448,192,19310,1,0,0:0:0:0:
64,192,20210,1,8,0:0:0:0:
448,192,20210,1,4,0:0:0:0:
192,192,20310,1,8,0:0:0:0:
320,192,20310,1,4,0:0:0:0:
64,192,20410,1,8,0:0:0:0:
448,192,20410,1,4,0:0:0:0:
192,192,20510,1,2,0:0:0:0:
320,192,20510,1,4,0:0:0:0:
448,192,20710,1,0,0:0:0:0:
64,192,20810,1,2,0:0:0:0:
192,192,20810,1,0,0:0:0:0:
320,192,21010,1,0,0:0:0:0:
64,192,21110,1,2,0:0:0:0:
448,192,21110,1,0,0:0:0:0:
192,192,21310,1,0,0:0:0:0:
320,192,21410,1,2,0:0:0:0:
448,192,21410,1,0,0:0:0:0:
64,192,21610,1,0,0:0:0:0:
192,192,21710,1,2,0:0:0:0:
448,192,21710,1,0,0:0:0:0:
320,192,21910,1,0,0:0:0:0:
64,192,22010,128,2,22310:0:0:0:0:
192,192,22010,1,0,0:0:0:0:
320,192,22310,1,2,0:0:0:0:
448,192,22310,1,0,0:0:0:0:
64,192,22610,1,2,0:0:0:0:
192,192,22610,128,0,22910:0:0:0:0:
320,192,22810,1,0,0:0:0:0:
64,192,22910,1,2,0:0:0:0:
448,192,22910,1,0,0:0:0:0:
320,192,23110,1,0,0:0:0:0:
64,192,23210,1,2,0:0:0:0:
192,192,23210,1,0,0:0:0:0:
448,192,23410,1,0,0:0:0:0:
192,192,23510,1,2,0:0:0:0:
320,192,23510,1,0,0:0:0:0:
64,192,23710,1,0,0:0:0:0:
320,192,23810,1,2,0:0:0:0:
448,192,23810,1,0,0:0:0:0:
192,192,24010,1,0,0:0:0:0:
64,192,24110,1,2,0:0:0:0:
448,192,24110,1,0,0:0:0:0:
320,192,24310,1,0,0:0:0:0:
192,192,24410,1,2,0:0:0:0:
448,192,24610,1,0,0:0:0:0:
64,192,24710,1,2,0:0:0:0:
320,192,24810,1,0,0:0:0:0:
64,192,24910,1,2,0:0:0:0:
320,192,25010,1,2,0:0:0:0:
192,192,25110,1,0,0:0:0:0:
448,192,25210,1,2,0:0:0:0:
64,192,25310,1,2,0:0:0:0:
192,192,25310,1,0,0:0:0:0:
448,192,25510,1,0,0:0:0:0:
192,192,25610,1,2,0:0:0:0:
320,192,25610,1,0,0:0:0:0:
64,192,25810,1,0,0:0:0:0:
320,192,25910,1,2,0:0:0:0:
448,192,25910,1,0,0:0:0:0:
192,192,26110,1,0,0:0:0:0:
64,192,26210,1,2,0:0:0:0:
448,192,26210,1,0,0:0:0:0:
320,192,26410,1,0,0:0:0:0:
64,192,26510,1,2,0:0:0:0:
192,192,26510,1,0,0:0:0:0:
448,192,26710,1,0,0:0:0:0:
64,192,26810,1,2,0:0:0:0:
320,192,26810,128,0,27110:0:0:0:0:
192,192,27110,1,2,0:0:0:0:
448,192,27110,1,0,0:0:0:0:
64,192,27410,128,2,27710:0:0:0:0:
320,192,27410,1,0,0:0:0:0:
448,192,27610,1,0,0:0:0:0:
192,192,27710,1,2,0:0:0:0:
320,192,27710,1,0,0:0:0:0:
448,192,27910,1,0,0:0:0:0:
64,192,28010,1,2,0:0:0:0:
192,192,28010,1,0,0:0:0:0:
320,192,28210,1,0,0:0:0:0:
192,192,28310,1,2,0:0:0:0:
448,192,28310,1,0,0:0:0:0:
64,192,28510,1,0,0:0:0:0:
320,192,28610,1,2,0:0:0:0:
448,192,28610,1,0,0:0:0:0:
192,192,28810,1,0,0:0:0:70:LR_Snare Low Wet.wav
64,192,28910,1,0,0:0:0:70:soft-hitclap.wav
448,192,28910,1,0,0:0:0:0:
320,192,29010,1,0,0:0:0:70:soft-hitclap.wav
192,192,29110,1,0,0:0:0:70:soft-hitclap.wav
64,192,29210,1,0,0:0:0:70:soft-hitclap.wav
448,192,29210,1,0,0:0:0:0:
320,192,29310,1,0,0:0:0:70:soft-hitclap.wav
192,192,29410,1,0,0:0:0:70:soft-hitclap.wav
64,192,29510,1,0,0:0:0:70:soft-hitclap.wav
448,192,29510,1,0,0:0:0:0:
192,192,29610,1,0,0:0:0:70:soft-hitclap.wav
320,192,29710,1,0,0:0:0:70:soft-hitclap.wav
64,192,29810,1,0,0:0:0:70:soft-hitclap.wav
448,192,29810,1,0,0:0:0:0:
192,192,29910,1,0,0:0:0:70:soft-hitclap.wav
320,192,30010,1,0,0:0:0:70:soft-hitclap.wav
64,192,30110,128,2,30410:0:0:0:0:
448,192,30110,1,0,0:0:0:70:LR_CymbalG.wav
192,192,30410,1,2,0:0:0:0:
320,192,30410,1,0,0:0:0:0:
320,192,30710,1,2,0:0:0:0:
448,192,30710,1,0,0:0:0:0:
64,192,30910,1,0,0:0:0:0:
192,192,31010,1,2,0:0:0:0:
320,192,31010,1,0,0:0:0:0:
448,192,31210,1,0,0:0:0:0:
64,192,31310,1,2,0:0:0:0:
192,192,31310,1,0,0:0:0:0:
192,192,31610,1,2,0:0:0:0:
448,192,31610,1,0,0:0:0:0:
320,192,31810,1,0,0:0:0:0:
64,192,31910,1,2,0:0:0:0:
192,192,31910,1,0,0:0:0:0:
448,192,32110,1,0,0:0:0:0:
64,192,32210,1,2,0:0:0:0:
320,192,32210,1,0,0:0:0:0:
192,192,32410,1,0,0:0:0:0:
320,192,32510,1,2,0:0:0:0:
448,192,32510,128,0,32810:0:0:0:0:
192,192,32810,1,2,0:0:0:0:
320,192,32810,1,0,0:0:0:0:
64,192,33110,1,2,0:0:0:0:
192,192,33110,1,0,0:0:0:0:
320,192,33310,1,0,0:0:0:0:
192,192,33410,1,2,0:0:0:0:
448,192,33410,1,0,0:0:0:0:
64,192,33610,1,0,0:0:0:0:
192,192,33710,1,2,0:0:0:0:
320,192,33710,1,0,0:0:0:0:
64,192,34010,1,2,0:0:0:0:
448,192,34010,1,0,0:0:0:0:
320,192,34210,1,0,0:0:0:0:
64,192,34310,1,2,0:0:0:0:
192,192,34310,1,0,0:0:0:0:
320,192,34510,1,2,0:0:0:0:
448,192,34510,1,0,0:0:0:0:
64,192,34610,1,2,0:0:0:0:
192,192,34610,1,0,0:0:0:0:
320,192,34685,1,0,0:0:0:0:
64,192,34810,1,2,0:0:0:0:
192,192,34810,1,0,0:0:0:0:
320,192,34910,128,2,35210:0:0:0:0:
448,192,34910,1,0,0:0:0:0:
64,192,35210,1,2,0:0:0:0:
192,192,35210,1,0,0:0:0:0:
320,192,35510,1,2,0:0:0:0:
448,192,35510,1,0,0:0:0:0:
64,192,35710,1,0,0:0:0:0:
192,192,35810,1,2,0:0:0:0:
320,192,35810,1,0,0:0:0:0:
448,192,36010,1,0,0:0:0:0:
64,192,36110,1,2,0:0:0:0:
320,192,36110,1,0,0:0:0:0:
64,192,36410,1,2,0:0:0:0:
192,192,36410,1,0,0:0:0:0:
320,192,36710,1,2,0:0:0:0:
448,192,36710,1,0,0:0:0:0:
192,192,37010,1,2,0:0:0:0:
320,192,37010,1,0,0:0:0:0:
64,192,37210,1,0,0:0:0:0:
320,192,37310,128,2,37610:0:0:0:0:
448,192,37310,1,0,0:0:0:0:
64,192,37610,1,2,0:0:0:0:
192,192,37610,1,0,0:0:0:0:
192,192,37910,1,2,0:0:0:0:
320,192,37910,1,0,0:0:0:0:
448,192,38110,1,0,0:0:0:0:
64,192,38210,1,2,0:0:0:0:
320,192,38210,1,0,0:0:0:0:
192,192,38410,1,0,0:0:0:0:
320,192,38510,128,2,38810:0:0:0:0:
448,192,38510,1,0,0:0:0:0:
64,192,38810,1,2,0:0:0:0:
448,192,38810,1,0,0:0:0:0:
192,192,39010,1,0,0:0:0:0:
320,192,39110,1,2,0:0:0:0:
448,192,39110,1,0,0:0:0:0:
192,192,39210,1,0,0:0:0:0:
64,192,39310,1,2,0:0:0:0:
448,192,39310,1,0,0:0:0:0:
192,192,39410,1,2,0:0:0:0:
320,192,39410,1,0,0:0:0:0:
64,192,39510,1,0,0:0:0:0:
320,192,39610,1,2,0:0:0:0:
448,192,39610,1,0,0:0:0:0:
64,192,39710,1,2,0:0:0:0:
192,192,39710,128,0,40010:0:0:0:70:LR_CymbalG.wav
320,192,40010,1,2,0:0:0:0:
448,192,40010,1,0,0:0:0:0:
64,192,40310,1,2,0:0:0:0:
192,192,40310,1,0,0:0:0:0:
448,192,40510,1,0,0:0:0:0:
192,192,40610,1,2,0:0:0:0:
320,192,40610,1,0,0:0:0:0:
64,192,40810,1,0,0:0:0:0:
320,192,40910,1,2,0:0:0:0:
448,192,40910,1,0,0:0:0:0:
64,192,41210,1,2,0:0:0:0:
320,192,41210,1,0,0:0:0:0:
192,192,41410,1,0,0:0:0:0:
320,192,41510,1,2,0:0:0:0:
448,192,41510,1,0,0:0:0:0:
64,192,41710,1,0,0:0:0:0:
192,192,41810,1,2,0:0:0:0:
448,192,41810,1,0,0:0:0:0:
320,192,42010,1,0,0:0:0:0:
64,192,42110,128,2,42410:0:0:0:0:
192,192,42110,1,0,0:0:0:0:
192,192,42410,1,2,0:0:0:0:
320,192,42410,1,0,0:0:0:0:
320,192,42710,1,2,0:0:0:0:
448,192,42710,1,0,0:0:0:0:
192,192,42910,1,0,0:0:0:0:
64,192,43010,1,2,0:0:0:0:
320,192,43010,1,0,0:0:0:0:
448,192,43210,1,0,0:0:0:0:
192,192,43310,1,2,0:0:0:0:
320,192,43310,1,0,0:0:0:0:
64,192,43610,1,2,0:0:0:0:
448,192,43610,1,0,0:0:0:0:
192,192,43810,1,0,0:0:0:0:
320,192,43910,1,2,0:0:0:0:
448,192,43910,1,0,0:0:0:0:
64,192,44110,1,2,0:0:0:0:
192,192,44110,1,0,0:0:0:0:
320,192,44210,1,2,0:0:0:0:
448,192,44210,1,0,0:0:0:0:
192,192,44285,1,0,0:0:0:0:
320,192,44410,1,2,0:0:0:0:
448,192,44410,1,0,0:0:0:0:
64,192,44510,1,2,0:0:0:0:
192,192,44510,128,0,44810:0:0:0:0:
320,192,44810,1,2,0:0:0:0:
448,192,44810,1,0,0:0:0:0:
64,192,45110,1,2,0:0:0:0:
192,192,45110,1,0,0:0:0:0:
448,192,45310,1,0,0:0:0:0:
192,192,45410,1,2,0:0:0:0:
320,192,45410,1,0,0:0:0:0:
64,192,45610,1,0,0:0:0:0:
192,192,45710,1,2,0:0:0:0:
448,192,45710,1,0,0:0:0:0:
320,192,46010,1,2,0:0:0:0:
448,192,46010,1,0,0:0:0:0:
64,192,46310,1,2,0:0:0:0:
192,192,46310,1,0,0:0:0:0:
192,192,46610,1,2,0:0:0:0:
320,192,46610,1,0,0:0:0:0:
448,192,46810,1,0,0:0:0:0:
64,192,46910,1,2,0:0:0:0:
192,192,46910,128,0,47210:0:0:0:0:
320,192,47210,1,2,0:0:0:0:
448,192,47210,1,0,0:0:0:0:
64,192,47410,1,0,0:0:0:0:
192,192,47510,1,2,0:0:0:0:
320,192,47510,1,0,0:0:0:0:
64,192,47810,1,2,0:0:0:0:
448,192,47810,1,0,0:0:0:0:
320,192,48010,1,0,0:0:0:0:
64,192,48110,1,2,0:0:0:0:
192,192,48110,128,0,48410:0:0:0:0:
64,192,48410,1,2,0:0:0:0:
448,192,48410,1,0,0:0:0:0:
64,192,48710,1,2,0:0:0:0:
192,192,48710,1,0,0:0:0:0:
320,192,48810,1,2,0:0:0:0:
64,192,48910,1,2,0:0:0:0:
448,192,48910,1,0,0:0:0:0:
192,192,49010,1,2,0:0:0:0:
320,192,49010,1,0,0:0:0:0:
448,192,49110,1,2,0:0:0:0:
64,192,49210,1,2,0:0:0:0:
192,192,49210,1,0,0:0:0:0:
320,192,49310,128,2,49610:0:0:0:0:
448,192,49310,1,0,0:0:0:70:LR_CymbalG.wav
64,192,49510,128,0,49610:0:0:0:0:
192,192,49610,1,2,0:0:0:0:
448,192,49610,128,0,49910:0:0:0:0:
320,192,49810,128,0,49910:0:0:0:0:
64,192,49910,128,2,50210:0:0:0:0:
192,192,49910,1,0,0:0:0:0:
448,192,50110,128,0,50210:0:0:0:0:
192,192,50210,1,2,0:0:0:0:
320,192,50210,128,0,50510:0:0:0:0:
64,192,50410,128,0,50510:0:0:0:0:
192,192,50510,128,2,50810:0:0:0:0:
448,192,50510,1,0,0:0:0:0:
320,192,50710,128,0,50810:0:0:0:0:
64,192,50810,1,2,0:0:0:0:
448,192,50810,128,0,51110:0:0:0:0:
192,192,51010,128,0,51110:0:0:0:0:
64,192,51110,128,2,51410:0:0:0:0:
320,192,51110,1,0,0:0:0:0:
192,192,51310,128,0,51410:0:0:0:0:
320,192,51410,1,2,0:0:0:0:
448,192,51410,128,0,51710:0:0:0:0:
64,192,51610,128,0,51710:0:0:0:0:
192,192,51710,128,2,52010:0:0:0:0:
320,192,51710,1,0,0:0:0:0:
448,192,51910,128,0,52010:0:0:0:0:
64,192,52010,1,2,0:0:0:0:
320,192,52010,128,0,52310:0:0:0:0:
192,192,52210,128,0,52310:0:0:0:0:
64,192,52310,128,2,52610:0:0:0:0:
448,192,52310,1,0,0:0:0:0:
320,192,52510,128,0,52610:0:0:0:0:
192,192,52610,1,2,0:0:0:0:
448,192,52610,128,0,52910:0:0:0:0:
320,192,52810,128,0,52910:0:0:0:0:
64,192,52910,1,2,0:0:0:0:
192,192,52910,128,0,53210:0:0:0:0:
448,192,53110,128,0,53210:0:0:0:0:
64,192,53210,1,2,0:0:0:0:
320,192,53210,128,0,53510:0:0:0:0:
192,192,53410,128,0,53510:0:0:0:0:
64,192,53510,128,2,53810:0:0:0:0:
448,192,53510,1,0,0:0:0:0:
320,192,53710,128,0,53810:0:0:0:0:
192,192,53810,128,2,54110:0:0:0:0:
448,192,53810,1,0,0:0:0:0:
64,192,54010,128,0,54110:0:0:0:0:
320,192,54110,1,8,0:0:0:0:
448,192,54110,1,4,0:0:0:0:
64,192,54210,1,8,0:0:0:0:
192,192,54210,1,4,0:0:0:0:
64,192,54310,1,8,0:0:0:0:
192,192,54310,1,4,0:0:0:0:
320,192,54410,1,8,0:0:0:0:
448,192,54410,1,0,0:0:0:0:
64,192,54710,1,8,0:0:0:0:
192,192,54710,1,4,0:0:0:0:
320,192,54810,1,8,0:0:0:0:
448,192,54810,1,4,0:0:0:0:
320,192,54910,1,8,0:0:0:0:
448,192,54910,1,4,0:0:0:0:
64,192,55010,1,8,0:0:0:0:
192,192,55010,1,0,0:0:0:0:
64,192,55310,1,8,0:0:0:0:
448,192,55310,1,4,0:0:0:0:
192,192,55510,1,0,0:0:0:0:
320,192,55610,1,8,0:0:0:0:
448,192,55610,1,4,0:0:0:0:
320,192,55810,1,0,0:0:0:0:
64,192,55910,1,8,0:0:0:0:
192,192,55910,1,4,0:0:0:0:
192,192,56110,1,0,0:0:0:0:
64,192,56210,1,8,0:0:0:0:
448,192,56210,1,4,0:0:0:0:
320,192,56410,1,0,0:0:0:0:
192,192,56510,1,2,0:0:0:0:
448,192,56710,1,0,0:0:0:0:
192,192,56810,1,8,0:0:0:0:
320,192,56810,1,4,0:0:0:0:
64,192,57010,1,0,0:0:0:0:
448,192,57110,1,2,0:0:0:0:
192,192,57310,1,0,0:0:0:0:
320,192,57410,1,8,0:0:0:0:
448,192,57410,1,4,0:0:0:0:
64,192,57610,1,0,0:0:0:0:
192,192,57710,1,8,0:0:0:0:
320,192,57710,1,4,0:0:0:0:
320,192,57910,1,8,0:0:0:0:
448,192,57910,1,4,0:0:0:0:
64,192,58110,1,8,0:0:0:0:
192,192,58110,1,4,0:0:0:0:
192,192,58310,1,8,0:0:0:0:
320,192,58310,1,4,0:0:0:0:
320,192,58510,1,8,0:0:0:0:
448,192,58510,1,4,0:0:0:0:
64,192,58710,1,8,0:0:0:0:
192,192,58710,1,4,0:0:0:0:
64,192,58910,1,8,0:0:0:0:
448,192,58910,1,0,0:0:0:70:LR_CymbalG.wav
320,192,59010,1,0,0:0:0:0:
192,192,59110,1,0,0:0:0:0:
64,192,59210,1,2,0:0:0:0:
448,192,59310,1,0,0:0:0:0:
320,192,59410,1,0,0:0:0:0:
192,192,59510,1,2,0:0:0:0:
320,192,59610,1,2,0:0:0:0:
448,192,59710,1,2,0:0:0:0:
64,192,59810,1,2,0:0:0:0:
192,192,59910,1,2,0:0:0:0:
320,192,60010,1,2,0:0:0:0:
64,192,60110,128,2,60410:0:0:0:0:
448,192,60110,1,0,0:0:0:70:LR_CymbalG.wav
192,192,60310,1,0,0:0:0:0:
320,192,60410,1,2,0:0:0:0:
448,192,60410,1,0,0:0:0:0:
64,192,60610,1,0,0:0:0:0:
192,192,60710,1,2,0:0:0:0:
448,192,60710,1,0,0:0:0:0:
320,192,60910,1,0,0:0:0:0:
64,192,61010,1,2,0:0:0:0:
192,192,61010,1,0,0:0:0:0:
448,192,61210,1,0,0:0:0:0:
192,192,61310,128,2,61610:0:0:0:0:
320,192,61310,1,0,0:0:0:0:
64,192,61510,1,0,0:0:0:0:
320,192,61610,1,2,0:0:0:0:
448,192,61610,1,0,0:0:0:0:
192,192,61810,1,0,0:0:0:0:
64,192,61910,1,2,0:0:0:0:
448,192,61910,1,0,0:0:0:0:
320,192,62110,1,0,0:0:0:0:
64,192,62210,1,2,0:0:0:0:
192,192,62210,1,0,0:0:0:0:
448,192,62410,1,0,0:0:0:0:
192,192,62510,1,2,0:0:0:0:
320,192,62510,128,0,62810:0:0:0:0:
64,192,62710,1,0,0:0:0:0:
192,192,62810,1,2,0:0:0:0:
448,192,62810,1,0,0:0:0:0:
320,192,63110,1,2,0:0:0:0:
448,192,63110,1,0,0:0:0:0:
64,192,63310,1,0,0:0:0:0:
192,192,63310,1,0,0:0:0:0:
320,192,63410,1,2,0:0:0:0:
448,192,63410,1,0,0:0:0:0:
192,192,63610,1,0,0:0:0:0:
64,192,63710,1,2,0:0:0:0:
448,192,63710,128,0,64310:0:0:0:0:
64,192,64010,1,2,0:0:0:0:
320,192,64010,1,0,0:0:0:0:
64,192,64310,1,2,0:0:0:0:
320,192,64310,1,0,0:0:0:0:
192,192,64510,1,2,0:0:0:0:
64,192,64610,1,2,0:0:0:0:
448,192,64610,1,0,0:0:0:0:
320,192,64810,1,2,0:0:0:0:
64,192,64910,1,2,0:0:0:0:
192,192,64910,1,0,0:0:0:0:
448,192,65110,1,0,0:0:0:0:
192,192,65210,1,2,0:0:0:0:
320,192,65210,1,0,0:0:0:0:
64,192,65410,1,0,0:0:0:0:
320,192,65510,1,2,0:0:0:0:
448,192,65510,1,0,0:0:0:0:
192,192,65710,1,0,0:0:0:0:
64,192,65810,1,2,0:0:0:0:
448,192,65810,1,0,0:0:0:0:
320,192,66010,1,0,0:0:0:0:
64,192,66110,1,2,0:0:0:0:
192,192,66110,1,0,0:0:0:0:
448,192,66310,1,0,0:0:0:0:
192,192,66410,1,2,0:0:0:0:
320,192,66410,1,0,0:0:0:0:
64,192,66610,1,0,0:0:0:0:
192,192,66710,1,2,0:0:0:0:
448,192,66710,1,0,0:0:0:0:
320,192,66910,1,0,0:0:0:0:
64,192,67010,1,2,0:0:0:0:
448,192,67010,1,0,0:0:0:0:
192,192,67210,1,0,0:0:0:0:
320,192,67310,128,2,67510:0:0:0:0:
448,192,67310,1,0,0:0:0:0:
64,192,67610,1,2,0:0:0:0:
192,192,67610,128,0,67810:0:0:0:0:
64,192,67910,1,2,0:0:0:0:
448,192,67910,128,0,68210:0:0:0:0:
320,192,68110,1,0,0:0:0:0:
64,192,68210,128,2,68510:0:0:0:0:
192,192,68210,1,0,0:0:0:0:
320,192,68410,1,0,0:0:0:0:
192,192,68510,1,2,0:0:0:0:
448,192,68510,128,0,68810:0:0:0:0:
64,192,68810,128,2,69110:0:0:0:0:
320,192,68810,1,0,0:0:0:0:
448,192,69010,1,0,0:0:0:0:
192,192,69110,1,2,0:0:0:0:
320,192,69110,1,0,0:0:0:0:
448,192,69210,1,2,0:0:0:0:
64,192,69310,1,2,0:0:0:0:
192,192,69410,1,2,0:0:0:0:
320,192,69510,1,2,0:0:0:0:
192,192,69610,1,2,0:0:0:0:
64,192,69710,1,2,0:0:0:0:
448,192,69710,128,0,70010:0:0:0:70:LR_CymbalG.wav
320,192,69910,1,0,0:0:0:0:
64,192,70010,1,2,0:0:0:0:
192,192,70010,1,0,0:0:0:0:
448,192,70210,1,0,0:0:0:0:
64,192,70310,1,2,0:0:0:0:
320,192,70310,1,0,0:0:0:0:
192,192,70510,1,0,0:0:0:0:
320,192,70610,1,2,0:0:0:0:
448,192,70610,1,0,0:0:0:0:
64,192,70810,1,0,0:0:0:0:
192,192,70910,1,2,0:0:0:0:
320,192,70910,128,0,71210:0:0:0:0:
448,192,71110,1,0,0:0:0:0:
64,192,71210,1,2,0:0:0:0:
192,192,71210,1,0,0:0:0:0:
320,192,71410,1,0,0:0:0:0:
64,192,71510,1,2,0:0:0:0:
448,192,71510,1,0,0:0:0:0:
192,192,71710,1,0,0:0:0:0:
320,192,71810,1,2,0:0:0:0:
448,192,71810,1,0,0:0:0:0:
64,192,72010,1,0,0:0:0:0:
192,192,72110,128,2,72410:0:0:0:0:
320,192,72110,1,0,0:0:0:0:
448,192,72310,1,0,0:0:0:0:
64,192,72410,1,2,0:0:0:0:
320,192,72410,1,0,0:0:0:0:
64,192,72710,1,2,0:0:0:0:
192,192,72710,1,0,0:0:0:0:
320,192,72910,1,0,0:0:0:0:
448,192,72910,1,0,0:0:0:0:
64,192,73010,1,2,0:0:0:0:
192,192,73010,1,0,0:0:0:0:
320,192,73210,1,0,0:0:0:0:
64,192,73310,128,2,73910:0:0:0:0:
448,192,73310,1,0,0:0:0:0:
192,192,73610,1,2,0:0:0:0:
448,192,73610,1,0,0:0:0:0:
192,192,73910,1,2,0:0:0:0:
448,192,73910,1,0,0:0:0:0:
320,192,74110,1,2,0:0:0:0:
64,192,74210,1,2,0:0:0:0:
448,192,74210,1,0,0:0:0:0:
192,192,74410,1,2,0:0:0:0:
320,192,74510,1,2,0:0:0:0:
448,192,74510,1,0,0:0:0:0:
64,192,74710,1,0,0:0:0:0:
192,192,74810,1,2,0:0:0:0:
320,192,74810,1,0,0:0:0:0:
448,192,75010,1,0,0:0:0:0:
64,192,75110,1,2,0:0:0:0:
192,192,75110,1,0,0:0:0:0:
320,192,75310,1,0,0:0:0:0:
64,192,75410,1,2,0:0:0:0:
448,192,75410,1,0,0:0:0:0:
192,192,75610,1,0,0:0:0:0:
320,192,75710,1,2,0:0:0:0:
448,192,75710,1,0,0:0:0:0:
64,192,75910,1,0,0:0:0:0:
192,192,76010,1,2,0:0:0:0:
320,192,76010,1,0,0:0:0:0:
448,192,76210,1,0,0:0:0:0:
64,192,76310,1,2,0:0:0:0:
320,192,76310,1,0,0:0:0:0:
192,192,76510,1,0,0:0:0:0:
64,192,76610,1,2,0:0:0:0:
448,192,76610,1,0,0:0:0:0:
320,192,76810,1,0,0:0:0:0:
64,192,76910,1,2,0:0:0:0:
192,192,76910,128,0,77110:0:0:0:0:
320,192,77210,128,2,77410:0:0:0:0:
448,192,77210,1,0,0:0:0:0:
64,192,77510,128,2,77810:0:0:0:0:
448,192,77510,1,0,0:0:0:0:
192,192,77710,1,0,0:0:0:0:
320,192,77810,1,2,0:0:0:0:
448,192,77810,128,0,78110:0:0:0:0:
64,192,78010,1,0,0:0:0:0:
192,192,78110,1,2,0:0:0:0:
320,192,78210,1,2,0:0:0:0:
448,192,78310,1,2,0:0:0:0:
64,192,78410,1,2,0:0:0:0:
192,192,78510,1,2,0:0:0:0:
320,192,78610,1,2,0:0:0:0:
64,192,78710,1,2,0:0:0:0:
448,192,78710,1,0,0:0:0:0:
320,192,78810,1,2,0:0:0:0:
192,192,78910,1,2,0:0:0:0:
64,192,79010,1,2,0:0:0:0:
448,192,79010,1,0,0:0:0:0:
320,192,79110,1,2,0:0:0:0:
192,192,79210,1,2,0:0:0:0:
64,192,79310,1,8,0:0:0:0:
448,192,79310,1,0,0:0:0:70:LR_CymbalG.wav
320,192,90110,5,10,0:0:0:0:
448,192,90110,1,4,0:0:0:0:
192,192,90310,1,0,0:0:0:0:
64,192,90410,1,0,0:0:0:70:LR_Clap kick.wav
320,192,90610,1,0,0:0:0:0:
192,192,90710,1,0,0:0:0:70:LR_Clap kick.wav
448,192,90910,1,0,0:0:0:0:
320,192,91010,1,0,0:0:0:70:LR_Clap kick.wav
64,192,91210,1,2,0:0:0:0:
192,192,91210,1,0,0:0:0:0:
320,192,91310,1,8,0:0:0:0:
448,192,91310,1,4,0:0:0:0:
64,192,91510,1,0,0:0:0:0:
320,192,91610,1,0,0:0:0:70:LR_Clap kick.wav
192,192,91810,1,0,0:0:0:0:
448,192,91910,1,0,0:0:0:70:LR_Clap kick.wav
64,192,92110,1,0,0:0:0:0:
320,192,92210,1,0,0:0:0:70:LR_Clap kick.wav
192,192,92410,1,2,0:0:0:0:
448,192,92410,1,0,0:0:0:0:
64,192,92510,1,8,0:0:0:0:
320,192,92510,1,4,0:0:0:0:
448,192,92710,1,0,0:0:0:0:
192,192,92810,1,0,0:0:0:70:LR_Clap kick.wav
320,192,93010,1,0,0:0:0:0:
64,192,93110,1,0,0:0:0:70:LR_Clap kick.wav
448,192,93310,1,0,0:0:0:0:
192,192,93410,1,0,0:0:0:70:LR_Clap kick.wav
64,192,93610,1,2,0:0:0:0:
320,192,93610,1,0,0:0:0:0:
192,192,93710,1,8,0:0:0:0:
448,192,93710,1,4,0:0:0:0:
64,192,93910,1,0,0:0:0:0:
448,192,94010,1,0,0:0:0:70:LR_Snare Low Wet.wav
320,192,94210,1,0,0:0:0:0:
64,192,94310,1,10,0:0:0:0:
192,192,94310,1,4,0:0:0:0:
320,192,94410,1,0,0:0:0:0:
448,192,94510,1,0,0:0:0:0:
64,192,94610,1,10,0:0:0:0:
192,192,94610,1,4,0:0:0:0:
448,192,94710,1,0,0:0:0:0:
320,192,94810,1,0,0:0:0:70:LR_Snare Low Wet.wav
64,192,94910,1,10,0:0:0:0:
192,192,94910,1,4,0:0:0:0:
320,192,95110,1,0,0:0:0:0:
448,192,95210,1,0,0:0:0:70:LR_Snare Low Wet.wav
192,192,95410,1,0,0:0:0:0:
320,192,95510,1,0,0:0:0:70:LR_Snare Low Wet.wav
64,192,95710,1,0,0:0:0:0:
192,192,95810,1,0,0:0:0:70:LR_Snare Low Wet.wav
320,192,96010,1,2,0:0:0:0:
64,192,96110,1,8,0:0:0:0:
448,192,96110,1,4,0:0:0:0:
192,192,96310,1,0,0:0:0:0:
320,192,96410,1,0,0:0:0:70:LR_Snare Low Wet.wav
64,192,96610,1,0,0:0:0:0:
192,192,96710,1,0,0:0:0:70:LR_Snare Low Wet.wav
448,192,96910,1,0,0:0:0:0:
320,192,97010,1,0,0:0:0:70:LR_Snare Low Wet.wav
192,192,97210,1,2,0:0:0:0:
64,192,97310,1,8,0:0:0:0:
448,192,97310,1,4,0:0:0:0:
320,192,97510,1,0,0:0:0:0:
192,192,97610,1,0,0:0:0:70:LR_Snare Low Wet.wav
448,192,97810,1,0,0:0:0:0:
192,192,97910,1,10,0:0:0:0:
320,192,97910,1,4,0:0:0:0:
64,192,98110,1,0,0:0:0:0:
192,192,98210,1,0,0:0:0:70:LR_Snare Low Wet.wav
320,192,98410,1,2,0:0:0:0:
64,192,98510,1,8,0:0:0:0:
448,192,98510,1,4,0:0:0:0:
192,192,98710,1,0,0:0:0:70:LR_Snare Low Wet.wav
320,192,98810,1,10,0:0:0:0:
448,192,98810,1,4,0:0:0:0:
64,192,99010,1,0,0:0:0:70:LR_Snare Low Wet.wav
192,192,99110,1,10,0:0:0:0:
320,192,99110,1,4,0:0:0:0:
448,192,99310,1,0,0:0:0:70:LR_Snare Low Wet.wav
64,192,99410,1,10,0:0:0:0:
192,192,99410,1,4,0:0:0:0:
320,192,99610,1,0,0:0:0:70:LR_Snare Low Wet.wav
64,192,99710,1,10,0:0:0:0:
448,192,99710,1,4,0:0:0:0:
64,192,99910,1,10,0:0:0:0:
192,192,99910,1,4,0:0:0:0:
320,192,100110,1,10,0:0:0:0:
448,192,100110,1,4,0:0:0:0:
64,192,100310,1,10,0:0:0:0:
448,192,100310,1,4,0:0:0:0:
192,192,100510,1,10,0:0:0:0:
320,192,100510,1,4,0:0:0:0:
320,192,100710,1,10,0:0:0:0:
448,192,100710,1,4,0:0:0:0:
192,192,100910,128,0,101210:0:0:0:0:
448,192,101110,128,0,101210:0:0:0:0:
64,192,101210,128,8,101510:0:0:0:0:
320,192,101210,1,0,0:0:0:70:LR_CymbalG.wav
192,192,101410,128,0,101510:0:0:0:0:
320,192,101510,1,2,0:0:0:0:
448,192,101510,128,0,101810:0:0:0:0:
64,192,101710,128,0,101810:0:0:0:0:
192,192,101810,128,2,102110:0:0:0:0:
320,192,101810,1,0,0:0:0:0:
448,192,102010,128,0,102110:0:0:0:0:
64,192,102110,1,2,0:0:0:0:
320,192,102110,128,0,102410:0:0:0:0:
192,192,102310,128,0,102410:0:0:0:0:
64,192,102410,128,2,102710:0:0:0:0:
448,192,102410,1,0,0:0:0:0:
320,192,102610,128,0,102710:0:0:0:0:
192,192,102710,1,2,0:0:0:0:
448,192,102710,128,0,103010:0:0:0:0:
320,192,102910,128,0,103010:0:0:0:0:
64,192,103010,128,2,103310:0:0:0:0:
192,192,103010,1,0,0:0:0:0:
448,192,103210,128,0,103310:0:0:0:0:
192,192,103310,1,2,0:0:0:0:
320,192,103310,128,0,103610:0:0:0:0:
64,192,103510,128,0,103610:0:0:0:0:
192,192,103610,128,2,103910:0:0:0:0:
448,192,103610,1,0,0:0:0:0:
320,192,103810,128,0,103910:0:0:0:0:
64,192,103910,1,2,0:0:0:0:
448,192,103910,128,0,104210:0:0:0:0:
192,192,104110,128,0,104210:0:0:0:0:
64,192,104210,128,2,104510:0:0:0:0:
320,192,104210,1,0,0:0:0:0:
192,192,104410,128,0,104510:0:0:0:0:
320,192,104510,128,2,104810:0:0:0:0:
448,192,104510,1,0,0:0:0:0:
64,192,104710,128,0,104810:0:0:0:0:
192,192,104810,128,2,105110:0:0:0:0:
448,192,104810,1,0,0:0:0:0:
320,192,105010,128,0,105110:0:0:0:0:
64,192,105110,1,2,0:0:0:0:
448,192,105110,128,0,105410:0:0:0:0:
192,192,105310,128,0,105410:0:0:0:0:
64,192,105410,1,2,0:0:0:0:
320,192,105410,128,0,105710:0:0:0:0:
448,192,105610,128,0,105710:0:0:0:0:
64,192,105710,1,2,0:0:0:0:
192,192,105710,128,0,106010:0:0:0:0:
448,192,105910,128,0,106010:0:0:0:0:
64,192,106010,128,2,106310:0:0:0:0:
320,192,106010,1,0,0:0:0:0:
192,192,106210,128,0,106310:0:0:0:0:
320,192,106310,1,2,0:0:0:0:
448,192,106310,128,0,106610:0:0:0:0:
64,192,106510,128,0,106610:0:0:0:0:
192,192,106610,128,2,106910:0:0:0:0:
320,192,106610,1,0,0:0:0:0:
448,192,106810,128,0,106910:0:0:0:0:
64,192,106910,1,2,0:0:0:0:
320,192,106910,128,0,107210:0:0:0:0:
192,192,107110,128,0,107210:0:0:0:0:
64,192,107210,128,2,107510:0:0:0:0:
448,192,107210,1,0,0:0:0:0:
320,192,107410,128,0,107510:0:0:0:0:
192,192,107510,1,2,0:0:0:0:
448,192,107510,128,0,107810:0:0:0:0:
320,192,107710,128,0,107810:0:0:0:0:
64,192,107810,128,2,108110:0:0:0:0:
192,192,107810,1,0,0:0:0:0:
448,192,108010,128,0,108110:0:0:0:0:
192,192,108110,1,2,0:0:0:0:
320,192,108110,128,0,108410:0:0:0:0:
64,192,108310,128,0,108410:0:0:0:0:
192,192,108410,128,2,108710:0:0:0:0:
448,192,108410,1,0,0:0:0:0:
320,192,108610,128,0,108710:0:0:0:0:
64,192,108710,1,2,0:0:0:0:
448,192,108710,128,0,109010:0:0:0:0:
192,192,108910,128,0,109010:0:0:0:0:
64,192,109010,128,2,109310:0:0:0:0:
320,192,109010,1,0,0:0:0:0:
192,192,109210,128,0,109310:0:0:0:0:
320,192,109310,128,2,109610:0:0:0:0:
448,192,109310,1,0,0:0:0:0:
64,192,109510,128,0,109610:0:0:0:0:
192,192,109610,128,2,109910:0:0:0:0:
448,192,109610,1,0,0:0:0:0:
320,192,109810,128,0,109910:0:0:0:0:
64,192,109910,1,2,0:0:0:0:
448,192,109910,128,0,110210:0:0:0:0:
320,192,110110,128,2,110210:0:0:0:0:
64,192,110210,1,2,0:0:0:0:
192,192,110210,1,0,0:0:0:0:
320,192,110310,1,2,0:0:0:0:
448,192,110310,1,0,0:0:0:0:
64,192,110410,1,2,0:0:0:0:
192,192,110410,1,0,0:0:0:0:
320,192,110510,128,2,110810:0:0:0:0:
448,192,110510,1,0,0:0:0:70:LR_CymbalG.wav
64,192,110710,1,0,0:0:0:0:
192,192,110810,1,2,0:0:0:0:
448,192,110810,128,0,111110:0:0:0:0:
320,192,111010,1,0,0:0:0:0:
64,192,111110,128,2,111410:0:0:0:0:
192,192,111110,1,0,0:0:0:0:
448,192,111310,1,0,0:0:0:0:
192,192,111410,1,2,0:0:0:0:
320,192,111410,128,0,111710:0:0:0:0:
64,192,111610,1,0,0:0:0:0:
192,192,111710,128,2,112010:0:0:0:0:
448,192,111710,1,0,0:0:0:0:
320,192,111910,1,0,0:0:0:0:
64,192,112010,1,2,0:0:0:0:
448,192,112010,128,0,112310:0:0:0:0:
192,192,112210,1,0,0:0:0:0:
64,192,112310,128,2,112610:0:0:0:0:
320,192,112310,1,0,0:0:0:0:
192,192,112510,1,0,0:0:0:0:
320,192,112610,1,2,0:0:0:0:
448,192,112610,128,0,112910:0:0:0:0:
64,192,112810,1,0,0:0:0:0:
192,192,112910,128,2,113210:0:0:0:0:
320,192,112910,1,0,0:0:0:0:
448,192,113110,1,0,0:0:0:0:
64,192,113210,1,2,0:0:0:0:
320,192,113210,128,0,113510:0:0:0:0:
192,192,113410,1,0,0:0:0:0:
64,192,113510,128,2,113810:0:0:0:0:
448,192,113510,1,0,0:0:0:0:
320,192,113710,1,0,0:0:0:0:
192,192,113810,1,2,0:0:0:0:
448,192,113810,128,0,114110:0:0:0:0:
320,192,114010,1,0,0:0:0:0:
64,192,114110,1,2,0:0:0:0:
192,192,114110,128,0,114410:0:0:0:0:
448,192,114310,1,0,0:0:0:0:
64,192,114410,1,2,0:0:0:0:
320,192,114410,128,0,114710:0:0:0:0:
192,192,114610,1,0,0:0:0:0:
64,192,114710,128,2,115010:0:0:0:0:
448,192,114710,1,0,0:0:0:0:
320,192,114910,1,0,0:0:0:0:
192,192,115010,128,2,115310:0:0:0:0:
448,192,115010,1,0,0:0:0:0:
64,192,115210,1,0,0:0:0:0:
320,192,115310,128,2,115610:0:0:0:0:
448,192,115310,1,0,0:0:0:0:
64,192,115510,1,0,0:0:0:0:
192,192,115610,1,2,0:0:0:0:
448,192,115610,128,0,115910:0:0:0:0:
320,192,115810,1,0,0:0:0:0:
64,192,115910,128,2,116210:0:0:0:0:
192,192,115910,1,0,0:0:0:0:
448,192,116110,1,0,0:0:0:0:
192,192,116210,1,2,0:0:0:0:
320,192,116210,128,0,116510:0:0:0:0:
64,192,116410,1,0,0:0:0:0:
192,192,116510,128,2,116810:0:0:0:0:
448,192,116510,1,0,0:0:0:0:
320,192,116710,1,0,0:0:0:0:
64,192,116810,1,2,0:0:0:0:
448,192,116810,128,0,117110:0:0:0:0:
192,192,117010,1,0,0:0:0:0:
64,192,117110,128,2,117410:0:0:0:0:
320,192,117110,1,0,0:0:0:0:
192,192,117310,1,0,0:0:0:0:
320,192,117410,1,2,0:0:0:0:
448,192,117410,128,0,117710:0:0:0:0:
64,192,117610,1,0,0:0:0:0:
192,192,117710,128,2,118010:0:0:0:0:
320,192,117710,1,0,0:0:0:0:
448,192,117910,1,0,0:0:0:0:
64,192,118010,1,2,0:0:0:0:
320,192,118010,128,0,118310:0:0:0:0:
192,192,118210,1,0,0:0:0:0:
64,192,118310,128,2,118610:0:0:0:0:
448,192,118310,1,0,0:0:0:0:
320,192,118510,1,0,0:0:0:0:
192,192,118610,1,2,0:0:0:0:
448,192,118610,128,0,118910:0:0:0:0:
320,192,118810,1,0,0:0:0:0:
64,192,118910,1,2,0:0:0:0:
192,192,119010,1,0,0:0:0:0:
448,192,119110,1,2,0:0:0:0:
320,192,119210,1,2,0:0:0:0:
64,192,119310,1,2,0:0:0:0:
192,192,119410,1,2,0:0:0:0:
448,192,119510,1,2,0:0:0:0:
320,192,119610,1,0,0:0:0:0:
64,192,119710,1,2,0:0:0:0:
192,192,119810,1,2,0:0:0:0:
448,192,119910,1,2,0:0:0:0:
320,192,120010,1,2,0:0:0:0:
64,192,120110,128,2,121210:0:0:0:0:
192,192,120110,128,0,121210:0:0:0:0:
