osu file format v14

[General]
AudioFilename: audio-1.mp3
AudioLeadIn: 0
PreviewTime: 100910
Countdown: 0
SampleSet: None
StackLeniency: 0.7
Mode: 3
LetterboxInBreaks: 0
SpecialStyle: 0
WidescreenStoryboard: 1

[Editor]
DistanceSpacing: 1
BeatDivisor: 6
GridSize: 4
TimelineZoom: 2

[Metadata]
Title:Duck Apple
TitleUnicode:Duck Apple
Artist:a_hisa
ArtistUnicode:a_hisa
Creator:Daeng Simatta
Version:Hitsound
Source:
Tags:Lisieux- Envory Single Collection Hallowen Gabba Core
BeatmapID:1989180
BeatmapSetID:943605

[Difficulty]
HPDrainRate:5
CircleSize:9
OverallDifficulty:7
ApproachRate:5
SliderMultiplier:1.4
SliderTickRate:1

[Events]
//Background and Video events
0,0,"Hallowen.jpg",0,0
//Break Periods
2,79510,88910
//Storyboard Layer 0 (Background)
//Storyboard Layer 1 (Fail)
//Storyboard Layer 2 (Pass)
//Storyboard Layer 3 (Foreground)
//Storyboard Sound Samples

[TimingPoints]
110,300,4,2,1,70,1,0
60110,-100,4,2,1,70,0,1
69410,-100,4,2,1,70,0,0
69710,-100,4,2,1,70,0,1
79310,-100,4,2,1,70,0,0
100910,-100,4,2,1,70,0,1
110210,-100,4,2,1,70,0,0
110510,-100,4,2,1,70,0,1
120110,-100,4,2,1,70,0,0

[HitObjects]
199,192,9710,5,8,0:0:0:0:
28,192,9710,1,0,0:0:0:70:LR_CymbalG.wav
199,192,12110,5,8,0:0:0:0:
483,192,12110,1,4,0:0:0:0:
199,192,12710,5,8,0:0:0:0:
483,192,12710,1,4,0:0:0:0:
199,192,13310,5,8,0:0:0:0:
483,192,13310,1,4,0:0:0:0:
199,192,13610,5,8,0:0:0:0:
483,192,13610,1,4,0:0:0:0:
199,192,13910,5,8,0:0:0:0:
483,192,13910,1,4,0:0:0:0:
199,192,14510,5,8,0:0:0:0:
28,192,14510,1,0,0:0:0:70:LR_CymbalG.wav
199,192,16910,5,8,0:0:0:0:
483,192,16910,1,4,0:0:0:0:
199,192,17510,5,8,0:0:0:0:
483,192,17510,1,4,0:0:0:0:
199,192,18110,5,8,0:0:0:0:
483,192,18110,1,4,0:0:0:0:
199,192,18410,5,8,0:0:0:0:
483,192,18410,1,4,0:0:0:0:
199,192,18710,5,8,0:0:0:0:
483,192,18710,1,4,0:0:0:0:
256,192,18810,5,2,0:0:0:0:
256,192,18910,5,2,0:0:0:0:
256,192,19010,5,2,0:0:0:0:
256,192,19110,5,2,0:0:0:0:
256,192,19210,5,2,0:0:0:0:
256,192,19310,5,2,0:0:0:0:
199,192,20210,5,8,0:0:0:0:
483,192,20210,1,4,0:0:0:0:
199,192,20310,5,8,0:0:0:0:
483,192,20310,1,4,0:0:0:0:
199,192,20410,5,8,0:0:0:0:
483,192,20410,1,4,0:0:0:0:
256,192,20510,5,2,0:0:0:0:
483,192,20510,1,4,0:0:0:0:
256,192,20810,5,2,0:0:0:0:
256,192,21110,5,2,0:0:0:0:
256,192,21410,5,2,0:0:0:0:
256,192,21710,5,2,0:0:0:0:
256,192,22010,5,2,0:0:0:0:
256,192,22310,5,2,0:0:0:0:
256,192,22610,5,2,0:0:0:0:
256,192,22910,5,2,0:0:0:0:
256,192,23210,5,2,0:0:0:0:
256,192,23510,5,2,0:0:0:0:
256,192,23810,5,2,0:0:0:0:
256,192,24110,5,2,0:0:0:0:
256,192,24410,5,2,0:0:0:0:
256,192,24710,5,2,0:0:0:0:
256,192,24910,5,2,0:0:0:0:
256,192,25010,5,2,0:0:0:0:
256,192,25210,5,2,0:0:0:0:
256,192,25310,5,2,0:0:0:0:
256,192,25610,5,2,0:0:0:0:
256,192,25910,5,2,0:0:0:0:
256,192,26210,5,2,0:0:0:0:
256,192,26510,5,2,0:0:0:0:
256,192,26810,5,2,0:0:0:0:
256,192,27110,5,2,0:0:0:0:
256,192,27410,5,2,0:0:0:0:
256,192,27710,5,2,0:0:0:0:
256,192,28010,5,2,0:0:0:0:
256,192,28310,5,2,0:0:0:0:
256,192,28610,5,2,0:0:0:0:
142,192,28810,1,0,0:0:0:70:LR_Snare Low Wet.wav
199,192,28910,1,0,0:0:0:70:soft-hitclap.wav
199,192,29010,1,0,0:0:0:70:soft-hitclap.wav
199,192,29110,1,0,0:0:0:70:soft-hitclap.wav
199,192,29210,1,0,0:0:0:70:soft-hitclap.wav
199,192,29310,1,0,0:0:0:70:soft-hitclap.wav
199,192,29410,1,0,0:0:0:70:soft-hitclap.wav
199,192,29510,1,0,0:0:0:70:soft-hitclap.wav
199,192,29560,1,0,0:0:0:70:soft-hitclap.wav
199,192,29610,1,0,0:0:0:70:soft-hitclap.wav
199,192,29710,1,0,0:0:0:70:soft-hitclap.wav
199,192,29810,1,0,0:0:0:70:soft-hitclap.wav
199,192,29910,1,0,0:0:0:70:soft-hitclap.wav
199,192,30010,1,0,0:0:0:70:soft-hitclap.wav
256,192,30110,5,2,0:0:0:0:
28,192,30110,1,0,0:0:0:70:LR_CymbalG.wav
256,192,30410,5,2,0:0:0:0:
256,192,30710,5,2,0:0:0:0:
256,192,31010,5,2,0:0:0:0:
256,192,31310,5,2,0:0:0:0:
256,192,31610,5,2,0:0:0:0:
256,192,31910,5,2,0:0:0:0:
256,192,32210,5,2,0:0:0:0:
256,192,32510,5,2,0:0:0:0:
256,192,32810,5,2,0:0:0:0:
256,192,33110,5,2,0:0:0:0:
256,192,33410,5,2,0:0:0:0:
256,192,33710,5,2,0:0:0:0:
256,192,34010,5,2,0:0:0:0:
256,192,34310,5,2,0:0:0:0:
256,192,34510,5,2,0:0:0:0:
256,192,34610,5,2,0:0:0:0:
256,192,34810,5,2,0:0:0:0:
256,192,34910,5,2,0:0:0:0:
256,192,35210,5,2,0:0:0:0:
256,192,35510,5,2,0:0:0:0:
256,192,35810,5,2,0:0:0:0:
256,192,36110,5,2,0:0:0:0:
256,192,36410,5,2,0:0:0:0:
256,192,36710,5,2,0:0:0:0:
256,192,37010,5,2,0:0:0:0:
256,192,37310,5,2,0:0:0:0:
256,192,37610,5,2,0:0:0:0:
256,192,37910,5,2,0:0:0:0:
256,192,38210,5,2,0:0:0:0:
256,192,38510,5,2,0:0:0:0:
256,192,38810,5,2,0:0:0:0:
256,192,39110,5,2,0:0:0:0:
256,192,39310,5,2,0:0:0:0:
256,192,39410,5,2,0:0:0:0:
256,192,39610,5,2,0:0:0:0:
256,192,39710,5,2,0:0:0:0:
28,192,39710,1,0,0:0:0:70:LR_CymbalG.wav
256,192,40010,5,2,0:0:0:0:
256,192,40310,5,2,0:0:0:0:
256,192,40610,5,2,0:0:0:0:
256,192,40910,5,2,0:0:0:0:
256,192,41210,5,2,0:0:0:0:
256,192,41510,5,2,0:0:0:0:
256,192,41810,5,2,0:0:0:0:
256,192,42110,5,2,0:0:0:0:
256,192,42410,5,2,0:0:0:0:
256,192,42710,5,2,0:0:0:0:
256,192,43010,5,2,0:0:0:0:
256,192,43310,5,2,0:0:0:0:
256,192,43610,5,2,0:0:0:0:
256,192,43910,5,2,0:0:0:0:
256,192,44110,5,2,0:0:0:0:
256,192,44210,5,2,0:0:0:0:
256,192,44410,5,2,0:0:0:0:
256,192,44510,5,2,0:0:0:0:
256,192,44810,5,2,0:0:0:0:
256,192,45110,5,2,0:0:0:0:
256,192,45410,5,2,0:0:0:0:
256,192,45710,5,2,0:0:0:0:
256,192,46010,5,2,0:0:0:0:
256,192,46310,5,2,0:0:0:0:
256,192,46610,5,2,0:0:0:0:
256,192,46910,5,2,0:0:0:0:
256,192,47210,5,2,0:0:0:0:
256,192,47510,5,2,0:0:0:0:
256,192,47810,5,2,0:0:0:0:
256,192,48110,5,2,0:0:0:0:
256,192,48410,5,2,0:0:0:0:
256,192,48710,5,2,0:0:0:0:
256,192,48810,5,2,0:0:0:0:
256,192,48910,5,2,0:0:0:0:
256,192,49010,5,2,0:0:0:0:
256,192,49110,5,2,0:0:0:0:
256,192,49210,5,2,0:0:0:0:
256,192,49310,5,2,0:0:0:0:
28,192,49310,1,0,0:0:0:70:LR_CymbalG.wav
256,192,49610,5,2,0:0:0:0:
256,192,49910,5,2,0:0:0:0:
256,192,50210,5,2,0:0:0:0:
256,192,50510,5,2,0:0:0:0:
256,192,50810,5,2,0:0:0:0:
256,192,51110,5,2,0:0:0:0:
256,192,51410,5,2,0:0:0:0:
256,192,51710,5,2,0:0:0:0:
256,192,52010,5,2,0:0:0:0:
256,192,52310,5,2,0:0:0:0:
256,192,52610,5,2,0:0:0:0:
256,192,52910,5,2,0:0:0:0:
256,192,53210,5,2,0:0:0:0:
256,192,53510,5,2,0:0:0:0:
256,192,53810,5,2,0:0:0:0:
199,192,54110,5,8,0:0:0:0:
483,192,54110,1,4,0:0:0:0:
199,192,54210,5,8,0:0:0:0:
483,192,54210,1,4,0:0:0:0:
199,192,54310,5,8,0:0:0:0:
483,192,54310,1,4,0:0:0:0:
199,192,54410,5,8,0:0:0:0:
28,192,54410,1,0,0:0:0:0:
199,192,54710,5,8,0:0:0:0:
483,192,54710,1,4,0:0:0:0:
199,192,54810,5,8,0:0:0:0:
483,192,54810,1,4,0:0:0:0:
199,192,54910,5,8,0:0:0:0:
483,192,54910,1,4,0:0:0:0:
199,192,55010,5,8,0:0:0:0:
28,192,55010,1,0,0:0:0:0:
199,192,55310,5,8,0:0:0:0:
483,192,55310,1,4,0:0:0:0:
199,192,55610,5,8,0:0:0:0:
483,192,55610,1,4,0:0:0:0:
199,192,55910,5,8,0:0:0:0:
483,192,55910,1,4,0:0:0:0:
199,192,56210,5,8,0:0:0:0:
483,192,56210,1,4,0:0:0:0:
256,192,56510,5,2,0:0:0:0:
199,192,56810,5,8,0:0:0:0:
483,192,56810,1,4,0:0:0:0:
256,192,57110,5,2,0:0:0:0:
199,192,57410,5,8,0:0:0:0:
483,192,57410,1,4,0:0:0:0:
199,192,57710,5,8,0:0:0:0:
483,192,57710,1,4,0:0:0:0:
199,192,57910,5,8,0:0:0:0:
483,192,57910,1,4,0:0:0:0:
199,192,58110,5,8,0:0:0:0:
483,192,58110,1,4,0:0:0:0:
199,192,58310,5,8,0:0:0:0:
483,192,58310,1,4,0:0:0:0:
199,192,58510,5,8,0:0:0:0:
483,192,58510,1,4,0:0:0:0:
199,192,58710,5,8,0:0:0:0:
483,192,58710,1,4,0:0:0:0:
199,192,58910,5,8,0:0:0:0:
28,192,58910,1,0,0:0:0:70:LR_CymbalG.wav
256,192,59210,5,2,0:0:0:0:
256,192,59510,5,2,0:0:0:0:
256,192,59610,5,2,0:0:0:0:
256,192,59710,5,2,0:0:0:0:
256,192,59810,5,2,0:0:0:0:
256,192,59910,5,2,0:0:0:0:
256,192,60010,5,2,0:0:0:0:
256,192,60110,5,2,0:0:0:0:
28,192,60110,1,0,0:0:0:70:LR_CymbalG.wav
256,192,60410,5,2,0:0:0:0:
256,192,60710,5,2,0:0:0:0:
256,192,61010,5,2,0:0:0:0:
256,192,61310,5,2,0:0:0:0:
256,192,61610,5,2,0:0:0:0:
256,192,61910,5,2,0:0:0:0:
256,192,62210,5,2,0:0:0:0:
256,192,62510,5,2,0:0:0:0:
256,192,62810,5,2,0:0:0:0:
256,192,63110,5,2,0:0:0:0:
256,192,63410,5,2,0:0:0:0:
256,192,63710,5,2,0:0:0:0:
256,192,64010,5,2,0:0:0:0:
256,192,64310,5,2,0:0:0:0:
256,192,64510,5,2,0:0:0:0:
256,192,64610,5,2,0:0:0:0:
256,192,64810,5,2,0:0:0:0:
256,192,64910,5,2,0:0:0:0:
256,192,65210,5,2,0:0:0:0:
256,192,65510,5,2,0:0:0:0:
256,192,65810,5,2,0:0:0:0:
256,192,66110,1,2,0:0:0:0:
256,192,66410,5,2,0:0:0:0:
256,192,66710,5,2,0:0:0:0:
256,192,67010,5,2,0:0:0:0:
256,192,67310,5,2,0:0:0:0:
256,192,67610,5,2,0:0:0:0:
256,192,67910,5,2,0:0:0:0:
256,192,68210,5,2,0:0:0:0:
256,192,68510,5,2,0:0:0:0:
256,192,68810,5,2,0:0:0:0:
256,192,69110,5,2,0:0:0:0:
256,192,69210,5,2,0:0:0:0:
256,192,69310,5,2,0:0:0:0:
256,192,69410,5,2,0:0:0:0:
256,192,69510,5,2,0:0:0:0:
256,192,69610,5,2,0:0:0:0:
256,192,69710,5,2,0:0:0:0:
28,192,69710,1,0,0:0:0:70:LR_CymbalG.wav
256,192,70010,5,2,0:0:0:0:
256,192,70310,5,2,0:0:0:0:
256,192,70610,5,2,0:0:0:0:
256,192,70910,5,2,0:0:0:0:
256,192,71210,5,2,0:0:0:0:
256,192,71510,5,2,0:0:0:0:
256,192,71810,5,2,0:0:0:0:
256,192,72110,5,2,0:0:0:0:
256,192,72410,5,2,0:0:0:0:
256,192,72710,5,2,0:0:0:0:
256,192,73010,5,2,0:0:0:0:
256,192,73310,5,2,0:0:0:0:
256,192,73610,5,2,0:0:0:0:
256,192,73910,5,2,0:0:0:0:
256,192,74110,5,2,0:0:0:0:
256,192,74210,5,2,0:0:0:0:
256,192,74410,5,2,0:0:0:0:
256,192,74510,5,2,0:0:0:0:
256,192,74810,5,2,0:0:0:0:
256,192,75110,5,2,0:0:0:0:
256,192,75410,5,2,0:0:0:0:
256,192,75710,5,2,0:0:0:0:
256,192,76010,5,2,0:0:0:0:
256,192,76310,5,2,0:0:0:0:
256,192,76610,5,2,0:0:0:0:
256,192,76910,5,2,0:0:0:0:
256,192,77210,5,2,0:0:0:0:
256,192,77510,5,2,0:0:0:0:
256,192,77810,5,2,0:0:0:0:
256,192,78110,5,2,0:0:0:0:
256,192,78160,5,2,0:0:0:0:
256,192,78210,5,2,0:0:0:0:
256,192,78310,5,2,0:0:0:0:
256,192,78410,5,2,0:0:0:0:
256,192,78510,5,2,0:0:0:0:
256,192,78610,5,2,0:0:0:0:
256,192,78710,5,2,0:0:0:0:
256,192,78810,5,2,0:0:0:0:
256,192,78910,5,2,0:0:0:0:
256,192,79010,5,2,0:0:0:0:
256,192,79110,5,2,0:0:0:0:
256,192,79210,5,2,0:0:0:0:
199,192,79310,5,8,0:0:0:0:
28,192,79310,1,0,0:0:0:70:LR_CymbalG.wav
256,192,90110,5,2,0:0:0:0:
199,192,90110,5,8,0:0:0:0:
483,192,90110,1,4,0:0:0:0:
369,192,90410,1,0,0:0:0:70:LR_Clap kick.wav
369,192,90710,1,0,0:0:0:70:LR_Clap kick.wav
369,192,91010,1,0,0:0:0:70:LR_Clap kick.wav
256,192,91210,5,2,0:0:0:0:
199,192,91310,5,8,0:0:0:0:
483,192,91310,1,4,0:0:0:0:
369,192,91610,1,0,0:0:0:70:LR_Clap kick.wav
369,192,91910,1,0,0:0:0:70:LR_Clap kick.wav
369,192,92210,1,0,0:0:0:70:LR_Clap kick.wav
256,192,92410,5,2,0:0:0:0:
199,192,92510,5,8,0:0:0:0:
483,192,92510,1,4,0:0:0:0:
369,192,92810,1,0,0:0:0:70:LR_Clap kick.wav
369,192,93110,1,0,0:0:0:70:LR_Clap kick.wav
369,192,93410,1,0,0:0:0:70:LR_Clap kick.wav
256,192,93610,5,2,0:0:0:0:
199,192,93710,5,8,0:0:0:0:
483,192,93710,1,4,0:0:0:0:
426,192,94010,1,0,0:0:0:70:LR_Snare Low Wet.wav
256,192,94310,5,2,0:0:0:0:
199,192,94310,5,8,0:0:0:0:
483,192,94310,1,4,0:0:0:0:
256,192,94610,5,2,0:0:0:0:
199,192,94610,5,8,0:0:0:0:
483,192,94610,1,4,0:0:0:0:
426,192,94810,1,0,0:0:0:70:LR_Snare Low Wet.wav
256,192,94910,5,2,0:0:0:0:
199,192,94910,5,8,0:0:0:0:
483,192,94910,1,4,0:0:0:0:
426,192,95210,1,0,0:0:0:70:LR_Snare Low Wet.wav
426,192,95510,1,0,0:0:0:70:LR_Snare Low Wet.wav
426,192,95810,1,0,0:0:0:70:LR_Snare Low Wet.wav
256,192,96010,5,2,0:0:0:0:
199,192,96110,5,8,0:0:0:0:
483,192,96110,1,4,0:0:0:0:
426,192,96410,1,0,0:0:0:70:LR_Snare Low Wet.wav
426,192,96710,1,0,0:0:0:70:LR_Snare Low Wet.wav
426,192,97010,1,0,0:0:0:70:LR_Snare Low Wet.wav
256,192,97210,5,2,0:0:0:0:
199,192,97310,5,8,0:0:0:0:
483,192,97310,1,4,0:0:0:0:
426,192,97610,1,0,0:0:0:70:LR_Snare Low Wet.wav
199,192,97910,5,8,0:0:0:0:
256,192,97910,5,2,0:0:0:0:
483,192,97910,1,4,0:0:0:0:
426,192,98210,1,0,0:0:0:70:LR_Snare Low Wet.wav
256,192,98410,5,2,0:0:0:0:
199,192,98510,5,8,0:0:0:0:
483,192,98510,1,4,0:0:0:0:
426,192,98610,1,0,0:0:0:70:LR_Snare Low Wet.wav
426,192,98710,1,0,0:0:0:70:LR_Snare Low Wet.wav
256,192,98810,5,2,0:0:0:0:
199,192,98810,5,8,0:0:0:0:
483,192,98810,1,4,0:0:0:0:
426,192,98910,1,0,0:0:0:70:LR_Snare Low Wet.wav
426,192,99010,1,0,0:0:0:70:LR_Snare Low Wet.wav
256,192,99110,5,2,0:0:0:0:
199,192,99110,5,8,0:0:0:0:
483,192,99110,1,4,0:0:0:0:
426,192,99210,1,0,0:0:0:70:LR_Snare Low Wet.wav
426,192,99310,1,0,0:0:0:70:LR_Snare Low Wet.wav
256,192,99410,5,2,0:0:0:0:
199,192,99410,5,8,0:0:0:0:
483,192,99410,1,4,0:0:0:0:
426,192,99510,1,0,0:0:0:70:LR_Snare Low Wet.wav
426,192,99610,1,0,0:0:0:70:LR_Snare Low Wet.wav
256,192,99710,5,2,0:0:0:0:
199,192,99710,5,8,0:0:0:0:
483,192,99710,1,4,0:0:0:0:
256,192,99910,5,2,0:0:0:0:
199,192,99910,5,8,0:0:0:0:
483,192,99910,1,4,0:0:0:0:
256,192,100110,5,2,0:0:0:0:
199,192,100110,5,8,0:0:0:0:
483,192,100110,1,4,0:0:0:0:
256,192,100310,5,2,0:0:0:0:
199,192,100310,5,8,0:0:0:0:
483,192,100310,1,4,0:0:0:0:
256,192,100510,5,2,0:0:0:0:
199,192,100510,5,8,0:0:0:0:
483,192,100510,1,4,0:0:0:0:
256,192,100710,5,2,0:0:0:0:
199,192,100710,5,8,0:0:0:0:
483,192,100710,1,4,0:0:0:0:
199,192,101210,5,8,0:0:0:0:
28,192,101210,1,0,0:0:0:70:LR_CymbalG.wav
256,192,101510,5,2,0:0:0:0:
256,192,101810,5,2,0:0:0:0:
256,192,102110,5,2,0:0:0:0:
256,192,102410,5,2,0:0:0:0:
256,192,102710,5,2,0:0:0:0:
256,192,103010,5,2,0:0:0:0:
256,192,103310,5,2,0:0:0:0:
256,192,103610,5,2,0:0:0:0:
256,192,103910,5,2,0:0:0:0:
256,192,104210,5,2,0:0:0:0:
256,192,104510,5,2,0:0:0:0:
256,192,104810,5,2,0:0:0:0:
256,192,105110,5,2,0:0:0:0:
256,192,105410,5,2,0:0:0:0:
256,192,105710,5,2,0:0:0:0:
256,192,106010,5,2,0:0:0:0:
256,192,106310,5,2,0:0:0:0:
256,192,106610,5,2,0:0:0:0:
256,192,106910,5,2,0:0:0:0:
256,192,107210,5,2,0:0:0:0:
256,192,107510,5,2,0:0:0:0:
256,192,107810,5,2,0:0:0:0:
256,192,108110,5,2,0:0:0:0:
256,192,108410,5,2,0:0:0:0:
256,192,108710,5,2,0:0:0:0:
256,192,109010,5,2,0:0:0:0:
256,192,109310,5,2,0:0:0:0:
256,192,109610,5,2,0:0:0:0:
256,192,109910,5,2,0:0:0:0:
256,192,110010,5,2,0:0:0:0:
256,192,110110,5,2,0:0:0:0:
256,192,110210,5,2,0:0:0:0:
256,192,110310,5,2,0:0:0:0:
256,192,110410,5,2,0:0:0:0:
256,192,110510,5,2,0:0:0:0:
28,192,110510,1,0,0:0:0:70:LR_CymbalG.wav
256,192,110810,5,2,0:0:0:0:
256,192,111110,5,2,0:0:0:0:
256,192,111410,5,2,0:0:0:0:
256,192,111710,5,2,0:0:0:0:
256,192,112010,5,2,0:0:0:0:
256,192,112310,5,2,0:0:0:0:
256,192,112610,5,2,0:0:0:0:
256,192,112910,5,2,0:0:0:0:
256,192,113210,5,2,0:0:0:0:
256,192,113510,5,2,0:0:0:0:
256,192,113810,5,2,0:0:0:0:
256,192,114110,5,2,0:0:0:0:
256,192,114410,5,2,0:0:0:0:
256,192,114710,5,2,0:0:0:0:
256,192,115010,5,2,0:0:0:0:
256,192,115310,5,2,0:0:0:0:
256,192,115610,5,2,0:0:0:0:
256,192,115910,5,2,0:0:0:0:
256,192,116210,5,2,0:0:0:0:
256,192,116510,5,2,0:0:0:0:
256,192,116810,5,2,0:0:0:0:
256,192,117110,5,2,0:0:0:0:
256,192,117410,5,2,0:0:0:0:
256,192,117710,5,2,0:0:0:0:
256,192,118010,5,2,0:0:0:0:
256,192,118310,5,2,0:0:0:0:
256,192,118610,5,2,0:0:0:0:
256,192,118910,5,2,0:0:0:0:
256,192,118947,5,2,0:0:0:0:
256,192,118985,5,2,0:0:0:0:
256,192,119022,5,2,0:0:0:0:
256,192,119110,5,2,0:0:0:0:
256,192,119210,5,2,0:0:0:0:
256,192,119310,5,2,0:0:0:0:
256,192,119410,5,2,0:0:0:0:
256,192,119510,5,2,0:0:0:0:
256,192,119547,5,2,0:0:0:0:
256,192,119585,5,2,0:0:0:0:
256,192,119622,5,2,0:0:0:0:
256,192,119710,5,2,0:0:0:0:
256,192,119810,5,2,0:0:0:0:
256,192,119910,5,2,0:0:0:0:
256,192,120010,5,2,0:0:0:0:
256,192,120110,5,2,0:0:0:0:
