osu file format v14

[General]
AudioFilename: audio-1.mp3
AudioLeadIn: 0
PreviewTime: 100910
Countdown: 0
SampleSet: Soft
StackLeniency: 0.7
Mode: 3
LetterboxInBreaks: 0
SpecialStyle: 0
WidescreenStoryboard: 0

[Editor]
DistanceSpacing: 1
BeatDivisor: 4
GridSize: 4
TimelineZoom: 1.7

[Metadata]
Title:Duck Apple
TitleUnicode:Duck Apple
Artist:a_hisa
ArtistUnicode:a_hisa
Creator:Daeng Simatta
Version:Easy
Source:
Tags:Lisieux- Envory Single Collection Hallowen Gabba Core
BeatmapID:1970633
BeatmapSetID:943605

[Difficulty]
HPDrainRate:6
CircleSize:4
OverallDifficulty:6
ApproachRate:5
SliderMultiplier:1.4
SliderTickRate:1

[Events]
//Background and Video events
0,0,"Hallowen.jpg",0,0
//Break Periods
2,14710,19010
//Storyboard Layer 0 (Background)
//Storyboard Layer 1 (Fail)
//Storyboard Layer 2 (Pass)
//Storyboard Layer 3 (Foreground)
//Storyboard Sound Samples

[TimingPoints]
110,300,4,2,0,20,1,0
60110,-100,4,2,0,20,0,1
69410,-100,4,2,0,20,0,0
69710,-100,4,2,0,20,0,1
79310,-100,4,2,0,20,0,0
100910,-100,4,2,0,20,0,1
110210,-100,4,2,0,20,0,0
110510,-100,4,2,0,20,0,1
120110,-100,4,2,0,20,0,0

[HitObjects]
448,192,110,5,0,0:0:0:0:
320,192,410,1,0,0:0:0:0:
64,192,710,1,0,0:0:0:0:
192,192,1010,1,0,0:0:0:0:
448,192,1310,128,0,1910:0:0:0:0:
192,192,1910,128,0,2510:0:0:0:0:
448,192,2510,1,0,0:0:0:0:
320,192,2810,1,0,0:0:0:0:
64,192,3110,1,0,0:0:0:0:
192,192,3410,1,0,0:0:0:0:
320,192,3710,128,0,4310:0:0:0:0:
64,192,4310,128,0,4910:0:0:0:0:
320,192,4910,1,0,0:0:0:0:
448,192,5210,1,0,0:0:0:0:
192,192,5510,1,0,0:0:0:0:
64,192,5810,1,0,0:0:0:0:
320,192,6110,128,0,6710:0:0:0:0:
64,192,6710,128,0,7310:0:0:0:0:
320,192,7310,1,0,0:0:0:0:
448,192,7610,1,0,0:0:0:0:
192,192,7910,1,0,0:0:0:0:
64,192,8210,1,0,0:0:0:0:
320,192,8510,128,0,9110:0:0:0:0:
64,192,9110,128,0,9710:0:0:0:0:
192,192,9710,1,0,0:0:0:0:
448,192,9710,1,0,0:0:0:0:
320,192,10010,1,0,0:0:0:0:
192,192,10310,1,0,0:0:0:0:
64,192,10610,1,0,0:0:0:0:
192,192,10910,1,0,0:0:0:0:
320,192,11210,1,0,0:0:0:0:
448,192,11510,1,0,0:0:0:0:
64,192,11810,1,0,0:0:0:0:
192,192,11960,1,0,0:0:0:0:
320,192,12110,1,0,0:0:0:0:
192,192,12410,1,0,0:0:0:0:
320,192,12710,1,0,0:0:0:0:
448,192,13010,1,0,0:0:0:0:
192,192,13160,1,0,0:0:0:0:
64,192,13310,1,0,0:0:0:0:
64,192,13610,1,0,0:0:0:0:
64,192,13910,1,0,0:0:0:0:
320,192,14210,128,0,14510:0:0:0:0:
448,192,14510,1,0,0:0:0:0:
64,192,14510,1,0,0:0:0:0:
448,192,20210,132,0,20510:0:0:0:0:
320,192,20510,1,0,0:0:0:0:
64,192,20510,1,0,0:0:0:0:
192,192,20810,1,0,0:0:0:0:
320,192,21110,1,0,0:0:0:0:
64,192,21410,1,0,0:0:0:0:
448,192,21710,1,0,0:0:0:0:
320,192,22010,1,0,0:0:0:0:
192,192,22310,1,0,0:0:0:0:
448,192,22610,1,0,0:0:0:0:
64,192,22910,1,0,0:0:0:0:
320,192,23210,1,0,0:0:0:0:
64,192,23510,1,0,0:0:0:0:
192,192,23810,1,0,0:0:0:0:
448,192,24110,1,0,0:0:0:0:
64,192,24410,1,0,0:0:0:0:
192,192,24710,1,0,0:0:0:0:
448,192,25010,128,0,25310:0:0:0:0:
320,192,25310,1,0,0:0:0:0:
192,192,25610,1,0,0:0:0:0:
64,192,25910,1,0,0:0:0:0:
448,192,26210,1,0,0:0:0:0:
320,192,26510,1,0,0:0:0:0:
64,192,26810,1,0,0:0:0:0:
192,192,27110,1,0,0:0:0:0:
320,192,27410,1,0,0:0:0:0:
448,192,27710,1,0,0:0:0:0:
64,192,28010,1,0,0:0:0:0:
192,192,28310,1,0,0:0:0:0:
448,192,28610,1,0,0:0:0:0:
64,192,28910,1,0,0:0:0:0:
320,192,29210,1,0,0:0:0:0:
192,192,29510,1,0,0:0:0:0:
320,192,29660,1,0,0:0:0:0:
448,192,29810,1,0,0:0:0:0:
64,192,29960,1,0,0:0:0:0:
192,192,30110,1,0,0:0:0:0:
320,192,30410,1,0,0:0:0:0:
448,192,30710,1,0,0:0:0:0:
192,192,31010,1,0,0:0:0:0:
320,192,31310,1,0,0:0:0:0:
64,192,31610,1,0,0:0:0:0:
192,192,31910,1,0,0:0:0:0:
448,192,32210,1,0,0:0:0:0:
192,192,32510,1,0,0:0:0:0:
320,192,32810,1,0,0:0:0:0:
64,192,33110,1,0,0:0:0:0:
192,192,33410,1,0,0:0:0:0:
448,192,33710,1,0,0:0:0:0:
320,192,34010,1,0,0:0:0:0:
192,192,34310,1,0,0:0:0:0:
320,192,34610,1,0,0:0:0:0:
64,192,34910,1,0,0:0:0:0:
320,192,35210,1,0,0:0:0:0:
448,192,35510,1,0,0:0:0:0:
192,192,35810,1,0,0:0:0:0:
320,192,36110,1,0,0:0:0:0:
64,192,36410,1,0,0:0:0:0:
320,192,36710,1,0,0:0:0:0:
192,192,37010,1,0,0:0:0:0:
448,192,37310,1,0,0:0:0:0:
320,192,37610,1,0,0:0:0:0:
64,192,37910,1,0,0:0:0:0:
192,192,38210,1,0,0:0:0:0:
448,192,38510,1,0,0:0:0:0:
320,192,38810,1,0,0:0:0:0:
192,192,39110,1,0,0:0:0:0:
320,192,39410,1,0,0:0:0:0:
64,192,39710,1,0,0:0:0:0:
448,192,39710,1,0,0:0:0:0:
320,192,40010,1,0,0:0:0:0:
192,192,40310,1,0,0:0:0:0:
448,192,40610,1,0,0:0:0:0:
64,192,40910,1,0,0:0:0:0:
192,192,41210,1,0,0:0:0:0:
320,192,41510,1,0,0:0:0:0:
