osu file format v14

[General]
AudioFilename: audio.mp3
AudioLeadIn: 2000
PreviewTime: 62639
Countdown: 0
SampleSet: None
StackLeniency: 0.7
Mode: 1
LetterboxInBreaks: 1
WidescreenStoryboard: 1

[Editor]
Bookmarks: 112948
DistanceSpacing: 1
BeatDivisor: 4
GridSize: 32
TimelineZoom: 3.799999

[Metadata]
Title:Cheshire,s dance
TitleUnicode:Cheshire,s dance
Artist:a_hisa
ArtistUnicode:a_hisa
Creator:Timorisu
Version:Inner Oni
Source:
Tags:scary polka
BeatmapID:1450360
BeatmapSetID:685053

[Difficulty]
HPDrainRate:4
CircleSize:3
OverallDifficulty:6
ApproachRate:6
SliderMultiplier:1.8
SliderTickRate:2

[Events]
//Background and Video events
0,0,"bg.jpg",0,0
//Break Periods
//Storyboard Layer 0 (Background)
//Storyboard Layer 1 (Fail)
//Storyboard Layer 2 (Pass)
//Storyboard Layer 3 (Foreground)
//Storyboard Sound Samples

[TimingPoints]
450,500,4,1,0,40,1,0
10950,545.454545454546,4,1,0,40,1,0
11505,666.666666666667,4,1,0,40,1,0
11828,750,4,1,0,40,1,0
12203,923.076923076923,4,1,0,40,1,0
12682,1000,4,1,0,40,1,0
13030,1000,4,1,0,40,1,0
13648,300,4,1,0,60,1,0
13648,-133.333333333333,4,1,0,60,0,0

[Colours]
Combo1 : 255,253,170
Combo2 : 255,170,255
Combo3 : 170,255,255
Combo4 : 185,255,170

[HitObjects]
352,96,200,5,2,0:0:0:0:
352,96,325,1,2,0:0:0:0:
160,96,450,1,0,0:0:0:0:
160,96,700,1,0,0:0:0:0:
352,96,950,1,2,0:0:0:0:
352,96,1200,1,2,0:0:0:0:
352,96,1325,1,2,0:0:0:0:
160,96,1450,1,0,0:0:0:0:
160,96,1700,1,0,0:0:0:0:
160,96,1825,1,0,0:0:0:0:
352,96,1950,1,2,0:0:0:0:
352,96,2200,1,2,0:0:0:0:
160,96,2450,1,0,0:0:0:0:
160,96,2700,1,0,0:0:0:0:
160,96,2825,1,0,0:0:0:0:
352,96,2950,1,2,0:0:0:0:
352,96,3075,1,2,0:0:0:0:
160,96,3200,1,0,0:0:0:0:
160,96,3325,1,0,0:0:0:0:
352,96,3450,1,2,0:0:0:0:
352,96,3700,1,2,0:0:0:0:
352,96,3950,1,2,0:0:0:0:
160,96,4200,1,0,0:0:0:0:
352,96,4325,1,2,0:0:0:0:
160,96,4450,1,0,0:0:0:0:
352,96,4700,1,2,0:0:0:0:
160,96,4950,1,0,0:0:0:0:
160,96,5200,1,0,0:0:0:0:
160,96,5325,1,0,0:0:0:0:
352,96,5450,1,2,0:0:0:0:
160,96,5700,1,0,0:0:0:0:
160,96,5825,1,0,0:0:0:0:
352,96,5950,1,2,0:0:0:0:
160,96,6200,1,0,0:0:0:0:
352,96,6325,1,2,0:0:0:0:
352,96,6450,1,2,0:0:0:0:
352,96,6575,1,2,0:0:0:0:
160,96,6700,1,0,0:0:0:0:
160,96,6825,1,0,0:0:0:0:
352,96,6950,1,2,0:0:0:0:
160,96,7200,1,0,0:0:0:0:
160,96,7325,1,0,0:0:0:0:
352,96,7450,1,2,0:0:0:0:
160,96,7700,1,0,0:0:0:0:
352,96,7950,1,2,0:0:0:0:
352,96,8200,1,2,0:0:0:0:
160,96,8325,1,0,0:0:0:0:
352,96,8450,1,2,0:0:0:0:
160,96,8700,1,0,0:0:0:0:
352,96,8950,1,2,0:0:0:0:
160,96,9200,1,0,0:0:0:0:
160,96,9325,1,0,0:0:0:0:
352,96,9450,1,2,0:0:0:0:
352,96,9700,1,2,0:0:0:0:
352,96,9825,1,2,0:0:0:0:
160,96,9950,1,0,0:0:0:0:
352,96,10200,1,2,0:0:0:0:
160,96,10450,1,0,0:0:0:0:
160,96,10700,1,0,0:0:0:0:
160,96,10825,1,0,0:0:0:0:
352,96,10950,1,2,0:0:0:0:
352,96,11086,1,2,0:0:0:0:
160,96,11222,1,0,0:0:0:0:
160,96,11359,1,0,0:0:0:0:
352,96,11505,1,2,0:0:0:0:
160,96,11828,1,0,0:0:0:0:
160,96,12203,1,0,0:0:0:0:
160,96,12682,1,0,0:0:0:0:
160,96,13030,1,0,0:0:0:0:
352,288,13648,1,6,0:0:0:0:
352,288,13948,1,6,0:0:0:0:
160,288,14248,1,4,0:0:0:0:
160,288,14548,1,4,0:0:0:0:
352,288,14848,1,6,0:0:0:0:
160,96,14998,1,0,0:0:0:0:
160,96,15148,1,0,0:0:0:0:
352,96,15298,1,2,0:0:0:0:
352,96,15373,1,2,0:0:0:0:
160,96,15448,1,0,0:0:0:0:
160,96,15598,1,0,0:0:0:0:
160,96,15748,1,0,0:0:0:0:
352,96,15898,1,2,0:0:0:0:
160,96,15973,1,0,0:0:0:0:
352,96,16048,1,2,0:0:0:0:
160,96,16198,1,0,0:0:0:0:
160,96,16348,1,0,0:0:0:0:
352,96,16498,1,2,0:0:0:0:
352,96,16573,1,2,0:0:0:0:
160,96,16648,1,0,0:0:0:0:
160,96,16798,1,0,0:0:0:0:
160,96,16948,1,0,0:0:0:0:
160,96,17098,1,0,0:0:0:0:
352,96,17248,1,2,0:0:0:0:
160,96,17398,1,0,0:0:0:0:
352,96,17548,1,2,0:0:0:0:
352,96,17623,1,2,0:0:0:0:
352,96,17698,1,2,0:0:0:0:
160,96,17848,1,0,0:0:0:0:
352,96,17998,1,2,0:0:0:0:
352,96,18073,1,2,0:0:0:0:
352,96,18148,1,2,0:0:0:0:
160,96,18298,1,0,0:0:0:0:
352,96,18448,1,2,0:0:0:0:
160,96,18598,1,0,0:0:0:0:
352,96,18748,1,2,0:0:0:0:
352,96,18898,1,2,0:0:0:0:
352,96,18973,1,2,0:0:0:0:
160,96,19048,1,0,0:0:0:0:
352,96,19198,1,2,0:0:0:0:
160,96,19348,1,0,0:0:0:0:
352,96,19498,1,2,0:0:0:0:
352,288,19648,1,6,0:0:0:0:
160,96,19798,1,0,0:0:0:0:
160,96,19948,1,0,0:0:0:0:
352,96,20098,1,2,0:0:0:0:
352,96,20173,1,2,0:0:0:0:
160,96,20248,1,0,0:0:0:0:
160,96,20398,1,0,0:0:0:0:
160,96,20548,1,0,0:0:0:0:
352,96,20698,1,2,0:0:0:0:
160,96,20773,1,0,0:0:0:0:
352,96,20848,1,2,0:0:0:0:
160,96,20998,1,0,0:0:0:0:
160,96,21148,1,0,0:0:0:0:
352,96,21298,1,2,0:0:0:0:
352,96,21373,1,2,0:0:0:0:
160,96,21448,1,0,0:0:0:0:
160,96,21598,1,0,0:0:0:0:
160,96,21748,1,0,0:0:0:0:
160,96,21898,1,0,0:0:0:0:
352,96,22048,1,2,0:0:0:0:
352,96,22123,1,2,0:0:0:0:
160,96,22198,1,0,0:0:0:0:
352,96,22348,1,2,0:0:0:0:
352,96,22423,1,2,0:0:0:0:
352,96,22498,1,2,0:0:0:0:
160,96,22648,1,0,0:0:0:0:
352,96,22798,1,2,0:0:0:0:
352,96,22873,1,2,0:0:0:0:
352,96,22948,1,2,0:0:0:0:
160,96,23098,1,0,0:0:0:0:
352,288,23248,1,6,0:0:0:0:
352,288,23548,1,6,0:0:0:0:
160,288,23848,1,4,0:0:0:0:
160,96,24148,1,0,0:0:0:0:
160,96,24223,1,0,0:0:0:0:
160,96,24298,1,0,0:0:0:0:
160,96,24373,1,0,0:0:0:0:
352,96,24448,1,2,0:0:0:0:
352,96,24523,1,2,0:0:0:0:
160,96,24598,1,0,0:0:0:0:
160,96,24673,1,0,0:0:0:0:
352,96,24748,1,2,0:0:0:0:
352,96,24823,1,2,0:0:0:0:
160,96,24898,1,0,0:0:0:0:
160,96,24973,1,0,0:0:0:0:
352,96,25048,1,2,0:0:0:0:
352,96,25123,1,2,0:0:0:0:
160,96,25198,1,0,0:0:0:0:
160,96,25273,1,0,0:0:0:0:
352,96,25348,1,2,0:0:0:0:
352,96,25423,1,2,0:0:0:0:
160,96,25498,1,0,0:0:0:0:
160,96,25573,1,0,0:0:0:0:
352,96,25648,1,2,0:0:0:0:
352,96,25723,1,2,0:0:0:0:
352,96,25798,1,2,0:0:0:0:
160,96,25873,1,0,0:0:0:0:
352,96,25948,1,2,0:0:0:0:
352,96,26023,1,2,0:0:0:0:
352,96,26098,1,2,0:0:0:0:
160,96,26173,1,0,0:0:0:0:
352,96,26248,1,2,0:0:0:0:
352,96,26323,1,2,0:0:0:0:
352,96,26398,1,2,0:0:0:0:
160,96,26473,1,0,0:0:0:0:
352,96,26548,1,2,0:0:0:0:
160,96,26623,1,0,0:0:0:0:
352,96,26698,1,2,0:0:0:0:
352,96,26848,1,2,0:0:0:0:
160,96,26923,1,0,0:0:0:0:
160,96,26998,1,0,0:0:0:0:
352,96,27148,1,2,0:0:0:0:
352,96,27223,1,2,0:0:0:0:
160,96,27298,1,0,0:0:0:0:
352,96,27448,1,2,0:0:0:0:
160,96,27523,1,0,0:0:0:0:
160,96,27598,1,0,0:0:0:0:
352,96,27748,1,2,0:0:0:0:
352,96,27823,1,2,0:0:0:0:
160,96,27898,1,0,0:0:0:0:
352,96,28048,1,2,0:0:0:0:
160,96,28123,1,0,0:0:0:0:
160,96,28198,1,0,0:0:0:0:
352,96,28348,1,2,0:0:0:0:
352,96,28423,1,2,0:0:0:0:
160,96,28498,1,0,0:0:0:0:
160,96,28648,1,0,0:0:0:0:
352,96,29248,1,2,0:0:0:0:
160,96,29323,1,0,0:0:0:0:
160,96,29398,1,0,0:0:0:0:
160,96,29473,1,0,0:0:0:0:
352,96,29548,1,2,0:0:0:0:
352,96,29623,1,2,0:0:0:0:
160,96,29698,1,0,0:0:0:0:
160,96,29773,1,0,0:0:0:0:
352,96,29848,1,2,0:0:0:0:
352,96,29923,1,2,0:0:0:0:
160,96,29998,1,0,0:0:0:0:
160,96,30073,1,0,0:0:0:0:
352,96,30148,1,2,0:0:0:0:
352,96,30223,1,2,0:0:0:0:
160,96,30298,1,0,0:0:0:0:
160,96,30373,1,0,0:0:0:0:
352,96,30448,1,2,0:0:0:0:
352,96,30523,1,2,0:0:0:0:
160,96,30598,1,0,0:0:0:0:
160,96,30673,1,0,0:0:0:0:
352,96,30748,1,2,0:0:0:0:
352,96,30823,1,2,0:0:0:0:
352,96,30898,1,2,0:0:0:0:
160,96,30973,1,0,0:0:0:0:
352,96,31048,1,2,0:0:0:0:
352,96,31123,1,2,0:0:0:0:
352,96,31198,1,2,0:0:0:0:
160,96,31273,1,0,0:0:0:0:
352,96,31348,1,2,0:0:0:0:
352,96,31423,1,2,0:0:0:0:
352,96,31498,1,2,0:0:0:0:
160,96,31573,1,0,0:0:0:0:
352,96,31648,1,2,0:0:0:0:
160,96,31723,1,0,0:0:0:0:
352,96,31798,1,2,0:0:0:0:
352,96,31948,1,2,0:0:0:0:
160,96,32023,1,0,0:0:0:0:
160,96,32098,1,0,0:0:0:0:
352,96,32248,1,2,0:0:0:0:
352,96,32323,1,2,0:0:0:0:
160,96,32398,1,0,0:0:0:0:
352,96,32548,1,2,0:0:0:0:
160,96,32623,1,0,0:0:0:0:
160,96,32698,1,0,0:0:0:0:
160,96,32848,1,0,0:0:0:0:
160,96,32923,1,0,0:0:0:0:
160,96,32998,1,0,0:0:0:0:
160,96,33073,1,0,0:0:0:0:
160,96,33148,1,0,0:0:0:0:
160,96,33223,1,0,0:0:0:0:
160,96,33298,1,0,0:0:0:0:
160,96,33373,1,0,0:0:0:0:
160,96,33448,1,0,0:0:0:0:
160,96,33523,1,0,0:0:0:0:
160,96,33598,1,0,0:0:0:0:
160,96,33673,1,0,0:0:0:0:
160,96,33748,1,0,0:0:0:0:
160,96,33823,1,0,0:0:0:0:
160,96,33898,1,0,0:0:0:0:
160,96,33973,1,0,0:0:0:0:
352,96,34048,1,2,0:0:0:0:
352,96,34198,1,2,0:0:0:0:
352,96,34348,1,2,0:0:0:0:
160,96,34498,1,0,0:0:0:0:
352,96,34648,1,2,0:0:0:0:
160,96,34798,1,0,0:0:0:0:
160,96,34948,1,0,0:0:0:0:
352,96,35098,1,2,0:0:0:0:
160,96,35173,1,0,0:0:0:0:
352,96,35248,1,2,0:0:0:0:
160,96,35398,1,0,0:0:0:0:
160,96,35548,1,0,0:0:0:0:
352,96,35698,1,2,0:0:0:0:
160,96,35773,1,0,0:0:0:0:
352,96,35848,1,2,0:0:0:0:
352,96,35998,1,2,0:0:0:0:
352,96,36148,1,2,0:0:0:0:
160,96,36298,1,0,0:0:0:0:
352,96,36448,1,2,0:0:0:0:
160,96,36598,1,0,0:0:0:0:
352,96,36748,1,2,0:0:0:0:
160,96,36898,1,0,0:0:0:0:
352,96,37048,1,2,0:0:0:0:
352,96,37198,1,2,0:0:0:0:
160,96,37348,1,0,0:0:0:0:
352,96,37498,1,2,0:0:0:0:
352,96,37573,1,2,0:0:0:0:
160,96,37648,1,0,0:0:0:0:
160,96,37798,1,0,0:0:0:0:
352,96,37948,1,2,0:0:0:0:
160,96,38098,1,0,0:0:0:0:
352,96,38248,1,2,0:0:0:0:
160,96,38398,1,0,0:0:0:0:
352,96,38548,1,2,0:0:0:0:
160,96,38698,1,0,0:0:0:0:
160,96,38773,1,0,0:0:0:0:
352,96,38848,1,2,0:0:0:0:
352,96,38998,1,2,0:0:0:0:
352,96,39148,1,2,0:0:0:0:
160,96,39298,1,0,0:0:0:0:
160,96,39448,1,0,0:0:0:0:
352,96,39598,1,2,0:0:0:0:
160,96,39748,1,0,0:0:0:0:
352,96,39898,1,2,0:0:0:0:
160,96,39973,1,0,0:0:0:0:
352,96,40048,1,2,0:0:0:0:
352,96,40198,1,2,0:0:0:0:
352,96,40348,1,2,0:0:0:0:
160,96,40498,1,0,0:0:0:0:
160,96,40648,1,0,0:0:0:0:
352,96,40798,1,2,0:0:0:0:
160,96,40948,1,0,0:0:0:0:
352,96,41023,1,2,0:0:0:0:
160,96,41098,1,0,0:0:0:0:
352,96,41173,1,2,0:0:0:0:
352,96,41248,1,2,0:0:0:0:
160,96,41398,1,0,0:0:0:0:
352,96,41548,1,2,0:0:0:0:
352,96,41698,1,2,0:0:0:0:
352,96,41848,1,2,0:0:0:0:
160,96,41998,1,0,0:0:0:0:
352,96,42148,1,2,0:0:0:0:
160,96,42223,1,0,0:0:0:0:
352,96,42298,1,2,0:0:0:0:
352,96,42448,1,2,0:0:0:0:
160,96,42523,1,0,0:0:0:0:
160,96,42598,1,0,0:0:0:0:
160,96,42748,1,0,0:0:0:0:
160,96,42898,1,0,0:0:0:0:
352,96,43048,1,2,0:0:0:0:
160,96,43198,1,0,0:0:0:0:
352,96,43348,1,2,0:0:0:0:
352,96,43423,1,2,0:0:0:0:
160,96,43498,1,0,0:0:0:0:
160,96,43573,1,0,0:0:0:0:
352,96,43648,1,2,0:0:0:0:
160,96,43798,1,0,0:0:0:0:
352,96,43948,1,2,0:0:0:0:
352,96,44098,1,2,0:0:0:0:
160,96,44248,1,0,0:0:0:0:
160,96,44398,1,0,0:0:0:0:
352,96,44548,1,2,0:0:0:0:
352,96,44623,1,2,0:0:0:0:
352,96,44698,1,2,0:0:0:0:
160,96,44773,1,0,0:0:0:0:
352,96,44848,1,2,0:0:0:0:
160,96,44998,1,0,0:0:0:0:
352,96,45148,1,2,0:0:0:0:
352,96,45298,1,2,0:0:0:0:
160,96,45448,1,0,0:0:0:0:
160,96,45598,1,0,0:0:0:0:
352,96,45748,1,2,0:0:0:0:
352,96,45823,1,2,0:0:0:0:
352,96,45898,1,2,0:0:0:0:
352,96,45973,1,2,0:0:0:0:
160,96,46048,1,0,0:0:0:0:
160,96,46198,1,0,0:0:0:0:
352,96,46348,1,2,0:0:0:0:
160,96,46498,1,0,0:0:0:0:
352,96,46648,1,2,0:0:0:0:
160,96,46798,1,0,0:0:0:0:
160,96,46948,1,0,0:0:0:0:
352,96,47098,1,2,0:0:0:0:
352,96,47173,1,2,0:0:0:0:
160,96,47248,1,0,0:0:0:0:
160,96,47398,1,0,0:0:0:0:
352,96,47548,1,2,0:0:0:0:
160,96,47698,1,0,0:0:0:0:
352,96,47848,1,2,0:0:0:0:
352,96,47998,1,2,0:0:0:0:
352,96,48148,1,2,0:0:0:0:
160,96,48298,1,0,0:0:0:0:
160,96,48448,1,0,0:0:0:0:
160,96,48523,1,0,0:0:0:0:
352,96,48598,1,2,0:0:0:0:
352,96,48673,1,2,0:0:0:0:
160,96,48748,1,0,0:0:0:0:
160,96,48823,1,0,0:0:0:0:
352,96,48898,1,2,0:0:0:0:
352,96,48973,1,2,0:0:0:0:
160,96,49048,1,0,0:0:0:0:
160,96,49123,1,0,0:0:0:0:
352,96,49198,1,2,0:0:0:0:
352,96,49273,1,2,0:0:0:0:
160,96,49348,1,0,0:0:0:0:
160,96,49423,1,0,0:0:0:0:
352,96,49498,1,2,0:0:0:0:
352,96,49573,1,2,0:0:0:0:
352,96,49648,1,2,0:0:0:0:
352,96,49723,1,2,0:0:0:0:
160,96,49798,1,0,0:0:0:0:
160,96,49873,1,0,0:0:0:0:
352,96,49948,1,2,0:0:0:0:
352,96,50023,1,2,0:0:0:0:
160,96,50098,1,0,0:0:0:0:
160,96,50173,1,0,0:0:0:0:
352,96,50248,1,2,0:0:0:0:
352,96,50323,1,2,0:0:0:0:
160,96,50398,1,0,0:0:0:0:
160,96,50473,1,0,0:0:0:0:
352,96,50548,1,2,0:0:0:0:
352,96,50623,1,2,0:0:0:0:
160,96,50698,1,0,0:0:0:0:
160,96,50773,1,0,0:0:0:0:
352,96,50848,1,2,0:0:0:0:
160,288,51748,1,4,0:0:0:0:
352,288,52048,1,6,0:0:0:0:
352,288,52348,1,6,0:0:0:0:
160,288,52648,1,4,0:0:0:0:
160,96,52948,1,0,0:0:0:0:
160,96,53023,1,0,0:0:0:0:
160,96,53098,1,0,0:0:0:0:
160,96,53173,1,0,0:0:0:0:
352,96,53248,1,2,0:0:0:0:
160,96,53398,1,0,0:0:0:0:
352,96,53548,1,2,0:0:0:0:
160,96,53698,1,0,0:0:0:0:
160,96,53848,1,0,0:0:0:0:
160,96,53923,1,0,0:0:0:0:
160,96,53998,1,0,0:0:0:0:
160,96,54073,1,0,0:0:0:0:
352,96,54148,1,2,0:0:0:0:
352,96,54223,1,2,0:0:0:0:
352,96,54298,1,2,0:0:0:0:
352,96,54373,1,2,0:0:0:0:
352,96,54448,1,2,0:0:0:0:
160,96,54598,1,0,0:0:0:0:
352,96,54748,1,2,0:0:0:0:
160,96,54898,1,0,0:0:0:0:
352,96,55048,1,2,0:0:0:0:
352,96,55123,1,2,0:0:0:0:
352,96,55198,1,2,0:0:0:0:
352,96,55273,1,2,0:0:0:0:
160,96,55348,1,0,0:0:0:0:
160,96,55423,1,0,0:0:0:0:
160,96,55498,1,0,0:0:0:0:
160,96,55573,1,0,0:0:0:0:
160,96,55648,1,0,0:0:0:0:
352,96,55798,1,2,0:0:0:0:
160,96,55948,1,0,0:0:0:0:
352,96,56098,1,2,0:0:0:0:
160,96,56248,1,0,0:0:0:0:
160,96,56323,1,0,0:0:0:0:
160,96,56398,1,0,0:0:0:0:
160,96,56473,1,0,0:0:0:0:
352,96,56548,1,2,0:0:0:0:
352,96,56623,1,2,0:0:0:0:
352,96,56698,1,2,0:0:0:0:
352,96,56773,1,2,0:0:0:0:
352,96,56848,1,2,0:0:0:0:
160,96,56998,1,0,0:0:0:0:
352,96,57148,1,2,0:0:0:0:
160,96,57298,1,0,0:0:0:0:
352,96,57898,1,2,0:0:0:0:
160,96,57973,1,0,0:0:0:0:
352,96,58048,1,2,0:0:0:0:
160,96,58198,1,0,0:0:0:0:
352,96,58348,1,2,0:0:0:0:
160,96,58498,1,0,0:0:0:0:
352,96,58798,1,2,0:0:0:0:
160,96,58873,1,0,0:0:0:0:
352,96,58948,1,2,0:0:0:0:
160,96,59023,1,0,0:0:0:0:
160,96,59098,1,0,0:0:0:0:
352,96,59173,1,2,0:0:0:0:
160,96,59248,1,0,0:0:0:0:
352,96,59398,1,2,0:0:0:0:
160,96,59548,1,0,0:0:0:0:
352,96,59698,1,2,0:0:0:0:
352,96,59998,1,2,0:0:0:0:
160,96,60073,1,0,0:0:0:0:
352,96,60148,1,2,0:0:0:0:
352,96,60223,1,2,0:0:0:0:
352,96,60298,1,2,0:0:0:0:
352,96,60373,1,2,0:0:0:0:
352,96,60448,1,2,0:0:0:0:
352,288,60748,1,6,0:0:0:0:
352,288,60898,1,6,0:0:0:0:
352,288,61198,1,6,0:0:0:0:
160,96,61648,1,0,0:0:0:0:
352,96,61723,1,2,0:0:0:0:
352,96,61798,1,2,0:0:0:0:
352,96,61873,1,2,0:0:0:0:
160,96,61948,1,0,0:0:0:0:
352,96,62023,1,2,0:0:0:0:
352,96,62098,1,2,0:0:0:0:
352,96,62173,1,2,0:0:0:0:
160,96,62248,1,0,0:0:0:0:
352,96,62323,1,2,0:0:0:0:
352,96,62398,1,2,0:0:0:0:
352,96,62473,1,2,0:0:0:0:
160,96,62548,1,0,0:0:0:0:
352,96,62623,1,2,0:0:0:0:
160,96,62698,1,0,0:0:0:0:
160,96,62773,1,0,0:0:0:0:
352,96,62848,1,2,0:0:0:0:
352,96,62998,1,2,0:0:0:0:
160,96,63148,1,0,0:0:0:0:
352,96,63298,1,2,0:0:0:0:
352,96,63373,1,2,0:0:0:0:
160,96,63448,1,0,0:0:0:0:
160,96,63598,1,0,0:0:0:0:
160,96,63673,1,0,0:0:0:0:
352,96,63748,1,2,0:0:0:0:
160,96,63898,1,0,0:0:0:0:
160,96,64048,1,0,0:0:0:0:
352,96,64198,1,2,0:0:0:0:
352,96,64273,1,2,0:0:0:0:
352,96,64348,1,2,0:0:0:0:
160,96,64423,1,0,0:0:0:0:
160,96,64498,1,0,0:0:0:0:
160,96,64573,1,0,0:0:0:0:
352,96,64648,1,2,0:0:0:0:
160,96,64798,1,0,0:0:0:0:
352,96,64948,1,2,0:0:0:0:
352,96,65098,1,2,0:0:0:0:
352,96,65173,1,2,0:0:0:0:
160,96,65248,1,0,0:0:0:0:
160,96,65398,1,0,0:0:0:0:
352,96,65548,1,2,0:0:0:0:
160,96,65698,1,0,0:0:0:0:
160,96,65773,1,0,0:0:0:0:
352,96,65848,1,2,0:0:0:0:
352,96,65998,1,2,0:0:0:0:
352,96,66073,1,2,0:0:0:0:
160,96,66148,1,0,0:0:0:0:
160,96,66298,1,0,0:0:0:0:
352,96,66448,1,2,0:0:0:0:
160,96,66523,1,0,0:0:0:0:
352,96,66598,1,2,0:0:0:0:
352,96,66673,1,2,0:0:0:0:
160,96,66748,1,0,0:0:0:0:
352,96,66898,1,2,0:0:0:0:
160,96,66973,1,0,0:0:0:0:
352,96,67048,1,2,0:0:0:0:
160,96,67198,1,0,0:0:0:0:
352,96,67348,1,2,0:0:0:0:
160,96,67498,1,0,0:0:0:0:
160,96,67573,1,0,0:0:0:0:
352,96,67648,1,2,0:0:0:0:
352,96,67798,1,2,0:0:0:0:
160,96,67948,1,0,0:0:0:0:
352,96,68098,1,2,0:0:0:0:
352,96,68173,1,2,0:0:0:0:
160,96,68248,1,0,0:0:0:0:
160,96,68398,1,0,0:0:0:0:
160,96,68473,1,0,0:0:0:0:
352,96,68548,1,2,0:0:0:0:
160,96,68698,1,0,0:0:0:0:
160,96,68848,1,0,0:0:0:0:
352,96,68998,1,2,0:0:0:0:
352,96,69073,1,2,0:0:0:0:
352,96,69148,1,2,0:0:0:0:
160,96,69223,1,0,0:0:0:0:
160,96,69298,1,0,0:0:0:0:
160,96,69373,1,0,0:0:0:0:
352,96,69448,1,2,0:0:0:0:
160,96,69598,1,0,0:0:0:0:
352,96,69748,1,2,0:0:0:0:
352,96,69898,1,2,0:0:0:0:
352,96,69973,1,2,0:0:0:0:
160,96,70048,1,0,0:0:0:0:
160,96,70198,1,0,0:0:0:0:
352,96,70348,1,2,0:0:0:0:
160,96,70498,1,0,0:0:0:0:
160,96,70573,1,0,0:0:0:0:
352,96,70648,1,2,0:0:0:0:
352,96,70798,1,2,0:0:0:0:
352,96,70873,1,2,0:0:0:0:
160,96,70948,1,0,0:0:0:0:
160,96,71098,1,0,0:0:0:0:
352,96,71248,1,2,0:0:0:0:
160,96,71323,1,0,0:0:0:0:
352,96,71398,1,2,0:0:0:0:
352,96,71473,1,2,0:0:0:0:
160,96,71548,1,0,0:0:0:0:
352,96,71698,1,2,0:0:0:0:
160,96,71773,1,0,0:0:0:0:
352,96,71848,1,2,0:0:0:0:
160,96,71998,1,0,0:0:0:0:
352,96,72148,1,2,0:0:0:0:
352,96,72448,1,2,0:0:0:0:
352,96,72523,1,2,0:0:0:0:
352,96,72598,1,2,0:0:0:0:
352,96,72673,1,2,0:0:0:0:
160,96,72748,1,0,0:0:0:0:
160,96,72823,1,0,0:0:0:0:
160,96,72898,1,0,0:0:0:0:
160,96,72973,1,0,0:0:0:0:
352,96,73048,1,2,0:0:0:0:
352,96,73123,1,2,0:0:0:0:
352,96,73198,1,2,0:0:0:0:
352,96,73273,1,2,0:0:0:0:
160,96,73348,1,0,0:0:0:0:
160,96,73423,1,0,0:0:0:0:
160,96,73498,1,0,0:0:0:0:
160,96,73573,1,0,0:0:0:0:
352,96,73648,1,2,0:0:0:0:
352,96,73723,1,2,0:0:0:0:
160,96,73798,1,0,0:0:0:0:
160,96,73873,1,0,0:0:0:0:
352,96,73948,1,2,0:0:0:0:
352,96,74023,1,2,0:0:0:0:
160,96,74098,1,0,0:0:0:0:
160,96,74173,1,0,0:0:0:0:
352,96,74248,1,2,0:0:0:0:
160,96,74323,1,0,0:0:0:0:
352,96,74398,1,2,0:0:0:0:
160,96,74473,1,0,0:0:0:0:
352,96,74548,1,2,0:0:0:0:
160,96,74623,1,0,0:0:0:0:
352,96,74698,1,2,0:0:0:0:
160,96,74773,1,0,0:0:0:0:
352,96,74848,1,2,0:0:0:0:
352,96,74923,1,2,0:0:0:0:
352,96,74998,1,2,0:0:0:0:
352,96,75073,1,2,0:0:0:0:
160,96,75148,1,0,0:0:0:0:
160,96,75223,1,0,0:0:0:0:
160,96,75298,1,0,0:0:0:0:
160,96,75373,1,0,0:0:0:0:
352,96,75448,1,2,0:0:0:0:
352,96,75523,1,2,0:0:0:0:
160,96,75598,1,0,0:0:0:0:
160,96,75673,1,0,0:0:0:0:
352,96,75748,1,2,0:0:0:0:
352,96,75823,1,2,0:0:0:0:
160,96,75898,1,0,0:0:0:0:
160,96,75973,1,0,0:0:0:0:
352,96,76048,1,2,0:0:0:0:
160,96,76123,1,0,0:0:0:0:
352,96,76198,1,2,0:0:0:0:
160,96,76273,1,0,0:0:0:0:
352,96,76348,1,2,0:0:0:0:
160,96,76423,1,0,0:0:0:0:
352,96,76498,1,2,0:0:0:0:
160,96,76573,1,0,0:0:0:0:
160,96,76648,1,0,0:0:0:0:
160,96,76723,1,0,0:0:0:0:
160,96,76798,1,0,0:0:0:0:
160,96,76873,1,0,0:0:0:0:
160,96,76948,1,0,0:0:0:0:
160,96,77023,1,0,0:0:0:0:
160,96,77098,1,0,0:0:0:0:
160,96,77173,1,0,0:0:0:0:
352,96,77248,1,2,0:0:0:0:
352,96,77323,1,2,0:0:0:0:
160,96,77398,1,0,0:0:0:0:
160,96,77473,1,0,0:0:0:0:
352,96,77548,1,2,0:0:0:0:
352,96,77623,1,2,0:0:0:0:
160,96,77698,1,0,0:0:0:0:
160,96,77773,1,0,0:0:0:0:
352,96,77848,1,2,0:0:0:0:
352,96,77923,1,2,0:0:0:0:
160,96,77998,1,0,0:0:0:0:
160,96,78073,1,0,0:0:0:0:
352,96,78148,1,2,0:0:0:0:
352,96,78223,1,2,0:0:0:0:
160,96,78298,1,0,0:0:0:0:
160,96,78373,1,0,0:0:0:0:
352,96,78448,1,2,0:0:0:0:
352,96,78523,1,2,0:0:0:0:
352,96,78598,1,2,0:0:0:0:
160,96,78673,1,0,0:0:0:0:
352,96,78748,1,2,0:0:0:0:
352,96,78823,1,2,0:0:0:0:
352,96,78898,1,2,0:0:0:0:
160,96,78973,1,0,0:0:0:0:
352,96,79048,1,2,0:0:0:0:
352,96,79123,1,2,0:0:0:0:
352,96,79198,1,2,0:0:0:0:
160,96,79273,1,0,0:0:0:0:
352,96,79348,1,2,0:0:0:0:
160,96,79423,1,0,0:0:0:0:
352,96,79498,1,2,0:0:0:0:
352,96,79648,1,2,0:0:0:0:
160,96,79723,1,0,0:0:0:0:
160,96,79798,1,0,0:0:0:0:
352,96,79948,1,2,0:0:0:0:
352,96,80023,1,2,0:0:0:0:
160,96,80098,1,0,0:0:0:0:
352,96,80248,1,2,0:0:0:0:
160,96,80323,1,0,0:0:0:0:
160,96,80398,1,0,0:0:0:0:
352,96,80548,1,2,0:0:0:0:
352,96,80623,1,2,0:0:0:0:
160,96,80698,1,0,0:0:0:0:
352,96,80848,1,2,0:0:0:0:
160,96,80923,1,0,0:0:0:0:
160,96,80998,1,0,0:0:0:0:
352,96,81148,1,2,0:0:0:0:
352,96,81223,1,2,0:0:0:0:
160,96,81298,1,0,0:0:0:0:
352,96,81448,1,2,0:0:0:0:
160,96,81523,1,0,0:0:0:0:
160,96,81598,1,0,0:0:0:0:
352,96,81748,1,2,0:0:0:0:
352,96,81823,1,2,0:0:0:0:
160,96,81898,1,0,0:0:0:0:
352,96,82048,1,2,0:0:0:0:
352,96,82123,1,2,0:0:0:0:
160,96,82198,1,0,0:0:0:0:
160,96,82273,1,0,0:0:0:0:
352,96,82348,1,2,0:0:0:0:
352,96,82423,1,2,0:0:0:0:
160,96,82498,1,0,0:0:0:0:
160,96,82573,1,0,0:0:0:0:
352,96,82648,1,2,0:0:0:0:
352,96,82723,1,2,0:0:0:0:
160,96,82798,1,0,0:0:0:0:
160,96,82873,1,0,0:0:0:0:
352,96,82948,1,2,0:0:0:0:
352,96,83023,1,2,0:0:0:0:
160,96,83098,1,0,0:0:0:0:
160,96,83173,1,0,0:0:0:0:
352,96,83248,1,2,0:0:0:0:
352,96,83323,1,2,0:0:0:0:
352,96,83398,1,2,0:0:0:0:
160,96,83473,1,0,0:0:0:0:
352,96,83548,1,2,0:0:0:0:
352,96,83623,1,2,0:0:0:0:
352,96,83698,1,2,0:0:0:0:
160,96,83773,1,0,0:0:0:0:
352,96,83848,1,2,0:0:0:0:
352,96,83923,1,2,0:0:0:0:
352,96,83998,1,2,0:0:0:0:
160,96,84073,1,0,0:0:0:0:
352,96,84148,1,2,0:0:0:0:
160,96,84223,1,0,0:0:0:0:
352,96,84298,1,2,0:0:0:0:
352,96,84448,1,2,0:0:0:0:
160,96,84523,1,0,0:0:0:0:
160,96,84598,1,0,0:0:0:0:
352,96,84748,1,2,0:0:0:0:
352,96,84823,1,2,0:0:0:0:
160,96,84898,1,0,0:0:0:0:
352,96,85048,1,2,0:0:0:0:
160,96,85123,1,0,0:0:0:0:
160,96,85198,1,0,0:0:0:0:
352,96,85348,1,2,0:0:0:0:
352,96,85423,1,2,0:0:0:0:
160,96,85498,1,0,0:0:0:0:
160,96,85648,1,0,0:0:0:0:
160,96,85723,1,0,0:0:0:0:
160,96,85798,1,0,0:0:0:0:
160,96,85873,1,0,0:0:0:0:
160,96,85948,1,0,0:0:0:0:
160,96,86023,1,0,0:0:0:0:
160,96,86098,1,0,0:0:0:0:
160,96,86173,1,0,0:0:0:0:
160,96,86248,1,0,0:0:0:0:
160,96,86323,1,0,0:0:0:0:
160,96,86398,1,0,0:0:0:0:
160,96,86473,1,0,0:0:0:0:
160,96,86548,1,0,0:0:0:0:
160,96,86623,1,0,0:0:0:0:
160,96,86698,1,0,0:0:0:0:
160,96,86773,1,0,0:0:0:0:
352,96,86848,1,2,0:0:0:0:
352,96,86998,1,2,0:0:0:0:
352,96,87148,1,2,0:0:0:0:
352,96,87298,1,2,0:0:0:0:
352,96,87448,1,2,0:0:0:0:
352,288,87748,1,6,0:0:0:0:
160,288,87898,1,4,0:0:0:0:
352,288,88048,1,6,0:0:0:0:
160,96,88198,1,0,0:0:0:0:
160,96,88348,1,0,0:0:0:0:
352,96,88498,1,2,0:0:0:0:
160,96,88573,1,0,0:0:0:0:
352,96,88648,1,2,0:0:0:0:
352,96,88798,1,2,0:0:0:0:
160,96,88948,1,0,0:0:0:0:
160,96,89098,1,0,0:0:0:0:
352,96,89248,1,2,0:0:0:0:
160,96,89398,1,0,0:0:0:0:
352,96,89548,1,2,0:0:0:0:
160,96,89698,1,0,0:0:0:0:
352,96,89848,1,2,0:0:0:0:
352,96,89998,1,2,0:0:0:0:
160,96,90148,1,0,0:0:0:0:
352,96,90298,1,2,0:0:0:0:
352,96,90373,1,2,0:0:0:0:
160,96,90448,1,0,0:0:0:0:
160,96,90598,1,0,0:0:0:0:
352,96,90748,1,2,0:0:0:0:
160,96,90898,1,0,0:0:0:0:
352,96,91048,1,2,0:0:0:0:
160,96,91198,1,0,0:0:0:0:
352,96,91348,1,2,0:0:0:0:
160,96,91498,1,0,0:0:0:0:
160,96,91573,1,0,0:0:0:0:
352,96,91648,1,2,0:0:0:0:
352,96,91798,1,2,0:0:0:0:
352,96,91948,1,2,0:0:0:0:
160,96,92098,1,0,0:0:0:0:
160,96,92248,1,0,0:0:0:0:
352,96,92398,1,2,0:0:0:0:
160,96,92548,1,0,0:0:0:0:
352,96,92698,1,2,0:0:0:0:
160,96,92773,1,0,0:0:0:0:
352,96,92848,1,2,0:0:0:0:
352,96,92998,1,2,0:0:0:0:
352,96,93148,1,2,0:0:0:0:
160,96,93298,1,0,0:0:0:0:
160,96,93448,1,0,0:0:0:0:
352,96,93598,1,2,0:0:0:0:
160,96,93748,1,0,0:0:0:0:
352,96,93823,1,2,0:0:0:0:
160,96,93898,1,0,0:0:0:0:
352,96,93973,1,2,0:0:0:0:
352,96,94048,1,2,0:0:0:0:
160,96,94198,1,0,0:0:0:0:
352,96,94348,1,2,0:0:0:0:
352,96,94498,1,2,0:0:0:0:
352,96,94648,1,2,0:0:0:0:
160,96,94798,1,0,0:0:0:0:
352,96,94948,1,2,0:0:0:0:
160,96,95023,1,0,0:0:0:0:
352,96,95098,1,2,0:0:0:0:
352,96,95248,1,2,0:0:0:0:
160,96,95323,1,0,0:0:0:0:
160,96,95398,1,0,0:0:0:0:
160,96,95548,1,0,0:0:0:0:
160,96,95698,1,0,0:0:0:0:
352,96,95848,1,2,0:0:0:0:
160,96,95998,1,0,0:0:0:0:
352,96,96148,1,2,0:0:0:0:
352,96,96223,1,2,0:0:0:0:
160,96,96298,1,0,0:0:0:0:
160,96,96373,1,0,0:0:0:0:
352,96,96448,1,2,0:0:0:0:
160,96,96598,1,0,0:0:0:0:
352,96,96748,1,2,0:0:0:0:
160,96,96898,1,0,0:0:0:0:
160,96,97048,1,0,0:0:0:0:
160,96,97198,1,0,0:0:0:0:
352,96,97348,1,2,0:0:0:0:
352,96,97423,1,2,0:0:0:0:
352,96,97498,1,2,0:0:0:0:
160,96,97573,1,0,0:0:0:0:
352,96,97648,1,2,0:0:0:0:
160,96,97798,1,0,0:0:0:0:
352,96,97948,1,2,0:0:0:0:
160,96,98098,1,0,0:0:0:0:
160,96,98248,1,0,0:0:0:0:
160,96,98398,1,0,0:0:0:0:
352,96,98548,1,2,0:0:0:0:
352,96,98623,1,2,0:0:0:0:
352,96,98698,1,2,0:0:0:0:
352,96,98773,1,2,0:0:0:0:
160,96,98848,1,0,0:0:0:0:
160,96,98998,1,0,0:0:0:0:
352,96,99148,1,2,0:0:0:0:
160,96,99298,1,0,0:0:0:0:
352,96,99448,1,2,0:0:0:0:
160,96,99598,1,0,0:0:0:0:
160,96,99748,1,0,0:0:0:0:
352,96,99898,1,2,0:0:0:0:
352,96,99973,1,2,0:0:0:0:
160,96,100048,1,0,0:0:0:0:
160,96,100198,1,0,0:0:0:0:
352,96,100348,1,2,0:0:0:0:
160,96,100498,1,0,0:0:0:0:
352,96,100648,1,2,0:0:0:0:
352,96,100798,1,2,0:0:0:0:
352,96,100948,1,2,0:0:0:0:
160,96,101098,1,0,0:0:0:0:
160,96,101248,1,0,0:0:0:0:
160,96,101323,1,0,0:0:0:0:
352,96,101398,1,2,0:0:0:0:
352,96,101473,1,2,0:0:0:0:
160,96,101548,1,0,0:0:0:0:
160,96,101623,1,0,0:0:0:0:
352,96,101698,1,2,0:0:0:0:
352,96,101773,1,2,0:0:0:0:
160,96,101848,1,0,0:0:0:0:
160,96,101923,1,0,0:0:0:0:
352,96,101998,1,2,0:0:0:0:
352,96,102073,1,2,0:0:0:0:
160,96,102148,1,0,0:0:0:0:
160,96,102223,1,0,0:0:0:0:
352,96,102298,1,2,0:0:0:0:
352,96,102373,1,2,0:0:0:0:
352,96,102448,1,2,0:0:0:0:
352,96,102523,1,2,0:0:0:0:
160,96,102598,1,0,0:0:0:0:
160,96,102673,1,0,0:0:0:0:
352,96,102748,1,2,0:0:0:0:
352,96,102823,1,2,0:0:0:0:
160,96,102898,1,0,0:0:0:0:
160,96,102973,1,0,0:0:0:0:
352,96,103048,1,2,0:0:0:0:
352,96,103123,1,2,0:0:0:0:
160,96,103198,1,0,0:0:0:0:
160,96,103273,1,0,0:0:0:0:
352,96,103348,1,2,0:0:0:0:
352,96,103423,1,2,0:0:0:0:
160,96,103498,1,0,0:0:0:0:
160,96,103573,1,0,0:0:0:0:
352,96,103648,1,2,0:0:0:0:
160,288,104548,1,4,0:0:0:0:
352,288,104848,1,6,0:0:0:0:
352,288,105148,1,6,0:0:0:0:
160,288,105448,1,4,0:0:0:0:
160,96,105748,1,0,0:0:0:0:
160,96,105823,1,0,0:0:0:0:
160,96,105898,1,0,0:0:0:0:
160,96,105973,1,0,0:0:0:0:
352,96,106048,1,2,0:0:0:0:
160,96,106198,1,0,0:0:0:0:
160,96,106273,1,0,0:0:0:0:
352,96,106348,1,2,0:0:0:0:
160,96,106498,1,0,0:0:0:0:
352,96,106573,1,2,0:0:0:0:
352,96,106648,1,2,0:0:0:0:
352,96,106798,1,2,0:0:0:0:
352,96,106873,1,2,0:0:0:0:
352,96,106948,1,2,0:0:0:0:
352,96,107098,1,2,0:0:0:0:
352,96,107173,1,2,0:0:0:0:
160,96,107248,1,0,0:0:0:0:
352,96,107398,1,2,0:0:0:0:
160,96,107473,1,0,0:0:0:0:
160,96,107548,1,0,0:0:0:0:
160,96,107698,1,0,0:0:0:0:
160,96,107773,1,0,0:0:0:0:
160,96,107848,1,0,0:0:0:0:
352,96,108448,1,2,0:0:0:0:
160,96,108523,1,0,0:0:0:0:
352,96,108598,1,2,0:0:0:0:
352,96,108673,1,2,0:0:0:0:
352,96,108748,1,2,0:0:0:0:
160,96,108898,1,0,0:0:0:0:
352,96,109048,1,2,0:0:0:0:
160,96,109198,1,0,0:0:0:0:
352,96,109348,1,2,0:0:0:0:
160,96,109498,1,0,0:0:0:0:
352,96,109648,1,2,0:0:0:0:
352,96,109723,1,2,0:0:0:0:
352,96,109798,1,2,0:0:0:0:
160,96,109873,1,0,0:0:0:0:
352,96,109948,1,2,0:0:0:0:
160,96,110098,1,0,0:0:0:0:
352,96,110248,1,2,0:0:0:0:
352,96,110398,1,2,0:0:0:0:
352,96,110548,1,2,0:0:0:0:
160,96,110698,1,0,0:0:0:0:
352,96,110848,1,2,0:0:0:0:
160,96,110923,1,0,0:0:0:0:
352,96,110998,1,2,0:0:0:0:
160,96,111073,1,0,0:0:0:0:
352,96,111148,1,2,0:0:0:0:
160,96,111223,1,0,0:0:0:0:
352,96,111298,1,2,0:0:0:0:
160,96,111373,1,0,0:0:0:0:
352,96,111448,1,2,0:0:0:0:
352,96,111523,1,2,0:0:0:0:
160,96,111598,1,0,0:0:0:0:
352,96,111673,1,2,0:0:0:0:
352,96,111748,1,2,0:0:0:0:
160,96,111823,1,0,0:0:0:0:
352,96,111898,1,2,0:0:0:0:
352,96,111973,1,2,0:0:0:0:
352,96,112048,1,2,0:0:0:0:
160,96,112198,1,0,0:0:0:0:
352,96,112348,1,2,0:0:0:0:
352,96,112498,1,2,0:0:0:0:
160,96,112648,1,0,0:0:0:0:
160,96,112798,1,0,0:0:0:0:
160,96,112873,1,0,0:0:0:0:
160,96,112948,1,0,0:0:0:0:
160,96,113023,1,0,0:0:0:0:
160,96,113098,1,0,0:0:0:0:
160,96,113173,1,0,0:0:0:0:
352,96,113248,1,2,0:0:0:0:
160,96,113323,1,0,0:0:0:0:
352,96,113398,1,2,0:0:0:0:
352,96,113473,1,2,0:0:0:0:
352,96,113548,1,2,0:0:0:0:
160,96,113698,1,0,0:0:0:0:
352,96,113848,1,2,0:0:0:0:
160,96,113998,1,0,0:0:0:0:
352,96,114148,1,2,0:0:0:0:
160,96,114298,1,0,0:0:0:0:
352,96,114448,1,2,0:0:0:0:
352,96,114523,1,2,0:0:0:0:
352,96,114598,1,2,0:0:0:0:
160,96,114673,1,0,0:0:0:0:
352,96,114748,1,2,0:0:0:0:
160,96,114898,1,0,0:0:0:0:
352,96,115048,1,2,0:0:0:0:
352,96,115198,1,2,0:0:0:0:
160,96,115348,1,0,0:0:0:0:
160,96,115423,1,0,0:0:0:0:
160,96,115498,1,0,0:0:0:0:
160,96,115573,1,0,0:0:0:0:
352,96,115648,1,2,0:0:0:0:
160,96,115723,1,0,0:0:0:0:
352,96,115798,1,2,0:0:0:0:
160,96,115873,1,0,0:0:0:0:
352,96,115948,1,2,0:0:0:0:
160,96,116023,1,0,0:0:0:0:
352,96,116098,1,2,0:0:0:0:
160,96,116173,1,0,0:0:0:0:
352,96,116248,1,2,0:0:0:0:
352,96,116323,1,2,0:0:0:0:
160,96,116398,1,0,0:0:0:0:
352,96,116473,1,2,0:0:0:0:
352,96,116548,1,2,0:0:0:0:
160,96,116623,1,0,0:0:0:0:
352,96,116698,1,2,0:0:0:0:
352,288,116848,1,6,0:0:0:0:
160,288,116998,1,4,0:0:0:0:
352,288,117148,1,6,0:0:0:0:
160,288,117298,1,4,0:0:0:0:
352,288,117448,1,6,0:0:0:0:
160,96,117598,1,0,0:0:0:0:
160,96,117673,1,0,0:0:0:0:
160,96,117748,1,0,0:0:0:0:
160,96,117823,1,0,0:0:0:0:
352,96,117898,1,2,0:0:0:0:
352,96,117973,1,2,0:0:0:0:
352,96,118048,1,2,0:0:0:0:
160,96,118198,1,0,0:0:0:0:
160,96,118348,1,0,0:0:0:0:
352,96,118498,1,2,0:0:0:0:
160,96,118573,1,0,0:0:0:0:
352,96,118648,1,2,0:0:0:0:
160,96,118798,1,0,0:0:0:0:
352,96,118948,1,2,0:0:0:0:
160,96,119098,1,0,0:0:0:0:
352,96,119248,1,2,0:0:0:0:
160,96,119323,1,0,0:0:0:0:
160,96,119398,1,0,0:0:0:0:
160,96,119473,1,0,0:0:0:0:
160,96,119548,1,0,0:0:0:0:
352,96,119698,1,2,0:0:0:0:
352,96,119773,1,2,0:0:0:0:
160,96,119848,1,0,0:0:0:0:
160,96,119998,1,0,0:0:0:0:
352,96,120148,1,2,0:0:0:0:
160,96,120298,1,0,0:0:0:0:
352,96,120448,1,2,0:0:0:0:
352,96,120523,1,2,0:0:0:0:
160,96,120598,1,0,0:0:0:0:
160,96,120673,1,0,0:0:0:0:
160,96,120748,1,0,0:0:0:0:
352,96,120898,1,2,0:0:0:0:
352,96,120973,1,2,0:0:0:0:
160,96,121048,1,0,0:0:0:0:
160,96,121198,1,0,0:0:0:0:
352,96,121348,1,2,0:0:0:0:
352,96,121423,1,2,0:0:0:0:
160,96,121498,1,0,0:0:0:0:
352,96,121648,1,2,0:0:0:0:
160,96,121798,1,0,0:0:0:0:
352,96,121948,1,2,0:0:0:0:
352,96,122023,1,2,0:0:0:0:
160,96,122098,1,0,0:0:0:0:
352,96,122248,1,2,0:0:0:0:
160,96,122398,1,0,0:0:0:0:
352,96,122548,1,2,0:0:0:0:
160,96,122623,1,0,0:0:0:0:
352,96,122698,1,2,0:0:0:0:
352,96,122773,1,2,0:0:0:0:
352,96,122848,1,2,0:0:0:0:
160,96,122998,1,0,0:0:0:0:
160,96,123148,1,0,0:0:0:0:
352,96,123298,1,2,0:0:0:0:
160,96,123373,1,0,0:0:0:0:
352,96,123448,1,2,0:0:0:0:
160,96,123598,1,0,0:0:0:0:
352,96,123748,1,2,0:0:0:0:
160,96,123898,1,0,0:0:0:0:
352,96,124048,1,2,0:0:0:0:
352,96,124123,1,2,0:0:0:0:
352,96,124198,1,2,0:0:0:0:
352,96,124273,1,2,0:0:0:0:
352,96,124348,1,2,0:0:0:0:
352,96,124423,1,2,0:0:0:0:
160,96,124498,1,0,0:0:0:0:
160,96,124573,1,0,0:0:0:0:
160,96,124648,1,0,0:0:0:0:
160,96,124798,1,0,0:0:0:0:
160,96,124873,1,0,0:0:0:0:
160,96,124948,1,0,0:0:0:0:
160,96,125023,1,0,0:0:0:0:
352,96,125098,1,2,0:0:0:0:
352,96,125173,1,2,0:0:0:0:
352,96,125248,1,2,0:0:0:0:
160,96,125398,1,0,0:0:0:0:
352,96,125548,1,2,0:0:0:0:
352,96,125623,1,2,0:0:0:0:
352,96,125698,1,2,0:0:0:0:
160,96,125773,1,0,0:0:0:0:
160,96,125848,1,0,0:0:0:0:
160,96,125998,1,0,0:0:0:0:
160,96,126148,1,0,0:0:0:0:
160,96,126298,1,0,0:0:0:0:
352,96,126373,1,2,0:0:0:0:
352,96,126448,1,2,0:0:0:0:
160,96,126598,1,0,0:0:0:0:
352,96,126748,1,2,0:0:0:0:
352,96,126823,1,2,0:0:0:0:
352,96,126898,1,2,0:0:0:0:
352,96,126973,1,2,0:0:0:0:
160,96,127048,1,0,0:0:0:0:
160,96,127498,1,0,0:0:0:0:
160,96,127573,1,0,0:0:0:0:
352,96,127648,1,2,0:0:0:0:
160,96,127798,1,0,0:0:0:0:
352,96,127948,1,2,0:0:0:0:
160,96,128098,1,0,0:0:0:0:
352,96,128248,1,2,0:0:0:0:
160,96,128698,1,0,0:0:0:0:
160,96,128773,1,0,0:0:0:0:
352,96,128848,1,2,0:0:0:0:
160,96,128998,1,0,0:0:0:0:
352,96,129148,1,2,0:0:0:0:
160,96,129298,1,0,0:0:0:0:
352,96,129448,1,2,0:0:0:0:
160,96,129898,1,0,0:0:0:0:
160,96,129973,1,0,0:0:0:0:
352,96,130048,1,2,0:0:0:0:
160,96,130198,1,0,0:0:0:0:
352,96,130348,1,2,0:0:0:0:
160,96,130498,1,0,0:0:0:0:
352,96,130648,1,2,0:0:0:0:
160,96,131098,1,0,0:0:0:0:
160,96,131173,1,0,0:0:0:0:
352,96,131248,1,2,0:0:0:0:
160,96,131398,1,0,0:0:0:0:
352,96,131548,1,2,0:0:0:0:
160,96,131698,1,0,0:0:0:0:
352,96,131848,1,2,0:0:0:0:
352,96,132298,1,2,0:0:0:0:
352,96,132373,1,2,0:0:0:0:
160,96,132448,1,0,0:0:0:0:
160,96,132523,1,0,0:0:0:0:
352,96,132598,1,2,0:0:0:0:
352,96,132673,1,2,0:0:0:0:
160,96,132748,1,0,0:0:0:0:
160,96,132898,1,0,0:0:0:0:
352,96,133048,1,2,0:0:0:0:
352,96,133123,1,2,0:0:0:0:
160,96,133198,1,0,0:0:0:0:
160,96,133273,1,0,0:0:0:0:
352,96,133348,1,2,0:0:0:0:
160,96,133498,1,0,0:0:0:0:
352,96,133648,1,2,0:0:0:0:
352,96,133723,1,2,0:0:0:0:
160,96,133798,1,0,0:0:0:0:
160,96,133873,1,0,0:0:0:0:
352,96,133948,1,2,0:0:0:0:
160,96,134098,1,0,0:0:0:0:
352,96,134248,1,2,0:0:0:0:
352,96,134323,1,2,0:0:0:0:
160,96,134398,1,0,0:0:0:0:
160,96,134473,1,0,0:0:0:0:
352,96,134548,1,2,0:0:0:0:
160,96,134698,1,0,0:0:0:0:
352,96,134848,1,2,0:0:0:0:
352,96,134923,1,2,0:0:0:0:
160,96,134998,1,0,0:0:0:0:
160,96,135073,1,0,0:0:0:0:
352,96,135148,1,2,0:0:0:0:
352,96,135223,1,2,0:0:0:0:
160,96,135298,1,0,0:0:0:0:
160,96,135373,1,0,0:0:0:0:
352,96,135448,1,2,0:0:0:0:
160,96,135523,1,0,0:0:0:0:
352,96,135598,1,2,0:0:0:0:
160,96,135673,1,0,0:0:0:0:
352,96,135748,1,2,0:0:0:0:
160,96,135898,1,0,0:0:0:0:
160,96,135973,1,0,0:0:0:0:
160,96,136048,1,0,0:0:0:0:
352,96,136123,1,2,0:0:0:0:
352,96,136198,1,2,0:0:0:0:
352,96,136273,1,2,0:0:0:0:
352,96,136348,1,2,0:0:0:0:
160,96,136423,1,0,0:0:0:0:
352,96,136498,1,2,0:0:0:0:
160,96,136573,1,0,0:0:0:0:
352,96,136648,1,2,0:0:0:0:
160,96,136723,1,0,0:0:0:0:
160,96,136798,1,0,0:0:0:0:
160,96,136873,1,0,0:0:0:0:
160,96,136948,1,0,0:0:0:0:
160,96,137023,1,0,0:0:0:0:
160,96,137098,1,0,0:0:0:0:
160,96,137173,1,0,0:0:0:0:
352,96,137248,1,2,0:0:0:0:
160,96,137398,1,0,0:0:0:0:
352,96,137548,1,2,0:0:0:0:
160,96,137698,1,0,0:0:0:0:
160,96,137848,1,2,0:0:0:0:
160,96,137923,1,0,0:0:0:0:
160,96,137998,1,0,0:0:0:0:
160,96,138073,1,0,0:0:0:0:
352,96,138148,1,2,0:0:0:0:
352,96,138223,1,2,0:0:0:0:
160,96,138298,1,0,0:0:0:0:
352,96,138373,1,2,0:0:0:0:
352,96,138448,1,2,0:0:0:0:
160,96,138598,1,0,0:0:0:0:
160,96,138748,1,0,0:0:0:0:
352,96,138898,1,2,0:0:0:0:
160,96,138973,1,0,0:0:0:0:
352,96,139048,1,2,0:0:0:0:
160,96,139198,1,0,0:0:0:0:
160,96,139348,1,2,0:0:0:0:
160,96,139498,1,0,0:0:0:0:
160,96,139648,1,2,0:0:0:0:
160,96,139798,1,0,0:0:0:0:
160,96,139948,1,0,0:0:0:0:
160,96,140098,1,2,0:0:0:0:
160,96,140173,1,0,0:0:0:0:
352,96,140248,1,2,0:0:0:0:
160,96,140398,1,0,0:0:0:0:
352,96,140473,1,2,0:0:0:0:
160,96,140548,1,0,0:0:0:0:
352,96,140698,1,2,0:0:0:0:
352,96,140848,1,2,0:0:0:0:
160,96,140998,1,0,0:0:0:0:
352,96,141148,1,2,0:0:0:0:
352,96,141298,1,2,0:0:0:0:
352,96,141373,1,2,0:0:0:0:
160,96,141448,1,0,0:0:0:0:
160,96,141598,1,0,0:0:0:0:
352,96,141748,1,2,0:0:0:0:
352,96,141898,1,2,0:0:0:0:
352,96,141973,1,2,0:0:0:0:
160,96,142048,1,0,0:0:0:0:
160,96,142198,1,0,0:0:0:0:
352,96,142348,1,2,0:0:0:0:
160,96,142498,1,0,0:0:0:0:
352,96,142648,1,2,0:0:0:0:
352,96,142873,1,2,0:0:0:0:
160,96,143098,1,0,0:0:0:0:
352,96,143248,1,2,0:0:0:0:
160,96,143548,1,0,0:0:0:0:
352,96,143848,1,2,0:0:0:0:
160,96,144148,1,0,0:0:0:0:
352,96,144448,1,2,0:0:0:0:
160,96,144523,1,0,0:0:0:0:
352,96,144598,1,2,0:0:0:0:
160,96,144673,1,0,0:0:0:0:
352,96,144748,1,2,0:0:0:0:
160,96,144823,1,0,0:0:0:0:
352,96,144898,1,2,0:0:0:0:
160,96,144973,1,0,0:0:0:0:
352,96,145048,1,2,0:0:0:0:
352,96,145123,1,2,0:0:0:0:
160,96,145198,1,0,0:0:0:0:
352,96,145273,1,2,0:0:0:0:
352,96,145348,1,2,0:0:0:0:
160,96,145423,1,0,0:0:0:0:
352,96,145498,1,2,0:0:0:0:
352,96,145573,1,2,0:0:0:0:
352,96,145648,1,2,0:0:0:0:
160,96,145798,1,0,0:0:0:0:
352,96,145948,1,2,0:0:0:0:
160,96,146098,1,0,0:0:0:0:
352,96,146248,1,2,0:0:0:0:
352,96,146398,1,2,0:0:0:0:
352,96,146548,1,2,0:0:0:0:
160,96,146698,1,0,0:0:0:0:
160,96,146848,1,0,0:0:0:0:
352,96,146923,1,2,0:0:0:0:
352,96,146998,1,2,0:0:0:0:
160,96,147148,1,0,0:0:0:0:
160,96,147298,1,0,0:0:0:0:
352,96,147448,1,2,0:0:0:0:
160,96,147523,1,0,0:0:0:0:
352,96,147598,1,2,0:0:0:0:
160,96,147673,1,0,0:0:0:0:
352,96,147748,1,2,0:0:0:0:
160,96,147823,1,0,0:0:0:0:
352,96,147898,1,2,0:0:0:0:
352,96,147973,1,2,0:0:0:0:
352,96,148048,1,2,0:0:0:0:
160,96,148198,1,0,0:0:0:0:
160,96,148348,1,2,0:0:0:0:
160,96,148498,1,0,0:0:0:0:
352,96,148648,1,2,0:0:0:0:
160,96,148723,1,0,0:0:0:0:
352,96,148798,1,2,0:0:0:0:
160,96,148873,1,0,0:0:0:0:
352,96,148948,1,2,0:0:0:0:
160,96,149023,1,0,0:0:0:0:
352,96,149098,1,2,0:0:0:0:
352,96,149173,1,2,0:0:0:0:
352,96,149248,1,2,0:0:0:0:
160,96,149398,1,0,0:0:0:0:
352,96,149548,1,2,0:0:0:0:
352,96,149698,1,2,0:0:0:0:
352,96,149773,1,2,0:0:0:0:
160,96,149848,1,0,0:0:0:0:
160,96,149998,1,0,0:0:0:0:
160,96,150073,1,0,0:0:0:0:
352,96,150148,1,2,0:0:0:0:
160,96,150298,1,0,0:0:0:0:
352,96,150448,1,2,0:0:0:0:
352,96,150598,1,2,0:0:0:0:
352,96,150748,1,2,0:0:0:0:
352,96,150823,1,2,0:0:0:0:
352,96,150898,1,2,0:0:0:0:
352,96,150973,1,2,0:0:0:0:
352,96,151048,1,2,0:0:0:0:
160,96,151123,1,0,0:0:0:0:
352,96,151198,1,2,0:0:0:0:
160,96,151273,1,0,0:0:0:0:
352,96,151348,1,2,0:0:0:0:
160,96,151423,1,0,0:0:0:0:
352,96,151498,1,2,0:0:0:0:
160,96,151573,1,0,0:0:0:0:
352,96,151648,1,2,0:0:0:0:
160,96,151798,1,0,0:0:0:0:
160,96,151873,1,0,0:0:0:0:
352,96,151948,1,2,0:0:0:0:
352,96,152023,1,2,0:0:0:0:
160,96,152098,1,0,0:0:0:0:
352,96,152173,1,2,0:0:0:0:
352,96,152248,1,2,0:0:0:0:
160,96,152398,1,0,0:0:0:0:
352,96,152548,1,2,0:0:0:0:
160,96,152698,1,0,0:0:0:0:
352,96,152848,1,2,0:0:0:0:
160,96,152998,1,0,0:0:0:0:
160,96,153073,1,0,0:0:0:0:
352,96,153148,1,2,0:0:0:0:
160,96,153223,1,0,0:0:0:0:
352,96,153298,1,2,0:0:0:0:
160,96,153373,1,0,0:0:0:0:
352,96,153448,1,2,0:0:0:0:
160,96,153523,1,0,0:0:0:0:
352,96,153598,1,2,0:0:0:0:
352,96,153673,1,2,0:0:0:0:
352,96,153748,1,2,0:0:0:0:
160,96,153898,1,0,0:0:0:0:
352,96,154048,1,2,0:0:0:0:
352,96,154123,1,2,0:0:0:0:
352,96,154198,1,2,0:0:0:0:
352,96,154273,1,2,0:0:0:0:
352,96,154348,1,2,0:0:0:0:
352,96,154423,1,2,0:0:0:0:
352,96,154498,1,2,0:0:0:0:
352,96,154573,1,2,0:0:0:0:
160,96,154648,1,0,0:0:0:0:
160,96,154723,1,0,0:0:0:0:
160,96,154798,1,0,0:0:0:0:
160,96,154873,1,0,0:0:0:0:
160,96,154948,1,0,0:0:0:0:
160,96,155023,1,0,0:0:0:0:
160,96,155098,1,0,0:0:0:0:
352,288,155248,1,6,0:0:0:0:
352,288,155548,1,6,0:0:0:0:
352,288,155698,1,6,0:0:0:0:
352,288,155998,1,6,0:0:0:0:
160,96,156448,1,0,0:0:0:0:
352,96,156523,1,2,0:0:0:0:
352,96,156598,1,2,0:0:0:0:
352,96,156673,1,2,0:0:0:0:
160,96,156748,1,0,0:0:0:0:
352,96,156823,1,2,0:0:0:0:
352,96,156898,1,2,0:0:0:0:
352,96,156973,1,2,0:0:0:0:
160,96,157048,1,0,0:0:0:0:
352,96,157123,1,2,0:0:0:0:
352,96,157198,1,2,0:0:0:0:
352,96,157273,1,2,0:0:0:0:
160,96,157348,1,0,0:0:0:0:
352,96,157423,1,2,0:0:0:0:
160,96,157498,1,0,0:0:0:0:
160,96,157573,1,0,0:0:0:0:
352,96,157648,1,2,0:0:0:0:
352,96,157798,1,2,0:0:0:0:
160,96,157948,1,0,0:0:0:0:
352,96,158098,1,2,0:0:0:0:
352,96,158173,1,2,0:0:0:0:
160,96,158248,1,0,0:0:0:0:
352,96,158398,1,2,0:0:0:0:
160,96,158473,1,0,0:0:0:0:
352,96,158548,1,2,0:0:0:0:
160,96,158698,1,0,0:0:0:0:
352,96,158848,1,2,0:0:0:0:
352,96,158998,1,2,0:0:0:0:
352,96,159073,1,2,0:0:0:0:
352,96,159148,1,2,0:0:0:0:
160,96,159223,1,0,0:0:0:0:
160,96,159298,1,0,0:0:0:0:
160,96,159373,1,0,0:0:0:0:
352,96,159448,1,2,0:0:0:0:
160,96,159598,1,0,0:0:0:0:
352,96,159748,1,2,0:0:0:0:
352,96,159898,1,2,0:0:0:0:
352,96,159973,1,2,0:0:0:0:
160,96,160048,1,0,0:0:0:0:
160,96,160198,1,0,0:0:0:0:
352,96,160348,1,2,0:0:0:0:
160,96,160498,1,0,0:0:0:0:
160,96,160573,1,0,0:0:0:0:
352,96,160648,1,2,0:0:0:0:
352,96,160798,1,2,0:0:0:0:
352,96,160873,1,2,0:0:0:0:
160,96,160948,1,0,0:0:0:0:
160,96,161098,1,0,0:0:0:0:
352,96,161248,1,2,0:0:0:0:
160,96,161323,1,0,0:0:0:0:
352,96,161398,1,2,0:0:0:0:
352,96,161473,1,2,0:0:0:0:
160,96,161548,1,0,0:0:0:0:
352,96,161698,1,2,0:0:0:0:
160,96,161773,1,0,0:0:0:0:
352,96,161848,1,2,0:0:0:0:
160,96,161998,1,0,0:0:0:0:
352,96,162148,1,2,0:0:0:0:
160,96,162298,1,0,0:0:0:0:
160,96,162373,1,0,0:0:0:0:
352,96,162448,1,2,0:0:0:0:
352,96,162598,1,2,0:0:0:0:
160,96,162748,1,0,0:0:0:0:
352,96,162898,1,2,0:0:0:0:
352,96,162973,1,2,0:0:0:0:
160,96,163048,1,0,0:0:0:0:
352,96,163198,1,2,0:0:0:0:
160,96,163273,1,0,0:0:0:0:
352,96,163348,1,2,0:0:0:0:
160,96,163498,1,0,0:0:0:0:
160,96,163648,1,0,0:0:0:0:
352,96,163798,1,2,0:0:0:0:
352,96,163873,1,2,0:0:0:0:
352,96,163948,1,2,0:0:0:0:
160,96,164023,1,0,0:0:0:0:
160,96,164098,1,0,0:0:0:0:
160,96,164173,1,0,0:0:0:0:
352,96,164248,1,2,0:0:0:0:
160,96,164398,1,0,0:0:0:0:
352,96,164548,1,2,0:0:0:0:
352,96,164698,1,2,0:0:0:0:
352,96,164773,1,2,0:0:0:0:
160,96,164848,1,0,0:0:0:0:
160,96,164998,1,0,0:0:0:0:
352,96,165148,1,2,0:0:0:0:
160,96,165298,1,0,0:0:0:0:
160,96,165373,1,0,0:0:0:0:
352,96,165448,1,2,0:0:0:0:
352,96,165598,1,2,0:0:0:0:
352,96,165673,1,2,0:0:0:0:
160,96,165748,1,0,0:0:0:0:
160,96,165898,1,0,0:0:0:0:
352,96,166048,1,2,0:0:0:0:
160,96,166123,1,0,0:0:0:0:
352,96,166198,1,2,0:0:0:0:
352,96,166273,1,2,0:0:0:0:
160,96,166348,1,0,0:0:0:0:
352,96,166498,1,2,0:0:0:0:
160,96,166573,1,0,0:0:0:0:
352,96,166648,1,2,0:0:0:0:
352,96,166798,1,2,0:0:0:0:
352,96,166948,1,2,0:0:0:0:
160,96,167098,1,0,0:0:0:0:
352,96,167248,1,2,0:0:0:0:
352,96,167323,1,2,0:0:0:0:
352,96,167398,1,2,0:0:0:0:
352,96,167473,1,2,0:0:0:0:
160,96,167548,1,0,0:0:0:0:
160,96,167623,1,0,0:0:0:0:
160,96,167698,1,0,0:0:0:0:
160,96,167773,1,0,0:0:0:0:
352,96,167848,1,2,0:0:0:0:
352,96,167923,1,2,0:0:0:0:
352,96,167998,1,2,0:0:0:0:
352,96,168073,1,2,0:0:0:0:
160,96,168148,1,0,0:0:0:0:
160,96,168223,1,0,0:0:0:0:
160,96,168298,1,0,0:0:0:0:
160,96,168373,1,0,0:0:0:0:
352,96,168448,1,2,0:0:0:0:
352,96,168523,1,2,0:0:0:0:
160,96,168598,1,0,0:0:0:0:
160,96,168673,1,0,0:0:0:0:
352,96,168748,1,2,0:0:0:0:
352,96,168823,1,2,0:0:0:0:
160,96,168898,1,0,0:0:0:0:
160,96,168973,1,0,0:0:0:0:
352,96,169048,1,2,0:0:0:0:
160,96,169123,1,0,0:0:0:0:
352,96,169198,1,2,0:0:0:0:
160,96,169273,1,0,0:0:0:0:
352,96,169348,1,2,0:0:0:0:
160,96,169423,1,0,0:0:0:0:
352,96,169498,1,2,0:0:0:0:
160,96,169573,1,0,0:0:0:0:
352,96,169648,1,2,0:0:0:0:
352,96,169723,1,2,0:0:0:0:
352,96,169798,1,2,0:0:0:0:
352,96,169873,1,2,0:0:0:0:
160,96,169948,1,0,0:0:0:0:
160,96,170023,1,0,0:0:0:0:
160,96,170098,1,0,0:0:0:0:
160,96,170173,1,0,0:0:0:0:
352,96,170248,1,2,0:0:0:0:
352,96,170323,1,2,0:0:0:0:
160,96,170398,1,0,0:0:0:0:
160,96,170473,1,0,0:0:0:0:
352,96,170548,1,2,0:0:0:0:
352,96,170623,1,2,0:0:0:0:
160,96,170698,1,0,0:0:0:0:
160,96,170773,1,0,0:0:0:0:
352,96,170848,1,2,0:0:0:0:
160,96,170923,1,0,0:0:0:0:
352,96,170998,1,2,0:0:0:0:
160,96,171073,1,0,0:0:0:0:
352,96,171148,1,2,0:0:0:0:
160,96,171223,1,0,0:0:0:0:
352,96,171298,1,2,0:0:0:0:
160,96,171373,1,0,0:0:0:0:
160,96,171448,1,0,0:0:0:0:
160,96,171523,1,0,0:0:0:0:
160,96,171598,1,0,0:0:0:0:
160,96,171673,1,0,0:0:0:0:
160,96,171748,1,0,0:0:0:0:
160,96,171823,1,0,0:0:0:0:
160,96,171898,1,0,0:0:0:0:
160,96,171973,1,0,0:0:0:0:
352,96,172048,1,2,0:0:0:0:
352,96,172123,1,2,0:0:0:0:
160,96,172198,1,0,0:0:0:0:
160,96,172273,1,0,0:0:0:0:
352,96,172348,1,2,0:0:0:0:
352,96,172423,1,2,0:0:0:0:
160,96,172498,1,0,0:0:0:0:
160,96,172573,1,0,0:0:0:0:
352,96,172648,1,2,0:0:0:0:
352,96,172723,1,2,0:0:0:0:
160,96,172798,1,0,0:0:0:0:
160,96,172873,1,0,0:0:0:0:
352,96,172948,1,2,0:0:0:0:
352,96,173023,1,2,0:0:0:0:
160,96,173098,1,0,0:0:0:0:
160,96,173173,1,0,0:0:0:0:
352,96,173248,1,2,0:0:0:0:
352,96,173323,1,2,0:0:0:0:
352,96,173398,1,2,0:0:0:0:
160,96,173473,1,0,0:0:0:0:
352,96,173548,1,2,0:0:0:0:
352,96,173623,1,2,0:0:0:0:
352,96,173698,1,2,0:0:0:0:
160,96,173773,1,0,0:0:0:0:
352,96,173848,1,2,0:0:0:0:
352,96,173923,1,2,0:0:0:0:
352,96,173998,1,2,0:0:0:0:
160,96,174073,1,0,0:0:0:0:
352,96,174148,1,2,0:0:0:0:
160,96,174223,1,0,0:0:0:0:
352,96,174298,1,2,0:0:0:0:
160,96,174373,1,0,0:0:0:0:
352,96,174448,1,2,0:0:0:0:
160,96,174523,1,0,0:0:0:0:
352,96,174598,1,2,0:0:0:0:
160,96,174673,1,0,0:0:0:0:
352,96,174748,1,2,0:0:0:0:
352,96,174823,1,2,0:0:0:0:
352,96,174898,1,2,0:0:0:0:
160,96,174973,1,0,0:0:0:0:
352,96,175048,1,2,0:0:0:0:
352,96,175123,1,2,0:0:0:0:
352,96,175198,1,2,0:0:0:0:
160,96,175273,1,0,0:0:0:0:
352,96,175348,1,2,0:0:0:0:
352,96,175423,1,2,0:0:0:0:
352,96,175498,1,2,0:0:0:0:
160,96,175573,1,0,0:0:0:0:
160,96,175648,1,0,0:0:0:0:
160,96,175723,1,0,0:0:0:0:
160,96,175798,1,0,0:0:0:0:
160,96,175873,1,0,0:0:0:0:
160,96,175948,1,0,0:0:0:0:
160,96,176023,1,0,0:0:0:0:
160,96,176098,1,0,0:0:0:0:
160,96,176173,1,0,0:0:0:0:
352,288,176248,1,6,0:0:0:0:
352,288,176398,1,6,0:0:0:0:
352,288,176548,1,6,0:0:0:0:
