osu file format v14

[General]
AudioFilename: Cheshire,s dance.mp3
AudioLeadIn: 2000
PreviewTime: 62639
Countdown: 0
SampleSet: Soft
StackLeniency: 0.7
Mode: 3
LetterboxInBreaks: 0
SpecialStyle: 0
WidescreenStoryboard: 0

[Editor]
Bookmarks: 137248
DistanceSpacing: 1
BeatDivisor: 8
GridSize: 8
TimelineZoom: 2.4

[Metadata]
Title:Cheshire,s dance
TitleUnicode:Cheshire,s dance
Artist:a_hisa
ArtistUnicode:a_hisa
Creator:Cuppp
Version:Cuppp
Source:
Tags:entozer cuppp
BeatmapID:882525
BeatmapSetID:406061

[Difficulty]
HPDrainRate:8
CircleSize:7
OverallDifficulty:2
ApproachRate:10
SliderMultiplier:1.8
SliderTickRate:2

[Events]
//Background and Video events
0,0,"Cheshwithindivwriting.jpg",0,0
//Break Periods
//Storyboard Layer 0 (Background)
//Storyboard Layer 1 (Fail)
//Storyboard Layer 2 (Pass)
//Storyboard Layer 3 (Foreground)
//Storyboard Sound Samples

[TimingPoints]
450,500,4,2,0,5,1,0
10950,545.454545454546,4,2,0,5,1,0
11505,666.666666666667,4,2,0,5,1,0
11828,750,4,2,0,5,1,0
12203,923.076923076923,4,2,0,5,1,0
12682,1000,4,2,0,5,1,0
13030,1000,4,2,0,5,1,0
13648,300,4,2,0,5,1,0

[Colours]
Combo1 : 255,253,170
Combo2 : 255,170,255
Combo3 : 170,255,255
Combo4 : 185,255,170

[HitObjects]
475,192,450,128,0,700:0:0:0:0:
329,192,450,128,0,700:0:0:0:0:
256,192,450,1,0,0:0:0:0:
36,192,450,1,0,0:0:0:0:
402,192,700,128,0,825:0:0:0:0:
182,192,700,128,0,825:0:0:0:0:
109,192,950,128,0,1200:0:0:0:0:
36,192,950,128,0,1200:0:0:0:0:
475,192,950,1,0,0:0:0:0:
182,192,1200,128,0,1325:0:0:0:0:
329,192,1200,128,0,1325:0:0:0:0:
109,192,1325,128,0,1575:0:0:0:0:
36,192,1325,128,0,1575:0:0:0:0:
402,192,1450,1,0,0:0:0:0:
182,192,1700,128,0,1825:0:0:0:0:
329,192,1700,128,0,1825:0:0:0:0:
109,192,1825,128,0,1950:0:0:0:0:
36,192,1825,128,0,1950:0:0:0:0:
402,192,1950,128,0,2200:0:0:0:0:
475,192,1950,128,0,2200:0:0:0:0:
256,192,1950,1,0,0:0:0:0:
329,192,2200,128,0,2325:0:0:0:0:
182,192,2200,128,0,2325:0:0:0:0:
256,192,2450,128,0,2700:0:0:0:0:
36,192,2450,128,0,2700:0:0:0:0:
402,192,2450,1,0,0:0:0:0:
109,192,2700,128,0,2825:0:0:0:0:
329,192,2700,128,0,2825:0:0:0:0:
182,192,2825,128,0,2950:0:0:0:0:
402,192,2825,128,0,2950:0:0:0:0:
256,192,2950,128,0,3075:0:0:0:0:
329,192,2950,128,0,3075:0:0:0:0:
36,192,2950,1,0,0:0:0:0:
402,192,3075,128,0,3200:0:0:0:0:
475,192,3075,128,0,3200:0:0:0:0:
182,192,3200,128,0,3325:0:0:0:0:
36,192,3200,128,0,3325:0:0:0:0:
402,192,3325,128,0,3450:0:0:0:0:
475,192,3325,128,0,3450:0:0:0:0:
256,192,3450,128,0,3700:0:0:0:0:
109,192,3450,128,0,3700:0:0:0:0:
329,192,3450,1,0,0:0:0:0:
329,192,3700,128,0,3950:0:0:0:0:
182,192,3700,128,0,3950:0:0:0:0:
256,192,3950,128,0,4137:0:0:0:0:
402,192,3950,128,0,4137:0:0:0:0:
36,192,3950,1,0,0:0:0:0:
36,192,4200,128,0,4325:0:0:0:0:
182,192,4200,128,0,4325:0:0:0:0:
109,192,4325,128,0,4450:0:0:0:0:
256,192,4325,128,0,4450:0:0:0:0:
329,192,4450,128,0,4700:0:0:0:0:
475,192,4450,128,0,4700:0:0:0:0:
402,192,4450,1,0,0:0:0:0:
182,192,4700,128,0,4950:0:0:0:0:
36,192,4700,128,0,4950:0:0:0:0:
256,192,4950,128,0,5200:0:0:0:0:
402,192,4950,128,0,5200:0:0:0:0:
109,192,4950,1,0,0:0:0:0:
36,192,5200,128,0,5325:0:0:0:0:
182,192,5325,128,0,5450:0:0:0:0:
402,192,5450,128,0,5575:0:0:0:0:
329,192,5450,128,0,5575:0:0:0:0:
475,192,5450,1,0,0:0:0:0:
109,192,5700,128,0,5825:0:0:0:0:
256,192,5825,128,0,5950:0:0:0:0:
402,192,5950,128,0,6200:0:0:0:0:
475,192,5950,128,0,6200:0:0:0:0:
36,192,5950,1,0,0:0:0:0:
256,192,6200,128,0,6325:0:0:0:0:
109,192,6325,128,0,6450:0:0:0:0:
36,192,6450,128,0,6575:0:0:0:0:
402,192,6450,1,0,0:0:0:0:
182,192,6575,128,0,6700:0:0:0:0:
329,192,6700,128,0,6825:0:0:0:0:
475,192,6825,128,0,6950:0:0:0:0:
256,192,6950,128,0,7200:0:0:0:0:
36,192,6950,128,0,7200:0:0:0:0:
402,192,6950,1,0,0:0:0:0:
182,192,7200,128,0,7325:0:0:0:0:
475,192,7200,128,0,7325:0:0:0:0:
256,192,7325,128,0,7450:0:0:0:0:
36,192,7325,128,0,7450:0:0:0:0:
182,192,7450,128,0,7700:0:0:0:0:
475,192,7450,128,0,7700:0:0:0:0:
402,192,7450,1,0,0:0:0:0:
329,192,7700,128,0,7825:0:0:0:0:
109,192,7700,128,0,7825:0:0:0:0:
256,192,7950,128,0,8200:0:0:0:0:
36,192,7950,128,0,8200:0:0:0:0:
402,192,7950,1,0,0:0:0:0:
109,192,8200,128,0,8325:0:0:0:0:
182,192,8325,128,0,8450:0:0:0:0:
256,192,8450,5,0,0:0:0:0:
475,192,8450,128,0,8700:0:0:0:0:
329,192,8450,128,0,8700:0:0:0:0:
402,192,8700,128,0,8825:0:0:0:0:
182,192,8700,128,0,8825:0:0:0:0:
109,192,8950,128,0,9200:0:0:0:0:
36,192,8950,128,0,9200:0:0:0:0:
475,192,8950,1,0,0:0:0:0:
182,192,9200,128,0,9325:0:0:0:0:
329,192,9200,128,0,9325:0:0:0:0:
109,192,9325,128,0,9575:0:0:0:0:
36,192,9325,128,0,9575:0:0:0:0:
402,192,9450,1,0,0:0:0:0:
182,192,9700,128,0,9825:0:0:0:0:
329,192,9700,128,0,9825:0:0:0:0:
109,192,9825,128,0,9950:0:0:0:0:
36,192,9825,128,0,9950:0:0:0:0:
402,192,9950,128,0,10200:0:0:0:0:
475,192,9950,128,0,10200:0:0:0:0:
256,192,9950,1,0,0:0:0:0:
329,192,10200,128,0,10325:0:0:0:0:
182,192,10200,128,0,10325:0:0:0:0:
256,192,10450,128,0,10700:0:0:0:0:
36,192,10450,128,0,10700:0:0:0:0:
402,192,10450,1,0,0:0:0:0:
109,192,10700,128,0,10825:0:0:0:0:
329,192,10700,128,0,10825:0:0:0:0:
182,192,10825,128,0,10950:0:0:0:0:
402,192,10825,128,0,10950:0:0:0:0:
329,192,10950,128,0,11086:0:0:0:0:
36,192,10950,1,0,0:0:0:0:
182,192,11086,128,0,11222:0:0:0:0:
402,192,11222,128,0,11359:0:0:0:0:
109,192,11359,128,0,11505:0:0:0:0:
256,192,11505,128,0,11828:0:0:0:0:
36,192,11828,128,0,12203:0:0:0:0:
475,192,12203,128,0,13530:0:0:0:0:
402,192,12682,128,0,13530:0:0:0:0:
329,192,13030,128,0,13530:0:0:0:0:
256,192,13280,128,0,13530:0:0:0:0:
475,192,13648,128,0,14135:0:0:0:0:
402,192,13648,128,0,13835:0:0:0:0:
329,192,13648,128,0,13798:0:0:0:0:
256,192,13648,128,0,13760:0:0:0:0:
109,192,13648,128,0,13760:0:0:0:0:
182,192,13648,128,0,13723:0:0:0:0:
36,192,13648,128,0,13798:0:0:0:0:
109,192,13948,128,0,14135:0:0:0:0:
36,192,13948,128,0,14435:0:0:0:0:
256,192,13948,128,0,14023:0:0:0:0:
182,192,13948,128,0,14060:0:0:0:0:
329,192,13948,128,0,14060:0:0:0:0:
402,192,13948,128,0,14098:0:0:0:0:
256,192,14248,128,0,14360:0:0:0:0:
329,192,14248,128,0,14323:0:0:0:0:
182,192,14248,128,0,14398:0:0:0:0:
475,192,14248,128,0,14735:0:0:0:0:
109,192,14248,128,0,14435:0:0:0:0:
402,192,14248,128,0,14360:0:0:0:0:
182,192,14548,128,0,14735:0:0:0:0:
109,192,14548,128,0,14698:0:0:0:0:
402,192,14548,128,0,14623:0:0:0:0:
36,192,14548,128,0,14660:0:0:0:0:
329,192,14548,128,0,14660:0:0:0:0:
256,192,14548,128,0,14698:0:0:0:0:
256,192,14848,128,0,15298:0:0:0:0:
36,192,14848,128,0,14923:0:0:0:0:
475,192,14848,1,0,0:0:0:0:
402,192,14848,1,0,0:0:0:0:
329,192,14923,1,0,0:0:0:0:
182,192,14923,1,0,0:0:0:0:
109,192,14998,128,0,15073:0:0:0:0:
402,192,14998,1,0,0:0:0:0:
475,192,14998,1,0,0:0:0:0:
329,192,15073,1,0,0:0:0:0:
36,192,15073,1,0,0:0:0:0:
182,192,15148,128,0,15223:0:0:0:0:
402,192,15148,1,0,0:0:0:0:
475,192,15148,1,0,0:0:0:0:
36,192,15223,1,0,0:0:0:0:
329,192,15298,128,0,15373:0:0:0:0:
109,192,15298,128,0,15373:0:0:0:0:
475,192,15298,1,0,0:0:0:0:
182,192,15298,1,0,0:0:0:0:
402,192,15373,128,0,15448:0:0:0:0:
256,192,15373,1,0,0:0:0:0:
475,192,15448,128,0,15823:0:0:0:0:
36,192,15448,128,0,15523:0:0:0:0:
329,192,15448,1,0,0:0:0:0:
182,192,15448,1,0,0:0:0:0:
109,192,15523,1,0,0:0:0:0:
256,192,15523,1,0,0:0:0:0:
329,192,15598,128,0,15673:0:0:0:0:
36,192,15598,1,0,0:0:0:0:
182,192,15598,1,0,0:0:0:0:
256,192,15673,1,0,0:0:0:0:
402,192,15673,1,0,0:0:0:0:
256,192,15748,128,0,15823:0:0:0:0:
109,192,15748,1,0,0:0:0:0:
36,192,15748,1,0,0:0:0:0:
402,192,15823,1,0,0:0:0:0:
329,192,15823,1,0,0:0:0:0:
36,192,15898,128,0,16048:0:0:0:0:
182,192,15898,128,0,15973:0:0:0:0:
475,192,15898,1,0,0:0:0:0:
109,192,15898,1,0,0:0:0:0:
256,192,15973,1,0,0:0:0:0:
329,192,15973,1,0,0:0:0:0:
109,192,16048,128,0,16498:0:0:0:0:
402,192,16048,128,0,16123:0:0:0:0:
182,192,16048,1,0,0:0:0:0:
475,192,16048,1,0,0:0:0:0:
256,192,16123,1,0,0:0:0:0:
36,192,16123,1,0,0:0:0:0:
329,192,16198,128,0,16273:0:0:0:0:
182,192,16198,1,0,0:0:0:0:
475,192,16198,1,0,0:0:0:0:
402,192,16273,1,0,0:0:0:0:
36,192,16273,1,0,0:0:0:0:
256,192,16348,128,0,16423:0:0:0:0:
475,192,16348,1,0,0:0:0:0:
182,192,16348,1,0,0:0:0:0:
402,192,16423,1,0,0:0:0:0:
36,192,16423,1,0,0:0:0:0:
475,192,16498,128,0,16573:0:0:0:0:
182,192,16498,128,0,16573:0:0:0:0:
329,192,16498,1,0,0:0:0:0:
402,192,16573,128,0,16648:0:0:0:0:
256,192,16573,1,0,0:0:0:0:
36,192,16573,1,0,0:0:0:0:
329,192,16648,128,0,17023:0:0:0:0:
109,192,16648,128,0,16723:0:0:0:0:
182,192,16648,1,0,0:0:0:0:
475,192,16648,1,0,0:0:0:0:
402,192,16723,1,0,0:0:0:0:
256,192,16723,1,0,0:0:0:0:
36,192,16798,128,0,16873:0:0:0:0:
475,192,16798,1,0,0:0:0:0:
182,192,16798,1,0,0:0:0:0:
402,192,16873,1,0,0:0:0:0:
256,192,16873,1,0,0:0:0:0:
109,192,16948,128,0,17023:0:0:0:0:
182,192,16948,1,0,0:0:0:0:
475,192,16948,1,0,0:0:0:0:
256,192,17023,1,0,0:0:0:0:
402,192,17023,1,0,0:0:0:0:
182,192,17098,1,0,0:0:0:0:
475,192,17098,1,0,0:0:0:0:
109,192,17098,1,0,0:0:0:0:
329,192,17098,128,0,17173:0:0:0:0:
36,192,17173,1,0,0:0:0:0:
402,192,17248,128,0,17473:0:0:0:0:
475,192,17248,128,0,17473:0:0:0:0:
182,192,17248,128,0,17323:0:0:0:0:
256,192,17248,128,0,17285:0:0:0:0:
109,192,17248,1,0,0:0:0:0:
36,192,17323,1,0,0:0:0:0:
256,192,17398,128,0,17473:0:0:0:0:
329,192,17398,128,0,17435:0:0:0:0:
109,192,17398,1,0,0:0:0:0:
182,192,17473,1,0,0:0:0:0:
109,192,17548,128,0,17623:0:0:0:0:
36,192,17548,128,0,17623:0:0:0:0:
329,192,17548,1,0,0:0:0:0:
256,192,17548,1,0,0:0:0:0:
402,192,17548,1,0,0:0:0:0:
475,192,17548,128,0,17585:0:0:0:0:
182,192,17623,1,0,0:0:0:0:
402,192,17698,128,0,17848:0:0:0:0:
475,192,17698,128,0,17848:0:0:0:0:
256,192,17698,128,0,17773:0:0:0:0:
329,192,17698,128,0,17735:0:0:0:0:
109,192,17698,1,0,0:0:0:0:
36,192,17773,1,0,0:0:0:0:
109,192,17848,128,0,17923:0:0:0:0:
182,192,17848,128,0,17885:0:0:0:0:
256,192,17848,1,0,0:0:0:0:
329,192,17848,1,0,0:0:0:0:
36,192,17923,1,0,0:0:0:0:
402,192,17998,128,0,18073:0:0:0:0:
475,192,17998,128,0,18073:0:0:0:0:
256,192,17998,128,0,18073:0:0:0:0:
329,192,17998,128,0,18035:0:0:0:0:
109,192,17998,1,0,0:0:0:0:
182,192,18073,1,0,0:0:0:0:
109,192,18148,128,0,18373:0:0:0:0:
36,192,18148,128,0,18373:0:0:0:0:
329,192,18148,128,0,18223:0:0:0:0:
402,192,18148,128,0,18185:0:0:0:0:
256,192,18148,1,0,0:0:0:0:
475,192,18148,1,0,0:0:0:0:
182,192,18223,1,0,0:0:0:0:
402,192,18298,128,0,18373:0:0:0:0:
475,192,18298,128,0,18335:0:0:0:0:
256,192,18298,1,0,0:0:0:0:
329,192,18373,1,0,0:0:0:0:
402,192,18448,128,0,18673:0:0:0:0:
475,192,18448,128,0,18673:0:0:0:0:
256,192,18448,128,0,18523:0:0:0:0:
182,192,18448,128,0,18485:0:0:0:0:
109,192,18448,1,0,0:0:0:0:
329,192,18523,1,0,0:0:0:0:
36,192,18523,1,0,0:0:0:0:
182,192,18598,128,0,18673:0:0:0:0:
109,192,18598,128,0,18635:0:0:0:0:
256,192,18598,1,0,0:0:0:0:
329,192,18673,1,0,0:0:0:0:
475,192,18748,1,0,0:0:0:0:
256,192,18748,1,0,0:0:0:0:
402,192,18748,128,0,18823:0:0:0:0:
109,192,18748,128,0,18823:0:0:0:0:
36,192,18748,128,0,18823:0:0:0:0:
182,192,18823,1,0,0:0:0:0:
329,192,18823,1,0,0:0:0:0:
256,192,18898,128,0,18935:0:0:0:0:
475,192,18898,128,0,19048:0:0:0:0:
36,192,18898,128,0,19048:0:0:0:0:
402,192,18898,1,0,0:0:0:0:
109,192,18898,1,0,0:0:0:0:
329,192,18973,128,0,19010:0:0:0:0:
182,192,18973,128,0,19010:0:0:0:0:
402,192,19048,128,0,19085:0:0:0:0:
109,192,19048,128,0,19085:0:0:0:0:
182,192,19048,1,0,0:0:0:0:
329,192,19048,1,0,0:0:0:0:
475,192,19123,128,0,19160:0:0:0:0:
36,192,19123,128,0,19160:0:0:0:0:
256,192,19123,128,0,19160:0:0:0:0:
182,192,19198,128,0,19235:0:0:0:0:
109,192,19198,128,0,19235:0:0:0:0:
329,192,19198,128,0,19235:0:0:0:0:
402,192,19198,128,0,19235:0:0:0:0:
402,192,19273,1,0,0:0:0:0:
109,192,19273,1,0,0:0:0:0:
256,192,19273,1,0,0:0:0:0:
329,192,19348,128,0,19385:0:0:0:0:
256,192,19348,128,0,19385:0:0:0:0:
182,192,19348,128,0,19385:0:0:0:0:
36,192,19348,128,0,19385:0:0:0:0:
475,192,19348,128,0,19385:0:0:0:0:
329,192,19423,1,0,0:0:0:0:
475,192,19423,1,0,0:0:0:0:
182,192,19423,1,0,0:0:0:0:
36,192,19423,1,0,0:0:0:0:
402,192,19498,1,0,0:0:0:0:
109,192,19498,1,0,0:0:0:0:
256,192,19498,1,0,0:0:0:0:
36,192,19573,1,0,0:0:0:0:
182,192,19573,1,0,0:0:0:0:
329,192,19573,1,0,0:0:0:0:
475,192,19573,1,0,0:0:0:0:
256,192,19648,128,0,20098:0:0:0:0:
475,192,19648,128,0,19723:0:0:0:0:
109,192,19648,1,0,0:0:0:0:
402,192,19648,1,0,0:0:0:0:
182,192,19723,1,0,0:0:0:0:
329,192,19723,1,0,0:0:0:0:
402,192,19798,128,0,19873:0:0:0:0:
109,192,19798,1,0,0:0:0:0:
36,192,19798,1,0,0:0:0:0:
182,192,19873,1,0,0:0:0:0:
475,192,19873,1,0,0:0:0:0:
329,192,19948,128,0,20023:0:0:0:0:
109,192,19948,1,0,0:0:0:0:
36,192,19948,1,0,0:0:0:0:
475,192,20023,1,0,0:0:0:0:
182,192,20098,128,0,20173:0:0:0:0:
402,192,20098,128,0,20173:0:0:0:0:
36,192,20098,1,0,0:0:0:0:
329,192,20098,1,0,0:0:0:0:
109,192,20173,128,0,20248:0:0:0:0:
256,192,20173,1,0,0:0:0:0:
36,192,20248,128,0,20623:0:0:0:0:
475,192,20248,128,0,20323:0:0:0:0:
182,192,20248,1,0,0:0:0:0:
329,192,20248,1,0,0:0:0:0:
402,192,20323,1,0,0:0:0:0:
256,192,20323,1,0,0:0:0:0:
182,192,20398,128,0,20473:0:0:0:0:
475,192,20398,1,0,0:0:0:0:
329,192,20398,1,0,0:0:0:0:
256,192,20473,1,0,0:0:0:0:
109,192,20473,1,0,0:0:0:0:
256,192,20548,128,0,20623:0:0:0:0:
402,192,20548,1,0,0:0:0:0:
475,192,20548,1,0,0:0:0:0:
109,192,20623,1,0,0:0:0:0:
182,192,20623,1,0,0:0:0:0:
475,192,20698,128,0,20848:0:0:0:0:
329,192,20698,128,0,20773:0:0:0:0:
36,192,20698,1,0,0:0:0:0:
402,192,20698,1,0,0:0:0:0:
256,192,20773,1,0,0:0:0:0:
182,192,20773,1,0,0:0:0:0:
402,192,20848,128,0,21298:0:0:0:0:
109,192,20848,128,0,20923:0:0:0:0:
329,192,20848,1,0,0:0:0:0:
36,192,20848,1,0,0:0:0:0:
256,192,20923,1,0,0:0:0:0:
475,192,20923,1,0,0:0:0:0:
182,192,20998,128,0,21073:0:0:0:0:
329,192,20998,1,0,0:0:0:0:
36,192,20998,1,0,0:0:0:0:
109,192,21073,1,0,0:0:0:0:
475,192,21073,1,0,0:0:0:0:
256,192,21148,128,0,21223:0:0:0:0:
36,192,21148,1,0,0:0:0:0:
329,192,21148,1,0,0:0:0:0:
109,192,21223,1,0,0:0:0:0:
475,192,21223,1,0,0:0:0:0:
36,192,21298,128,0,21373:0:0:0:0:
329,192,21298,128,0,21373:0:0:0:0:
182,192,21298,1,0,0:0:0:0:
109,192,21373,128,0,21448:0:0:0:0:
256,192,21373,1,0,0:0:0:0:
475,192,21373,1,0,0:0:0:0:
182,192,21448,128,0,21823:0:0:0:0:
402,192,21448,128,0,21523:0:0:0:0:
329,192,21448,1,0,0:0:0:0:
36,192,21448,1,0,0:0:0:0:
109,192,21523,1,0,0:0:0:0:
256,192,21523,1,0,0:0:0:0:
475,192,21598,128,0,21673:0:0:0:0:
36,192,21598,1,0,0:0:0:0:
329,192,21598,1,0,0:0:0:0:
109,192,21673,1,0,0:0:0:0:
256,192,21673,1,0,0:0:0:0:
402,192,21748,128,0,21823:0:0:0:0:
329,192,21748,1,0,0:0:0:0:
36,192,21748,1,0,0:0:0:0:
256,192,21823,1,0,0:0:0:0:
109,192,21823,1,0,0:0:0:0:
329,192,21898,1,0,0:0:0:0:
36,192,21898,1,0,0:0:0:0:
402,192,21898,1,0,0:0:0:0:
182,192,21898,128,0,21973:0:0:0:0:
475,192,21973,1,0,0:0:0:0:
109,192,22048,128,0,22273:0:0:0:0:
36,192,22048,128,0,22273:0:0:0:0:
329,192,22048,128,0,22123:0:0:0:0:
256,192,22048,128,0,22085:0:0:0:0:
402,192,22048,1,0,0:0:0:0:
475,192,22123,1,0,0:0:0:0:
256,192,22198,128,0,22273:0:0:0:0:
182,192,22198,128,0,22235:0:0:0:0:
402,192,22198,1,0,0:0:0:0:
329,192,22273,1,0,0:0:0:0:
402,192,22348,128,0,22423:0:0:0:0:
475,192,22348,128,0,22423:0:0:0:0:
182,192,22348,1,0,0:0:0:0:
256,192,22348,1,0,0:0:0:0:
109,192,22348,1,0,0:0:0:0:
36,192,22348,128,0,22385:0:0:0:0:
329,192,22423,1,0,0:0:0:0:
109,192,22498,128,0,22648:0:0:0:0:
36,192,22498,128,0,22648:0:0:0:0:
256,192,22498,128,0,22573:0:0:0:0:
182,192,22498,128,0,22535:0:0:0:0:
402,192,22498,1,0,0:0:0:0:
475,192,22573,1,0,0:0:0:0:
329,192,22648,128,0,22723:0:0:0:0:
256,192,22648,128,0,22685:0:0:0:0:
402,192,22648,1,0,0:0:0:0:
182,192,22648,1,0,0:0:0:0:
475,192,22723,1,0,0:0:0:0:
109,192,22798,128,0,22873:0:0:0:0:
36,192,22798,128,0,22873:0:0:0:0:
256,192,22798,128,0,22873:0:0:0:0:
182,192,22798,128,0,22835:0:0:0:0:
402,192,22798,1,0,0:0:0:0:
329,192,22873,5,0,0:0:0:0:
402,192,22948,128,0,23173:0:0:0:0:
475,192,22948,128,0,23173:0:0:0:0:
182,192,22948,128,0,23023:0:0:0:0:
109,192,22948,128,0,22985:0:0:0:0:
256,192,22948,1,0,0:0:0:0:
36,192,22948,1,0,0:0:0:0:
329,192,23023,1,0,0:0:0:0:
36,192,23098,128,0,23135:0:0:0:0:
256,192,23098,1,0,0:0:0:0:
109,192,23098,128,0,23173:0:0:0:0:
182,192,23173,1,0,0:0:0:0:
475,192,23248,128,0,23735:0:0:0:0:
402,192,23248,128,0,23435:0:0:0:0:
256,192,23248,128,0,23360:0:0:0:0:
182,192,23248,128,0,23323:0:0:0:0:
36,192,23248,128,0,23398:0:0:0:0:
109,192,23248,128,0,23360:0:0:0:0:
329,192,23248,128,0,23398:0:0:0:0:
109,192,23398,1,0,0:0:0:0:
256,192,23398,1,0,0:0:0:0:
329,192,23548,128,0,23660:0:0:0:0:
256,192,23548,128,0,23623:0:0:0:0:
402,192,23548,128,0,23698:0:0:0:0:
109,192,23548,128,0,23735:0:0:0:0:
36,192,23548,128,0,24035:0:0:0:0:
182,192,23548,128,0,23660:0:0:0:0:
182,192,23698,1,0,0:0:0:0:
329,192,23698,1,0,0:0:0:0:
402,192,23848,128,0,23960:0:0:0:0:
256,192,23848,128,0,23960:0:0:0:0:
109,192,23848,128,0,24035:0:0:0:0:
329,192,23848,128,0,23923:0:0:0:0:
182,192,23848,128,0,23998:0:0:0:0:
475,192,23848,128,0,24148:0:0:0:0:
256,192,23998,1,0,0:0:0:0:
402,192,23998,1,0,0:0:0:0:
36,192,24073,1,0,0:0:0:0:
109,192,24073,1,0,0:0:0:0:
329,192,24148,1,0,0:0:0:0:
402,192,24148,1,0,0:0:0:0:
182,192,24148,1,0,0:0:0:0:
109,192,24223,1,0,0:0:0:0:
36,192,24223,1,0,0:0:0:0:
402,192,24223,1,0,0:0:0:0:
256,192,24223,1,0,0:0:0:0:
109,192,24298,5,0,0:0:0:0:
36,192,24298,1,0,0:0:0:0:
475,192,24298,1,0,0:0:0:0:
329,192,24298,1,0,0:0:0:0:
109,192,24373,5,0,0:0:0:0:
36,192,24373,1,0,0:0:0:0:
402,192,24373,1,0,0:0:0:0:
475,192,24448,128,0,24673:0:0:0:0:
182,192,24448,128,0,24598:0:0:0:0:
256,192,24448,1,0,0:0:0:0:
402,192,24523,128,0,24598:0:0:0:0:
109,192,24523,1,0,0:0:0:0:
329,192,24598,128,0,24823:0:0:0:0:
36,192,24598,1,0,0:0:0:0:
256,192,24598,1,0,0:0:0:0:
402,192,24673,128,0,24748:0:0:0:0:
182,192,24673,1,0,0:0:0:0:
475,192,24748,128,0,24973:0:0:0:0:
109,192,24748,128,0,24898:0:0:0:0:
402,192,24823,128,0,24898:0:0:0:0:
36,192,24823,1,0,0:0:0:0:
256,192,24823,1,0,0:0:0:0:
329,192,24898,128,0,25123:0:0:0:0:
182,192,24898,1,0,0:0:0:0:
402,192,24973,128,0,25048:0:0:0:0:
109,192,24973,1,0,0:0:0:0:
475,192,25048,128,0,25273:0:0:0:0:
36,192,25048,128,0,25198:0:0:0:0:
256,192,25048,1,0,0:0:0:0:
402,192,25123,128,0,25198:0:0:0:0:
182,192,25123,1,0,0:0:0:0:
329,192,25198,128,0,25423:0:0:0:0:
109,192,25198,1,0,0:0:0:0:
402,192,25273,128,0,25348:0:0:0:0:
36,192,25273,1,0,0:0:0:0:
475,192,25348,128,0,25573:0:0:0:0:
256,192,25348,128,0,25498:0:0:0:0:
109,192,25348,1,0,0:0:0:0:
402,192,25423,128,0,25498:0:0:0:0:
182,192,25423,1,0,0:0:0:0:
329,192,25498,128,0,25723:0:0:0:0:
109,192,25498,1,0,0:0:0:0:
402,192,25573,128,0,25648:0:0:0:0:
36,192,25573,1,0,0:0:0:0:
475,192,25648,128,0,25873:0:0:0:0:
182,192,25648,128,0,25798:0:0:0:0:
256,192,25648,1,0,0:0:0:0:
402,192,25723,128,0,25798:0:0:0:0:
109,192,25723,1,0,0:0:0:0:
329,192,25798,128,0,26023:0:0:0:0:
36,192,25798,1,0,0:0:0:0:
256,192,25798,1,0,0:0:0:0:
402,192,25873,128,0,25948:0:0:0:0:
182,192,25873,1,0,0:0:0:0:
475,192,25948,128,0,26173:0:0:0:0:
109,192,25948,128,0,26098:0:0:0:0:
402,192,26023,128,0,26098:0:0:0:0:
36,192,26023,1,0,0:0:0:0:
256,192,26023,1,0,0:0:0:0:
329,192,26098,128,0,26323:0:0:0:0:
182,192,26098,1,0,0:0:0:0:
402,192,26173,128,0,26248:0:0:0:0:
109,192,26173,1,0,0:0:0:0:
475,192,26248,128,0,26473:0:0:0:0:
36,192,26248,128,0,26398:0:0:0:0:
256,192,26248,1,0,0:0:0:0:
402,192,26323,128,0,26398:0:0:0:0:
182,192,26323,1,0,0:0:0:0:
329,192,26398,128,0,26623:0:0:0:0:
109,192,26398,1,0,0:0:0:0:
256,192,26398,1,0,0:0:0:0:
402,192,26473,128,0,26548:0:0:0:0:
36,192,26473,1,0,0:0:0:0:
475,192,26548,128,0,26773:0:0:0:0:
256,192,26548,128,0,26698:0:0:0:0:
182,192,26548,1,0,0:0:0:0:
402,192,26623,128,0,26698:0:0:0:0:
109,192,26623,1,0,0:0:0:0:
329,192,26698,128,0,26773:0:0:0:0:
36,192,26698,1,0,0:0:0:0:
402,192,26773,128,0,26848:0:0:0:0:
109,192,26773,1,0,0:0:0:0:
475,192,26848,128,0,26923:0:0:0:0:
329,192,26848,128,0,26998:0:0:0:0:
36,192,26848,128,0,27073:0:0:0:0:
182,192,26848,1,0,0:0:0:0:
109,192,26923,128,0,26998:0:0:0:0:
402,192,26923,1,0,0:0:0:0:
182,192,26998,128,0,27223:0:0:0:0:
475,192,26998,1,0,0:0:0:0:
256,192,26998,1,0,0:0:0:0:
109,192,27073,128,0,27148:0:0:0:0:
329,192,27073,1,0,0:0:0:0:
36,192,27148,128,0,27373:0:0:0:0:
402,192,27148,128,0,27298:0:0:0:0:
109,192,27223,128,0,27298:0:0:0:0:
475,192,27223,1,0,0:0:0:0:
256,192,27223,1,0,0:0:0:0:
182,192,27298,128,0,27523:0:0:0:0:
329,192,27298,1,0,0:0:0:0:
109,192,27373,128,0,27448:0:0:0:0:
402,192,27373,1,0,0:0:0:0:
36,192,27448,128,0,27673:0:0:0:0:
475,192,27448,128,0,27598:0:0:0:0:
256,192,27448,1,0,0:0:0:0:
109,192,27523,128,0,27598:0:0:0:0:
329,192,27523,1,0,0:0:0:0:
182,192,27598,128,0,27823:0:0:0:0:
402,192,27598,1,0,0:0:0:0:
109,192,27673,128,0,27748:0:0:0:0:
475,192,27673,1,0,0:0:0:0:
36,192,27748,128,0,27973:0:0:0:0:
256,192,27748,128,0,27898:0:0:0:0:
402,192,27748,1,0,0:0:0:0:
109,192,27823,128,0,27898:0:0:0:0:
329,192,27823,1,0,0:0:0:0:
182,192,27898,128,0,28123:0:0:0:0:
402,192,27898,1,0,0:0:0:0:
109,192,27973,128,0,28048:0:0:0:0:
475,192,27973,1,0,0:0:0:0:
36,192,28048,128,0,28273:0:0:0:0:
329,192,28048,128,0,28198:0:0:0:0:
256,192,28048,1,0,0:0:0:0:
109,192,28123,128,0,28198:0:0:0:0:
402,192,28123,1,0,0:0:0:0:
182,192,28198,128,0,28423:0:0:0:0:
475,192,28198,1,0,0:0:0:0:
256,192,28198,1,0,0:0:0:0:
109,192,28273,128,0,28348:0:0:0:0:
329,192,28273,1,0,0:0:0:0:
36,192,28348,128,0,28573:0:0:0:0:
402,192,28348,128,0,28498:0:0:0:0:
109,192,28423,128,0,28498:0:0:0:0:
475,192,28423,1,0,0:0:0:0:
256,192,28423,1,0,0:0:0:0:
329,192,28498,1,0,0:0:0:0:
182,192,28498,128,0,28573:0:0:0:0:
109,192,28573,128,0,28648:0:0:0:0:
402,192,28573,1,0,0:0:0:0:
36,192,28648,128,0,28723:0:0:0:0:
475,192,28648,1,0,0:0:0:0:
256,192,28723,1,0,0:0:0:0:
402,192,29248,128,0,29473:0:0:0:0:
36,192,29248,1,0,0:0:0:0:
109,192,29248,1,0,0:0:0:0:
329,192,29248,1,0,0:0:0:0:
475,192,29248,1,0,0:0:0:0:
182,192,29323,128,0,29548:0:0:0:0:
256,192,29323,1,0,0:0:0:0:
329,192,29398,128,0,29623:0:0:0:0:
36,192,29398,1,0,0:0:0:0:
109,192,29473,128,0,29698:0:0:0:0:
256,192,29473,1,0,0:0:0:0:
402,192,29548,128,0,29773:0:0:0:0:
475,192,29548,1,0,0:0:0:0:
36,192,29548,1,0,0:0:0:0:
182,192,29623,128,0,29848:0:0:0:0:
256,192,29623,1,0,0:0:0:0:
329,192,29698,128,0,29923:0:0:0:0:
475,192,29698,1,0,0:0:0:0:
109,192,29773,128,0,29998:0:0:0:0:
256,192,29773,1,0,0:0:0:0:
402,192,29848,128,0,30073:0:0:0:0:
36,192,29848,1,0,0:0:0:0:
475,192,29848,1,0,0:0:0:0:
182,192,29923,128,0,30223:0:0:0:0:
256,192,29923,1,0,0:0:0:0:
329,192,29998,128,0,30298:0:0:0:0:
36,192,29998,1,0,0:0:0:0:
109,192,30073,128,0,30148:0:0:0:0:
256,192,30073,1,0,0:0:0:0:
402,192,30148,128,0,30373:0:0:0:0:
36,192,30148,1,0,0:0:0:0:
475,192,30148,1,0,0:0:0:0:
109,192,30223,128,0,30448:0:0:0:0:
256,192,30223,1,0,0:0:0:0:
182,192,30298,128,0,30523:0:0:0:0:
36,192,30298,1,0,0:0:0:0:
329,192,30373,128,0,30598:0:0:0:0:
256,192,30373,1,0,0:0:0:0:
402,192,30448,128,0,30748:0:0:0:0:
475,192,30448,1,0,0:0:0:0:
36,192,30448,1,0,0:0:0:0:
109,192,30523,128,0,30823:0:0:0:0:
256,192,30523,1,0,0:0:0:0:
182,192,30598,128,0,30673:0:0:0:0:
475,192,30598,1,0,0:0:0:0:
329,192,30673,128,0,30898:0:0:0:0:
256,192,30673,1,0,0:0:0:0:
182,192,30748,128,0,30973:0:0:0:0:
475,192,30748,1,0,0:0:0:0:
36,192,30748,1,0,0:0:0:0:
402,192,30823,128,0,31048:0:0:0:0:
256,192,30823,1,0,0:0:0:0:
109,192,30898,128,0,31123:0:0:0:0:
36,192,30898,1,0,0:0:0:0:
329,192,30973,128,0,31198:0:0:0:0:
256,192,30973,1,0,0:0:0:0:
182,192,31048,128,0,31348:0:0:0:0:
475,192,31048,1,0,0:0:0:0:
36,192,31048,1,0,0:0:0:0:
402,192,31123,128,0,31498:0:0:0:0:
256,192,31123,1,0,0:0:0:0:
109,192,31198,128,0,31273:0:0:0:0:
475,192,31198,1,0,0:0:0:0:
329,192,31273,128,0,31423:0:0:0:0:
256,192,31273,1,0,0:0:0:0:
109,192,31348,128,0,31573:0:0:0:0:
475,192,31348,1,0,0:0:0:0:
36,192,31348,1,0,0:0:0:0:
182,192,31423,128,0,31648:0:0:0:0:
256,192,31423,1,0,0:0:0:0:
329,192,31498,128,0,31648:0:0:0:0:
36,192,31498,1,0,0:0:0:0:
402,192,31573,128,0,31723:0:0:0:0:
256,192,31573,1,0,0:0:0:0:
109,192,31648,128,0,31873:0:0:0:0:
475,192,31648,1,0,0:0:0:0:
36,192,31723,128,0,31948:0:0:0:0:
256,192,31723,1,0,0:0:0:0:
475,192,31798,128,0,32023:0:0:0:0:
182,192,31798,1,0,0:0:0:0:
402,192,31873,128,0,32098:0:0:0:0:
256,192,31873,1,0,0:0:0:0:
109,192,31948,128,0,32323:0:0:0:0:
329,192,31948,1,0,0:0:0:0:
182,192,31948,1,0,0:0:0:0:
36,192,32023,128,0,32248:0:0:0:0:
256,192,32023,1,0,0:0:0:0:
475,192,32098,128,0,32173:0:0:0:0:
182,192,32098,1,0,0:0:0:0:
402,192,32173,128,0,32398:0:0:0:0:
256,192,32173,1,0,0:0:0:0:
475,192,32248,128,0,32473:0:0:0:0:
329,192,32248,1,0,0:0:0:0:
182,192,32248,1,0,0:0:0:0:
36,192,32323,128,0,32548:0:0:0:0:
256,192,32323,1,0,0:0:0:0:
109,192,32398,128,0,32623:0:0:0:0:
329,192,32398,1,0,0:0:0:0:
402,192,32473,128,0,32698:0:0:0:0:
256,192,32473,1,0,0:0:0:0:
475,192,32548,128,0,32848:0:0:0:0:
329,192,32548,1,0,0:0:0:0:
182,192,32548,1,0,0:0:0:0:
36,192,32623,128,0,32773:0:0:0:0:
256,192,32623,1,0,0:0:0:0:
109,192,32698,128,0,32923:0:0:0:0:
182,192,32698,1,0,0:0:0:0:
402,192,32773,128,0,32998:0:0:0:0:
256,192,32773,1,0,0:0:0:0:
36,192,32848,128,0,32998:0:0:0:0:
329,192,32848,1,0,0:0:0:0:
182,192,32848,1,0,0:0:0:0:
475,192,32923,128,0,33073:0:0:0:0:
256,192,32923,1,0,0:0:0:0:
182,192,32998,128,0,33148:0:0:0:0:
109,192,32998,1,0,0:0:0:0:
329,192,32998,1,0,0:0:0:0:
256,192,33073,128,0,33223:0:0:0:0:
402,192,33073,1,0,0:0:0:0:
36,192,33073,1,0,0:0:0:0:
329,192,33148,128,0,33298:0:0:0:0:
475,192,33148,1,0,0:0:0:0:
109,192,33148,1,0,0:0:0:0:
36,192,33223,128,0,33373:0:0:0:0:
182,192,33223,1,0,0:0:0:0:
402,192,33223,1,0,0:0:0:0:
182,192,33298,128,0,33448:0:0:0:0:
475,192,33298,1,0,0:0:0:0:
256,192,33298,1,0,0:0:0:0:
109,192,33298,1,0,0:0:0:0:
329,192,33373,128,0,33523:0:0:0:0:
402,192,33373,1,0,0:0:0:0:
109,192,33448,128,0,33598:0:0:0:0:
475,192,33448,1,0,0:0:0:0:
36,192,33448,1,0,0:0:0:0:
256,192,33523,128,0,33673:0:0:0:0:
182,192,33523,1,0,0:0:0:0:
402,192,33523,1,0,0:0:0:0:
402,192,33598,128,0,33748:0:0:0:0:
329,192,33598,1,0,0:0:0:0:
36,192,33598,1,0,0:0:0:0:
475,192,33598,1,0,0:0:0:0:
182,192,33673,128,0,33823:0:0:0:0:
475,192,33673,1,0,0:0:0:0:
109,192,33673,1,0,0:0:0:0:
329,192,33748,128,0,33898:0:0:0:0:
256,192,33748,1,0,0:0:0:0:
36,192,33748,1,0,0:0:0:0:
475,192,33823,128,0,33973:0:0:0:0:
109,192,33823,1,0,0:0:0:0:
402,192,33823,1,0,0:0:0:0:
256,192,33898,128,0,34048:0:0:0:0:
36,192,33898,1,0,0:0:0:0:
182,192,33898,1,0,0:0:0:0:
402,192,33973,1,0,0:0:0:0:
109,192,33973,1,0,0:0:0:0:
109,192,34048,128,0,34123:0:0:0:0:
182,192,34048,128,0,34123:0:0:0:0:
36,192,34048,128,0,34123:0:0:0:0:
329,192,34048,1,0,0:0:0:0:
475,192,34048,1,0,0:0:0:0:
329,192,34123,128,0,34160:0:0:0:0:
402,192,34123,1,0,0:0:0:0:
109,192,34198,128,0,34235:0:0:0:0:
182,192,34198,128,0,34273:0:0:0:0:
256,192,34198,128,0,34273:0:0:0:0:
475,192,34198,1,0,0:0:0:0:
329,192,34198,1,0,0:0:0:0:
402,192,34273,128,0,34310:0:0:0:0:
36,192,34273,1,0,0:0:0:0:
182,192,34348,128,0,34385:0:0:0:0:
256,192,34348,128,0,34423:0:0:0:0:
329,192,34348,128,0,34423:0:0:0:0:
402,192,34348,1,0,0:0:0:0:
475,192,34423,128,0,34460:0:0:0:0:
109,192,34423,1,0,0:0:0:0:
36,192,34423,1,0,0:0:0:0:
256,192,34498,128,0,34535:0:0:0:0:
329,192,34498,128,0,34573:0:0:0:0:
402,192,34498,128,0,34573:0:0:0:0:
475,192,34498,1,0,0:0:0:0:
109,192,34573,1,0,0:0:0:0:
36,192,34573,1,0,0:0:0:0:
329,192,34648,128,0,34873:0:0:0:0:
402,192,34648,128,0,35023:0:0:0:0:
475,192,34648,128,0,35098:0:0:0:0:
256,192,34648,1,0,0:0:0:0:
182,192,34648,1,0,0:0:0:0:
109,192,34723,1,0,0:0:0:0:
36,192,34798,1,0,0:0:0:0:
182,192,34798,1,0,0:0:0:0:
256,192,34798,1,0,0:0:0:0:
109,192,34873,1,0,0:0:0:0:
182,192,34948,1,0,0:0:0:0:
36,192,34948,1,0,0:0:0:0:
329,192,34948,1,0,0:0:0:0:
256,192,35023,1,0,0:0:0:0:
182,192,35098,128,0,35248:0:0:0:0:
109,192,35098,128,0,35173:0:0:0:0:
329,192,35098,1,0,0:0:0:0:
36,192,35098,1,0,0:0:0:0:
256,192,35173,1,0,0:0:0:0:
402,192,35173,1,0,0:0:0:0:
329,192,35248,128,0,35548:0:0:0:0:
36,192,35248,128,0,35698:0:0:0:0:
475,192,35248,128,0,35473:0:0:0:0:
109,192,35248,1,0,0:0:0:0:
182,192,35323,1,0,0:0:0:0:
256,192,35323,1,0,0:0:0:0:
402,192,35398,1,0,0:0:0:0:
109,192,35398,1,0,0:0:0:0:
182,192,35473,1,0,0:0:0:0:
256,192,35473,1,0,0:0:0:0:
402,192,35548,1,0,0:0:0:0:
475,192,35548,1,0,0:0:0:0:
109,192,35548,1,0,0:0:0:0:
329,192,35623,1,0,0:0:0:0:
256,192,35623,1,0,0:0:0:0:
182,192,35698,128,0,35773:0:0:0:0:
475,192,35698,1,0,0:0:0:0:
402,192,35698,1,0,0:0:0:0:
109,192,35773,128,0,35848:0:0:0:0:
329,192,35773,1,0,0:0:0:0:
402,192,35848,128,0,35923:0:0:0:0:
329,192,35848,128,0,35923:0:0:0:0:
475,192,35848,128,0,35923:0:0:0:0:
36,192,35848,128,0,35923:0:0:0:0:
256,192,35848,1,0,0:0:0:0:
109,192,35923,1,0,0:0:0:0:
182,192,35923,128,0,35960:0:0:0:0:
182,192,35998,1,0,0:0:0:0:
402,192,35998,128,0,36035:0:0:0:0:
36,192,35998,1,0,0:0:0:0:
256,192,35998,128,0,36073:0:0:0:0:
329,192,35998,128,0,36073:0:0:0:0:
475,192,36073,1,0,0:0:0:0:
109,192,36073,128,0,36110:0:0:0:0:
182,192,36148,128,0,36223:0:0:0:0:
329,192,36148,128,0,36185:0:0:0:0:
256,192,36148,128,0,36223:0:0:0:0:
109,192,36148,1,0,0:0:0:0:
475,192,36223,1,0,0:0:0:0:
36,192,36223,128,0,36260:0:0:0:0:
402,192,36223,1,0,0:0:0:0:
36,192,36298,1,0,0:0:0:0:
109,192,36298,128,0,36373:0:0:0:0:
182,192,36298,128,0,36373:0:0:0:0:
256,192,36298,128,0,36335:0:0:0:0:
475,192,36373,1,0,0:0:0:0:
402,192,36373,1,0,0:0:0:0:
182,192,36448,128,0,37423:0:0:0:0:
109,192,36448,128,0,37123:0:0:0:0:
36,192,36448,128,0,36823:0:0:0:0:
329,192,36448,1,0,0:0:0:0:
256,192,36523,1,0,0:0:0:0:
475,192,36598,128,0,36673:0:0:0:0:
402,192,36598,128,0,36673:0:0:0:0:
329,192,36598,1,0,0:0:0:0:
256,192,36673,1,0,0:0:0:0:
402,192,36748,1,0,0:0:0:0:
329,192,36748,1,0,0:0:0:0:
475,192,36823,1,0,0:0:0:0:
256,192,36823,1,0,0:0:0:0:
402,192,36898,128,0,36973:0:0:0:0:
329,192,36898,128,0,36973:0:0:0:0:
36,192,36898,1,0,0:0:0:0:
475,192,36973,1,0,0:0:0:0:
256,192,36973,1,0,0:0:0:0:
329,192,37048,1,0,0:0:0:0:
402,192,37048,1,0,0:0:0:0:
36,192,37123,1,0,0:0:0:0:
475,192,37123,1,0,0:0:0:0:
329,192,37198,128,0,37273:0:0:0:0:
256,192,37198,128,0,37273:0:0:0:0:
109,192,37198,1,0,0:0:0:0:
402,192,37198,1,0,0:0:0:0:
36,192,37273,1,0,0:0:0:0:
475,192,37273,1,0,0:0:0:0:
402,192,37348,1,0,0:0:0:0:
329,192,37348,1,0,0:0:0:0:
256,192,37348,1,0,0:0:0:0:
109,192,37423,1,0,0:0:0:0:
36,192,37423,1,0,0:0:0:0:
475,192,37423,1,0,0:0:0:0:
256,192,37498,128,0,37573:0:0:0:0:
182,192,37498,128,0,37573:0:0:0:0:
402,192,37498,1,0,0:0:0:0:
329,192,37498,1,0,0:0:0:0:
36,192,37498,128,0,37573:0:0:0:0:
109,192,37573,128,0,37648:0:0:0:0:
475,192,37573,1,0,0:0:0:0:
182,192,37648,128,0,38473:0:0:0:0:
329,192,37648,128,0,38323:0:0:0:0:
402,192,37648,128,0,38173:0:0:0:0:
256,192,37648,1,0,0:0:0:0:
36,192,37648,1,0,0:0:0:0:
475,192,37723,1,0,0:0:0:0:
109,192,37798,128,0,37873:0:0:0:0:
36,192,37798,128,0,37873:0:0:0:0:
256,192,37798,1,0,0:0:0:0:
475,192,37873,1,0,0:0:0:0:
36,192,37948,1,0,0:0:0:0:
256,192,37948,1,0,0:0:0:0:
109,192,38023,1,0,0:0:0:0:
256,192,38098,128,0,38173:0:0:0:0:
475,192,38098,128,0,38173:0:0:0:0:
36,192,38098,1,0,0:0:0:0:
109,192,38173,1,0,0:0:0:0:
256,192,38248,1,0,0:0:0:0:
402,192,38248,1,0,0:0:0:0:
475,192,38323,1,0,0:0:0:0:
36,192,38323,1,0,0:0:0:0:
256,192,38398,128,0,38473:0:0:0:0:
109,192,38398,128,0,38473:0:0:0:0:
402,192,38398,1,0,0:0:0:0:
329,192,38398,1,0,0:0:0:0:
475,192,38473,1,0,0:0:0:0:
36,192,38473,1,0,0:0:0:0:
402,192,38548,1,0,0:0:0:0:
329,192,38548,1,0,0:0:0:0:
256,192,38548,1,0,0:0:0:0:
109,192,38548,1,0,0:0:0:0:
182,192,38623,1,0,0:0:0:0:
475,192,38623,1,0,0:0:0:0:
109,192,38698,128,0,38773:0:0:0:0:
36,192,38698,128,0,38773:0:0:0:0:
256,192,38698,128,0,38773:0:0:0:0:
402,192,38698,1,0,0:0:0:0:
329,192,38773,128,0,38848:0:0:0:0:
182,192,38773,1,0,0:0:0:0:
402,192,38848,128,0,38998:0:0:0:0:
475,192,38848,128,0,38960:0:0:0:0:
109,192,38848,1,0,0:0:0:0:
36,192,38848,1,0,0:0:0:0:
182,192,38923,1,0,0:0:0:0:
256,192,38923,1,0,0:0:0:0:
109,192,38998,128,0,39110:0:0:0:0:
36,192,38998,128,0,39148:0:0:0:0:
329,192,38998,1,0,0:0:0:0:
475,192,38998,1,0,0:0:0:0:
182,192,39073,1,0,0:0:0:0:
402,192,39073,1,0,0:0:0:0:
256,192,39148,128,0,39298:0:0:0:0:
329,192,39148,128,0,39260:0:0:0:0:
109,192,39148,1,0,0:0:0:0:
475,192,39148,1,0,0:0:0:0:
36,192,39223,1,0,0:0:0:0:
402,192,39223,1,0,0:0:0:0:
475,192,39298,128,0,39523:0:0:0:0:
109,192,39298,128,0,39523:0:0:0:0:
182,192,39298,1,0,0:0:0:0:
329,192,39298,1,0,0:0:0:0:
256,192,39373,1,0,0:0:0:0:
36,192,39373,1,0,0:0:0:0:
402,192,39373,1,0,0:0:0:0:
329,192,39448,1,0,0:0:0:0:
182,192,39448,1,0,0:0:0:0:
256,192,39523,1,0,0:0:0:0:
402,192,39523,1,0,0:0:0:0:
329,192,39598,128,0,39823:0:0:0:0:
36,192,39598,128,0,39823:0:0:0:0:
182,192,39598,1,0,0:0:0:0:
109,192,39598,1,0,0:0:0:0:
475,192,39598,1,0,0:0:0:0:
256,192,39673,1,0,0:0:0:0:
402,192,39673,1,0,0:0:0:0:
182,192,39748,1,0,0:0:0:0:
109,192,39748,1,0,0:0:0:0:
475,192,39748,1,0,0:0:0:0:
402,192,39823,1,0,0:0:0:0:
256,192,39898,128,0,40048:0:0:0:0:
182,192,39898,128,0,40048:0:0:0:0:
109,192,39898,1,0,0:0:0:0:
36,192,39898,1,0,0:0:0:0:
475,192,39898,1,0,0:0:0:0:
329,192,39973,1,0,0:0:0:0:
109,192,40048,128,0,40198:0:0:0:0:
475,192,40048,1,0,0:0:0:0:
36,192,40048,128,0,40160:0:0:0:0:
402,192,40048,1,0,0:0:0:0:
256,192,40123,1,0,0:0:0:0:
329,192,40123,1,0,0:0:0:0:
475,192,40198,128,0,40348:0:0:0:0:
182,192,40198,1,0,0:0:0:0:
402,192,40198,128,0,40310:0:0:0:0:
36,192,40198,1,0,0:0:0:0:
329,192,40273,1,0,0:0:0:0:
109,192,40273,1,0,0:0:0:0:
182,192,40348,128,0,40460:0:0:0:0:
402,192,40348,1,0,0:0:0:0:
36,192,40348,1,0,0:0:0:0:
256,192,40348,128,0,40498:0:0:0:0:
475,192,40423,1,0,0:0:0:0:
109,192,40423,1,0,0:0:0:0:
36,192,40498,128,0,40723:0:0:0:0:
402,192,40498,128,0,40723:0:0:0:0:
329,192,40498,1,0,0:0:0:0:
182,192,40498,1,0,0:0:0:0:
109,192,40573,1,0,0:0:0:0:
475,192,40573,1,0,0:0:0:0:
256,192,40573,1,0,0:0:0:0:
182,192,40648,1,0,0:0:0:0:
109,192,40723,1,0,0:0:0:0:
329,192,40723,1,0,0:0:0:0:
475,192,40798,128,0,41023:0:0:0:0:
182,192,40798,128,0,41023:0:0:0:0:
256,192,40798,1,0,0:0:0:0:
402,192,40798,1,0,0:0:0:0:
36,192,40798,1,0,0:0:0:0:
329,192,40873,1,0,0:0:0:0:
109,192,40873,1,0,0:0:0:0:
36,192,40948,128,0,41023:0:0:0:0:
256,192,40948,128,0,41023:0:0:0:0:
402,192,40948,1,0,0:0:0:0:
109,192,41023,128,0,41098:0:0:0:0:
329,192,41023,128,0,41098:0:0:0:0:
182,192,41098,128,0,41173:0:0:0:0:
402,192,41098,128,0,41173:0:0:0:0:
36,192,41098,1,0,0:0:0:0:
256,192,41173,128,0,41248:0:0:0:0:
475,192,41173,128,0,41248:0:0:0:0:
109,192,41173,1,0,0:0:0:0:
329,192,41248,128,0,42073:0:0:0:0:
36,192,41248,128,0,41773:0:0:0:0:
182,192,41248,128,0,41923:0:0:0:0:
402,192,41248,1,0,0:0:0:0:
475,192,41323,1,0,0:0:0:0:
256,192,41398,128,0,41473:0:0:0:0:
109,192,41398,128,0,41473:0:0:0:0:
402,192,41398,1,0,0:0:0:0:
475,192,41473,1,0,0:0:0:0:
402,192,41548,1,0,0:0:0:0:
256,192,41548,1,0,0:0:0:0:
109,192,41623,1,0,0:0:0:0:
402,192,41698,128,0,41773:0:0:0:0:
475,192,41698,128,0,41773:0:0:0:0:
256,192,41698,1,0,0:0:0:0:
109,192,41773,1,0,0:0:0:0:
36,192,41848,1,0,0:0:0:0:
256,192,41848,1,0,0:0:0:0:
402,192,41848,1,0,0:0:0:0:
475,192,41923,1,0,0:0:0:0:
182,192,41998,128,0,42073:0:0:0:0:
256,192,41998,128,0,42073:0:0:0:0:
402,192,41998,1,0,0:0:0:0:
109,192,41998,1,0,0:0:0:0:
36,192,42073,1,0,0:0:0:0:
109,192,42148,128,0,42373:0:0:0:0:
256,192,42148,128,0,42373:0:0:0:0:
402,192,42148,128,0,42373:0:0:0:0:
182,192,42148,1,0,0:0:0:0:
329,192,42148,1,0,0:0:0:0:
36,192,42223,1,0,0:0:0:0:
475,192,42298,128,0,42373:0:0:0:0:
329,192,42298,128,0,42373:0:0:0:0:
182,192,42298,1,0,0:0:0:0:
36,192,42373,1,0,0:0:0:0:
475,192,42448,128,0,43048:0:0:0:0:
182,192,42448,128,0,42748:0:0:0:0:
329,192,42448,128,0,42898:0:0:0:0:
109,192,42448,1,0,0:0:0:0:
256,192,42448,1,0,0:0:0:0:
402,192,42523,1,0,0:0:0:0:
109,192,42598,128,0,42673:0:0:0:0:
36,192,42598,128,0,42673:0:0:0:0:
256,192,42598,1,0,0:0:0:0:
402,192,42673,1,0,0:0:0:0:
256,192,42748,1,0,0:0:0:0:
109,192,42748,1,0,0:0:0:0:
402,192,42823,1,0,0:0:0:0:
36,192,42823,1,0,0:0:0:0:
182,192,42898,128,0,42973:0:0:0:0:
109,192,42898,128,0,42973:0:0:0:0:
256,192,42898,1,0,0:0:0:0:
329,192,42973,1,0,0:0:0:0:
402,192,42973,1,0,0:0:0:0:
109,192,43048,1,0,0:0:0:0:
182,192,43048,1,0,0:0:0:0:
256,192,43048,1,0,0:0:0:0:
36,192,43048,128,0,43273:0:0:0:0:
329,192,43123,1,0,0:0:0:0:
402,192,43123,1,0,0:0:0:0:
182,192,43198,128,0,43273:0:0:0:0:
256,192,43198,128,0,43273:0:0:0:0:
475,192,43198,1,0,0:0:0:0:
109,192,43198,1,0,0:0:0:0:
329,192,43273,1,0,0:0:0:0:
402,192,43273,1,0,0:0:0:0:
36,192,43348,1,0,0:0:0:0:
256,192,43348,1,0,0:0:0:0:
475,192,43348,1,0,0:0:0:0:
182,192,43348,128,0,43423:0:0:0:0:
329,192,43423,128,0,43498:0:0:0:0:
109,192,43423,128,0,43498:0:0:0:0:
402,192,43498,128,0,43573:0:0:0:0:
256,192,43498,128,0,43573:0:0:0:0:
36,192,43498,128,0,43573:0:0:0:0:
182,192,43573,128,0,43648:0:0:0:0:
475,192,43573,128,0,43723:0:0:0:0:
329,192,43573,1,0,0:0:0:0:
109,192,43648,128,0,43798:0:0:0:0:
36,192,43648,128,0,43760:0:0:0:0:
402,192,43648,1,0,0:0:0:0:
256,192,43723,1,0,0:0:0:0:
329,192,43723,1,0,0:0:0:0:
402,192,43798,128,0,43910:0:0:0:0:
475,192,43798,128,0,43948:0:0:0:0:
36,192,43798,1,0,0:0:0:0:
182,192,43798,1,0,0:0:0:0:
329,192,43873,1,0,0:0:0:0:
109,192,43873,1,0,0:0:0:0:
182,192,43948,128,0,44060:0:0:0:0:
402,192,43948,1,0,0:0:0:0:
256,192,43948,128,0,44098:0:0:0:0:
36,192,43948,1,0,0:0:0:0:
109,192,44023,1,0,0:0:0:0:
475,192,44023,1,0,0:0:0:0:
475,192,44098,128,0,44323:0:0:0:0:
182,192,44098,1,0,0:0:0:0:
36,192,44098,128,0,44323:0:0:0:0:
329,192,44098,1,0,0:0:0:0:
109,192,44173,1,0,0:0:0:0:
256,192,44173,1,0,0:0:0:0:
402,192,44173,1,0,0:0:0:0:
329,192,44248,1,0,0:0:0:0:
182,192,44248,1,0,0:0:0:0:
402,192,44323,1,0,0:0:0:0:
256,192,44323,1,0,0:0:0:0:
182,192,44398,1,0,0:0:0:0:
36,192,44398,1,0,0:0:0:0:
329,192,44398,1,0,0:0:0:0:
402,192,44473,1,0,0:0:0:0:
109,192,44473,1,0,0:0:0:0:
475,192,44548,1,0,0:0:0:0:
182,192,44548,128,0,44623:0:0:0:0:
36,192,44548,1,0,0:0:0:0:
256,192,44548,1,0,0:0:0:0:
109,192,44623,128,0,44698:0:0:0:0:
329,192,44623,128,0,44698:0:0:0:0:
36,192,44698,128,0,44773:0:0:0:0:
256,192,44698,128,0,44773:0:0:0:0:
402,192,44698,128,0,44773:0:0:0:0:
329,192,44773,1,0,0:0:0:0:
475,192,44773,128,0,44923:0:0:0:0:
182,192,44773,128,0,44848:0:0:0:0:
402,192,44848,1,0,0:0:0:0:
36,192,44848,128,0,44960:0:0:0:0:
109,192,44848,128,0,44998:0:0:0:0:
329,192,44923,1,0,0:0:0:0:
256,192,44923,1,0,0:0:0:0:
36,192,44998,1,0,0:0:0:0:
182,192,44998,1,0,0:0:0:0:
402,192,44998,128,0,45110:0:0:0:0:
475,192,44998,128,0,45148:0:0:0:0:
109,192,45073,1,0,0:0:0:0:
329,192,45073,1,0,0:0:0:0:
256,192,45148,128,0,45298:0:0:0:0:
36,192,45148,1,0,0:0:0:0:
182,192,45148,128,0,45260:0:0:0:0:
402,192,45148,1,0,0:0:0:0:
475,192,45223,1,0,0:0:0:0:
109,192,45223,1,0,0:0:0:0:
36,192,45298,128,0,45523:0:0:0:0:
329,192,45298,1,0,0:0:0:0:
475,192,45298,128,0,45523:0:0:0:0:
182,192,45298,1,0,0:0:0:0:
402,192,45373,1,0,0:0:0:0:
256,192,45373,1,0,0:0:0:0:
109,192,45373,1,0,0:0:0:0:
182,192,45448,1,0,0:0:0:0:
329,192,45448,1,0,0:0:0:0:
256,192,45523,1,0,0:0:0:0:
402,192,45523,1,0,0:0:0:0:
329,192,45598,1,0,0:0:0:0:
475,192,45598,1,0,0:0:0:0:
182,192,45598,1,0,0:0:0:0:
109,192,45673,1,0,0:0:0:0:
36,192,45673,1,0,0:0:0:0:
256,192,45748,128,0,45823:0:0:0:0:
329,192,45748,1,0,0:0:0:0:
402,192,45748,1,0,0:0:0:0:
475,192,45748,128,0,45973:0:0:0:0:
109,192,45823,128,0,45898:0:0:0:0:
182,192,45823,1,0,0:0:0:0:
36,192,45823,1,0,0:0:0:0:
329,192,45898,128,0,45973:0:0:0:0:
256,192,45898,1,0,0:0:0:0:
402,192,45898,1,0,0:0:0:0:
182,192,45973,128,0,46048:0:0:0:0:
109,192,45973,1,0,0:0:0:0:
36,192,45973,1,0,0:0:0:0:
402,192,46048,128,0,46948:0:0:0:0:
329,192,46048,1,0,0:0:0:0:
475,192,46048,1,0,0:0:0:0:
256,192,46123,1,0,0:0:0:0:
109,192,46123,1,0,0:0:0:0:
182,192,46198,128,0,46273:0:0:0:0:
36,192,46198,128,0,46273:0:0:0:0:
329,192,46198,1,0,0:0:0:0:
475,192,46198,1,0,0:0:0:0:
256,192,46273,1,0,0:0:0:0:
109,192,46273,1,0,0:0:0:0:
329,192,46348,1,0,0:0:0:0:
36,192,46348,1,0,0:0:0:0:
256,192,46423,1,0,0:0:0:0:
475,192,46423,1,0,0:0:0:0:
109,192,46423,1,0,0:0:0:0:
182,192,46498,128,0,46573:0:0:0:0:
36,192,46498,128,0,46573:0:0:0:0:
329,192,46498,1,0,0:0:0:0:
109,192,46573,1,0,0:0:0:0:
475,192,46573,1,0,0:0:0:0:
329,192,46648,1,0,0:0:0:0:
256,192,46648,1,0,0:0:0:0:
475,192,46723,1,0,0:0:0:0:
109,192,46723,1,0,0:0:0:0:
182,192,46798,128,0,46873:0:0:0:0:
36,192,46798,128,0,46873:0:0:0:0:
329,192,46798,1,0,0:0:0:0:
256,192,46798,1,0,0:0:0:0:
109,192,46873,1,0,0:0:0:0:
475,192,46948,128,0,47098:0:0:0:0:
329,192,46948,1,0,0:0:0:0:
256,192,46948,1,0,0:0:0:0:
182,192,46948,1,0,0:0:0:0:
109,192,47023,1,0,0:0:0:0:
402,192,47098,128,0,47173:0:0:0:0:
182,192,47098,128,0,47173:0:0:0:0:
36,192,47098,128,0,47173:0:0:0:0:
256,192,47098,1,0,0:0:0:0:
329,192,47173,128,0,47248:0:0:0:0:
109,192,47173,1,0,0:0:0:0:
256,192,47248,128,0,48298:0:0:0:0:
36,192,47248,1,0,0:0:0:0:
182,192,47248,128,0,47473:0:0:0:0:
475,192,47248,1,0,0:0:0:0:
109,192,47323,1,0,0:0:0:0:
402,192,47323,1,0,0:0:0:0:
475,192,47398,128,0,47623:0:0:0:0:
36,192,47398,1,0,0:0:0:0:
329,192,47398,1,0,0:0:0:0:
109,192,47473,1,0,0:0:0:0:
402,192,47473,1,0,0:0:0:0:
36,192,47548,128,0,47773:0:0:0:0:
329,192,47548,1,0,0:0:0:0:
182,192,47548,1,0,0:0:0:0:
109,192,47623,1,0,0:0:0:0:
402,192,47698,128,0,47923:0:0:0:0:
182,192,47698,1,0,0:0:0:0:
329,192,47698,1,0,0:0:0:0:
475,192,47773,1,0,0:0:0:0:
109,192,47848,128,0,48073:0:0:0:0:
329,192,47848,1,0,0:0:0:0:
182,192,47923,1,0,0:0:0:0:
475,192,47998,128,0,48223:0:0:0:0:
36,192,47998,1,0,0:0:0:0:
402,192,47998,1,0,0:0:0:0:
329,192,48073,1,0,0:0:0:0:
36,192,48148,128,0,48373:0:0:0:0:
182,192,48148,1,0,0:0:0:0:
109,192,48148,1,0,0:0:0:0:
329,192,48223,1,0,0:0:0:0:
402,192,48298,128,0,48523:0:0:0:0:
182,192,48298,1,0,0:0:0:0:
475,192,48298,1,0,0:0:0:0:
109,192,48373,1,0,0:0:0:0:
256,192,48373,1,0,0:0:0:0:
182,192,48448,128,0,48748:0:0:0:0:
329,192,48448,128,0,48485:0:0:0:0:
36,192,48523,128,0,48673:0:0:0:0:
256,192,48523,128,0,48560:0:0:0:0:
475,192,48523,128,0,48560:0:0:0:0:
109,192,48598,128,0,48673:0:0:0:0:
402,192,48598,128,0,48635:0:0:0:0:
256,192,48673,128,0,48973:0:0:0:0:
329,192,48673,128,0,48710:0:0:0:0:
109,192,48748,128,0,48898:0:0:0:0:
36,192,48748,128,0,48823:0:0:0:0:
475,192,48748,128,0,48785:0:0:0:0:
182,192,48823,128,0,48898:0:0:0:0:
402,192,48823,128,0,48860:0:0:0:0:
329,192,48898,128,0,49198:0:0:0:0:
36,192,48898,128,0,48935:0:0:0:0:
475,192,48898,128,0,48935:0:0:0:0:
182,192,48973,128,0,49123:0:0:0:0:
109,192,48973,128,0,49048:0:0:0:0:
402,192,48973,128,0,49010:0:0:0:0:
256,192,49048,128,0,49123:0:0:0:0:
36,192,49048,128,0,49123:0:0:0:0:
475,192,49048,128,0,49085:0:0:0:0:
402,192,49123,128,0,49423:0:0:0:0:
109,192,49123,128,0,49160:0:0:0:0:
256,192,49198,128,0,49348:0:0:0:0:
182,192,49198,128,0,49273:0:0:0:0:
36,192,49198,128,0,49235:0:0:0:0:
475,192,49198,128,0,49235:0:0:0:0:
329,192,49273,128,0,49348:0:0:0:0:
109,192,49273,128,0,49348:0:0:0:0:
182,192,49348,128,0,49385:0:0:0:0:
36,192,49348,128,0,49423:0:0:0:0:
475,192,49348,128,0,49385:0:0:0:0:
329,192,49423,128,0,49573:0:0:0:0:
256,192,49423,128,0,49498:0:0:0:0:
109,192,49423,128,0,49460:0:0:0:0:
402,192,49498,128,0,49573:0:0:0:0:
182,192,49498,128,0,49573:0:0:0:0:
36,192,49498,128,0,49535:0:0:0:0:
475,192,49498,128,0,49535:0:0:0:0:
256,192,49573,128,0,49610:0:0:0:0:
109,192,49573,128,0,49648:0:0:0:0:
36,192,49648,128,0,49723:0:0:0:0:
182,192,49648,128,0,49685:0:0:0:0:
475,192,49648,128,0,49760:0:0:0:0:
329,192,49648,1,0,0:0:0:0:
109,192,49723,128,0,49760:0:0:0:0:
402,192,49723,128,0,49835:0:0:0:0:
256,192,49723,1,0,0:0:0:0:
36,192,49798,128,0,49835:0:0:0:0:
329,192,49798,128,0,49910:0:0:0:0:
182,192,49798,1,0,0:0:0:0:
256,192,49873,128,0,49985:0:0:0:0:
109,192,49873,1,0,0:0:0:0:
475,192,49873,128,0,50248:0:0:0:0:
402,192,49948,128,0,50060:0:0:0:0:
36,192,49948,1,0,0:0:0:0:
329,192,50023,128,0,50135:0:0:0:0:
182,192,50023,1,0,0:0:0:0:
256,192,50098,128,0,50210:0:0:0:0:
109,192,50098,1,0,0:0:0:0:
402,192,50098,128,0,50135:0:0:0:0:
182,192,50173,128,0,50285:0:0:0:0:
36,192,50173,1,0,0:0:0:0:
329,192,50173,128,0,50210:0:0:0:0:
109,192,50248,128,0,50360:0:0:0:0:
256,192,50248,128,0,50285:0:0:0:0:
36,192,50323,128,0,50435:0:0:0:0:
182,192,50323,128,0,50360:0:0:0:0:
402,192,50323,128,0,50360:0:0:0:0:
109,192,50398,128,0,50435:0:0:0:0:
329,192,50398,128,0,50435:0:0:0:0:
475,192,50398,128,0,50473:0:0:0:0:
36,192,50473,128,0,50510:0:0:0:0:
256,192,50473,128,0,50548:0:0:0:0:
402,192,50473,128,0,50510:0:0:0:0:
182,192,50548,128,0,50585:0:0:0:0:
329,192,50548,128,0,50623:0:0:0:0:
109,192,50623,128,0,50698:0:0:0:0:
256,192,50623,128,0,50660:0:0:0:0:
475,192,50623,128,0,50848:0:0:0:0:
36,192,50698,128,0,50735:0:0:0:0:
182,192,50698,128,0,50773:0:0:0:0:
402,192,50698,128,0,50848:0:0:0:0:
109,192,50773,128,0,50848:0:0:0:0:
329,192,50773,128,0,50848:0:0:0:0:
36,192,50848,128,0,51748:0:0:0:0:
256,192,50848,1,0,0:0:0:0:
182,192,50923,1,0,0:0:0:0:
402,192,50923,1,0,0:0:0:0:
329,192,50998,128,0,51073:0:0:0:0:
475,192,50998,128,0,51073:0:0:0:0:
109,192,50998,1,0,0:0:0:0:
256,192,50998,1,0,0:0:0:0:
182,192,51073,1,0,0:0:0:0:
329,192,51148,1,0,0:0:0:0:
402,192,51148,1,0,0:0:0:0:
475,192,51148,1,0,0:0:0:0:
109,192,51148,1,0,0:0:0:0:
182,192,51223,1,0,0:0:0:0:
329,192,51298,128,0,51373:0:0:0:0:
475,192,51298,128,0,51373:0:0:0:0:
256,192,51298,1,0,0:0:0:0:
109,192,51298,1,0,0:0:0:0:
182,192,51373,1,0,0:0:0:0:
475,192,51448,1,0,0:0:0:0:
402,192,51448,1,0,0:0:0:0:
329,192,51448,1,0,0:0:0:0:
256,192,51448,1,0,0:0:0:0:
182,192,51523,1,0,0:0:0:0:
329,192,51598,128,0,51673:0:0:0:0:
475,192,51598,128,0,51673:0:0:0:0:
109,192,51598,1,0,0:0:0:0:
256,192,51673,1,0,0:0:0:0:
182,192,51748,128,0,51898:0:0:0:0:
329,192,51748,1,0,0:0:0:0:
402,192,51748,1,0,0:0:0:0:
475,192,51748,1,0,0:0:0:0:
109,192,51748,1,0,0:0:0:0:
36,192,51823,1,0,0:0:0:0:
256,192,51823,1,0,0:0:0:0:
329,192,51898,128,0,51973:0:0:0:0:
475,192,51898,128,0,51973:0:0:0:0:
109,192,51898,1,0,0:0:0:0:
36,192,51973,1,0,0:0:0:0:
182,192,51973,1,0,0:0:0:0:
402,192,52048,128,0,52348:0:0:0:0:
329,192,52048,1,0,0:0:0:0:
475,192,52048,1,0,0:0:0:0:
256,192,52048,1,0,0:0:0:0:
182,192,52123,1,0,0:0:0:0:
109,192,52123,1,0,0:0:0:0:
475,192,52198,128,0,52273:0:0:0:0:
329,192,52198,128,0,52273:0:0:0:0:
36,192,52198,1,0,0:0:0:0:
256,192,52198,1,0,0:0:0:0:
109,192,52273,1,0,0:0:0:0:
182,192,52348,128,0,52648:0:0:0:0:
329,192,52348,1,0,0:0:0:0:
475,192,52348,1,0,0:0:0:0:
36,192,52348,1,0,0:0:0:0:
256,192,52423,1,0,0:0:0:0:
109,192,52423,1,0,0:0:0:0:
475,192,52498,128,0,52573:0:0:0:0:
329,192,52498,128,0,52573:0:0:0:0:
36,192,52498,1,0,0:0:0:0:
256,192,52573,1,0,0:0:0:0:
109,192,52573,1,0,0:0:0:0:
36,192,52648,128,0,52873:0:0:0:0:
475,192,52648,1,0,0:0:0:0:
402,192,52648,1,0,0:0:0:0:
329,192,52648,1,0,0:0:0:0:
109,192,52723,1,0,0:0:0:0:
256,192,52723,1,0,0:0:0:0:
475,192,52798,128,0,52873:0:0:0:0:
329,192,52798,128,0,52873:0:0:0:0:
182,192,52798,1,0,0:0:0:0:
402,192,52798,1,0,0:0:0:0:
256,192,52873,1,0,0:0:0:0:
402,192,52948,128,0,53173:0:0:0:0:
475,192,52948,1,0,0:0:0:0:
329,192,52948,1,0,0:0:0:0:
36,192,52948,1,0,0:0:0:0:
182,192,52948,1,0,0:0:0:0:
109,192,53023,1,0,0:0:0:0:
329,192,53023,1,0,0:0:0:0:
475,192,53023,1,0,0:0:0:0:
329,192,53098,1,0,0:0:0:0:
475,192,53098,1,0,0:0:0:0:
182,192,53098,1,0,0:0:0:0:
36,192,53098,1,0,0:0:0:0:
475,192,53173,1,0,0:0:0:0:
329,192,53173,1,0,0:0:0:0:
256,192,53173,1,0,0:0:0:0:
36,192,53248,128,0,53285:0:0:0:0:
182,192,53248,128,0,53323:0:0:0:0:
402,192,53248,128,0,53398:0:0:0:0:
475,192,53248,128,0,53473:0:0:0:0:
329,192,53248,128,0,53323:0:0:0:0:
109,192,53248,128,0,53473:0:0:0:0:
256,192,53323,128,0,53360:0:0:0:0:
182,192,53398,128,0,53435:0:0:0:0:
329,192,53398,128,0,53473:0:0:0:0:
36,192,53473,128,0,53548:0:0:0:0:
256,192,53473,128,0,53548:0:0:0:0:
402,192,53473,128,0,53510:0:0:0:0:
109,192,53548,128,0,53623:0:0:0:0:
329,192,53548,128,0,53585:0:0:0:0:
475,192,53548,128,0,53623:0:0:0:0:
182,192,53623,128,0,53698:0:0:0:0:
36,192,53623,128,0,53848:0:0:0:0:
402,192,53623,128,0,53698:0:0:0:0:
256,192,53623,128,0,53660:0:0:0:0:
109,192,53698,128,0,53848:0:0:0:0:
475,192,53698,128,0,53773:0:0:0:0:
329,192,53698,128,0,53735:0:0:0:0:
182,192,53773,128,0,53848:0:0:0:0:
402,192,53773,128,0,53810:0:0:0:0:
475,192,53848,128,0,53923:0:0:0:0:
329,192,53848,128,0,53923:0:0:0:0:
256,192,53848,128,0,53998:0:0:0:0:
182,192,53923,128,0,53998:0:0:0:0:
109,192,53923,128,0,54148:0:0:0:0:
36,192,53923,128,0,53998:0:0:0:0:
402,192,53923,128,0,54073:0:0:0:0:
329,192,53998,128,0,54073:0:0:0:0:
475,192,53998,128,0,54073:0:0:0:0:
256,192,54073,128,0,54298:0:0:0:0:
182,192,54073,128,0,54148:0:0:0:0:
36,192,54073,128,0,54148:0:0:0:0:
475,192,54148,128,0,54223:0:0:0:0:
402,192,54148,128,0,54223:0:0:0:0:
329,192,54148,128,0,54223:0:0:0:0:
36,192,54223,128,0,54373:0:0:0:0:
109,192,54223,128,0,54373:0:0:0:0:
182,192,54223,128,0,54373:0:0:0:0:
329,192,54298,128,0,54373:0:0:0:0:
402,192,54298,128,0,54373:0:0:0:0:
475,192,54298,128,0,54373:0:0:0:0:
256,192,54373,128,0,54448:0:0:0:0:
475,192,54448,128,0,54485:0:0:0:0:
329,192,54448,128,0,54523:0:0:0:0:
109,192,54448,128,0,54598:0:0:0:0:
182,192,54448,128,0,54523:0:0:0:0:
402,192,54448,128,0,54673:0:0:0:0:
36,192,54448,128,0,54673:0:0:0:0:
256,192,54523,128,0,54560:0:0:0:0:
182,192,54598,128,0,54673:0:0:0:0:
329,192,54598,128,0,54635:0:0:0:0:
256,192,54673,128,0,54748:0:0:0:0:
475,192,54673,128,0,54748:0:0:0:0:
109,192,54673,128,0,54710:0:0:0:0:
182,192,54748,128,0,54785:0:0:0:0:
402,192,54748,128,0,54823:0:0:0:0:
36,192,54748,128,0,54823:0:0:0:0:
109,192,54823,128,0,54898:0:0:0:0:
256,192,54823,128,0,54860:0:0:0:0:
329,192,54823,128,0,54898:0:0:0:0:
475,192,54823,128,0,55048:0:0:0:0:
36,192,54898,128,0,54973:0:0:0:0:
182,192,54898,128,0,54935:0:0:0:0:
402,192,54898,128,0,55048:0:0:0:0:
329,192,54973,128,0,55048:0:0:0:0:
109,192,54973,128,0,55010:0:0:0:0:
36,192,55048,128,0,55123:0:0:0:0:
182,192,55048,128,0,55123:0:0:0:0:
256,192,55048,128,0,55198:0:0:0:0:
109,192,55123,128,0,55273:0:0:0:0:
402,192,55123,128,0,55348:0:0:0:0:
329,192,55123,128,0,55198:0:0:0:0:
475,192,55123,128,0,55198:0:0:0:0:
182,192,55198,128,0,55273:0:0:0:0:
36,192,55198,128,0,55273:0:0:0:0:
329,192,55273,128,0,55348:0:0:0:0:
475,192,55273,128,0,55348:0:0:0:0:
256,192,55273,128,0,55498:0:0:0:0:
36,192,55348,128,0,55423:0:0:0:0:
182,192,55348,128,0,55423:0:0:0:0:
109,192,55348,128,0,55498:0:0:0:0:
329,192,55423,128,0,55573:0:0:0:0:
402,192,55423,128,0,55573:0:0:0:0:
475,192,55423,128,0,55573:0:0:0:0:
36,192,55498,128,0,55573:0:0:0:0:
182,192,55498,128,0,55573:0:0:0:0:
256,192,55573,128,0,55648:0:0:0:0:
109,192,55573,128,0,55648:0:0:0:0:
329,192,55648,128,0,55723:0:0:0:0:
475,192,55648,128,0,55723:0:0:0:0:
402,192,55648,128,0,55723:0:0:0:0:
36,192,55648,128,0,55723:0:0:0:0:
182,192,55648,128,0,55723:0:0:0:0:
109,192,55723,128,0,55798:0:0:0:0:
256,192,55723,128,0,55760:0:0:0:0:
329,192,55798,128,0,55835:0:0:0:0:
402,192,55798,128,0,55948:0:0:0:0:
475,192,55798,128,0,55835:0:0:0:0:
182,192,55798,128,0,55873:0:0:0:0:
36,192,55798,128,0,55835:0:0:0:0:
256,192,55873,128,0,55948:0:0:0:0:
109,192,55873,128,0,55910:0:0:0:0:
182,192,55948,128,0,56023:0:0:0:0:
36,192,55948,128,0,56023:0:0:0:0:
329,192,55948,128,0,56023:0:0:0:0:
475,192,55948,128,0,56023:0:0:0:0:
402,192,56023,128,0,56098:0:0:0:0:
256,192,56023,128,0,56098:0:0:0:0:
109,192,56023,128,0,56173:0:0:0:0:
36,192,56098,128,0,56173:0:0:0:0:
182,192,56098,128,0,56173:0:0:0:0:
475,192,56098,128,0,56173:0:0:0:0:
329,192,56098,128,0,56135:0:0:0:0:
402,192,56173,128,0,56210:0:0:0:0:
256,192,56173,128,0,56210:0:0:0:0:
182,192,56248,128,0,56398:0:0:0:0:
109,192,56248,128,0,56323:0:0:0:0:
36,192,56248,128,0,56323:0:0:0:0:
475,192,56248,128,0,56285:0:0:0:0:
329,192,56248,128,0,56398:0:0:0:0:
402,192,56323,128,0,56473:0:0:0:0:
256,192,56323,128,0,56398:0:0:0:0:
36,192,56398,128,0,56473:0:0:0:0:
109,192,56398,128,0,56548:0:0:0:0:
475,192,56398,128,0,56473:0:0:0:0:
329,192,56473,128,0,56623:0:0:0:0:
182,192,56473,128,0,56548:0:0:0:0:
256,192,56473,128,0,56548:0:0:0:0:
36,192,56548,128,0,56698:0:0:0:0:
402,192,56548,128,0,56623:0:0:0:0:
475,192,56548,128,0,56623:0:0:0:0:
256,192,56623,128,0,56773:0:0:0:0:
109,192,56623,128,0,56698:0:0:0:0:
182,192,56623,128,0,56698:0:0:0:0:
329,192,56698,128,0,56848:0:0:0:0:
402,192,56698,128,0,56773:0:0:0:0:
475,192,56698,128,0,56848:0:0:0:0:
182,192,56773,128,0,56848:0:0:0:0:
109,192,56773,128,0,56848:0:0:0:0:
36,192,56773,128,0,56848:0:0:0:0:
256,192,56848,128,0,56923:0:0:0:0:
402,192,56848,128,0,56923:0:0:0:0:
475,192,56923,128,0,56998:0:0:0:0:
109,192,56923,128,0,56998:0:0:0:0:
182,192,56923,128,0,56998:0:0:0:0:
36,192,56923,128,0,56998:0:0:0:0:
329,192,56923,128,0,56998:0:0:0:0:
402,192,56998,128,0,57073:0:0:0:0:
256,192,56998,128,0,57035:0:0:0:0:
36,192,57073,128,0,57110:0:0:0:0:
475,192,57073,128,0,57110:0:0:0:0:
329,192,57073,128,0,57148:0:0:0:0:
109,192,57073,128,0,57223:0:0:0:0:
182,192,57073,128,0,57110:0:0:0:0:
256,192,57148,128,0,57223:0:0:0:0:
402,192,57148,128,0,57185:0:0:0:0:
475,192,57223,128,0,57298:0:0:0:0:
36,192,57223,128,0,57298:0:0:0:0:
182,192,57223,128,0,57298:0:0:0:0:
329,192,57223,128,0,57298:0:0:0:0:
109,192,57298,128,0,57373:0:0:0:0:
256,192,57298,128,0,57373:0:0:0:0:
402,192,57298,128,0,57448:0:0:0:0:
182,192,57373,128,0,57410:0:0:0:0:
36,192,57373,128,0,57448:0:0:0:0:
329,192,57373,128,0,57448:0:0:0:0:
475,192,57373,128,0,57448:0:0:0:0:
256,192,57448,128,0,57485:0:0:0:0:
109,192,57448,128,0,57485:0:0:0:0:
402,192,57523,128,0,57673:0:0:0:0:
329,192,57523,128,0,57598:0:0:0:0:
475,192,57523,128,0,57598:0:0:0:0:
36,192,57523,128,0,57560:0:0:0:0:
256,192,57598,1,0,0:0:0:0:
182,192,57598,1,0,0:0:0:0:
329,192,57673,1,0,0:0:0:0:
475,192,57673,1,0,0:0:0:0:
109,192,57673,1,0,0:0:0:0:
36,192,57673,1,0,0:0:0:0:
402,192,57748,1,0,0:0:0:0:
256,192,57748,128,0,57785:0:0:0:0:
182,192,57748,128,0,57785:0:0:0:0:
109,192,57823,128,0,57860:0:0:0:0:
36,192,57823,128,0,57860:0:0:0:0:
329,192,57823,128,0,57898:0:0:0:0:
475,192,57823,128,0,57898:0:0:0:0:
256,192,57898,128,0,57973:0:0:0:0:
402,192,57898,1,0,0:0:0:0:
182,192,57973,128,0,58048:0:0:0:0:
329,192,57973,128,0,58048:0:0:0:0:
475,192,57973,1,0,0:0:0:0:
402,192,58048,128,0,58123:0:0:0:0:
109,192,58048,128,0,58123:0:0:0:0:
36,192,58048,128,0,58198:0:0:0:0:
475,192,58123,128,0,58198:0:0:0:0:
256,192,58123,128,0,58160:0:0:0:0:
402,192,58198,128,0,58273:0:0:0:0:
182,192,58198,128,0,58235:0:0:0:0:
329,192,58273,128,0,58348:0:0:0:0:
109,192,58273,128,0,58310:0:0:0:0:
256,192,58348,128,0,58423:0:0:0:0:
182,192,58348,128,0,58423:0:0:0:0:
36,192,58348,128,0,58385:0:0:0:0:
475,192,58348,128,0,58385:0:0:0:0:
402,192,58348,1,0,0:0:0:0:
329,192,58423,128,0,58498:0:0:0:0:
109,192,58423,128,0,58460:0:0:0:0:
402,192,58498,128,0,58798:0:0:0:0:
36,192,58498,128,0,58798:0:0:0:0:
182,192,58498,128,0,58535:0:0:0:0:
475,192,58498,128,0,58573:0:0:0:0:
109,192,58573,128,0,58648:0:0:0:0:
256,192,58573,128,0,58610:0:0:0:0:
182,192,58648,128,0,58723:0:0:0:0:
329,192,58648,128,0,58685:0:0:0:0:
475,192,58648,1,0,0:0:0:0:
256,192,58723,128,0,58798:0:0:0:0:
475,192,58723,128,0,58798:0:0:0:0:
182,192,58798,128,0,58873:0:0:0:0:
109,192,58873,128,0,58948:0:0:0:0:
329,192,58873,128,0,58910:0:0:0:0:
36,192,58948,128,0,59023:0:0:0:0:
475,192,58948,128,0,59023:0:0:0:0:
256,192,58948,128,0,58985:0:0:0:0:
402,192,59023,128,0,59098:0:0:0:0:
182,192,59023,128,0,59060:0:0:0:0:
329,192,59098,128,0,59173:0:0:0:0:
109,192,59098,128,0,59135:0:0:0:0:
36,192,59098,128,0,59135:0:0:0:0:
475,192,59098,128,0,59135:0:0:0:0:
256,192,59173,128,0,59248:0:0:0:0:
402,192,59173,128,0,59210:0:0:0:0:
329,192,59248,128,0,59323:0:0:0:0:
36,192,59248,128,0,59435:0:0:0:0:
109,192,59248,128,0,59285:0:0:0:0:
475,192,59248,128,0,59285:0:0:0:0:
402,192,59323,128,0,59398:0:0:0:0:
182,192,59323,1,0,0:0:0:0:
475,192,59398,128,0,59473:0:0:0:0:
182,192,59398,128,0,59585:0:0:0:0:
109,192,59398,128,0,59435:0:0:0:0:
256,192,59398,128,0,59435:0:0:0:0:
329,192,59473,1,0,0:0:0:0:
329,192,59548,128,0,59735:0:0:0:0:
256,192,59548,128,0,59585:0:0:0:0:
402,192,59548,128,0,59585:0:0:0:0:
36,192,59548,128,0,59585:0:0:0:0:
475,192,59623,1,0,0:0:0:0:
109,192,59623,128,0,59660:0:0:0:0:
475,192,59698,128,0,59848:0:0:0:0:
402,192,59698,128,0,59735:0:0:0:0:
182,192,59698,128,0,59773:0:0:0:0:
36,192,59698,128,0,59773:0:0:0:0:
256,192,59773,128,0,59848:0:0:0:0:
329,192,59848,128,0,59923:0:0:0:0:
36,192,59848,1,0,0:0:0:0:
109,192,59848,1,0,0:0:0:0:
402,192,59923,128,0,59998:0:0:0:0:
182,192,59923,1,0,0:0:0:0:
475,192,59998,128,0,60073:0:0:0:0:
36,192,59998,128,0,60035:0:0:0:0:
256,192,59998,1,0,0:0:0:0:
109,192,60035,128,0,60073:0:0:0:0:
329,192,60035,1,0,0:0:0:0:
182,192,60073,128,0,60110:0:0:0:0:
402,192,60073,1,0,0:0:0:0:
256,192,60110,128,0,60148:0:0:0:0:
329,192,60148,128,0,60185:0:0:0:0:
36,192,60148,1,0,0:0:0:0:
402,192,60185,128,0,60223:0:0:0:0:
109,192,60185,1,0,0:0:0:0:
475,192,60223,128,0,60260:0:0:0:0:
182,192,60223,1,0,0:0:0:0:
36,192,60260,128,0,60298:0:0:0:0:
256,192,60260,1,0,0:0:0:0:
109,192,60298,128,0,60335:0:0:0:0:
329,192,60298,1,0,0:0:0:0:
182,192,60335,128,0,60373:0:0:0:0:
402,192,60335,1,0,0:0:0:0:
256,192,60373,128,0,60410:0:0:0:0:
475,192,60373,1,0,0:0:0:0:
329,192,60410,128,0,60448:0:0:0:0:
402,192,60448,128,0,60823:0:0:0:0:
475,192,60448,128,0,60823:0:0:0:0:
36,192,60448,128,0,60710:0:0:0:0:
109,192,60448,128,0,60710:0:0:0:0:
329,192,60748,128,0,60823:0:0:0:0:
256,192,60748,128,0,60823:0:0:0:0:
182,192,60748,128,0,60823:0:0:0:0:
109,192,60748,128,0,60823:0:0:0:0:
36,192,60748,128,0,60823:0:0:0:0:
329,192,60898,128,0,61048:0:0:0:0:
256,192,60898,128,0,61048:0:0:0:0:
182,192,60898,128,0,61048:0:0:0:0:
109,192,60898,128,0,61048:0:0:0:0:
36,192,60898,128,0,61048:0:0:0:0:
402,192,60898,128,0,61123:0:0:0:0:
475,192,60898,128,0,61123:0:0:0:0:
475,192,61198,128,0,61573:0:0:0:0:
402,192,61198,128,0,61573:0:0:0:0:
329,192,61198,128,0,61573:0:0:0:0:
256,192,61198,128,0,61573:0:0:0:0:
182,192,61198,128,0,61573:0:0:0:0:
109,192,61198,128,0,61573:0:0:0:0:
36,192,61198,128,0,61573:0:0:0:0:
475,192,61648,128,0,62135:0:0:0:0:
402,192,61648,128,0,61835:0:0:0:0:
256,192,61648,128,0,61760:0:0:0:0:
182,192,61648,128,0,61723:0:0:0:0:
36,192,61648,128,0,61798:0:0:0:0:
109,192,61648,128,0,61760:0:0:0:0:
329,192,61648,128,0,61798:0:0:0:0:
109,192,61798,1,0,0:0:0:0:
256,192,61798,1,0,0:0:0:0:
329,192,61948,128,0,62060:0:0:0:0:
256,192,61948,128,0,62023:0:0:0:0:
402,192,61948,128,0,62098:0:0:0:0:
109,192,61948,128,0,62135:0:0:0:0:
36,192,61948,128,0,62435:0:0:0:0:
182,192,61948,128,0,62060:0:0:0:0:
182,192,62098,1,0,0:0:0:0:
329,192,62098,1,0,0:0:0:0:
402,192,62248,128,0,62360:0:0:0:0:
256,192,62248,128,0,62360:0:0:0:0:
109,192,62248,128,0,62435:0:0:0:0:
329,192,62248,128,0,62323:0:0:0:0:
182,192,62248,128,0,62398:0:0:0:0:
475,192,62248,128,0,62773:0:0:0:0:
256,192,62398,1,0,0:0:0:0:
402,192,62398,1,0,0:0:0:0:
36,192,62548,128,0,62698:0:0:0:0:
182,192,62548,128,0,62623:0:0:0:0:
109,192,62548,128,0,62660:0:0:0:0:
256,192,62548,128,0,62660:0:0:0:0:
329,192,62548,128,0,62698:0:0:0:0:
402,192,62548,128,0,62735:0:0:0:0:
256,192,62698,1,0,0:0:0:0:
109,192,62698,1,0,0:0:0:0:
182,192,62773,1,0,0:0:0:0:
36,192,62848,5,0,0:0:0:0:
402,192,62848,128,0,62998:0:0:0:0:
109,192,62848,128,0,63073:0:0:0:0:
256,192,62848,1,0,0:0:0:0:
475,192,62848,1,0,0:0:0:0:
329,192,62848,1,0,0:0:0:0:
182,192,62923,1,0,0:0:0:0:
36,192,62998,1,0,0:0:0:0:
475,192,62998,128,0,63073:0:0:0:0:
256,192,62998,1,0,0:0:0:0:
329,192,62998,1,0,0:0:0:0:
182,192,63073,1,0,0:0:0:0:
36,192,63148,1,0,0:0:0:0:
329,192,63148,128,0,63373:0:0:0:0:
109,192,63148,128,0,63373:0:0:0:0:
256,192,63148,1,0,0:0:0:0:
402,192,63148,1,0,0:0:0:0:
475,192,63148,1,0,0:0:0:0:
182,192,63223,1,0,0:0:0:0:
36,192,63298,1,0,0:0:0:0:
475,192,63298,1,0,0:0:0:0:
402,192,63298,1,0,0:0:0:0:
182,192,63373,1,0,0:0:0:0:
256,192,63373,128,0,63448:0:0:0:0:
36,192,63448,1,0,0:0:0:0:
475,192,63448,128,0,63673:0:0:0:0:
109,192,63448,128,0,63673:0:0:0:0:
329,192,63448,1,0,0:0:0:0:
402,192,63448,1,0,0:0:0:0:
182,192,63523,1,0,0:0:0:0:
256,192,63598,1,0,0:0:0:0:
36,192,63598,1,0,0:0:0:0:
402,192,63598,1,0,0:0:0:0:
182,192,63673,1,0,0:0:0:0:
329,192,63673,128,0,63748:0:0:0:0:
256,192,63748,1,0,0:0:0:0:
36,192,63748,1,0,0:0:0:0:
402,192,63748,128,0,63898:0:0:0:0:
109,192,63748,128,0,63973:0:0:0:0:
475,192,63748,1,0,0:0:0:0:
182,192,63823,1,0,0:0:0:0:
329,192,63898,1,0,0:0:0:0:
36,192,63898,1,0,0:0:0:0:
256,192,63898,128,0,64048:0:0:0:0:
475,192,63898,1,0,0:0:0:0:
182,192,63973,1,0,0:0:0:0:
329,192,64048,1,0,0:0:0:0:
36,192,64048,1,0,0:0:0:0:
109,192,64048,128,0,64273:0:0:0:0:
402,192,64048,128,0,64198:0:0:0:0:
475,192,64048,1,0,0:0:0:0:
182,192,64123,1,0,0:0:0:0:
256,192,64198,1,0,0:0:0:0:
36,192,64198,1,0,0:0:0:0:
329,192,64198,128,0,64273:0:0:0:0:
182,192,64273,1,0,0:0:0:0:
475,192,64273,128,0,64348:0:0:0:0:
36,192,64348,1,0,0:0:0:0:
109,192,64348,128,0,64573:0:0:0:0:
256,192,64348,128,0,64423:0:0:0:0:
329,192,64348,1,0,0:0:0:0:
182,192,64423,1,0,0:0:0:0:
402,192,64423,128,0,64498:0:0:0:0:
36,192,64498,1,0,0:0:0:0:
329,192,64498,128,0,64573:0:0:0:0:
256,192,64498,1,0,0:0:0:0:
182,192,64573,1,0,0:0:0:0:
475,192,64573,128,0,64648:0:0:0:0:
36,192,64648,1,0,0:0:0:0:
109,192,64648,128,0,64873:0:0:0:0:
256,192,64648,128,0,64798:0:0:0:0:
402,192,64648,1,0,0:0:0:0:
329,192,64648,1,0,0:0:0:0:
182,192,64723,1,0,0:0:0:0:
36,192,64798,1,0,0:0:0:0:
402,192,64798,128,0,64948:0:0:0:0:
329,192,64798,1,0,0:0:0:0:
475,192,64798,1,0,0:0:0:0:
182,192,64873,1,0,0:0:0:0:
36,192,64948,1,0,0:0:0:0:
109,192,64948,128,0,65173:0:0:0:0:
329,192,64948,128,0,65098:0:0:0:0:
475,192,64948,1,0,0:0:0:0:
256,192,64948,1,0,0:0:0:0:
182,192,65023,1,0,0:0:0:0:
36,192,65098,1,0,0:0:0:0:
256,192,65098,128,0,65173:0:0:0:0:
475,192,65098,1,0,0:0:0:0:
182,192,65173,1,0,0:0:0:0:
402,192,65173,128,0,65248:0:0:0:0:
36,192,65248,1,0,0:0:0:0:
109,192,65248,128,0,65473:0:0:0:0:
475,192,65248,128,0,65398:0:0:0:0:
329,192,65248,1,0,0:0:0:0:
256,192,65248,1,0,0:0:0:0:
182,192,65323,1,0,0:0:0:0:
36,192,65398,1,0,0:0:0:0:
402,192,65398,128,0,65548:0:0:0:0:
329,192,65398,1,0,0:0:0:0:
256,192,65398,1,0,0:0:0:0:
182,192,65473,1,0,0:0:0:0:
36,192,65548,1,0,0:0:0:0:
109,192,65548,128,0,65773:0:0:0:0:
256,192,65548,128,0,65698:0:0:0:0:
329,192,65548,1,0,0:0:0:0:
475,192,65548,1,0,0:0:0:0:
182,192,65623,1,0,0:0:0:0:
36,192,65698,1,0,0:0:0:0:
329,192,65698,128,0,65773:0:0:0:0:
475,192,65698,1,0,0:0:0:0:
182,192,65773,1,0,0:0:0:0:
402,192,65773,128,0,65848:0:0:0:0:
36,192,65848,1,0,0:0:0:0:
109,192,65848,128,0,66073:0:0:0:0:
475,192,65848,128,0,65923:0:0:0:0:
329,192,65848,1,0,0:0:0:0:
256,192,65848,1,0,0:0:0:0:
182,192,65923,1,0,0:0:0:0:
36,192,65998,1,0,0:0:0:0:
475,192,65998,128,0,66073:0:0:0:0:
402,192,65998,1,0,0:0:0:0:
256,192,65998,1,0,0:0:0:0:
182,192,66073,1,0,0:0:0:0:
329,192,66073,128,0,66148:0:0:0:0:
36,192,66148,1,0,0:0:0:0:
109,192,66148,128,0,66373:0:0:0:0:
402,192,66148,128,0,66298:0:0:0:0:
256,192,66148,1,0,0:0:0:0:
475,192,66148,1,0,0:0:0:0:
182,192,66223,1,0,0:0:0:0:
36,192,66298,1,0,0:0:0:0:
329,192,66298,128,0,66373:0:0:0:0:
475,192,66298,1,0,0:0:0:0:
182,192,66373,1,0,0:0:0:0:
256,192,66373,128,0,66448:0:0:0:0:
36,192,66448,1,0,0:0:0:0:
109,192,66448,128,0,66673:0:0:0:0:
402,192,66448,128,0,66523:0:0:0:0:
475,192,66448,1,0,0:0:0:0:
329,192,66448,1,0,0:0:0:0:
182,192,66523,1,0,0:0:0:0:
329,192,66523,128,0,66598:0:0:0:0:
36,192,66598,1,0,0:0:0:0:
475,192,66598,128,0,66673:0:0:0:0:
256,192,66598,1,0,0:0:0:0:
182,192,66673,1,0,0:0:0:0:
402,192,66673,128,0,66748:0:0:0:0:
36,192,66748,1,0,0:0:0:0:
109,192,66748,128,0,66823:0:0:0:0:
256,192,66748,128,0,66898:0:0:0:0:
329,192,66748,1,0,0:0:0:0:
475,192,66748,1,0,0:0:0:0:
182,192,66823,1,0,0:0:0:0:
36,192,66898,1,0,0:0:0:0:
109,192,66898,128,0,66973:0:0:0:0:
329,192,66898,128,0,66973:0:0:0:0:
402,192,66898,1,0,0:0:0:0:
475,192,66898,1,0,0:0:0:0:
182,192,66973,1,0,0:0:0:0:
402,192,66973,128,0,67048:0:0:0:0:
36,192,67048,1,0,0:0:0:0:
109,192,67048,128,0,67273:0:0:0:0:
475,192,67048,128,0,67198:0:0:0:0:
329,192,67048,1,0,0:0:0:0:
256,192,67048,1,0,0:0:0:0:
182,192,67123,1,0,0:0:0:0:
36,192,67198,1,0,0:0:0:0:
329,192,67198,128,0,67273:0:0:0:0:
402,192,67198,1,0,0:0:0:0:
256,192,67198,1,0,0:0:0:0:
182,192,67273,1,0,0:0:0:0:
36,192,67348,1,0,0:0:0:0:
109,192,67348,128,0,67573:0:0:0:0:
402,192,67348,128,0,67498:0:0:0:0:
256,192,67348,1,0,0:0:0:0:
329,192,67348,1,0,0:0:0:0:
475,192,67348,1,0,0:0:0:0:
182,192,67423,1,0,0:0:0:0:
36,192,67498,1,0,0:0:0:0:
256,192,67498,128,0,67573:0:0:0:0:
182,192,67573,1,0,0:0:0:0:
329,192,67573,128,0,67648:0:0:0:0:
475,192,67648,5,0,0:0:0:0:
36,192,67648,1,0,0:0:0:0:
256,192,67648,1,0,0:0:0:0:
402,192,67648,128,0,67873:0:0:0:0:
109,192,67648,128,0,67798:0:0:0:0:
182,192,67648,1,0,0:0:0:0:
329,192,67723,1,0,0:0:0:0:
182,192,67798,1,0,0:0:0:0:
475,192,67798,1,0,0:0:0:0:
36,192,67798,128,0,67873:0:0:0:0:
256,192,67798,1,0,0:0:0:0:
329,192,67873,1,0,0:0:0:0:
475,192,67948,1,0,0:0:0:0:
36,192,67948,1,0,0:0:0:0:
109,192,67948,1,0,0:0:0:0:
402,192,67948,128,0,68173:0:0:0:0:
182,192,67948,128,0,68173:0:0:0:0:
256,192,67948,1,0,0:0:0:0:
329,192,68023,1,0,0:0:0:0:
36,192,68098,1,0,0:0:0:0:
475,192,68098,1,0,0:0:0:0:
109,192,68098,1,0,0:0:0:0:
329,192,68173,1,0,0:0:0:0:
256,192,68173,128,0,68248:0:0:0:0:
36,192,68248,128,0,68473:0:0:0:0:
182,192,68248,1,0,0:0:0:0:
475,192,68248,1,0,0:0:0:0:
402,192,68248,128,0,68473:0:0:0:0:
109,192,68248,1,0,0:0:0:0:
329,192,68323,1,0,0:0:0:0:
475,192,68398,1,0,0:0:0:0:
256,192,68398,1,0,0:0:0:0:
109,192,68398,1,0,0:0:0:0:
182,192,68473,128,0,68548:0:0:0:0:
329,192,68473,1,0,0:0:0:0:
109,192,68548,128,0,68698:0:0:0:0:
402,192,68548,128,0,68773:0:0:0:0:
36,192,68548,1,0,0:0:0:0:
256,192,68548,1,0,0:0:0:0:
475,192,68548,1,0,0:0:0:0:
329,192,68623,1,0,0:0:0:0:
36,192,68698,1,0,0:0:0:0:
256,192,68698,128,0,68848:0:0:0:0:
475,192,68698,1,0,0:0:0:0:
182,192,68698,1,0,0:0:0:0:
329,192,68773,1,0,0:0:0:0:
402,192,68848,128,0,69073:0:0:0:0:
36,192,68848,1,0,0:0:0:0:
109,192,68848,128,0,68998:0:0:0:0:
182,192,68848,1,0,0:0:0:0:
475,192,68848,1,0,0:0:0:0:
329,192,68923,1,0,0:0:0:0:
475,192,68998,1,0,0:0:0:0:
182,192,68998,128,0,69073:0:0:0:0:
256,192,68998,1,0,0:0:0:0:
329,192,69073,1,0,0:0:0:0:
36,192,69073,128,0,69148:0:0:0:0:
402,192,69148,128,0,69373:0:0:0:0:
256,192,69148,128,0,69223:0:0:0:0:
182,192,69148,1,0,0:0:0:0:
475,192,69148,1,0,0:0:0:0:
329,192,69223,1,0,0:0:0:0:
109,192,69223,128,0,69298:0:0:0:0:
182,192,69298,128,0,69373:0:0:0:0:
475,192,69298,1,0,0:0:0:0:
256,192,69298,1,0,0:0:0:0:
36,192,69373,128,0,69448:0:0:0:0:
329,192,69373,1,0,0:0:0:0:
256,192,69448,128,0,69598:0:0:0:0:
402,192,69448,128,0,69673:0:0:0:0:
109,192,69448,1,0,0:0:0:0:
182,192,69448,1,0,0:0:0:0:
475,192,69448,1,0,0:0:0:0:
329,192,69523,1,0,0:0:0:0:
109,192,69598,128,0,69748:0:0:0:0:
475,192,69598,1,0,0:0:0:0:
36,192,69598,1,0,0:0:0:0:
182,192,69598,1,0,0:0:0:0:
329,192,69673,1,0,0:0:0:0:
182,192,69748,128,0,69898:0:0:0:0:
402,192,69748,128,0,69973:0:0:0:0:
256,192,69748,1,0,0:0:0:0:
36,192,69748,1,0,0:0:0:0:
475,192,69748,1,0,0:0:0:0:
329,192,69823,1,0,0:0:0:0:
475,192,69898,1,0,0:0:0:0:
36,192,69898,1,0,0:0:0:0:
256,192,69898,128,0,69973:0:0:0:0:
109,192,69973,128,0,70048:0:0:0:0:
329,192,69973,1,0,0:0:0:0:
402,192,70048,128,0,70273:0:0:0:0:
256,192,70048,1,0,0:0:0:0:
36,192,70048,128,0,70198:0:0:0:0:
182,192,70048,1,0,0:0:0:0:
475,192,70048,1,0,0:0:0:0:
329,192,70123,1,0,0:0:0:0:
475,192,70198,1,0,0:0:0:0:
109,192,70198,128,0,70348:0:0:0:0:
256,192,70198,1,0,0:0:0:0:
182,192,70198,1,0,0:0:0:0:
329,192,70273,1,0,0:0:0:0:
475,192,70348,1,0,0:0:0:0:
36,192,70348,1,0,0:0:0:0:
256,192,70348,128,0,70498:0:0:0:0:
402,192,70348,128,0,70573:0:0:0:0:
182,192,70348,1,0,0:0:0:0:
329,192,70423,1,0,0:0:0:0:
475,192,70498,1,0,0:0:0:0:
36,192,70498,1,0,0:0:0:0:
182,192,70498,128,0,70573:0:0:0:0:
329,192,70573,1,0,0:0:0:0:
109,192,70573,128,0,70648:0:0:0:0:
36,192,70648,128,0,70723:0:0:0:0:
402,192,70648,128,0,70873:0:0:0:0:
256,192,70648,1,0,0:0:0:0:
475,192,70648,1,0,0:0:0:0:
182,192,70648,1,0,0:0:0:0:
329,192,70723,1,0,0:0:0:0:
36,192,70798,128,0,70873:0:0:0:0:
475,192,70798,1,0,0:0:0:0:
109,192,70798,1,0,0:0:0:0:
256,192,70798,1,0,0:0:0:0:
329,192,70873,1,0,0:0:0:0:
182,192,70873,128,0,70948:0:0:0:0:
256,192,70948,1,0,0:0:0:0:
475,192,70948,1,0,0:0:0:0:
402,192,70948,128,0,71173:0:0:0:0:
109,192,70948,128,0,71098:0:0:0:0:
36,192,70948,1,0,0:0:0:0:
329,192,71023,1,0,0:0:0:0:
182,192,71098,128,0,71173:0:0:0:0:
475,192,71098,1,0,0:0:0:0:
36,192,71098,1,0,0:0:0:0:
256,192,71173,128,0,71248:0:0:0:0:
329,192,71173,1,0,0:0:0:0:
109,192,71248,128,0,71323:0:0:0:0:
182,192,71248,1,0,0:0:0:0:
402,192,71248,128,0,71473:0:0:0:0:
36,192,71248,1,0,0:0:0:0:
475,192,71248,1,0,0:0:0:0:
182,192,71323,128,0,71398:0:0:0:0:
329,192,71323,1,0,0:0:0:0:
256,192,71398,1,0,0:0:0:0:
36,192,71398,128,0,71473:0:0:0:0:
475,192,71398,1,0,0:0:0:0:
329,192,71473,1,0,0:0:0:0:
109,192,71473,128,0,71548:0:0:0:0:
36,192,71548,1,0,0:0:0:0:
182,192,71548,1,0,0:0:0:0:
475,192,71548,1,0,0:0:0:0:
402,192,71548,128,0,71623:0:0:0:0:
256,192,71548,128,0,71698:0:0:0:0:
329,192,71623,1,0,0:0:0:0:
402,192,71698,128,0,71773:0:0:0:0:
475,192,71698,1,0,0:0:0:0:
36,192,71698,1,0,0:0:0:0:
182,192,71698,128,0,71773:0:0:0:0:
109,192,71698,1,0,0:0:0:0:
109,192,71773,128,0,71848:0:0:0:0:
329,192,71773,1,0,0:0:0:0:
256,192,71848,1,0,0:0:0:0:
475,192,71848,1,0,0:0:0:0:
182,192,71848,1,0,0:0:0:0:
36,192,71848,128,0,71998:0:0:0:0:
402,192,71848,128,0,72073:0:0:0:0:
329,192,71923,1,0,0:0:0:0:
109,192,71998,1,0,0:0:0:0:
182,192,71998,128,0,72073:0:0:0:0:
256,192,71998,1,0,0:0:0:0:
475,192,71998,1,0,0:0:0:0:
329,192,72073,5,0,0:0:0:0:
36,192,72148,1,0,0:0:0:0:
182,192,72148,1,0,0:0:0:0:
109,192,72148,128,0,72298:0:0:0:0:
475,192,72148,1,0,0:0:0:0:
402,192,72148,128,0,72373:0:0:0:0:
256,192,72148,1,0,0:0:0:0:
329,192,72223,1,0,0:0:0:0:
475,192,72298,1,0,0:0:0:0:
36,192,72298,1,0,0:0:0:0:
182,192,72298,1,0,0:0:0:0:
329,192,72373,1,0,0:0:0:0:
182,192,72448,5,0,0:0:0:0:
329,192,72448,1,0,0:0:0:0:
475,192,72448,1,0,0:0:0:0:
402,192,72448,128,0,72560:0:0:0:0:
256,192,72448,1,0,0:0:0:0:
36,192,72448,1,0,0:0:0:0:
109,192,72448,1,0,0:0:0:0:
182,192,72523,128,0,72635:0:0:0:0:
109,192,72523,1,0,0:0:0:0:
329,192,72598,128,0,72710:0:0:0:0:
402,192,72598,1,0,0:0:0:0:
256,192,72598,1,0,0:0:0:0:
109,192,72673,128,0,72785:0:0:0:0:
182,192,72673,1,0,0:0:0:0:
36,192,72748,1,0,0:0:0:0:
256,192,72748,1,0,0:0:0:0:
402,192,72748,1,0,0:0:0:0:
475,192,72748,128,0,72860:0:0:0:0:
182,192,72748,1,0,0:0:0:0:
329,192,72748,1,0,0:0:0:0:
182,192,72823,128,0,72935:0:0:0:0:
109,192,72823,1,0,0:0:0:0:
402,192,72898,128,0,73010:0:0:0:0:
475,192,72898,1,0,0:0:0:0:
256,192,72898,1,0,0:0:0:0:
36,192,72973,128,0,73085:0:0:0:0:
182,192,72973,1,0,0:0:0:0:
329,192,73048,128,0,73160:0:0:0:0:
109,192,73048,1,0,0:0:0:0:
182,192,73048,1,0,0:0:0:0:
256,192,73048,1,0,0:0:0:0:
475,192,73048,1,0,0:0:0:0:
402,192,73048,1,0,0:0:0:0:
109,192,73123,128,0,73235:0:0:0:0:
36,192,73123,1,0,0:0:0:0:
256,192,73198,128,0,73310:0:0:0:0:
329,192,73198,1,0,0:0:0:0:
475,192,73198,1,0,0:0:0:0:
182,192,73273,128,0,73385:0:0:0:0:
109,192,73273,1,0,0:0:0:0:
329,192,73348,128,0,73460:0:0:0:0:
475,192,73348,1,0,0:0:0:0:
402,192,73348,1,0,0:0:0:0:
109,192,73348,1,0,0:0:0:0:
36,192,73348,1,0,0:0:0:0:
256,192,73348,1,0,0:0:0:0:
109,192,73423,128,0,73535:0:0:0:0:
182,192,73423,1,0,0:0:0:0:
402,192,73498,128,0,73610:0:0:0:0:
329,192,73498,1,0,0:0:0:0:
475,192,73498,1,0,0:0:0:0:
36,192,73573,128,0,73685:0:0:0:0:
109,192,73573,1,0,0:0:0:0:
475,192,73648,128,0,73760:0:0:0:0:
109,192,73648,1,0,0:0:0:0:
182,192,73648,1,0,0:0:0:0:
256,192,73648,1,0,0:0:0:0:
329,192,73648,1,0,0:0:0:0:
402,192,73648,1,0,0:0:0:0:
182,192,73723,128,0,73835:0:0:0:0:
36,192,73723,1,0,0:0:0:0:
402,192,73798,128,0,73910:0:0:0:0:
475,192,73798,1,0,0:0:0:0:
256,192,73798,1,0,0:0:0:0:
109,192,73873,128,0,73985:0:0:0:0:
182,192,73873,1,0,0:0:0:0:
256,192,73948,128,0,74060:0:0:0:0:
329,192,73948,1,0,0:0:0:0:
182,192,73948,1,0,0:0:0:0:
36,192,73948,1,0,0:0:0:0:
475,192,73948,1,0,0:0:0:0:
402,192,73948,1,0,0:0:0:0:
36,192,74023,128,0,74135:0:0:0:0:
109,192,74023,1,0,0:0:0:0:
329,192,74098,128,0,74210:0:0:0:0:
256,192,74098,1,0,0:0:0:0:
402,192,74098,1,0,0:0:0:0:
182,192,74173,128,0,74285:0:0:0:0:
36,192,74173,1,0,0:0:0:0:
475,192,74248,128,0,74360:0:0:0:0:
329,192,74248,1,0,0:0:0:0:
402,192,74248,1,0,0:0:0:0:
256,192,74248,1,0,0:0:0:0:
109,192,74248,1,0,0:0:0:0:
36,192,74248,1,0,0:0:0:0:
182,192,74323,1,0,0:0:0:0:
36,192,74323,128,0,74435:0:0:0:0:
475,192,74398,1,0,0:0:0:0:
109,192,74398,128,0,74510:0:0:0:0:
329,192,74398,1,0,0:0:0:0:
182,192,74473,128,0,74585:0:0:0:0:
36,192,74473,1,0,0:0:0:0:
256,192,74548,128,0,74660:0:0:0:0:
109,192,74548,1,0,0:0:0:0:
475,192,74548,1,0,0:0:0:0:
402,192,74548,1,0,0:0:0:0:
329,192,74548,1,0,0:0:0:0:
36,192,74548,1,0,0:0:0:0:
475,192,74623,128,0,74735:0:0:0:0:
182,192,74623,1,0,0:0:0:0:
329,192,74698,128,0,74810:0:0:0:0:
256,192,74698,1,0,0:0:0:0:
36,192,74698,1,0,0:0:0:0:
109,192,74698,1,0,0:0:0:0:
182,192,74773,128,0,74885:0:0:0:0:
475,192,74773,1,0,0:0:0:0:
36,192,74848,128,0,74960:0:0:0:0:
329,192,74848,1,0,0:0:0:0:
475,192,74848,1,0,0:0:0:0:
402,192,74848,1,0,0:0:0:0:
256,192,74848,1,0,0:0:0:0:
109,192,74848,1,0,0:0:0:0:
182,192,74923,1,0,0:0:0:0:
329,192,74923,128,0,75035:0:0:0:0:
36,192,74998,1,0,0:0:0:0:
109,192,74998,128,0,75110:0:0:0:0:
256,192,74998,1,0,0:0:0:0:
402,192,75073,128,0,75185:0:0:0:0:
329,192,75073,1,0,0:0:0:0:
182,192,75148,128,0,75260:0:0:0:0:
109,192,75148,1,0,0:0:0:0:
256,192,75148,1,0,0:0:0:0:
329,192,75148,1,0,0:0:0:0:
475,192,75148,1,0,0:0:0:0:
36,192,75148,1,0,0:0:0:0:
402,192,75223,1,0,0:0:0:0:
475,192,75223,128,0,75335:0:0:0:0:
36,192,75298,128,0,75410:0:0:0:0:
182,192,75298,1,0,0:0:0:0:
256,192,75298,1,0,0:0:0:0:
329,192,75373,128,0,75485:0:0:0:0:
475,192,75373,1,0,0:0:0:0:
109,192,75448,128,0,75560:0:0:0:0:
36,192,75448,1,0,0:0:0:0:
256,192,75448,1,0,0:0:0:0:
182,192,75448,1,0,0:0:0:0:
402,192,75448,1,0,0:0:0:0:
475,192,75448,1,0,0:0:0:0:
402,192,75523,128,0,75635:0:0:0:0:
329,192,75523,1,0,0:0:0:0:
182,192,75598,128,0,75710:0:0:0:0:
109,192,75598,1,0,0:0:0:0:
256,192,75598,1,0,0:0:0:0:
475,192,75673,128,0,75785:0:0:0:0:
402,192,75673,1,0,0:0:0:0:
256,192,75748,128,0,75860:0:0:0:0:
182,192,75748,1,0,0:0:0:0:
402,192,75748,1,0,0:0:0:0:
329,192,75748,1,0,0:0:0:0:
109,192,75748,1,0,0:0:0:0:
36,192,75748,1,0,0:0:0:0:
329,192,75823,128,0,75935:0:0:0:0:
475,192,75823,1,0,0:0:0:0:
109,192,75898,128,0,76010:0:0:0:0:
256,192,75898,1,0,0:0:0:0:
182,192,75898,1,0,0:0:0:0:
402,192,75973,128,0,76085:0:0:0:0:
329,192,75973,1,0,0:0:0:0:
36,192,76048,128,0,76160:0:0:0:0:
109,192,76048,1,0,0:0:0:0:
182,192,76048,1,0,0:0:0:0:
256,192,76048,1,0,0:0:0:0:
329,192,76048,1,0,0:0:0:0:
475,192,76048,1,0,0:0:0:0:
475,192,76123,128,0,76235:0:0:0:0:
402,192,76123,1,0,0:0:0:0:
182,192,76198,128,0,76310:0:0:0:0:
109,192,76198,1,0,0:0:0:0:
329,192,76198,1,0,0:0:0:0:
402,192,76273,128,0,76385:0:0:0:0:
475,192,76273,1,0,0:0:0:0:
109,192,76348,128,0,76460:0:0:0:0:
182,192,76348,1,0,0:0:0:0:
256,192,76348,1,0,0:0:0:0:
329,192,76348,1,0,0:0:0:0:
475,192,76348,1,0,0:0:0:0:
36,192,76348,1,0,0:0:0:0:
329,192,76423,128,0,76535:0:0:0:0:
402,192,76423,1,0,0:0:0:0:
182,192,76498,128,0,76610:0:0:0:0:
109,192,76498,1,0,0:0:0:0:
475,192,76498,1,0,0:0:0:0:
256,192,76573,128,0,76685:0:0:0:0:
329,192,76573,1,0,0:0:0:0:
109,192,76648,1,0,0:0:0:0:
402,192,76648,1,0,0:0:0:0:
36,192,76648,128,0,76760:0:0:0:0:
475,192,76648,128,0,76760:0:0:0:0:
329,192,76648,128,0,76666:0:0:0:0:
182,192,76648,128,0,76666:0:0:0:0:
256,192,76723,1,0,0:0:0:0:
109,192,76723,1,0,0:0:0:0:
402,192,76723,1,0,0:0:0:0:
182,192,76798,128,0,76910:0:0:0:0:
329,192,76798,128,0,76910:0:0:0:0:
256,192,76798,1,0,0:0:0:0:
36,192,76798,128,0,76816:0:0:0:0:
475,192,76798,128,0,76816:0:0:0:0:
109,192,76873,1,0,0:0:0:0:
36,192,76873,1,0,0:0:0:0:
402,192,76873,1,0,0:0:0:0:
475,192,76873,1,0,0:0:0:0:
109,192,76948,128,0,77060:0:0:0:0:
402,192,76948,128,0,77060:0:0:0:0:
256,192,76948,1,0,0:0:0:0:
329,192,76948,128,0,76966:0:0:0:0:
182,192,76948,128,0,76966:0:0:0:0:
329,192,77023,1,0,0:0:0:0:
182,192,77023,1,0,0:0:0:0:
36,192,77023,1,0,0:0:0:0:
475,192,77023,1,0,0:0:0:0:
475,192,77098,128,0,77210:0:0:0:0:
36,192,77098,128,0,77210:0:0:0:0:
256,192,77098,1,0,0:0:0:0:
109,192,77098,128,0,77116:0:0:0:0:
402,192,77098,128,0,77116:0:0:0:0:
109,192,77173,1,0,0:0:0:0:
182,192,77173,1,0,0:0:0:0:
329,192,77173,1,0,0:0:0:0:
402,192,77173,1,0,0:0:0:0:
36,192,77248,128,0,77323:0:0:0:0:
182,192,77248,128,0,77398:0:0:0:0:
329,192,77248,128,0,77473:0:0:0:0:
475,192,77248,128,0,77548:0:0:0:0:
256,192,77248,1,0,0:0:0:0:
402,192,77248,1,0,0:0:0:0:
109,192,77248,1,0,0:0:0:0:
402,192,77323,1,0,0:0:0:0:
36,192,77398,128,0,77623:0:0:0:0:
256,192,77398,1,0,0:0:0:0:
182,192,77473,128,0,77698:0:0:0:0:
109,192,77473,1,0,0:0:0:0:
329,192,77548,128,0,77848:0:0:0:0:
256,192,77548,1,0,0:0:0:0:
402,192,77548,1,0,0:0:0:0:
475,192,77623,128,0,77773:0:0:0:0:
109,192,77623,1,0,0:0:0:0:
36,192,77698,128,0,77998:0:0:0:0:
256,192,77698,1,0,0:0:0:0:
182,192,77773,128,0,77923:0:0:0:0:
402,192,77773,1,0,0:0:0:0:
475,192,77848,128,0,78148:0:0:0:0:
256,192,77848,1,0,0:0:0:0:
109,192,77848,1,0,0:0:0:0:
329,192,77923,128,0,78223:0:0:0:0:
402,192,77923,1,0,0:0:0:0:
182,192,77998,128,0,78073:0:0:0:0:
256,192,77998,1,0,0:0:0:0:
36,192,78073,128,0,78298:0:0:0:0:
109,192,78073,1,0,0:0:0:0:
182,192,78148,128,0,78373:0:0:0:0:
256,192,78148,1,0,0:0:0:0:
402,192,78148,1,0,0:0:0:0:
475,192,78223,128,0,78448:0:0:0:0:
109,192,78223,1,0,0:0:0:0:
329,192,78298,128,0,78523:0:0:0:0:
256,192,78298,1,0,0:0:0:0:
36,192,78373,128,0,78673:0:0:0:0:
109,192,78373,1,0,0:0:0:0:
182,192,78448,128,0,78598:0:0:0:0:
402,192,78448,1,0,0:0:0:0:
256,192,78448,1,0,0:0:0:0:
475,192,78523,128,0,78973:0:0:0:0:
109,192,78523,1,0,0:0:0:0:
329,192,78598,128,0,78898:0:0:0:0:
402,192,78598,1,0,0:0:0:0:
182,192,78673,128,0,78748:0:0:0:0:
256,192,78673,1,0,0:0:0:0:
36,192,78748,128,0,78823:0:0:0:0:
402,192,78748,1,0,0:0:0:0:
109,192,78748,1,0,0:0:0:0:
182,192,78823,128,0,79048:0:0:0:0:
256,192,78823,1,0,0:0:0:0:
36,192,78898,128,0,79123:0:0:0:0:
402,192,78898,1,0,0:0:0:0:
329,192,78973,128,0,79198:0:0:0:0:
109,192,78973,1,0,0:0:0:0:
475,192,79048,128,0,79273:0:0:0:0:
402,192,79048,1,0,0:0:0:0:
256,192,79048,1,0,0:0:0:0:
182,192,79123,128,0,79423:0:0:0:0:
109,192,79123,1,0,0:0:0:0:
36,192,79198,128,0,79573:0:0:0:0:
402,192,79198,1,0,0:0:0:0:
329,192,79273,128,0,79348:0:0:0:0:
256,192,79273,1,0,0:0:0:0:
475,192,79348,128,0,79573:0:0:0:0:
402,192,79348,1,0,0:0:0:0:
109,192,79348,1,0,0:0:0:0:
329,192,79423,128,0,79573:0:0:0:0:
256,192,79423,1,0,0:0:0:0:
182,192,79498,128,0,79648:0:0:0:0:
402,192,79498,1,0,0:0:0:0:
109,192,79573,1,0,0:0:0:0:
402,192,79648,128,0,79723:0:0:0:0:
256,192,79648,128,0,79798:0:0:0:0:
109,192,79648,128,0,79873:0:0:0:0:
36,192,79648,1,0,0:0:0:0:
329,192,79648,1,0,0:0:0:0:
475,192,79648,1,0,0:0:0:0:
182,192,79723,1,0,0:0:0:0:
402,192,79798,128,0,79948:0:0:0:0:
36,192,79798,1,0,0:0:0:0:
475,192,79798,1,0,0:0:0:0:
256,192,79873,128,0,80098:0:0:0:0:
329,192,79873,1,0,0:0:0:0:
109,192,79948,128,0,80023:0:0:0:0:
182,192,79948,1,0,0:0:0:0:
475,192,79948,1,0,0:0:0:0:
36,192,79948,1,0,0:0:0:0:
402,192,80023,128,0,80173:0:0:0:0:
329,192,80023,1,0,0:0:0:0:
109,192,80098,128,0,80398:0:0:0:0:
36,192,80098,1,0,0:0:0:0:
475,192,80098,1,0,0:0:0:0:
256,192,80173,128,0,80248:0:0:0:0:
182,192,80173,1,0,0:0:0:0:
402,192,80248,128,0,80323:0:0:0:0:
36,192,80248,1,0,0:0:0:0:
475,192,80248,1,0,0:0:0:0:
329,192,80248,1,0,0:0:0:0:
256,192,80323,128,0,80473:0:0:0:0:
182,192,80323,1,0,0:0:0:0:
402,192,80398,128,0,80623:0:0:0:0:
36,192,80398,1,0,0:0:0:0:
475,192,80398,1,0,0:0:0:0:
109,192,80473,128,0,80548:0:0:0:0:
329,192,80473,1,0,0:0:0:0:
256,192,80548,128,0,80698:0:0:0:0:
36,192,80548,1,0,0:0:0:0:
182,192,80548,1,0,0:0:0:0:
475,192,80548,1,0,0:0:0:0:
109,192,80623,128,0,80773:0:0:0:0:
329,192,80623,1,0,0:0:0:0:
402,192,80698,128,0,80998:0:0:0:0:
36,192,80698,1,0,0:0:0:0:
475,192,80698,1,0,0:0:0:0:
256,192,80773,128,0,80848:0:0:0:0:
182,192,80773,1,0,0:0:0:0:
109,192,80848,128,0,80923:0:0:0:0:
329,192,80848,1,0,0:0:0:0:
475,192,80848,1,0,0:0:0:0:
256,192,80923,128,0,81073:0:0:0:0:
36,192,80923,1,0,0:0:0:0:
109,192,80998,128,0,81223:0:0:0:0:
182,192,80998,1,0,0:0:0:0:
329,192,80998,1,0,0:0:0:0:
402,192,81073,128,0,81148:0:0:0:0:
475,192,81073,1,0,0:0:0:0:
256,192,81148,128,0,81298:0:0:0:0:
329,192,81148,1,0,0:0:0:0:
182,192,81148,1,0,0:0:0:0:
36,192,81148,1,0,0:0:0:0:
402,192,81223,128,0,81373:0:0:0:0:
475,192,81223,1,0,0:0:0:0:
109,192,81298,128,0,81448:0:0:0:0:
182,192,81298,1,0,0:0:0:0:
329,192,81298,1,0,0:0:0:0:
256,192,81373,128,0,81523:0:0:0:0:
36,192,81373,1,0,0:0:0:0:
402,192,81448,128,0,81673:0:0:0:0:
329,192,81448,1,0,0:0:0:0:
182,192,81448,1,0,0:0:0:0:
475,192,81448,1,0,0:0:0:0:
109,192,81523,128,0,81598:0:0:0:0:
36,192,81523,1,0,0:0:0:0:
256,192,81598,128,0,81748:0:0:0:0:
182,192,81598,1,0,0:0:0:0:
329,192,81598,1,0,0:0:0:0:
109,192,81673,128,0,81898:0:0:0:0:
475,192,81673,1,0,0:0:0:0:
402,192,81748,128,0,81823:0:0:0:0:
329,192,81748,1,0,0:0:0:0:
182,192,81748,1,0,0:0:0:0:
36,192,81748,1,0,0:0:0:0:
256,192,81823,128,0,81973:0:0:0:0:
475,192,81823,1,0,0:0:0:0:
402,192,81898,128,0,82048:0:0:0:0:
182,192,81898,1,0,0:0:0:0:
329,192,81898,1,0,0:0:0:0:
109,192,81973,128,0,82048:0:0:0:0:
36,192,81973,1,0,0:0:0:0:
256,192,82048,1,0,0:0:0:0:
475,192,82048,128,0,82123:0:0:0:0:
329,192,82048,128,0,82198:0:0:0:0:
36,192,82048,128,0,82273:0:0:0:0:
182,192,82048,128,0,82348:0:0:0:0:
256,192,82123,128,0,82235:0:0:0:0:
109,192,82123,1,0,0:0:0:0:
475,192,82198,128,0,82423:0:0:0:0:
402,192,82198,1,0,0:0:0:0:
256,192,82273,128,0,82385:0:0:0:0:
329,192,82273,128,0,82498:0:0:0:0:
109,192,82273,1,0,0:0:0:0:
36,192,82348,128,0,82573:0:0:0:0:
402,192,82348,1,0,0:0:0:0:
256,192,82423,128,0,82535:0:0:0:0:
182,192,82423,128,0,82648:0:0:0:0:
109,192,82423,1,0,0:0:0:0:
475,192,82498,128,0,82873:0:0:0:0:
402,192,82498,1,0,0:0:0:0:
256,192,82573,128,0,82685:0:0:0:0:
329,192,82573,128,0,82723:0:0:0:0:
109,192,82573,1,0,0:0:0:0:
36,192,82648,128,0,82948:0:0:0:0:
402,192,82648,1,0,0:0:0:0:
256,192,82723,128,0,82835:0:0:0:0:
182,192,82723,128,0,82798:0:0:0:0:
109,192,82723,1,0,0:0:0:0:
329,192,82798,128,0,83023:0:0:0:0:
402,192,82798,1,0,0:0:0:0:
256,192,82873,128,0,82985:0:0:0:0:
182,192,82873,128,0,83098:0:0:0:0:
109,192,82873,1,0,0:0:0:0:
475,192,82948,128,0,83173:0:0:0:0:
402,192,82948,1,0,0:0:0:0:
256,192,83023,128,0,83135:0:0:0:0:
36,192,83023,128,0,83323:0:0:0:0:
109,192,83023,1,0,0:0:0:0:
329,192,83098,128,0,83248:0:0:0:0:
402,192,83098,1,0,0:0:0:0:
256,192,83173,128,0,83285:0:0:0:0:
182,192,83173,128,0,83398:0:0:0:0:
109,192,83173,1,0,0:0:0:0:
475,192,83248,128,0,83473:0:0:0:0:
402,192,83248,1,0,0:0:0:0:
256,192,83323,128,0,83435:0:0:0:0:
329,192,83323,128,0,83548:0:0:0:0:
109,192,83323,1,0,0:0:0:0:
36,192,83398,128,0,83773:0:0:0:0:
402,192,83398,1,0,0:0:0:0:
256,192,83473,128,0,83585:0:0:0:0:
182,192,83473,128,0,83623:0:0:0:0:
109,192,83473,1,0,0:0:0:0:
475,192,83548,128,0,83698:0:0:0:0:
402,192,83548,1,0,0:0:0:0:
256,192,83623,128,0,83735:0:0:0:0:
329,192,83623,128,0,83848:0:0:0:0:
109,192,83623,1,0,0:0:0:0:
182,192,83698,128,0,83923:0:0:0:0:
402,192,83698,1,0,0:0:0:0:
256,192,83773,128,0,83885:0:0:0:0:
475,192,83773,128,0,83998:0:0:0:0:
109,192,83773,1,0,0:0:0:0:
36,192,83848,128,0,84073:0:0:0:0:
402,192,83848,1,0,0:0:0:0:
256,192,83923,128,0,84035:0:0:0:0:
329,192,83923,128,0,84148:0:0:0:0:
109,192,83923,1,0,0:0:0:0:
182,192,83998,128,0,84298:0:0:0:0:
402,192,83998,1,0,0:0:0:0:
256,192,84073,128,0,84185:0:0:0:0:
475,192,84073,128,0,84373:0:0:0:0:
109,192,84073,1,0,0:0:0:0:
36,192,84148,128,0,84223:0:0:0:0:
402,192,84148,1,0,0:0:0:0:
256,192,84223,128,0,84335:0:0:0:0:
329,192,84223,128,0,84448:0:0:0:0:
109,192,84223,1,0,0:0:0:0:
36,192,84298,128,0,84373:0:0:0:0:
402,192,84298,1,0,0:0:0:0:
182,192,84373,128,0,84448:0:0:0:0:
109,192,84373,1,0,0:0:0:0:
256,192,84373,128,0,84448:0:0:0:0:
402,192,84448,128,0,84598:0:0:0:0:
109,192,84448,128,0,84523:0:0:0:0:
36,192,84448,1,0,0:0:0:0:
475,192,84448,1,0,0:0:0:0:
256,192,84523,128,0,84673:0:0:0:0:
475,192,84523,128,0,84635:0:0:0:0:
329,192,84523,1,0,0:0:0:0:
109,192,84598,128,0,84748:0:0:0:0:
182,192,84598,1,0,0:0:0:0:
402,192,84673,128,0,84823:0:0:0:0:
36,192,84673,128,0,84785:0:0:0:0:
329,192,84673,1,0,0:0:0:0:
256,192,84748,128,0,84898:0:0:0:0:
182,192,84748,1,0,0:0:0:0:
475,192,84823,128,0,84935:0:0:0:0:
109,192,84823,128,0,84973:0:0:0:0:
329,192,84823,1,0,0:0:0:0:
402,192,84898,128,0,85048:0:0:0:0:
182,192,84898,1,0,0:0:0:0:
36,192,84973,128,0,85085:0:0:0:0:
256,192,84973,128,0,85123:0:0:0:0:
329,192,84973,1,0,0:0:0:0:
109,192,85048,128,0,85273:0:0:0:0:
182,192,85048,1,0,0:0:0:0:
475,192,85123,128,0,85235:0:0:0:0:
402,192,85123,128,0,85198:0:0:0:0:
329,192,85123,1,0,0:0:0:0:
256,192,85198,128,0,85348:0:0:0:0:
182,192,85198,1,0,0:0:0:0:
36,192,85273,128,0,85385:0:0:0:0:
402,192,85273,128,0,85498:0:0:0:0:
329,192,85273,1,0,0:0:0:0:
109,192,85348,128,0,85423:0:0:0:0:
182,192,85348,1,0,0:0:0:0:
475,192,85423,128,0,85535:0:0:0:0:
256,192,85423,128,0,85573:0:0:0:0:
329,192,85423,1,0,0:0:0:0:
109,192,85498,128,0,85648:0:0:0:0:
182,192,85498,1,0,0:0:0:0:
36,192,85573,128,0,85685:0:0:0:0:
402,192,85573,128,0,85723:0:0:0:0:
329,192,85573,1,0,0:0:0:0:
256,192,85648,128,0,85873:0:0:0:0:
182,192,85648,1,0,0:0:0:0:
475,192,85723,128,0,85835:0:0:0:0:
109,192,85723,128,0,85798:0:0:0:0:
329,192,85723,1,0,0:0:0:0:
36,192,85723,1,0,0:0:0:0:
402,192,85798,128,0,85948:0:0:0:0:
182,192,85798,1,0,0:0:0:0:
36,192,85873,128,0,85985:0:0:0:0:
109,192,85873,128,0,86023:0:0:0:0:
329,192,85873,1,0,0:0:0:0:
475,192,85873,1,0,0:0:0:0:
256,192,85948,128,0,86098:0:0:0:0:
182,192,85948,1,0,0:0:0:0:
475,192,86023,128,0,86135:0:0:0:0:
402,192,86023,128,0,86173:0:0:0:0:
329,192,86023,1,0,0:0:0:0:
36,192,86023,1,0,0:0:0:0:
109,192,86098,128,0,86398:0:0:0:0:
182,192,86098,1,0,0:0:0:0:
36,192,86173,128,0,86285:0:0:0:0:
256,192,86173,128,0,86248:0:0:0:0:
329,192,86173,1,0,0:0:0:0:
475,192,86173,1,0,0:0:0:0:
402,192,86248,128,0,86323:0:0:0:0:
182,192,86248,1,0,0:0:0:0:
475,192,86323,128,0,86435:0:0:0:0:
256,192,86323,128,0,86473:0:0:0:0:
329,192,86323,1,0,0:0:0:0:
36,192,86323,1,0,0:0:0:0:
402,192,86398,128,0,86623:0:0:0:0:
182,192,86398,1,0,0:0:0:0:
36,192,86473,128,0,86585:0:0:0:0:
109,192,86473,128,0,86548:0:0:0:0:
329,192,86473,1,0,0:0:0:0:
475,192,86473,1,0,0:0:0:0:
256,192,86548,128,0,86698:0:0:0:0:
182,192,86548,1,0,0:0:0:0:
475,192,86623,128,0,86735:0:0:0:0:
109,192,86623,128,0,86848:0:0:0:0:
329,192,86623,1,0,0:0:0:0:
36,192,86623,1,0,0:0:0:0:
402,192,86698,128,0,86848:0:0:0:0:
182,192,86698,1,0,0:0:0:0:
36,192,86773,128,0,86848:0:0:0:0:
256,192,86773,128,0,86848:0:0:0:0:
329,192,86773,1,0,0:0:0:0:
475,192,86773,1,0,0:0:0:0:
182,192,86848,128,0,86885:0:0:0:0:
256,192,86998,128,0,87035:0:0:0:0:
329,192,87148,128,0,87185:0:0:0:0:
402,192,87298,128,0,87335:0:0:0:0:
475,192,87448,128,0,87804:0:0:0:0:
36,192,87598,128,0,87710:0:0:0:0:
109,192,87616,128,0,87710:0:0:0:0:
182,192,87635,128,0,87710:0:0:0:0:
256,192,87654,128,0,87748:0:0:0:0:
329,192,87673,128,0,87766:0:0:0:0:
402,192,87691,128,0,87785:0:0:0:0:
36,192,87748,1,0,0:0:0:0:
109,192,87748,1,0,0:0:0:0:
182,192,87748,1,0,0:0:0:0:
256,192,87823,1,0,0:0:0:0:
329,192,87898,1,0,0:0:0:0:
402,192,87898,1,0,0:0:0:0:
475,192,87898,1,0,0:0:0:0:
109,192,87898,1,0,0:0:0:0:
182,192,87898,1,0,0:0:0:0:
256,192,87973,1,0,0:0:0:0:
36,192,88048,128,0,88273:0:0:0:0:
182,192,88048,128,0,88348:0:0:0:0:
475,192,88048,128,0,88498:0:0:0:0:
402,192,88048,128,0,88085:0:0:0:0:
329,192,88123,1,0,0:0:0:0:
256,192,88123,1,0,0:0:0:0:
109,192,88198,1,0,0:0:0:0:
402,192,88198,128,0,88235:0:0:0:0:
256,192,88273,1,0,0:0:0:0:
329,192,88273,1,0,0:0:0:0:
109,192,88348,1,0,0:0:0:0:
36,192,88348,1,0,0:0:0:0:
402,192,88348,128,0,88385:0:0:0:0:
182,192,88423,1,0,0:0:0:0:
256,192,88423,1,0,0:0:0:0:
36,192,88498,1,0,0:0:0:0:
109,192,88498,1,0,0:0:0:0:
329,192,88498,128,0,88573:0:0:0:0:
402,192,88573,128,0,88648:0:0:0:0:
182,192,88573,1,0,0:0:0:0:
182,192,88648,128,0,88723:0:0:0:0:
36,192,88648,128,0,88723:0:0:0:0:
256,192,88648,1,0,0:0:0:0:
109,192,88648,128,0,88723:0:0:0:0:
475,192,88648,128,0,88723:0:0:0:0:
402,192,88723,1,0,0:0:0:0:
329,192,88723,128,0,88760:0:0:0:0:
109,192,88798,128,0,88835:0:0:0:0:
475,192,88798,1,0,0:0:0:0:
256,192,88798,128,0,88873:0:0:0:0:
182,192,88798,128,0,88873:0:0:0:0:
329,192,88798,1,0,0:0:0:0:
36,192,88873,1,0,0:0:0:0:
402,192,88873,128,0,88910:0:0:0:0:
256,192,88948,128,0,89023:0:0:0:0:
182,192,88948,128,0,88985:0:0:0:0:
402,192,88948,1,0,0:0:0:0:
329,192,88948,128,0,89023:0:0:0:0:
109,192,89023,1,0,0:0:0:0:
475,192,89023,128,0,89060:0:0:0:0:
36,192,89023,1,0,0:0:0:0:
329,192,89098,128,0,89173:0:0:0:0:
256,192,89098,128,0,89135:0:0:0:0:
402,192,89098,128,0,89173:0:0:0:0:
475,192,89098,1,0,0:0:0:0:
36,192,89173,1,0,0:0:0:0:
109,192,89173,1,0,0:0:0:0:
329,192,89248,128,0,90223:0:0:0:0:
402,192,89248,128,0,89923:0:0:0:0:
475,192,89248,128,0,89623:0:0:0:0:
182,192,89248,128,0,89285:0:0:0:0:
256,192,89323,1,0,0:0:0:0:
36,192,89398,128,0,89473:0:0:0:0:
109,192,89398,128,0,89473:0:0:0:0:
182,192,89398,128,0,89435:0:0:0:0:
256,192,89473,1,0,0:0:0:0:
109,192,89548,1,0,0:0:0:0:
182,192,89548,128,0,89585:0:0:0:0:
36,192,89623,1,0,0:0:0:0:
256,192,89623,1,0,0:0:0:0:
109,192,89698,128,0,89773:0:0:0:0:
182,192,89698,128,0,89773:0:0:0:0:
475,192,89698,1,0,0:0:0:0:
36,192,89773,1,0,0:0:0:0:
256,192,89773,1,0,0:0:0:0:
182,192,89848,1,0,0:0:0:0:
109,192,89848,128,0,89885:0:0:0:0:
475,192,89923,1,0,0:0:0:0:
36,192,89923,1,0,0:0:0:0:
182,192,89998,128,0,90073:0:0:0:0:
256,192,89998,128,0,90073:0:0:0:0:
402,192,89998,1,0,0:0:0:0:
109,192,89998,128,0,90035:0:0:0:0:
475,192,90073,1,0,0:0:0:0:
36,192,90073,1,0,0:0:0:0:
182,192,90148,1,0,0:0:0:0:
256,192,90148,1,0,0:0:0:0:
109,192,90148,128,0,90185:0:0:0:0:
402,192,90223,1,0,0:0:0:0:
475,192,90223,1,0,0:0:0:0:
36,192,90223,1,0,0:0:0:0:
256,192,90298,128,0,90373:0:0:0:0:
329,192,90298,128,0,90373:0:0:0:0:
182,192,90298,1,0,0:0:0:0:
475,192,90298,128,0,90373:0:0:0:0:
109,192,90298,128,0,90335:0:0:0:0:
402,192,90373,128,0,90448:0:0:0:0:
36,192,90373,1,0,0:0:0:0:
329,192,90448,128,0,91273:0:0:0:0:
182,192,90448,128,0,91123:0:0:0:0:
109,192,90448,128,0,90973:0:0:0:0:
475,192,90448,1,0,0:0:0:0:
256,192,90448,128,0,90485:0:0:0:0:
36,192,90523,1,0,0:0:0:0:
402,192,90598,128,0,90673:0:0:0:0:
475,192,90598,128,0,90673:0:0:0:0:
256,192,90598,128,0,90635:0:0:0:0:
36,192,90673,1,0,0:0:0:0:
475,192,90748,1,0,0:0:0:0:
256,192,90748,128,0,90785:0:0:0:0:
402,192,90823,1,0,0:0:0:0:
256,192,90898,128,0,90973:0:0:0:0:
36,192,90898,128,0,90973:0:0:0:0:
475,192,90898,128,0,90935:0:0:0:0:
402,192,90973,1,0,0:0:0:0:
109,192,91048,1,0,0:0:0:0:
256,192,91048,128,0,91085:0:0:0:0:
36,192,91123,1,0,0:0:0:0:
475,192,91123,1,0,0:0:0:0:
256,192,91198,128,0,91273:0:0:0:0:
402,192,91198,128,0,91273:0:0:0:0:
109,192,91198,1,0,0:0:0:0:
182,192,91198,128,0,91235:0:0:0:0:
36,192,91273,1,0,0:0:0:0:
475,192,91273,1,0,0:0:0:0:
109,192,91348,1,0,0:0:0:0:
256,192,91348,1,0,0:0:0:0:
402,192,91348,1,0,0:0:0:0:
182,192,91348,128,0,91385:0:0:0:0:
329,192,91423,1,0,0:0:0:0:
36,192,91423,1,0,0:0:0:0:
402,192,91498,128,0,91573:0:0:0:0:
475,192,91498,128,0,91573:0:0:0:0:
256,192,91498,128,0,91573:0:0:0:0:
109,192,91498,128,0,91535:0:0:0:0:
182,192,91573,128,0,91648:0:0:0:0:
329,192,91573,1,0,0:0:0:0:
109,192,91648,128,0,91798:0:0:0:0:
36,192,91648,128,0,91760:0:0:0:0:
475,192,91648,1,0,0:0:0:0:
402,192,91648,128,0,91685:0:0:0:0:
329,192,91723,1,0,0:0:0:0:
256,192,91723,1,0,0:0:0:0:
402,192,91798,128,0,91910:0:0:0:0:
475,192,91798,128,0,91948:0:0:0:0:
36,192,91798,1,0,0:0:0:0:
182,192,91798,128,0,91835:0:0:0:0:
329,192,91873,1,0,0:0:0:0:
109,192,91873,1,0,0:0:0:0:
256,192,91948,128,0,92098:0:0:0:0:
182,192,91948,128,0,92060:0:0:0:0:
402,192,91948,1,0,0:0:0:0:
36,192,91948,128,0,91985:0:0:0:0:
475,192,92023,1,0,0:0:0:0:
109,192,92023,1,0,0:0:0:0:
36,192,92098,128,0,92323:0:0:0:0:
402,192,92098,128,0,92323:0:0:0:0:
182,192,92098,1,0,0:0:0:0:
329,192,92098,128,0,92135:0:0:0:0:
256,192,92173,1,0,0:0:0:0:
475,192,92173,1,0,0:0:0:0:
109,192,92173,1,0,0:0:0:0:
182,192,92248,1,0,0:0:0:0:
329,192,92248,128,0,92285:0:0:0:0:
256,192,92323,1,0,0:0:0:0:
109,192,92323,1,0,0:0:0:0:
182,192,92398,128,0,92623:0:0:0:0:
475,192,92398,128,0,92623:0:0:0:0:
329,192,92398,1,0,0:0:0:0:
36,192,92398,1,0,0:0:0:0:
402,192,92398,128,0,92435:0:0:0:0:
256,192,92473,1,0,0:0:0:0:
109,192,92473,1,0,0:0:0:0:
329,192,92548,1,0,0:0:0:0:
36,192,92548,1,0,0:0:0:0:
402,192,92548,128,0,92585:0:0:0:0:
109,192,92623,1,0,0:0:0:0:
256,192,92698,128,0,92848:0:0:0:0:
329,192,92698,128,0,92848:0:0:0:0:
402,192,92698,1,0,0:0:0:0:
475,192,92698,1,0,0:0:0:0:
36,192,92698,128,0,92735:0:0:0:0:
182,192,92773,1,0,0:0:0:0:
402,192,92848,128,0,92998:0:0:0:0:
475,192,92848,128,0,92960:0:0:0:0:
109,192,92848,1,0,0:0:0:0:
36,192,92848,128,0,92885:0:0:0:0:
256,192,92923,1,0,0:0:0:0:
182,192,92923,1,0,0:0:0:0:
36,192,92998,128,0,93148:0:0:0:0:
109,192,92998,128,0,93110:0:0:0:0:
475,192,92998,1,0,0:0:0:0:
329,192,92998,128,0,93035:0:0:0:0:
182,192,93073,1,0,0:0:0:0:
402,192,93073,1,0,0:0:0:0:
329,192,93148,128,0,93260:0:0:0:0:
109,192,93148,1,0,0:0:0:0:
256,192,93148,128,0,93298:0:0:0:0:
475,192,93148,128,0,93185:0:0:0:0:
36,192,93223,1,0,0:0:0:0:
402,192,93223,1,0,0:0:0:0:
475,192,93298,128,0,93523:0:0:0:0:
109,192,93298,128,0,93523:0:0:0:0:
329,192,93298,1,0,0:0:0:0:
182,192,93298,128,0,93335:0:0:0:0:
402,192,93373,1,0,0:0:0:0:
36,192,93373,1,0,0:0:0:0:
256,192,93373,1,0,0:0:0:0:
329,192,93448,128,0,93485:0:0:0:0:
402,192,93523,1,0,0:0:0:0:
182,192,93523,1,0,0:0:0:0:
36,192,93598,128,0,93823:0:0:0:0:
329,192,93598,128,0,93823:0:0:0:0:
256,192,93598,1,0,0:0:0:0:
109,192,93598,1,0,0:0:0:0:
475,192,93598,128,0,93635:0:0:0:0:
182,192,93673,1,0,0:0:0:0:
402,192,93673,1,0,0:0:0:0:
475,192,93748,128,0,93823:0:0:0:0:
256,192,93748,128,0,93823:0:0:0:0:
109,192,93748,128,0,93785:0:0:0:0:
402,192,93823,128,0,93898:0:0:0:0:
182,192,93823,128,0,93898:0:0:0:0:
329,192,93898,128,0,93973:0:0:0:0:
109,192,93898,128,0,93973:0:0:0:0:
475,192,93898,1,0,0:0:0:0:
256,192,93973,128,0,94048:0:0:0:0:
36,192,93973,128,0,94048:0:0:0:0:
402,192,93973,1,0,0:0:0:0:
182,192,94048,128,0,94873:0:0:0:0:
475,192,94048,128,0,94573:0:0:0:0:
329,192,94048,128,0,94723:0:0:0:0:
109,192,94048,1,0,0:0:0:0:
36,192,94123,1,0,0:0:0:0:
256,192,94198,128,0,94273:0:0:0:0:
402,192,94198,128,0,94273:0:0:0:0:
109,192,94198,128,0,94235:0:0:0:0:
36,192,94273,1,0,0:0:0:0:
109,192,94348,1,0,0:0:0:0:
256,192,94348,1,0,0:0:0:0:
402,192,94423,1,0,0:0:0:0:
109,192,94498,128,0,94573:0:0:0:0:
36,192,94498,128,0,94573:0:0:0:0:
256,192,94498,1,0,0:0:0:0:
402,192,94573,1,0,0:0:0:0:
256,192,94648,1,0,0:0:0:0:
109,192,94648,1,0,0:0:0:0:
475,192,94648,128,0,94685:0:0:0:0:
36,192,94723,1,0,0:0:0:0:
329,192,94798,128,0,94873:0:0:0:0:
256,192,94798,128,0,94873:0:0:0:0:
109,192,94798,1,0,0:0:0:0:
402,192,94798,1,0,0:0:0:0:
475,192,94798,128,0,94835:0:0:0:0:
36,192,94873,1,0,0:0:0:0:
402,192,94948,128,0,95173:0:0:0:0:
256,192,94948,128,0,95173:0:0:0:0:
109,192,94948,128,0,95173:0:0:0:0:
329,192,94948,1,0,0:0:0:0:
182,192,94948,1,0,0:0:0:0:
475,192,95023,1,0,0:0:0:0:
36,192,95098,128,0,95173:0:0:0:0:
182,192,95098,128,0,95173:0:0:0:0:
329,192,95098,1,0,0:0:0:0:
475,192,95173,1,0,0:0:0:0:
36,192,95248,128,0,95848:0:0:0:0:
329,192,95248,128,0,95548:0:0:0:0:
182,192,95248,128,0,95698:0:0:0:0:
402,192,95248,1,0,0:0:0:0:
256,192,95248,128,0,95285:0:0:0:0:
109,192,95323,1,0,0:0:0:0:
402,192,95398,128,0,95473:0:0:0:0:
475,192,95398,128,0,95473:0:0:0:0:
256,192,95398,128,0,95435:0:0:0:0:
109,192,95473,1,0,0:0:0:0:
402,192,95548,1,0,0:0:0:0:
256,192,95548,128,0,95585:0:0:0:0:
109,192,95623,1,0,0:0:0:0:
475,192,95623,1,0,0:0:0:0:
329,192,95698,128,0,95773:0:0:0:0:
402,192,95698,128,0,95773:0:0:0:0:
256,192,95698,128,0,95735:0:0:0:0:
182,192,95773,1,0,0:0:0:0:
109,192,95773,1,0,0:0:0:0:
402,192,95848,1,0,0:0:0:0:
329,192,95848,1,0,0:0:0:0:
475,192,95848,128,0,96073:0:0:0:0:
256,192,95848,128,0,95885:0:0:0:0:
182,192,95923,1,0,0:0:0:0:
109,192,95923,1,0,0:0:0:0:
329,192,95998,128,0,96073:0:0:0:0:
256,192,95998,128,0,96073:0:0:0:0:
402,192,95998,1,0,0:0:0:0:
36,192,95998,128,0,96035:0:0:0:0:
182,192,96073,1,0,0:0:0:0:
109,192,96073,1,0,0:0:0:0:
475,192,96148,1,0,0:0:0:0:
256,192,96148,1,0,0:0:0:0:
329,192,96148,128,0,96223:0:0:0:0:
36,192,96148,128,0,96185:0:0:0:0:
182,192,96223,128,0,96298:0:0:0:0:
402,192,96223,128,0,96298:0:0:0:0:
109,192,96298,128,0,96373:0:0:0:0:
256,192,96298,128,0,96373:0:0:0:0:
475,192,96298,128,0,96373:0:0:0:0:
329,192,96373,128,0,96448:0:0:0:0:
36,192,96373,128,0,96523:0:0:0:0:
182,192,96373,1,0,0:0:0:0:
402,192,96448,128,0,96598:0:0:0:0:
475,192,96448,128,0,96560:0:0:0:0:
109,192,96448,1,0,0:0:0:0:
256,192,96523,1,0,0:0:0:0:
182,192,96523,1,0,0:0:0:0:
109,192,96598,128,0,96710:0:0:0:0:
36,192,96598,128,0,96748:0:0:0:0:
475,192,96598,1,0,0:0:0:0:
329,192,96598,1,0,0:0:0:0:
182,192,96673,1,0,0:0:0:0:
402,192,96673,1,0,0:0:0:0:
329,192,96748,128,0,96860:0:0:0:0:
109,192,96748,1,0,0:0:0:0:
256,192,96748,128,0,96898:0:0:0:0:
475,192,96748,1,0,0:0:0:0:
402,192,96823,1,0,0:0:0:0:
36,192,96823,1,0,0:0:0:0:
36,192,96898,128,0,97123:0:0:0:0:
329,192,96898,1,0,0:0:0:0:
475,192,96898,128,0,97123:0:0:0:0:
182,192,96898,128,0,96935:0:0:0:0:
402,192,96973,1,0,0:0:0:0:
256,192,96973,1,0,0:0:0:0:
109,192,96973,1,0,0:0:0:0:
329,192,97048,1,0,0:0:0:0:
182,192,97048,128,0,97085:0:0:0:0:
109,192,97123,1,0,0:0:0:0:
256,192,97123,1,0,0:0:0:0:
329,192,97198,1,0,0:0:0:0:
475,192,97198,1,0,0:0:0:0:
182,192,97198,1,0,0:0:0:0:
36,192,97198,128,0,97235:0:0:0:0:
109,192,97273,1,0,0:0:0:0:
402,192,97273,1,0,0:0:0:0:
329,192,97348,128,0,97423:0:0:0:0:
475,192,97348,1,0,0:0:0:0:
256,192,97348,1,0,0:0:0:0:
36,192,97348,128,0,97385:0:0:0:0:
402,192,97423,128,0,97498:0:0:0:0:
182,192,97423,128,0,97498:0:0:0:0:
475,192,97498,128,0,97573:0:0:0:0:
256,192,97498,128,0,97573:0:0:0:0:
109,192,97498,128,0,97573:0:0:0:0:
182,192,97573,1,0,0:0:0:0:
36,192,97573,128,0,97723:0:0:0:0:
329,192,97573,128,0,97648:0:0:0:0:
109,192,97648,1,0,0:0:0:0:
475,192,97648,128,0,97760:0:0:0:0:
402,192,97648,128,0,97798:0:0:0:0:
182,192,97723,1,0,0:0:0:0:
256,192,97723,1,0,0:0:0:0:
475,192,97798,1,0,0:0:0:0:
329,192,97798,1,0,0:0:0:0:
109,192,97798,128,0,97910:0:0:0:0:
36,192,97798,128,0,97948:0:0:0:0:
402,192,97873,1,0,0:0:0:0:
182,192,97873,1,0,0:0:0:0:
256,192,97948,128,0,98098:0:0:0:0:
475,192,97948,1,0,0:0:0:0:
329,192,97948,128,0,98060:0:0:0:0:
109,192,97948,1,0,0:0:0:0:
36,192,98023,1,0,0:0:0:0:
402,192,98023,1,0,0:0:0:0:
475,192,98098,128,0,98323:0:0:0:0:
182,192,98098,1,0,0:0:0:0:
36,192,98098,128,0,98323:0:0:0:0:
329,192,98098,1,0,0:0:0:0:
109,192,98173,1,0,0:0:0:0:
256,192,98173,1,0,0:0:0:0:
402,192,98173,1,0,0:0:0:0:
329,192,98248,1,0,0:0:0:0:
182,192,98248,1,0,0:0:0:0:
256,192,98323,1,0,0:0:0:0:
109,192,98323,1,0,0:0:0:0:
36,192,98398,1,0,0:0:0:0:
329,192,98398,1,0,0:0:0:0:
402,192,98398,1,0,0:0:0:0:
109,192,98473,1,0,0:0:0:0:
182,192,98473,1,0,0:0:0:0:
256,192,98548,128,0,98623:0:0:0:0:
329,192,98548,1,0,0:0:0:0:
402,192,98548,1,0,0:0:0:0:
475,192,98548,128,0,98773:0:0:0:0:
109,192,98623,128,0,98698:0:0:0:0:
182,192,98623,1,0,0:0:0:0:
36,192,98623,1,0,0:0:0:0:
329,192,98698,128,0,98773:0:0:0:0:
256,192,98698,1,0,0:0:0:0:
402,192,98698,1,0,0:0:0:0:
182,192,98773,128,0,98848:0:0:0:0:
109,192,98773,1,0,0:0:0:0:
36,192,98773,1,0,0:0:0:0:
402,192,98848,128,0,99748:0:0:0:0:
329,192,98848,1,0,0:0:0:0:
475,192,98848,1,0,0:0:0:0:
256,192,98923,1,0,0:0:0:0:
109,192,98923,1,0,0:0:0:0:
182,192,98998,128,0,99073:0:0:0:0:
36,192,98998,128,0,99073:0:0:0:0:
329,192,98998,1,0,0:0:0:0:
475,192,98998,1,0,0:0:0:0:
256,192,99073,1,0,0:0:0:0:
109,192,99073,1,0,0:0:0:0:
329,192,99148,1,0,0:0:0:0:
36,192,99148,1,0,0:0:0:0:
256,192,99223,1,0,0:0:0:0:
475,192,99223,1,0,0:0:0:0:
109,192,99223,1,0,0:0:0:0:
182,192,99298,128,0,99373:0:0:0:0:
36,192,99298,128,0,99373:0:0:0:0:
329,192,99298,1,0,0:0:0:0:
109,192,99373,1,0,0:0:0:0:
475,192,99373,1,0,0:0:0:0:
329,192,99448,1,0,0:0:0:0:
256,192,99448,1,0,0:0:0:0:
475,192,99523,1,0,0:0:0:0:
109,192,99523,1,0,0:0:0:0:
182,192,99598,128,0,99673:0:0:0:0:
36,192,99598,128,0,99673:0:0:0:0:
329,192,99598,1,0,0:0:0:0:
256,192,99598,1,0,0:0:0:0:
109,192,99673,1,0,0:0:0:0:
475,192,99748,128,0,99898:0:0:0:0:
329,192,99748,1,0,0:0:0:0:
256,192,99748,1,0,0:0:0:0:
182,192,99748,1,0,0:0:0:0:
109,192,99823,1,0,0:0:0:0:
402,192,99898,128,0,99973:0:0:0:0:
182,192,99898,128,0,99973:0:0:0:0:
36,192,99898,128,0,99973:0:0:0:0:
256,192,99898,1,0,0:0:0:0:
329,192,99973,128,0,100048:0:0:0:0:
109,192,99973,1,0,0:0:0:0:
256,192,100048,128,0,101098:0:0:0:0:
36,192,100048,1,0,0:0:0:0:
182,192,100048,128,0,100273:0:0:0:0:
475,192,100048,1,0,0:0:0:0:
109,192,100123,1,0,0:0:0:0:
402,192,100123,1,0,0:0:0:0:
475,192,100198,128,0,100423:0:0:0:0:
36,192,100198,1,0,0:0:0:0:
329,192,100198,1,0,0:0:0:0:
109,192,100273,1,0,0:0:0:0:
402,192,100273,1,0,0:0:0:0:
36,192,100348,128,0,100573:0:0:0:0:
329,192,100348,1,0,0:0:0:0:
182,192,100348,1,0,0:0:0:0:
109,192,100423,1,0,0:0:0:0:
402,192,100498,128,0,100723:0:0:0:0:
182,192,100498,1,0,0:0:0:0:
329,192,100498,1,0,0:0:0:0:
475,192,100573,1,0,0:0:0:0:
109,192,100648,128,0,100873:0:0:0:0:
329,192,100648,1,0,0:0:0:0:
182,192,100723,1,0,0:0:0:0:
475,192,100798,128,0,101023:0:0:0:0:
36,192,100798,1,0,0:0:0:0:
402,192,100798,1,0,0:0:0:0:
329,192,100873,1,0,0:0:0:0:
36,192,100948,128,0,101173:0:0:0:0:
182,192,100948,1,0,0:0:0:0:
109,192,100948,1,0,0:0:0:0:
329,192,101023,1,0,0:0:0:0:
402,192,101098,128,0,101323:0:0:0:0:
182,192,101098,1,0,0:0:0:0:
475,192,101098,1,0,0:0:0:0:
109,192,101173,1,0,0:0:0:0:
256,192,101173,1,0,0:0:0:0:
182,192,101248,128,0,101285:0:0:0:0:
329,192,101248,128,0,101548:0:0:0:0:
36,192,101323,128,0,101360:0:0:0:0:
475,192,101323,128,0,101473:0:0:0:0:
256,192,101323,128,0,101360:0:0:0:0:
109,192,101398,128,0,101435:0:0:0:0:
402,192,101398,128,0,101473:0:0:0:0:
256,192,101473,128,0,101773:0:0:0:0:
182,192,101473,128,0,101510:0:0:0:0:
402,192,101548,128,0,101698:0:0:0:0:
36,192,101548,128,0,101585:0:0:0:0:
475,192,101548,128,0,101623:0:0:0:0:
109,192,101623,128,0,101660:0:0:0:0:
329,192,101623,128,0,101698:0:0:0:0:
36,192,101698,128,0,101735:0:0:0:0:
182,192,101698,128,0,101998:0:0:0:0:
475,192,101698,128,0,101735:0:0:0:0:
402,192,101773,128,0,101848:0:0:0:0:
329,192,101773,128,0,101923:0:0:0:0:
109,192,101773,128,0,101810:0:0:0:0:
36,192,101848,128,0,101885:0:0:0:0:
256,192,101848,128,0,101923:0:0:0:0:
475,192,101848,128,0,101923:0:0:0:0:
109,192,101923,128,0,102223:0:0:0:0:
402,192,101923,128,0,101960:0:0:0:0:
329,192,101998,128,0,102073:0:0:0:0:
475,192,101998,128,0,102035:0:0:0:0:
36,192,101998,128,0,102035:0:0:0:0:
256,192,101998,128,0,102148:0:0:0:0:
182,192,102073,128,0,102148:0:0:0:0:
402,192,102073,128,0,102148:0:0:0:0:
329,192,102148,128,0,102185:0:0:0:0:
36,192,102148,128,0,102185:0:0:0:0:
475,192,102148,128,0,102223:0:0:0:0:
182,192,102223,128,0,102373:0:0:0:0:
402,192,102223,128,0,102260:0:0:0:0:
256,192,102223,128,0,102298:0:0:0:0:
329,192,102298,128,0,102373:0:0:0:0:
109,192,102298,128,0,102373:0:0:0:0:
475,192,102298,128,0,102335:0:0:0:0:
36,192,102298,128,0,102335:0:0:0:0:
256,192,102373,128,0,102410:0:0:0:0:
402,192,102373,128,0,102448:0:0:0:0:
329,192,102448,128,0,102485:0:0:0:0:
182,192,102448,1,0,0:0:0:0:
36,192,102448,128,0,102560:0:0:0:0:
475,192,102448,128,0,102523:0:0:0:0:
256,192,102523,1,0,0:0:0:0:
402,192,102523,128,0,102560:0:0:0:0:
109,192,102523,128,0,102635:0:0:0:0:
329,192,102598,1,0,0:0:0:0:
475,192,102598,128,0,102635:0:0:0:0:
182,192,102598,128,0,102710:0:0:0:0:
36,192,102673,128,0,103048:0:0:0:0:
256,192,102673,128,0,102785:0:0:0:0:
402,192,102673,1,0,0:0:0:0:
109,192,102748,128,0,102860:0:0:0:0:
475,192,102748,1,0,0:0:0:0:
329,192,102823,1,0,0:0:0:0:
182,192,102823,128,0,102935:0:0:0:0:
109,192,102898,128,0,102935:0:0:0:0:
256,192,102898,128,0,103010:0:0:0:0:
402,192,102898,1,0,0:0:0:0:
182,192,102973,128,0,103010:0:0:0:0:
329,192,102973,128,0,103085:0:0:0:0:
475,192,102973,1,0,0:0:0:0:
402,192,103048,128,0,103160:0:0:0:0:
256,192,103048,128,0,103085:0:0:0:0:
329,192,103123,128,0,103160:0:0:0:0:
475,192,103123,128,0,103235:0:0:0:0:
109,192,103123,128,0,103160:0:0:0:0:
36,192,103198,128,0,103273:0:0:0:0:
402,192,103198,128,0,103235:0:0:0:0:
182,192,103198,128,0,103235:0:0:0:0:
109,192,103273,128,0,103310:0:0:0:0:
475,192,103273,128,0,103310:0:0:0:0:
256,192,103273,128,0,103348:0:0:0:0:
329,192,103348,128,0,103385:0:0:0:0:
182,192,103348,128,0,103423:0:0:0:0:
36,192,103423,128,0,103648:0:0:0:0:
402,192,103423,128,0,103498:0:0:0:0:
256,192,103423,128,0,103460:0:0:0:0:
329,192,103498,128,0,103573:0:0:0:0:
475,192,103498,128,0,103535:0:0:0:0:
109,192,103498,128,0,103648:0:0:0:0:
182,192,103573,128,0,103648:0:0:0:0:
402,192,103573,128,0,103648:0:0:0:0:
256,192,103648,1,0,0:0:0:0:
475,192,103648,128,0,104473:0:0:0:0:
182,192,103723,1,0,0:0:0:0:
109,192,103723,1,0,0:0:0:0:
256,192,103798,128,0,103873:0:0:0:0:
402,192,103798,128,0,103873:0:0:0:0:
36,192,103798,1,0,0:0:0:0:
109,192,103873,1,0,0:0:0:0:
182,192,103873,1,0,0:0:0:0:
256,192,103948,1,0,0:0:0:0:
402,192,103948,1,0,0:0:0:0:
329,192,104023,1,0,0:0:0:0:
36,192,104023,1,0,0:0:0:0:
256,192,104098,128,0,104173:0:0:0:0:
402,192,104098,128,0,104173:0:0:0:0:
109,192,104098,1,0,0:0:0:0:
182,192,104098,1,0,0:0:0:0:
36,192,104173,1,0,0:0:0:0:
256,192,104248,1,0,0:0:0:0:
402,192,104248,1,0,0:0:0:0:
182,192,104248,1,0,0:0:0:0:
329,192,104323,1,0,0:0:0:0:
36,192,104323,1,0,0:0:0:0:
256,192,104398,128,0,104473:0:0:0:0:
402,192,104398,128,0,104473:0:0:0:0:
109,192,104398,1,0,0:0:0:0:
182,192,104398,1,0,0:0:0:0:
36,192,104473,1,0,0:0:0:0:
182,192,104548,128,0,104773:0:0:0:0:
329,192,104548,128,0,104698:0:0:0:0:
475,192,104548,128,0,104773:0:0:0:0:
109,192,104548,1,0,0:0:0:0:
256,192,104623,1,0,0:0:0:0:
402,192,104623,1,0,0:0:0:0:
36,192,104623,1,0,0:0:0:0:
109,192,104698,1,0,0:0:0:0:
329,192,104773,1,0,0:0:0:0:
402,192,104848,128,0,104998:0:0:0:0:
256,192,104848,128,0,105073:0:0:0:0:
109,192,104848,128,0,105073:0:0:0:0:
36,192,104848,1,0,0:0:0:0:
329,192,104923,1,0,0:0:0:0:
475,192,104923,1,0,0:0:0:0:
182,192,104923,1,0,0:0:0:0:
36,192,104998,1,0,0:0:0:0:
402,192,105073,1,0,0:0:0:0:
329,192,105148,128,0,105373:0:0:0:0:
182,192,105148,128,0,105373:0:0:0:0:
36,192,105148,128,0,105298:0:0:0:0:
475,192,105148,1,0,0:0:0:0:
109,192,105223,1,0,0:0:0:0:
256,192,105223,1,0,0:0:0:0:
402,192,105223,1,0,0:0:0:0:
475,192,105298,1,0,0:0:0:0:
256,192,105373,1,0,0:0:0:0:
36,192,105373,1,0,0:0:0:0:
402,192,105448,128,0,105673:0:0:0:0:
475,192,105448,128,0,105673:0:0:0:0:
109,192,105448,128,0,105673:0:0:0:0:
182,192,105448,1,0,0:0:0:0:
329,192,105523,1,0,0:0:0:0:
256,192,105523,1,0,0:0:0:0:
36,192,105523,1,0,0:0:0:0:
182,192,105598,1,0,0:0:0:0:
329,192,105673,1,0,0:0:0:0:
256,192,105748,128,0,105973:0:0:0:0:
109,192,105748,128,0,105973:0:0:0:0:
36,192,105748,128,0,105973:0:0:0:0:
475,192,105748,1,0,0:0:0:0:
402,192,105748,1,0,0:0:0:0:
329,192,105823,1,0,0:0:0:0:
182,192,105823,1,0,0:0:0:0:
475,192,105898,1,0,0:0:0:0:
402,192,105898,1,0,0:0:0:0:
329,192,105973,1,0,0:0:0:0:
182,192,105973,1,0,0:0:0:0:
36,192,106048,128,0,107323:0:0:0:0:
475,192,106048,128,0,106423:0:0:0:0:
402,192,106048,128,0,106723:0:0:0:0:
109,192,106048,128,0,107023:0:0:0:0:
256,192,106048,1,0,0:0:0:0:
182,192,106123,1,0,0:0:0:0:
329,192,106123,1,0,0:0:0:0:
256,192,106198,1,0,0:0:0:0:
182,192,106273,1,0,0:0:0:0:
256,192,106348,1,0,0:0:0:0:
329,192,106348,1,0,0:0:0:0:
182,192,106423,1,0,0:0:0:0:
475,192,106498,128,0,106535:0:0:0:0:
329,192,106498,128,0,106535:0:0:0:0:
256,192,106498,1,0,0:0:0:0:
182,192,106573,1,0,0:0:0:0:
256,192,106648,1,0,0:0:0:0:
329,192,106648,1,0,0:0:0:0:
475,192,106723,1,0,0:0:0:0:
402,192,106798,128,0,106835:0:0:0:0:
256,192,106798,128,0,106835:0:0:0:0:
182,192,106798,1,0,0:0:0:0:
329,192,106873,1,0,0:0:0:0:
475,192,106948,1,0,0:0:0:0:
182,192,106948,1,0,0:0:0:0:
329,192,107023,1,0,0:0:0:0:
109,192,107098,128,0,107135:0:0:0:0:
256,192,107098,128,0,107135:0:0:0:0:
402,192,107098,1,0,0:0:0:0:
329,192,107173,1,0,0:0:0:0:
402,192,107248,1,0,0:0:0:0:
475,192,107248,1,0,0:0:0:0:
182,192,107248,1,0,0:0:0:0:
256,192,107323,1,0,0:0:0:0:
36,192,107398,128,0,107435:0:0:0:0:
182,192,107398,128,0,107435:0:0:0:0:
329,192,107398,1,0,0:0:0:0:
402,192,107398,1,0,0:0:0:0:
256,192,107473,1,0,0:0:0:0:
402,192,107548,1,0,0:0:0:0:
329,192,107548,1,0,0:0:0:0:
182,192,107548,1,0,0:0:0:0:
109,192,107548,1,0,0:0:0:0:
256,192,107623,1,0,0:0:0:0:
475,192,107698,128,0,107773:0:0:0:0:
36,192,107698,128,0,107773:0:0:0:0:
182,192,107698,1,0,0:0:0:0:
329,192,107698,1,0,0:0:0:0:
256,192,107848,5,0,0:0:0:0:
182,192,107848,1,0,0:0:0:0:
109,192,107848,1,0,0:0:0:0:
329,192,107848,1,0,0:0:0:0:
402,192,107848,1,0,0:0:0:0:
475,192,107848,128,0,108148:0:0:0:0:
36,192,107848,128,0,108148:0:0:0:0:
36,192,108448,128,0,108485:0:0:0:0:
402,192,108448,1,0,0:0:0:0:
109,192,108523,128,0,108560:0:0:0:0:
182,192,108598,128,0,108635:0:0:0:0:
256,192,108673,128,0,108710:0:0:0:0:
329,192,108748,128,0,108785:0:0:0:0:
475,192,108898,128,0,108935:0:0:0:0:
109,192,108898,1,0,0:0:0:0:
329,192,109048,128,0,109085:0:0:0:0:
182,192,109048,1,0,0:0:0:0:
36,192,109048,1,0,0:0:0:0:
182,192,109198,128,0,109235:0:0:0:0:
36,192,109348,128,0,109385:0:0:0:0:
402,192,109348,1,0,0:0:0:0:
475,192,109498,128,0,109535:0:0:0:0:
182,192,109498,1,0,0:0:0:0:
36,192,109498,1,0,0:0:0:0:
329,192,109648,128,0,109685:0:0:0:0:
256,192,109723,128,0,109760:0:0:0:0:
182,192,109798,128,0,109835:0:0:0:0:
475,192,109798,1,0,0:0:0:0:
329,192,109798,1,0,0:0:0:0:
109,192,109873,128,0,109910:0:0:0:0:
36,192,109948,128,0,109985:0:0:0:0:
256,192,109948,1,0,0:0:0:0:
402,192,109948,1,0,0:0:0:0:
402,192,110098,128,0,110135:0:0:0:0:
256,192,110248,128,0,110285:0:0:0:0:
475,192,110248,1,0,0:0:0:0:
36,192,110248,1,0,0:0:0:0:
109,192,110398,128,0,110435:0:0:0:0:
402,192,110548,128,0,110585:0:0:0:0:
109,192,110548,1,0,0:0:0:0:
36,192,110548,1,0,0:0:0:0:
182,192,110623,1,0,0:0:0:0:
256,192,110623,1,0,0:0:0:0:
475,192,110698,128,0,110735:0:0:0:0:
109,192,110698,1,0,0:0:0:0:
36,192,110698,1,0,0:0:0:0:
256,192,110773,1,0,0:0:0:0:
182,192,110773,1,0,0:0:0:0:
329,192,110848,128,0,110885:0:0:0:0:
109,192,110848,1,0,0:0:0:0:
36,192,110848,1,0,0:0:0:0:
475,192,110923,128,0,110960:0:0:0:0:
256,192,110998,128,0,111035:0:0:0:0:
402,192,111073,128,0,111110:0:0:0:0:
182,192,111148,128,0,111185:0:0:0:0:
329,192,111223,128,0,111260:0:0:0:0:
109,192,111298,128,0,111335:0:0:0:0:
402,192,111298,1,0,0:0:0:0:
256,192,111373,128,0,111410:0:0:0:0:
36,192,111448,128,0,111485:0:0:0:0:
182,192,111448,1,0,0:0:0:0:
329,192,111448,1,0,0:0:0:0:
256,192,111523,128,0,111560:0:0:0:0:
475,192,111598,1,0,0:0:0:0:
329,192,111598,1,0,0:0:0:0:
109,192,111598,128,0,111635:0:0:0:0:
182,192,111673,128,0,111710:0:0:0:0:
475,192,111748,1,0,0:0:0:0:
329,192,111748,1,0,0:0:0:0:
109,192,111748,128,0,111785:0:0:0:0:
36,192,111823,128,0,111860:0:0:0:0:
475,192,111898,1,0,0:0:0:0:
329,192,111898,1,0,0:0:0:0:
182,192,111898,128,0,111935:0:0:0:0:
109,192,111973,128,0,112010:0:0:0:0:
475,192,112048,1,0,0:0:0:0:
402,192,112048,1,0,0:0:0:0:
329,192,112048,1,0,0:0:0:0:
36,192,112048,128,0,112085:0:0:0:0:
402,192,112198,128,0,112235:0:0:0:0:
329,192,112198,128,0,112235:0:0:0:0:
182,192,112198,1,0,0:0:0:0:
109,192,112273,1,0,0:0:0:0:
329,192,112348,128,0,112385:0:0:0:0:
256,192,112348,128,0,112385:0:0:0:0:
36,192,112348,1,0,0:0:0:0:
256,192,112498,128,0,112535:0:0:0:0:
182,192,112498,128,0,112535:0:0:0:0:
475,192,112498,1,0,0:0:0:0:
182,192,112648,128,0,112948:0:0:0:0:
109,192,112648,128,0,112948:0:0:0:0:
402,192,112648,1,0,0:0:0:0:
329,192,112648,1,0,0:0:0:0:
475,192,112648,1,0,0:0:0:0:
256,192,112798,1,0,0:0:0:0:
329,192,112873,1,0,0:0:0:0:
475,192,112948,1,0,0:0:0:0:
402,192,112948,1,0,0:0:0:0:
329,192,112985,1,0,0:0:0:0:
256,192,113023,1,0,0:0:0:0:
182,192,113060,1,0,0:0:0:0:
109,192,113098,1,0,0:0:0:0:
36,192,113098,1,0,0:0:0:0:
402,192,113173,1,0,0:0:0:0:
475,192,113173,1,0,0:0:0:0:
36,192,113248,1,0,0:0:0:0:
109,192,113248,1,0,0:0:0:0:
329,192,113248,1,0,0:0:0:0:
182,192,113248,128,0,113285:0:0:0:0:
256,192,113323,128,0,113360:0:0:0:0:
329,192,113398,128,0,113435:0:0:0:0:
402,192,113473,128,0,113510:0:0:0:0:
475,192,113548,128,0,113585:0:0:0:0:
475,192,113698,128,0,113735:0:0:0:0:
36,192,113698,1,0,0:0:0:0:
109,192,113698,1,0,0:0:0:0:
329,192,113698,1,0,0:0:0:0:
256,192,113848,128,0,113885:0:0:0:0:
402,192,113998,128,0,114035:0:0:0:0:
182,192,114148,128,0,114185:0:0:0:0:
109,192,114148,1,0,0:0:0:0:
36,192,114148,1,0,0:0:0:0:
329,192,114148,1,0,0:0:0:0:
475,192,114298,128,0,114335:0:0:0:0:
109,192,114298,1,0,0:0:0:0:
256,192,114298,1,0,0:0:0:0:
402,192,114298,1,0,0:0:0:0:
329,192,114448,128,0,114485:0:0:0:0:
256,192,114523,128,0,114560:0:0:0:0:
182,192,114598,128,0,114635:0:0:0:0:
109,192,114673,128,0,114710:0:0:0:0:
36,192,114748,128,0,114785:0:0:0:0:
256,192,114748,1,0,0:0:0:0:
329,192,114748,1,0,0:0:0:0:
475,192,114748,1,0,0:0:0:0:
475,192,114898,128,0,114935:0:0:0:0:
36,192,115048,128,0,115085:0:0:0:0:
182,192,115048,1,0,0:0:0:0:
256,192,115048,1,0,0:0:0:0:
329,192,115048,1,0,0:0:0:0:
402,192,115198,128,0,115235:0:0:0:0:
109,192,115348,128,0,115385:0:0:0:0:
182,192,115348,1,0,0:0:0:0:
36,192,115348,1,0,0:0:0:0:
329,192,115423,1,0,0:0:0:0:
402,192,115423,1,0,0:0:0:0:
475,192,115423,1,0,0:0:0:0:
256,192,115498,128,0,115535:0:0:0:0:
182,192,115498,1,0,0:0:0:0:
36,192,115498,1,0,0:0:0:0:
329,192,115573,1,0,0:0:0:0:
475,192,115573,1,0,0:0:0:0:
402,192,115648,128,0,115685:0:0:0:0:
109,192,115648,1,0,0:0:0:0:
36,192,115648,1,0,0:0:0:0:
182,192,115648,128,0,115798:0:0:0:0:
256,192,115723,128,0,115760:0:0:0:0:
329,192,115798,128,0,115835:0:0:0:0:
109,192,115798,128,0,115948:0:0:0:0:
182,192,115873,128,0,115910:0:0:0:0:
256,192,115948,128,0,115985:0:0:0:0:
36,192,115948,128,0,116098:0:0:0:0:
109,192,116023,128,0,116060:0:0:0:0:
182,192,116098,128,0,116135:0:0:0:0:
329,192,116098,1,0,0:0:0:0:
402,192,116098,1,0,0:0:0:0:
475,192,116098,1,0,0:0:0:0:
36,192,116173,128,0,116210:0:0:0:0:
109,192,116173,128,0,116398:0:0:0:0:
182,192,116248,128,0,116285:0:0:0:0:
402,192,116248,1,0,0:0:0:0:
36,192,116323,128,0,116360:0:0:0:0:
256,192,116398,128,0,116435:0:0:0:0:
182,192,116398,128,0,116623:0:0:0:0:
475,192,116398,1,0,0:0:0:0:
402,192,116398,1,0,0:0:0:0:
329,192,116398,1,0,0:0:0:0:
109,192,116473,128,0,116510:0:0:0:0:
256,192,116548,128,0,116585:0:0:0:0:
475,192,116548,1,0,0:0:0:0:
329,192,116548,1,0,0:0:0:0:
402,192,116548,1,0,0:0:0:0:
109,192,116623,128,0,116660:0:0:0:0:
475,192,116698,128,0,117073:0:0:0:0:
36,192,116698,128,0,117073:0:0:0:0:
182,192,116698,1,0,0:0:0:0:
329,192,116698,1,0,0:0:0:0:
256,192,116698,128,0,116735:0:0:0:0:
402,192,116773,128,0,116848:0:0:0:0:
109,192,116773,128,0,116848:0:0:0:0:
329,192,116848,128,0,116923:0:0:0:0:
182,192,116848,128,0,116923:0:0:0:0:
256,192,116848,1,0,0:0:0:0:
402,192,116998,128,0,117073:0:0:0:0:
109,192,116998,128,0,117073:0:0:0:0:
256,192,116998,128,0,117073:0:0:0:0:
329,192,116998,1,0,0:0:0:0:
182,192,116998,1,0,0:0:0:0:
329,192,117148,128,0,117223:0:0:0:0:
182,192,117148,128,0,117223:0:0:0:0:
475,192,117148,128,0,117373:0:0:0:0:
36,192,117148,128,0,117373:0:0:0:0:
109,192,117148,128,0,117185:0:0:0:0:
256,192,117148,128,0,117185:0:0:0:0:
402,192,117148,128,0,117185:0:0:0:0:
402,192,117298,128,0,117373:0:0:0:0:
109,192,117298,128,0,117373:0:0:0:0:
256,192,117298,128,0,117373:0:0:0:0:
329,192,117298,128,0,117335:0:0:0:0:
182,192,117298,128,0,117335:0:0:0:0:
36,192,117448,128,0,117673:0:0:0:0:
475,192,117448,128,0,117673:0:0:0:0:
182,192,117448,1,0,0:0:0:0:
402,192,117448,128,0,117598:0:0:0:0:
329,192,117448,128,0,117523:0:0:0:0:
109,192,117523,1,0,0:0:0:0:
182,192,117598,1,0,0:0:0:0:
256,192,117598,1,0,0:0:0:0:
109,192,117673,1,0,0:0:0:0:
329,192,117673,1,0,0:0:0:0:
36,192,117748,128,0,117823:0:0:0:0:
256,192,117748,128,0,117823:0:0:0:0:
182,192,117748,1,0,0:0:0:0:
402,192,117748,1,0,0:0:0:0:
475,192,117748,1,0,0:0:0:0:
109,192,117823,128,0,117898:0:0:0:0:
329,192,117823,128,0,117898:0:0:0:0:
182,192,117898,128,0,117973:0:0:0:0:
402,192,117898,128,0,117973:0:0:0:0:
256,192,117973,128,0,118123:0:0:0:0:
475,192,117973,128,0,118048:0:0:0:0:
36,192,117973,128,0,118048:0:0:0:0:
329,192,118048,128,0,118573:0:0:0:0:
182,192,118048,128,0,118123:0:0:0:0:
109,192,118048,128,0,118123:0:0:0:0:
402,192,118123,128,0,118273:0:0:0:0:
475,192,118123,128,0,118198:0:0:0:0:
36,192,118123,128,0,118198:0:0:0:0:
109,192,118198,128,0,118348:0:0:0:0:
182,192,118198,128,0,118273:0:0:0:0:
256,192,118198,128,0,118273:0:0:0:0:
475,192,118273,128,0,118423:0:0:0:0:
36,192,118273,128,0,118348:0:0:0:0:
402,192,118348,128,0,118423:0:0:0:0:
256,192,118348,128,0,118423:0:0:0:0:
182,192,118348,128,0,118498:0:0:0:0:
109,192,118423,128,0,118498:0:0:0:0:
36,192,118423,128,0,118498:0:0:0:0:
256,192,118498,128,0,118573:0:0:0:0:
402,192,118498,128,0,118573:0:0:0:0:
475,192,118498,128,0,118648:0:0:0:0:
182,192,118573,128,0,118723:0:0:0:0:
109,192,118573,128,0,118648:0:0:0:0:
36,192,118573,128,0,118648:0:0:0:0:
256,192,118648,128,0,118723:0:0:0:0:
329,192,118648,128,0,118723:0:0:0:0:
402,192,118648,128,0,118798:0:0:0:0:
475,192,118723,128,0,118798:0:0:0:0:
109,192,118723,128,0,118873:0:0:0:0:
36,192,118723,128,0,118798:0:0:0:0:
329,192,118798,128,0,118948:0:0:0:0:
256,192,118798,128,0,118873:0:0:0:0:
182,192,118798,128,0,118873:0:0:0:0:
402,192,118873,128,0,118948:0:0:0:0:
475,192,118873,128,0,118948:0:0:0:0:
36,192,118873,128,0,119023:0:0:0:0:
109,192,118948,128,0,119023:0:0:0:0:
182,192,118948,128,0,119023:0:0:0:0:
256,192,118948,128,0,119098:0:0:0:0:
329,192,119023,128,0,119098:0:0:0:0:
402,192,119023,128,0,119098:0:0:0:0:
475,192,119023,128,0,119173:0:0:0:0:
182,192,119098,128,0,119248:0:0:0:0:
109,192,119098,128,0,119173:0:0:0:0:
36,192,119098,128,0,119173:0:0:0:0:
402,192,119173,128,0,119248:0:0:0:0:
329,192,119173,128,0,119323:0:0:0:0:
256,192,119173,128,0,119323:0:0:0:0:
475,192,119248,128,0,119398:0:0:0:0:
109,192,119248,128,0,119398:0:0:0:0:
36,192,119248,128,0,119323:0:0:0:0:
402,192,119323,128,0,119473:0:0:0:0:
182,192,119323,128,0,119473:0:0:0:0:
329,192,119398,128,0,119548:0:0:0:0:
256,192,119398,128,0,119473:0:0:0:0:
36,192,119398,128,0,119698:0:0:0:0:
109,192,119473,128,0,119623:0:0:0:0:
475,192,119473,128,0,119773:0:0:0:0:
182,192,119548,128,0,119698:0:0:0:0:
256,192,119548,128,0,119623:0:0:0:0:
402,192,119548,128,0,119623:0:0:0:0:
329,192,119623,128,0,119698:0:0:0:0:
402,192,119698,128,0,119848:0:0:0:0:
256,192,119698,128,0,119773:0:0:0:0:
109,192,119698,128,0,119773:0:0:0:0:
329,192,119773,128,0,119923:0:0:0:0:
182,192,119773,128,0,119848:0:0:0:0:
36,192,119773,128,0,119848:0:0:0:0:
109,192,119848,128,0,119923:0:0:0:0:
256,192,119848,128,0,119998:0:0:0:0:
475,192,119848,128,0,119998:0:0:0:0:
182,192,119923,128,0,120073:0:0:0:0:
36,192,119923,128,0,119998:0:0:0:0:
402,192,119923,128,0,120073:0:0:0:0:
109,192,119998,128,0,120148:0:0:0:0:
329,192,119998,128,0,120148:0:0:0:0:
36,192,120073,128,0,120223:0:0:0:0:
256,192,120073,128,0,120223:0:0:0:0:
475,192,120073,128,0,120223:0:0:0:0:
182,192,120148,128,0,120298:0:0:0:0:
402,192,120148,128,0,120298:0:0:0:0:
329,192,120223,128,0,120298:0:0:0:0:
109,192,120223,128,0,120373:0:0:0:0:
256,192,120298,128,0,120373:0:0:0:0:
475,192,120298,128,0,120373:0:0:0:0:
36,192,120298,128,0,120373:0:0:0:0:
329,192,120373,128,0,120448:0:0:0:0:
402,192,120373,128,0,120448:0:0:0:0:
182,192,120373,128,0,120448:0:0:0:0:
256,192,120448,128,0,120748:0:0:0:0:
475,192,120448,128,0,120523:0:0:0:0:
109,192,120448,128,0,120523:0:0:0:0:
36,192,120448,128,0,120523:0:0:0:0:
402,192,120523,128,0,120598:0:0:0:0:
329,192,120523,128,0,120598:0:0:0:0:
182,192,120523,128,0,120673:0:0:0:0:
475,192,120598,128,0,120673:0:0:0:0:
36,192,120598,128,0,120673:0:0:0:0:
109,192,120598,128,0,120748:0:0:0:0:
402,192,120673,128,0,120748:0:0:0:0:
329,192,120673,128,0,120823:0:0:0:0:
182,192,120748,128,0,120823:0:0:0:0:
475,192,120748,128,0,120823:0:0:0:0:
36,192,120748,128,0,120898:0:0:0:0:
256,192,120823,128,0,120973:0:0:0:0:
402,192,120823,128,0,120973:0:0:0:0:
109,192,120823,128,0,120898:0:0:0:0:
329,192,120898,128,0,121423:0:0:0:0:
182,192,120898,128,0,120973:0:0:0:0:
475,192,120898,128,0,121048:0:0:0:0:
109,192,120973,128,0,121048:0:0:0:0:
36,192,120973,128,0,121048:0:0:0:0:
182,192,121048,128,0,121123:0:0:0:0:
256,192,121048,128,0,121123:0:0:0:0:
402,192,121048,128,0,121123:0:0:0:0:
475,192,121123,128,0,121198:0:0:0:0:
109,192,121123,128,0,121198:0:0:0:0:
36,192,121123,128,0,121273:0:0:0:0:
402,192,121198,128,0,121273:0:0:0:0:
256,192,121198,128,0,121348:0:0:0:0:
182,192,121198,128,0,121273:0:0:0:0:
475,192,121273,128,0,121348:0:0:0:0:
109,192,121273,128,0,121348:0:0:0:0:
402,192,121348,128,0,121498:0:0:0:0:
36,192,121348,128,0,121423:0:0:0:0:
182,192,121348,128,0,121423:0:0:0:0:
256,192,121423,128,0,121498:0:0:0:0:
475,192,121423,128,0,121573:0:0:0:0:
109,192,121423,128,0,121498:0:0:0:0:
329,192,121498,128,0,121573:0:0:0:0:
182,192,121498,128,0,121573:0:0:0:0:
36,192,121498,128,0,121648:0:0:0:0:
402,192,121573,128,0,121648:0:0:0:0:
256,192,121573,128,0,121723:0:0:0:0:
109,192,121573,128,0,121648:0:0:0:0:
475,192,121648,128,0,122023:0:0:0:0:
329,192,121648,128,0,121723:0:0:0:0:
182,192,121648,128,0,121723:0:0:0:0:
402,192,121723,128,0,121798:0:0:0:0:
36,192,121723,128,0,121873:0:0:0:0:
109,192,121723,128,0,121798:0:0:0:0:
182,192,121798,128,0,121873:0:0:0:0:
256,192,121798,128,0,121948:0:0:0:0:
329,192,121798,128,0,121873:0:0:0:0:
109,192,121873,128,0,121948:0:0:0:0:
402,192,121873,128,0,121948:0:0:0:0:
329,192,121948,128,0,122173:0:0:0:0:
182,192,121948,128,0,122023:0:0:0:0:
36,192,121948,128,0,122023:0:0:0:0:
256,192,122023,128,0,122098:0:0:0:0:
402,192,122023,128,0,122098:0:0:0:0:
109,192,122023,128,0,122098:0:0:0:0:
182,192,122098,128,0,122173:0:0:0:0:
475,192,122098,128,0,122173:0:0:0:0:
36,192,122098,128,0,122173:0:0:0:0:
256,192,122173,128,0,122248:0:0:0:0:
402,192,122173,128,0,122248:0:0:0:0:
109,192,122173,128,0,122248:0:0:0:0:
36,192,122248,128,0,122398:0:0:0:0:
475,192,122248,128,0,122323:0:0:0:0:
329,192,122248,128,0,122323:0:0:0:0:
182,192,122248,128,0,122398:0:0:0:0:
402,192,122323,128,0,122398:0:0:0:0:
109,192,122323,128,0,122473:0:0:0:0:
256,192,122323,128,0,122473:0:0:0:0:
475,192,122398,128,0,122473:0:0:0:0:
329,192,122398,128,0,122473:0:0:0:0:
402,192,122473,128,0,122548:0:0:0:0:
182,192,122473,128,0,122548:0:0:0:0:
36,192,122473,128,0,122548:0:0:0:0:
475,192,122548,128,0,122623:0:0:0:0:
256,192,122548,128,0,122623:0:0:0:0:
109,192,122548,128,0,122623:0:0:0:0:
329,192,122548,128,0,122623:0:0:0:0:
402,192,122623,128,0,122698:0:0:0:0:
182,192,122623,128,0,122698:0:0:0:0:
36,192,122623,128,0,122698:0:0:0:0:
329,192,122698,128,0,122773:0:0:0:0:
109,192,122698,128,0,122773:0:0:0:0:
475,192,122698,128,0,122773:0:0:0:0:
36,192,122773,128,0,122848:0:0:0:0:
256,192,122773,128,0,122923:0:0:0:0:
402,192,122773,128,0,122848:0:0:0:0:
182,192,122848,128,0,123373:0:0:0:0:
329,192,122848,128,0,122998:0:0:0:0:
475,192,122848,128,0,122923:0:0:0:0:
402,192,122923,128,0,122998:0:0:0:0:
109,192,122923,128,0,123073:0:0:0:0:
36,192,122998,128,0,123073:0:0:0:0:
475,192,122998,128,0,123148:0:0:0:0:
256,192,122998,128,0,123073:0:0:0:0:
402,192,123073,128,0,123148:0:0:0:0:
329,192,123073,128,0,123148:0:0:0:0:
36,192,123148,128,0,123298:0:0:0:0:
109,192,123148,128,0,123223:0:0:0:0:
256,192,123148,128,0,123223:0:0:0:0:
329,192,123223,128,0,123373:0:0:0:0:
402,192,123223,128,0,123298:0:0:0:0:
475,192,123223,128,0,123298:0:0:0:0:
256,192,123298,128,0,123373:0:0:0:0:
109,192,123298,128,0,123448:0:0:0:0:
36,192,123373,128,0,123448:0:0:0:0:
475,192,123373,128,0,123448:0:0:0:0:
402,192,123373,128,0,123523:0:0:0:0:
329,192,123448,128,0,123523:0:0:0:0:
256,192,123448,128,0,123523:0:0:0:0:
182,192,123448,128,0,123598:0:0:0:0:
109,192,123523,128,0,123598:0:0:0:0:
36,192,123523,128,0,123598:0:0:0:0:
475,192,123523,128,0,123673:0:0:0:0:
256,192,123598,128,0,123748:0:0:0:0:
329,192,123598,128,0,123673:0:0:0:0:
402,192,123598,128,0,123673:0:0:0:0:
182,192,123673,128,0,123748:0:0:0:0:
109,192,123673,128,0,123748:0:0:0:0:
36,192,123673,128,0,123823:0:0:0:0:
329,192,123748,128,0,123898:0:0:0:0:
402,192,123748,128,0,123823:0:0:0:0:
475,192,123748,128,0,123823:0:0:0:0:
256,192,123823,128,0,123973:0:0:0:0:
182,192,123823,128,0,123898:0:0:0:0:
109,192,123823,128,0,123973:0:0:0:0:
36,192,123898,128,0,124048:0:0:0:0:
475,192,123898,128,0,124048:0:0:0:0:
402,192,123898,128,0,123973:0:0:0:0:
182,192,123973,128,0,124048:0:0:0:0:
329,192,123973,128,0,124048:0:0:0:0:
402,192,124048,128,0,124123:0:0:0:0:
256,192,124048,128,0,124123:0:0:0:0:
109,192,124048,128,0,124123:0:0:0:0:
182,192,124123,128,0,124198:0:0:0:0:
475,192,124123,128,0,124198:0:0:0:0:
329,192,124123,128,0,124198:0:0:0:0:
36,192,124123,128,0,124198:0:0:0:0:
109,192,124198,128,0,124273:0:0:0:0:
256,192,124198,128,0,124273:0:0:0:0:
402,192,124198,128,0,124273:0:0:0:0:
182,192,124273,128,0,124348:0:0:0:0:
36,192,124273,128,0,124348:0:0:0:0:
329,192,124273,128,0,124348:0:0:0:0:
475,192,124273,128,0,124348:0:0:0:0:
402,192,124348,128,0,124423:0:0:0:0:
256,192,124348,128,0,124423:0:0:0:0:
109,192,124348,128,0,124423:0:0:0:0:
36,192,124423,128,0,124498:0:0:0:0:
182,192,124423,128,0,124498:0:0:0:0:
329,192,124423,128,0,124498:0:0:0:0:
475,192,124423,128,0,124573:0:0:0:0:
109,192,124498,128,0,124573:0:0:0:0:
256,192,124498,128,0,124648:0:0:0:0:
402,192,124498,128,0,124573:0:0:0:0:
36,192,124573,128,0,124723:0:0:0:0:
182,192,124573,128,0,124648:0:0:0:0:
329,192,124573,128,0,124648:0:0:0:0:
109,192,124648,128,0,124723:0:0:0:0:
402,192,124648,128,0,124798:0:0:0:0:
475,192,124648,128,0,124723:0:0:0:0:
182,192,124723,128,0,124873:0:0:0:0:
256,192,124723,128,0,124798:0:0:0:0:
329,192,124723,128,0,124798:0:0:0:0:
109,192,124798,128,0,124873:0:0:0:0:
36,192,124798,128,0,124873:0:0:0:0:
475,192,124798,128,0,124948:0:0:0:0:
256,192,124873,128,0,125023:0:0:0:0:
329,192,124873,128,0,124948:0:0:0:0:
402,192,124873,128,0,124948:0:0:0:0:
182,192,124948,128,0,125023:0:0:0:0:
109,192,124948,128,0,125023:0:0:0:0:
36,192,124948,128,0,125098:0:0:0:0:
329,192,125023,128,0,125173:0:0:0:0:
402,192,125023,128,0,125098:0:0:0:0:
475,192,125023,128,0,125098:0:0:0:0:
256,192,125098,128,0,125173:0:0:0:0:
182,192,125098,128,0,125173:0:0:0:0:
109,192,125098,128,0,125173:0:0:0:0:
402,192,125173,128,0,125248:0:0:0:0:
475,192,125173,128,0,125248:0:0:0:0:
36,192,125173,128,0,125248:0:0:0:0:
109,192,125248,128,0,125548:0:0:0:0:
329,192,125248,128,0,125323:0:0:0:0:
256,192,125248,128,0,125323:0:0:0:0:
182,192,125248,128,0,125323:0:0:0:0:
36,192,125323,128,0,125473:0:0:0:0:
402,192,125323,128,0,125398:0:0:0:0:
475,192,125323,128,0,125398:0:0:0:0:
182,192,125398,128,0,125473:0:0:0:0:
256,192,125398,128,0,125473:0:0:0:0:
329,192,125398,128,0,125548:0:0:0:0:
402,192,125473,128,0,125548:0:0:0:0:
475,192,125473,128,0,125623:0:0:0:0:
36,192,125548,128,0,125623:0:0:0:0:
256,192,125548,128,0,125698:0:0:0:0:
182,192,125548,128,0,125623:0:0:0:0:
109,192,125623,128,0,125698:0:0:0:0:
329,192,125623,128,0,125773:0:0:0:0:
402,192,125623,128,0,125698:0:0:0:0:
182,192,125698,128,0,125773:0:0:0:0:
475,192,125698,128,0,125773:0:0:0:0:
36,192,125698,128,0,125773:0:0:0:0:
256,192,125773,128,0,125848:0:0:0:0:
402,192,125773,128,0,125848:0:0:0:0:
109,192,125773,128,0,125923:0:0:0:0:
329,192,125848,128,0,126298:0:0:0:0:
475,192,125848,128,0,125923:0:0:0:0:
182,192,125848,128,0,125923:0:0:0:0:
36,192,125848,128,0,125998:0:0:0:0:
402,192,125923,128,0,126073:0:0:0:0:
256,192,125923,128,0,125998:0:0:0:0:
475,192,125998,128,0,126073:0:0:0:0:
182,192,125998,128,0,126073:0:0:0:0:
109,192,125998,128,0,126148:0:0:0:0:
36,192,126073,128,0,126148:0:0:0:0:
256,192,126073,128,0,126223:0:0:0:0:
182,192,126148,128,0,126223:0:0:0:0:
402,192,126148,128,0,126223:0:0:0:0:
475,192,126148,128,0,126298:0:0:0:0:
109,192,126223,128,0,126298:0:0:0:0:
36,192,126223,128,0,126373:0:0:0:0:
256,192,126298,128,0,126373:0:0:0:0:
402,192,126298,128,0,126373:0:0:0:0:
182,192,126298,128,0,126373:0:0:0:0:
329,192,126373,128,0,126523:0:0:0:0:
475,192,126373,128,0,126523:0:0:0:0:
109,192,126373,128,0,126448:0:0:0:0:
402,192,126448,128,0,126748:0:0:0:0:
256,192,126448,128,0,126523:0:0:0:0:
182,192,126448,128,0,126598:0:0:0:0:
36,192,126448,128,0,126523:0:0:0:0:
109,192,126523,128,0,126673:0:0:0:0:
475,192,126598,128,0,126673:0:0:0:0:
256,192,126598,128,0,126748:0:0:0:0:
329,192,126598,128,0,126673:0:0:0:0:
36,192,126598,128,0,126748:0:0:0:0:
182,192,126673,128,0,126748:0:0:0:0:
329,192,126748,128,0,126823:0:0:0:0:
475,192,126748,128,0,126823:0:0:0:0:
109,192,126748,128,0,126823:0:0:0:0:
402,192,126823,128,0,126898:0:0:0:0:
256,192,126823,128,0,126898:0:0:0:0:
36,192,126823,128,0,126898:0:0:0:0:
329,192,126898,128,0,126973:0:0:0:0:
475,192,126898,128,0,126973:0:0:0:0:
182,192,126898,128,0,126973:0:0:0:0:
256,192,126973,128,0,127048:0:0:0:0:
109,192,126973,128,0,127048:0:0:0:0:
182,192,127048,128,0,127498:0:0:0:0:
36,192,127048,1,0,0:0:0:0:
475,192,127048,1,0,0:0:0:0:
402,192,127048,128,0,127123:0:0:0:0:
109,192,127198,1,0,0:0:0:0:
329,192,127198,1,0,0:0:0:0:
256,192,127198,1,0,0:0:0:0:
109,192,127348,1,0,0:0:0:0:
36,192,127348,1,0,0:0:0:0:
475,192,127348,1,0,0:0:0:0:
402,192,127348,128,0,127423:0:0:0:0:
109,192,127498,1,0,0:0:0:0:
329,192,127498,1,0,0:0:0:0:
256,192,127498,1,0,0:0:0:0:
475,192,127498,128,0,127535:0:0:0:0:
402,192,127573,128,0,127610:0:0:0:0:
329,192,127648,128,0,127685:0:0:0:0:
402,192,127798,128,0,127835:0:0:0:0:
256,192,127948,128,0,127985:0:0:0:0:
402,192,128098,128,0,128135:0:0:0:0:
182,192,128248,128,0,128735:0:0:0:0:
109,192,128248,128,0,128285:0:0:0:0:
36,192,128248,128,0,128285:0:0:0:0:
109,192,128398,128,0,128435:0:0:0:0:
36,192,128398,128,0,128435:0:0:0:0:
109,192,128548,128,0,128585:0:0:0:0:
36,192,128548,128,0,128585:0:0:0:0:
109,192,128698,128,0,128735:0:0:0:0:
36,192,128698,128,0,128735:0:0:0:0:
256,192,128698,128,0,128735:0:0:0:0:
329,192,128773,128,0,128810:0:0:0:0:
402,192,128848,128,0,128885:0:0:0:0:
402,192,128998,128,0,129035:0:0:0:0:
182,192,129073,128,0,129110:0:0:0:0:
36,192,129073,128,0,129110:0:0:0:0:
402,192,129148,128,0,129185:0:0:0:0:
329,192,129298,128,0,129335:0:0:0:0:
475,192,129298,128,0,129335:0:0:0:0:
182,192,129448,128,0,129935:0:0:0:0:
109,192,129448,128,0,129485:0:0:0:0:
36,192,129448,128,0,129485:0:0:0:0:
109,192,129598,128,0,129635:0:0:0:0:
36,192,129598,128,0,129635:0:0:0:0:
109,192,129748,128,0,129785:0:0:0:0:
36,192,129748,128,0,129785:0:0:0:0:
109,192,129898,128,0,129935:0:0:0:0:
36,192,129898,128,0,129935:0:0:0:0:
256,192,129898,128,0,129935:0:0:0:0:
329,192,129973,128,0,130010:0:0:0:0:
402,192,130048,128,0,130085:0:0:0:0:
256,192,130198,128,0,130235:0:0:0:0:
329,192,130348,128,0,130385:0:0:0:0:
182,192,130498,128,0,130535:0:0:0:0:
256,192,130648,128,0,131135:0:0:0:0:
475,192,130648,128,0,130685:0:0:0:0:
36,192,130648,128,0,130685:0:0:0:0:
475,192,130798,128,0,130835:0:0:0:0:
36,192,130798,128,0,130835:0:0:0:0:
475,192,130948,128,0,130985:0:0:0:0:
36,192,130948,128,0,130985:0:0:0:0:
475,192,131098,128,0,131135:0:0:0:0:
36,192,131098,128,0,131135:0:0:0:0:
402,192,131173,128,0,131210:0:0:0:0:
329,192,131248,128,0,131285:0:0:0:0:
109,192,131398,128,0,131435:0:0:0:0:
402,192,131398,128,0,131435:0:0:0:0:
256,192,131548,128,0,131585:0:0:0:0:
402,192,131698,128,0,131735:0:0:0:0:
109,192,131698,128,0,131735:0:0:0:0:
329,192,131848,128,0,132185:0:0:0:0:
182,192,131848,128,0,132185:0:0:0:0:
402,192,131848,128,0,131885:0:0:0:0:
109,192,131848,128,0,131885:0:0:0:0:
402,192,131998,128,0,132035:0:0:0:0:
109,192,131998,128,0,132035:0:0:0:0:
402,192,132148,128,0,132185:0:0:0:0:
109,192,132148,128,0,132185:0:0:0:0:
182,192,132298,128,0,132335:0:0:0:0:
256,192,132373,128,0,132410:0:0:0:0:
475,192,132448,128,0,132485:0:0:0:0:
36,192,132448,128,0,132523:0:0:0:0:
402,192,132523,128,0,132560:0:0:0:0:
329,192,132598,128,0,132635:0:0:0:0:
109,192,132598,128,0,132673:0:0:0:0:
256,192,132673,128,0,132710:0:0:0:0:
182,192,132748,128,0,132785:0:0:0:0:
109,192,132748,128,0,132785:0:0:0:0:
36,192,132748,128,0,132785:0:0:0:0:
475,192,132748,128,0,132823:0:0:0:0:
109,192,132898,128,0,132935:0:0:0:0:
182,192,132898,128,0,132935:0:0:0:0:
256,192,132898,128,0,132935:0:0:0:0:
402,192,132898,128,0,132973:0:0:0:0:
475,192,133048,128,0,133085:0:0:0:0:
36,192,133048,128,0,133123:0:0:0:0:
402,192,133123,128,0,133160:0:0:0:0:
329,192,133198,128,0,133235:0:0:0:0:
109,192,133198,128,0,133273:0:0:0:0:
256,192,133273,128,0,133310:0:0:0:0:
182,192,133348,128,0,133385:0:0:0:0:
36,192,133348,128,0,133385:0:0:0:0:
109,192,133348,128,0,133385:0:0:0:0:
475,192,133348,128,0,133423:0:0:0:0:
256,192,133498,128,0,133535:0:0:0:0:
182,192,133498,128,0,133535:0:0:0:0:
109,192,133498,128,0,133535:0:0:0:0:
402,192,133498,128,0,133573:0:0:0:0:
475,192,133648,128,0,133685:0:0:0:0:
36,192,133648,128,0,133723:0:0:0:0:
402,192,133723,128,0,133760:0:0:0:0:
329,192,133798,128,0,133835:0:0:0:0:
109,192,133798,128,0,133873:0:0:0:0:
256,192,133873,128,0,133910:0:0:0:0:
109,192,133948,128,0,133985:0:0:0:0:
36,192,133948,128,0,133985:0:0:0:0:
182,192,133948,128,0,133985:0:0:0:0:
475,192,133948,128,0,134023:0:0:0:0:
109,192,134098,128,0,134135:0:0:0:0:
182,192,134098,128,0,134135:0:0:0:0:
256,192,134098,128,0,134135:0:0:0:0:
402,192,134098,128,0,134173:0:0:0:0:
475,192,134248,128,0,134285:0:0:0:0:
36,192,134248,128,0,134323:0:0:0:0:
402,192,134323,128,0,134360:0:0:0:0:
329,192,134398,128,0,134435:0:0:0:0:
109,192,134398,128,0,134473:0:0:0:0:
256,192,134473,128,0,134510:0:0:0:0:
182,192,134548,128,0,134585:0:0:0:0:
36,192,134548,128,0,134585:0:0:0:0:
109,192,134548,128,0,134585:0:0:0:0:
475,192,134548,128,0,134623:0:0:0:0:
256,192,134698,128,0,134735:0:0:0:0:
182,192,134698,128,0,134735:0:0:0:0:
109,192,134698,128,0,134735:0:0:0:0:
402,192,134698,128,0,134773:0:0:0:0:
475,192,134848,128,0,134885:0:0:0:0:
256,192,134848,128,0,134923:0:0:0:0:
402,192,134923,128,0,134960:0:0:0:0:
329,192,134998,128,0,135035:0:0:0:0:
109,192,134998,128,0,135073:0:0:0:0:
256,192,135073,128,0,135110:0:0:0:0:
182,192,135148,128,0,135185:0:0:0:0:
475,192,135148,128,0,135223:0:0:0:0:
256,192,135223,128,0,135260:0:0:0:0:
109,192,135223,128,0,135260:0:0:0:0:
329,192,135298,128,0,135335:0:0:0:0:
36,192,135298,128,0,135335:0:0:0:0:
402,192,135373,128,0,135410:0:0:0:0:
109,192,135373,128,0,135410:0:0:0:0:
182,192,135448,128,0,135485:0:0:0:0:
475,192,135448,128,0,135485:0:0:0:0:
402,192,135523,128,0,135560:0:0:0:0:
256,192,135523,128,0,135560:0:0:0:0:
475,192,135598,128,0,135635:0:0:0:0:
182,192,135598,128,0,135635:0:0:0:0:
402,192,135673,128,0,135710:0:0:0:0:
109,192,135673,128,0,135710:0:0:0:0:
329,192,135748,128,0,135785:0:0:0:0:
36,192,135748,128,0,135785:0:0:0:0:
256,192,135823,128,0,135860:0:0:0:0:
182,192,135898,128,0,135973:0:0:0:0:
329,192,135898,128,0,135973:0:0:0:0:
475,192,135898,128,0,135973:0:0:0:0:
36,192,135898,128,0,136123:0:0:0:0:
109,192,135973,128,0,136048:0:0:0:0:
256,192,135973,128,0,136048:0:0:0:0:
402,192,135973,128,0,136198:0:0:0:0:
329,192,136048,128,0,136123:0:0:0:0:
475,192,136048,128,0,136123:0:0:0:0:
182,192,136048,128,0,136273:0:0:0:0:
109,192,136123,128,0,136198:0:0:0:0:
256,192,136123,128,0,136198:0:0:0:0:
36,192,136198,128,0,136273:0:0:0:0:
329,192,136198,128,0,136423:0:0:0:0:
475,192,136198,128,0,136273:0:0:0:0:
402,192,136273,128,0,136348:0:0:0:0:
256,192,136273,128,0,136348:0:0:0:0:
109,192,136273,128,0,136348:0:0:0:0:
182,192,136348,128,0,136423:0:0:0:0:
36,192,136348,128,0,136573:0:0:0:0:
475,192,136348,128,0,136423:0:0:0:0:
109,192,136423,128,0,136498:0:0:0:0:
256,192,136423,128,0,136498:0:0:0:0:
402,192,136423,128,0,136648:0:0:0:0:
182,192,136498,128,0,136573:0:0:0:0:
329,192,136498,128,0,136573:0:0:0:0:
475,192,136498,128,0,136573:0:0:0:0:
109,192,136573,128,0,136648:0:0:0:0:
36,192,136648,128,0,136873:0:0:0:0:
256,192,136648,128,0,136873:0:0:0:0:
475,192,136648,128,0,136873:0:0:0:0:
329,192,136648,128,0,136723:0:0:0:0:
182,192,136648,128,0,136723:0:0:0:0:
329,192,136798,128,0,136873:0:0:0:0:
402,192,136798,128,0,136873:0:0:0:0:
182,192,136798,128,0,136873:0:0:0:0:
109,192,136798,128,0,136873:0:0:0:0:
402,192,136948,5,0,0:0:0:0:
329,192,136948,128,0,137173:0:0:0:0:
475,192,136948,128,0,137023:0:0:0:0:
256,192,136948,128,0,137173:0:0:0:0:
182,192,136948,128,0,137173:0:0:0:0:
36,192,136948,128,0,137098:0:0:0:0:
109,192,137023,1,0,0:0:0:0:
402,192,137098,1,0,0:0:0:0:
475,192,137098,1,0,0:0:0:0:
109,192,137173,1,0,0:0:0:0:
36,192,137173,1,0,0:0:0:0:
329,192,137248,128,0,137323:0:0:0:0:
475,192,137248,128,0,137323:0:0:0:0:
256,192,137248,128,0,137323:0:0:0:0:
182,192,137248,128,0,137398:0:0:0:0:
402,192,137323,128,0,137398:0:0:0:0:
109,192,137323,128,0,137473:0:0:0:0:
36,192,137323,128,0,137398:0:0:0:0:
329,192,137398,128,0,137473:0:0:0:0:
256,192,137398,128,0,137473:0:0:0:0:
475,192,137398,128,0,137473:0:0:0:0:
36,192,137473,128,0,137548:0:0:0:0:
182,192,137473,128,0,137548:0:0:0:0:
402,192,137473,128,0,137548:0:0:0:0:
329,192,137548,128,0,137623:0:0:0:0:
256,192,137548,128,0,137623:0:0:0:0:
109,192,137548,128,0,137623:0:0:0:0:
475,192,137548,128,0,137698:0:0:0:0:
402,192,137623,128,0,137698:0:0:0:0:
182,192,137623,128,0,137773:0:0:0:0:
36,192,137623,128,0,137698:0:0:0:0:
109,192,137698,128,0,137773:0:0:0:0:
256,192,137698,128,0,137773:0:0:0:0:
329,192,137698,128,0,137773:0:0:0:0:
402,192,137773,128,0,137848:0:0:0:0:
475,192,137773,128,0,137848:0:0:0:0:
36,192,137773,128,0,137848:0:0:0:0:
329,192,137848,128,0,137923:0:0:0:0:
256,192,137848,128,0,137923:0:0:0:0:
182,192,137848,128,0,137998:0:0:0:0:
109,192,137848,128,0,137923:0:0:0:0:
36,192,137923,128,0,137998:0:0:0:0:
402,192,137923,128,0,138073:0:0:0:0:
475,192,137923,128,0,137998:0:0:0:0:
329,192,137998,128,0,138073:0:0:0:0:
256,192,137998,128,0,138073:0:0:0:0:
109,192,137998,128,0,138073:0:0:0:0:
182,192,138073,128,0,138148:0:0:0:0:
36,192,138073,128,0,138148:0:0:0:0:
475,192,138073,128,0,138148:0:0:0:0:
329,192,138148,128,0,138298:0:0:0:0:
402,192,138148,128,0,138223:0:0:0:0:
256,192,138148,128,0,138223:0:0:0:0:
109,192,138148,128,0,138223:0:0:0:0:
182,192,138223,128,0,138298:0:0:0:0:
475,192,138223,128,0,138298:0:0:0:0:
36,192,138223,128,0,138373:0:0:0:0:
109,192,138298,128,0,138373:0:0:0:0:
256,192,138298,128,0,138373:0:0:0:0:
402,192,138298,128,0,138373:0:0:0:0:
182,192,138373,128,0,138448:0:0:0:0:
329,192,138373,128,0,138448:0:0:0:0:
475,192,138373,128,0,138448:0:0:0:0:
109,192,138448,128,0,138523:0:0:0:0:
36,192,138448,128,0,138523:0:0:0:0:
256,192,138448,128,0,138598:0:0:0:0:
402,192,138448,128,0,138523:0:0:0:0:
329,192,138523,128,0,138598:0:0:0:0:
475,192,138523,128,0,138598:0:0:0:0:
182,192,138523,128,0,138673:0:0:0:0:
109,192,138598,128,0,138673:0:0:0:0:
36,192,138598,128,0,138673:0:0:0:0:
402,192,138598,128,0,138673:0:0:0:0:
256,192,138673,128,0,138748:0:0:0:0:
329,192,138673,128,0,138748:0:0:0:0:
475,192,138673,128,0,138748:0:0:0:0:
109,192,138748,128,0,138898:0:0:0:0:
182,192,138748,128,0,138823:0:0:0:0:
36,192,138748,128,0,138823:0:0:0:0:
402,192,138748,128,0,138823:0:0:0:0:
256,192,138823,128,0,138973:0:0:0:0:
329,192,138823,128,0,138898:0:0:0:0:
475,192,138823,128,0,138898:0:0:0:0:
182,192,138898,128,0,138973:0:0:0:0:
36,192,138898,128,0,138973:0:0:0:0:
402,192,138898,128,0,138973:0:0:0:0:
109,192,138973,128,0,139048:0:0:0:0:
329,192,138973,128,0,139048:0:0:0:0:
475,192,138973,128,0,139048:0:0:0:0:
256,192,139048,128,0,139123:0:0:0:0:
402,192,139048,128,0,139123:0:0:0:0:
36,192,139048,128,0,139123:0:0:0:0:
182,192,139048,128,0,139198:0:0:0:0:
109,192,139123,128,0,139198:0:0:0:0:
329,192,139123,128,0,139198:0:0:0:0:
475,192,139123,128,0,139273:0:0:0:0:
402,192,139198,128,0,139273:0:0:0:0:
256,192,139198,128,0,139273:0:0:0:0:
36,192,139198,128,0,139273:0:0:0:0:
329,192,139273,128,0,139348:0:0:0:0:
182,192,139273,128,0,139348:0:0:0:0:
109,192,139273,128,0,139348:0:0:0:0:
256,192,139348,128,0,139423:0:0:0:0:
402,192,139348,128,0,139423:0:0:0:0:
475,192,139348,128,0,139423:0:0:0:0:
36,192,139348,128,0,139498:0:0:0:0:
109,192,139423,128,0,139498:0:0:0:0:
182,192,139423,128,0,139498:0:0:0:0:
329,192,139423,128,0,139573:0:0:0:0:
402,192,139498,128,0,139573:0:0:0:0:
475,192,139498,128,0,139573:0:0:0:0:
256,192,139498,128,0,139573:0:0:0:0:
182,192,139573,128,0,139648:0:0:0:0:
109,192,139573,128,0,139648:0:0:0:0:
36,192,139573,128,0,139648:0:0:0:0:
256,192,139648,128,0,139798:0:0:0:0:
329,192,139648,128,0,139723:0:0:0:0:
402,192,139648,128,0,139723:0:0:0:0:
475,192,139648,128,0,139723:0:0:0:0:
36,192,139723,128,0,139873:0:0:0:0:
109,192,139723,128,0,139798:0:0:0:0:
182,192,139723,128,0,139798:0:0:0:0:
329,192,139798,128,0,139873:0:0:0:0:
402,192,139798,128,0,139873:0:0:0:0:
475,192,139798,128,0,139873:0:0:0:0:
256,192,139873,128,0,139948:0:0:0:0:
182,192,139873,128,0,139948:0:0:0:0:
109,192,139873,128,0,139948:0:0:0:0:
329,192,139948,128,0,140098:0:0:0:0:
36,192,139948,128,0,140023:0:0:0:0:
402,192,139948,128,0,140023:0:0:0:0:
475,192,139948,128,0,140023:0:0:0:0:
109,192,140023,128,0,140173:0:0:0:0:
256,192,140023,128,0,140098:0:0:0:0:
182,192,140023,128,0,140098:0:0:0:0:
36,192,140098,128,0,140173:0:0:0:0:
402,192,140098,128,0,140173:0:0:0:0:
475,192,140098,128,0,140173:0:0:0:0:
329,192,140173,128,0,140248:0:0:0:0:
256,192,140173,128,0,140248:0:0:0:0:
182,192,140173,128,0,140248:0:0:0:0:
109,192,140248,128,0,140323:0:0:0:0:
36,192,140248,128,0,140323:0:0:0:0:
402,192,140248,128,0,140398:0:0:0:0:
475,192,140248,128,0,140323:0:0:0:0:
182,192,140323,128,0,140473:0:0:0:0:
256,192,140323,128,0,140398:0:0:0:0:
329,192,140323,128,0,140398:0:0:0:0:
109,192,140398,128,0,140473:0:0:0:0:
36,192,140398,128,0,140548:0:0:0:0:
475,192,140398,128,0,140473:0:0:0:0:
256,192,140473,128,0,140548:0:0:0:0:
402,192,140473,128,0,140548:0:0:0:0:
329,192,140473,128,0,140623:0:0:0:0:
182,192,140548,128,0,140623:0:0:0:0:
109,192,140548,128,0,140623:0:0:0:0:
475,192,140548,128,0,140623:0:0:0:0:
402,192,140623,128,0,140698:0:0:0:0:
256,192,140623,128,0,140698:0:0:0:0:
36,192,140623,128,0,140698:0:0:0:0:
329,192,140698,128,0,140848:0:0:0:0:
475,192,140698,128,0,140773:0:0:0:0:
182,192,140698,128,0,140773:0:0:0:0:
109,192,140698,128,0,140773:0:0:0:0:
402,192,140773,128,0,140848:0:0:0:0:
256,192,140773,128,0,140923:0:0:0:0:
36,192,140773,128,0,140848:0:0:0:0:
475,192,140848,128,0,140923:0:0:0:0:
182,192,140848,128,0,140923:0:0:0:0:
109,192,140848,128,0,140923:0:0:0:0:
36,192,140923,128,0,140998:0:0:0:0:
329,192,140923,128,0,140998:0:0:0:0:
402,192,140923,128,0,140998:0:0:0:0:
256,192,140998,128,0,141073:0:0:0:0:
182,192,140998,128,0,141073:0:0:0:0:
109,192,140998,128,0,141073:0:0:0:0:
475,192,140998,128,0,141148:0:0:0:0:
329,192,141073,128,0,141223:0:0:0:0:
402,192,141073,128,0,141148:0:0:0:0:
36,192,141073,128,0,141148:0:0:0:0:
256,192,141148,128,0,141223:0:0:0:0:
182,192,141148,128,0,141223:0:0:0:0:
109,192,141148,128,0,141223:0:0:0:0:
402,192,141223,128,0,141298:0:0:0:0:
475,192,141223,128,0,141298:0:0:0:0:
36,192,141223,128,0,141298:0:0:0:0:
256,192,141298,128,0,141373:0:0:0:0:
182,192,141298,128,0,141373:0:0:0:0:
109,192,141298,128,0,141373:0:0:0:0:
329,192,141298,128,0,141448:0:0:0:0:
402,192,141373,128,0,141448:0:0:0:0:
475,192,141373,128,0,141448:0:0:0:0:
36,192,141373,128,0,141523:0:0:0:0:
109,192,141448,128,0,141523:0:0:0:0:
182,192,141448,128,0,141523:0:0:0:0:
256,192,141448,128,0,141523:0:0:0:0:
329,192,141523,128,0,141598:0:0:0:0:
402,192,141523,128,0,141598:0:0:0:0:
475,192,141523,128,0,141598:0:0:0:0:
109,192,141598,128,0,141748:0:0:0:0:
182,192,141598,128,0,141673:0:0:0:0:
256,192,141598,128,0,141673:0:0:0:0:
36,192,141598,128,0,141673:0:0:0:0:
402,192,141673,128,0,141823:0:0:0:0:
329,192,141673,128,0,141748:0:0:0:0:
475,192,141673,128,0,141748:0:0:0:0:
256,192,141748,128,0,141823:0:0:0:0:
182,192,141748,128,0,141823:0:0:0:0:
36,192,141748,128,0,141823:0:0:0:0:
109,192,141823,128,0,141898:0:0:0:0:
329,192,141823,128,0,141898:0:0:0:0:
475,192,141823,128,0,141898:0:0:0:0:
182,192,141898,128,0,142048:0:0:0:0:
256,192,141898,128,0,141973:0:0:0:0:
402,192,141898,128,0,141973:0:0:0:0:
36,192,141898,128,0,141973:0:0:0:0:
109,192,141973,128,0,142048:0:0:0:0:
329,192,141973,128,0,142048:0:0:0:0:
475,192,141973,128,0,142123:0:0:0:0:
402,192,142048,128,0,142123:0:0:0:0:
256,192,142048,128,0,142123:0:0:0:0:
36,192,142048,128,0,142123:0:0:0:0:
329,192,142123,128,0,142198:0:0:0:0:
182,192,142123,128,0,142198:0:0:0:0:
109,192,142123,128,0,142198:0:0:0:0:
256,192,142198,128,0,142348:0:0:0:0:
402,192,142198,128,0,142273:0:0:0:0:
475,192,142198,128,0,142273:0:0:0:0:
36,192,142198,128,0,142273:0:0:0:0:
329,192,142273,128,0,142348:0:0:0:0:
182,192,142273,128,0,142423:0:0:0:0:
109,192,142273,128,0,142348:0:0:0:0:
36,192,142348,128,0,142423:0:0:0:0:
402,192,142348,128,0,142423:0:0:0:0:
475,192,142348,128,0,142423:0:0:0:0:
329,192,142423,128,0,142498:0:0:0:0:
256,192,142423,128,0,142498:0:0:0:0:
109,192,142423,128,0,142498:0:0:0:0:
182,192,142498,128,0,142573:0:0:0:0:
36,192,142498,128,0,142573:0:0:0:0:
475,192,142498,128,0,142573:0:0:0:0:
402,192,142498,128,0,142648:0:0:0:0:
256,192,142573,128,0,142723:0:0:0:0:
329,192,142573,128,0,142648:0:0:0:0:
109,192,142573,128,0,142648:0:0:0:0:
182,192,142648,128,0,142723:0:0:0:0:
36,192,142648,128,0,142723:0:0:0:0:
475,192,142648,128,0,142723:0:0:0:0:
109,192,142723,128,0,142798:0:0:0:0:
329,192,142723,128,0,142798:0:0:0:0:
402,192,142723,128,0,142798:0:0:0:0:
256,192,142798,128,0,142873:0:0:0:0:
182,192,142798,128,0,142873:0:0:0:0:
36,192,142798,128,0,142948:0:0:0:0:
475,192,142798,128,0,142873:0:0:0:0:
109,192,142873,128,0,142948:0:0:0:0:
402,192,142873,128,0,143023:0:0:0:0:
329,192,142873,128,0,142948:0:0:0:0:
475,192,142948,128,0,143023:0:0:0:0:
256,192,142948,128,0,143023:0:0:0:0:
182,192,142948,128,0,143023:0:0:0:0:
329,192,143023,128,0,143098:0:0:0:0:
109,192,143023,128,0,143098:0:0:0:0:
36,192,143023,128,0,143098:0:0:0:0:
182,192,143098,128,0,143248:0:0:0:0:
256,192,143098,128,0,143173:0:0:0:0:
402,192,143098,128,0,143173:0:0:0:0:
475,192,143098,128,0,143173:0:0:0:0:
109,192,143173,128,0,143248:0:0:0:0:
36,192,143173,128,0,143248:0:0:0:0:
329,192,143173,128,0,143323:0:0:0:0:
402,192,143248,128,0,143323:0:0:0:0:
475,192,143248,128,0,143323:0:0:0:0:
256,192,143248,128,0,143323:0:0:0:0:
182,192,143323,128,0,143398:0:0:0:0:
109,192,143323,128,0,143398:0:0:0:0:
36,192,143323,128,0,143398:0:0:0:0:
256,192,143398,128,0,143548:0:0:0:0:
329,192,143398,128,0,143473:0:0:0:0:
402,192,143398,128,0,143473:0:0:0:0:
475,192,143398,128,0,143473:0:0:0:0:
182,192,143473,128,0,143623:0:0:0:0:
109,192,143473,128,0,143548:0:0:0:0:
36,192,143473,128,0,143548:0:0:0:0:
329,192,143548,128,0,143623:0:0:0:0:
402,192,143548,128,0,143623:0:0:0:0:
475,192,143548,128,0,143623:0:0:0:0:
256,192,143623,128,0,143698:0:0:0:0:
109,192,143623,128,0,143698:0:0:0:0:
36,192,143623,128,0,143698:0:0:0:0:
182,192,143698,128,0,143773:0:0:0:0:
329,192,143698,128,0,143773:0:0:0:0:
402,192,143698,128,0,143848:0:0:0:0:
475,192,143698,128,0,143773:0:0:0:0:
256,192,143773,128,0,143923:0:0:0:0:
109,192,143773,128,0,143848:0:0:0:0:
36,192,143773,128,0,143848:0:0:0:0:
329,192,143848,128,0,143923:0:0:0:0:
475,192,143848,128,0,143923:0:0:0:0:
182,192,143848,128,0,143923:0:0:0:0:
109,192,143923,128,0,143998:0:0:0:0:
36,192,143923,128,0,143998:0:0:0:0:
402,192,143923,128,0,143998:0:0:0:0:
329,192,143998,128,0,144073:0:0:0:0:
182,192,143998,128,0,144073:0:0:0:0:
256,192,143998,128,0,144148:0:0:0:0:
475,192,143998,128,0,144073:0:0:0:0:
402,192,144073,128,0,144148:0:0:0:0:
109,192,144073,128,0,144148:0:0:0:0:
36,192,144073,128,0,144223:0:0:0:0:
182,192,144148,128,0,144223:0:0:0:0:
329,192,144148,128,0,144223:0:0:0:0:
475,192,144148,128,0,144223:0:0:0:0:
256,192,144223,128,0,144298:0:0:0:0:
402,192,144223,128,0,144298:0:0:0:0:
109,192,144223,128,0,144298:0:0:0:0:
182,192,144298,128,0,144373:0:0:0:0:
329,192,144298,128,0,144373:0:0:0:0:
475,192,144298,128,0,144373:0:0:0:0:
36,192,144298,128,0,144448:0:0:0:0:
109,192,144373,128,0,144523:0:0:0:0:
256,192,144373,128,0,144448:0:0:0:0:
402,192,144373,128,0,144448:0:0:0:0:
329,192,144448,128,0,144523:0:0:0:0:
475,192,144448,128,0,144598:0:0:0:0:
182,192,144448,128,0,144523:0:0:0:0:
402,192,144523,128,0,144673:0:0:0:0:
256,192,144523,128,0,144598:0:0:0:0:
36,192,144523,128,0,144673:0:0:0:0:
329,192,144598,128,0,144673:0:0:0:0:
109,192,144598,128,0,144748:0:0:0:0:
182,192,144598,128,0,144673:0:0:0:0:
256,192,144673,128,0,144748:0:0:0:0:
475,192,144673,128,0,144748:0:0:0:0:
402,192,144748,128,0,144898:0:0:0:0:
329,192,144748,128,0,144823:0:0:0:0:
182,192,144748,128,0,144823:0:0:0:0:
36,192,144748,128,0,144823:0:0:0:0:
109,192,144823,128,0,144898:0:0:0:0:
256,192,144823,128,0,144898:0:0:0:0:
475,192,144823,128,0,144973:0:0:0:0:
329,192,144898,128,0,144973:0:0:0:0:
182,192,144898,128,0,145048:0:0:0:0:
36,192,144898,128,0,145048:0:0:0:0:
402,192,144973,128,0,145123:0:0:0:0:
256,192,144973,128,0,145123:0:0:0:0:
109,192,144973,128,0,145048:0:0:0:0:
475,192,145048,128,0,145198:0:0:0:0:
329,192,145048,128,0,145123:0:0:0:0:
36,192,145123,128,0,145198:0:0:0:0:
109,192,145123,128,0,145198:0:0:0:0:
182,192,145123,128,0,145273:0:0:0:0:
256,192,145198,128,0,145273:0:0:0:0:
329,192,145198,128,0,145273:0:0:0:0:
402,192,145198,128,0,145348:0:0:0:0:
475,192,145273,128,0,145348:0:0:0:0:
109,192,145273,128,0,145423:0:0:0:0:
36,192,145273,128,0,145348:0:0:0:0:
182,192,145348,128,0,145423:0:0:0:0:
256,192,145348,128,0,145423:0:0:0:0:
329,192,145348,128,0,145498:0:0:0:0:
402,192,145423,128,0,145498:0:0:0:0:
475,192,145423,128,0,145498:0:0:0:0:
36,192,145423,128,0,145573:0:0:0:0:
109,192,145498,128,0,145573:0:0:0:0:
182,192,145498,128,0,145573:0:0:0:0:
256,192,145498,128,0,145648:0:0:0:0:
329,192,145573,128,0,145723:0:0:0:0:
402,192,145573,128,0,145648:0:0:0:0:
475,192,145573,128,0,145648:0:0:0:0:
182,192,145648,128,0,146173:0:0:0:0:
109,192,145648,128,0,146173:0:0:0:0:
36,192,145648,128,0,146173:0:0:0:0:
402,192,145723,128,0,145798:0:0:0:0:
475,192,145723,128,0,145798:0:0:0:0:
256,192,145723,128,0,145873:0:0:0:0:
329,192,145798,128,0,145873:0:0:0:0:
402,192,145873,128,0,146023:0:0:0:0:
475,192,145873,128,0,145948:0:0:0:0:
329,192,145948,128,0,146023:0:0:0:0:
256,192,145948,128,0,146173:0:0:0:0:
475,192,146023,128,0,146173:0:0:0:0:
402,192,146098,128,0,146173:0:0:0:0:
329,192,146098,128,0,146173:0:0:0:0:
475,192,146248,128,0,146285:0:0:0:0:
329,192,146248,128,0,146585:0:0:0:0:
256,192,146248,128,0,146435:0:0:0:0:
182,192,146248,128,0,146285:0:0:0:0:
109,192,146248,128,0,146285:0:0:0:0:
402,192,146248,128,0,146735:0:0:0:0:
36,192,146248,1,0,0:0:0:0:
109,192,146323,1,0,0:0:0:0:
475,192,146323,1,0,0:0:0:0:
475,192,146398,128,0,146435:0:0:0:0:
182,192,146398,128,0,146435:0:0:0:0:
36,192,146398,1,0,0:0:0:0:
182,192,146473,1,0,0:0:0:0:
475,192,146473,1,0,0:0:0:0:
475,192,146548,128,0,146585:0:0:0:0:
256,192,146548,128,0,146585:0:0:0:0:
109,192,146548,1,0,0:0:0:0:
256,192,146623,1,0,0:0:0:0:
36,192,146623,1,0,0:0:0:0:
475,192,146623,1,0,0:0:0:0:
475,192,146698,128,0,146735:0:0:0:0:
329,192,146698,128,0,146735:0:0:0:0:
182,192,146698,1,0,0:0:0:0:
109,192,146698,1,0,0:0:0:0:
329,192,146773,1,0,0:0:0:0:
36,192,146773,1,0,0:0:0:0:
475,192,146773,1,0,0:0:0:0:
402,192,146773,1,0,0:0:0:0:
182,192,146848,128,0,147073:0:0:0:0:
256,192,146848,128,0,146923:0:0:0:0:
329,192,146848,128,0,146885:0:0:0:0:
475,192,146848,128,0,147035:0:0:0:0:
109,192,146848,1,0,0:0:0:0:
36,192,146923,1,0,0:0:0:0:
256,192,146998,128,0,147223:0:0:0:0:
329,192,146998,128,0,147073:0:0:0:0:
402,192,146998,128,0,147035:0:0:0:0:
109,192,146998,1,0,0:0:0:0:
36,192,147073,1,0,0:0:0:0:
329,192,147148,128,0,147373:0:0:0:0:
402,192,147148,128,0,147223:0:0:0:0:
475,192,147148,128,0,147185:0:0:0:0:
182,192,147148,1,0,0:0:0:0:
109,192,147148,1,0,0:0:0:0:
36,192,147223,1,0,0:0:0:0:
182,192,147298,1,0,0:0:0:0:
402,192,147298,1,0,0:0:0:0:
475,192,147298,1,0,0:0:0:0:
256,192,147373,1,0,0:0:0:0:
109,192,147373,1,0,0:0:0:0:
182,192,147448,128,0,147485:0:0:0:0:
36,192,147448,128,0,147485:0:0:0:0:
329,192,147448,128,0,147523:0:0:0:0:
402,192,147448,128,0,147598:0:0:0:0:
475,192,147448,128,0,147673:0:0:0:0:
109,192,147523,128,0,147560:0:0:0:0:
256,192,147523,128,0,147598:0:0:0:0:
182,192,147598,128,0,147635:0:0:0:0:
329,192,147598,128,0,147673:0:0:0:0:
36,192,147598,128,0,147823:0:0:0:0:
256,192,147673,128,0,147710:0:0:0:0:
402,192,147673,128,0,147748:0:0:0:0:
109,192,147673,128,0,147748:0:0:0:0:
329,192,147748,128,0,147785:0:0:0:0:
475,192,147748,128,0,147823:0:0:0:0:
182,192,147748,128,0,147785:0:0:0:0:
402,192,147823,128,0,147860:0:0:0:0:
109,192,147823,128,0,147860:0:0:0:0:
256,192,147823,128,0,147973:0:0:0:0:
475,192,147898,128,0,147973:0:0:0:0:
36,192,147898,128,0,147935:0:0:0:0:
329,192,147898,128,0,147973:0:0:0:0:
182,192,147898,128,0,147973:0:0:0:0:
109,192,147973,128,0,148010:0:0:0:0:
256,192,148048,128,0,148123:0:0:0:0:
329,192,148048,128,0,148273:0:0:0:0:
182,192,148048,128,0,148085:0:0:0:0:
36,192,148048,128,0,148235:0:0:0:0:
402,192,148048,1,0,0:0:0:0:
475,192,148123,1,0,0:0:0:0:
402,192,148198,1,0,0:0:0:0:
109,192,148198,128,0,148235:0:0:0:0:
256,192,148198,128,0,148423:0:0:0:0:
182,192,148198,128,0,148273:0:0:0:0:
475,192,148273,1,0,0:0:0:0:
182,192,148348,128,0,148573:0:0:0:0:
36,192,148348,128,0,148385:0:0:0:0:
109,192,148348,128,0,148423:0:0:0:0:
329,192,148348,1,0,0:0:0:0:
402,192,148348,1,0,0:0:0:0:
475,192,148423,1,0,0:0:0:0:
36,192,148498,1,0,0:0:0:0:
329,192,148498,1,0,0:0:0:0:
109,192,148498,1,0,0:0:0:0:
402,192,148498,1,0,0:0:0:0:
256,192,148573,1,0,0:0:0:0:
475,192,148573,1,0,0:0:0:0:
36,192,148648,128,0,148685:0:0:0:0:
256,192,148648,128,0,148685:0:0:0:0:
109,192,148648,128,0,148835:0:0:0:0:
402,192,148648,1,0,0:0:0:0:
182,192,148648,1,0,0:0:0:0:
256,192,148723,128,0,148760:0:0:0:0:
36,192,148723,128,0,148760:0:0:0:0:
329,192,148723,128,0,148910:0:0:0:0:
475,192,148723,128,0,148910:0:0:0:0:
182,192,148798,128,0,148835:0:0:0:0:
402,192,148798,128,0,148835:0:0:0:0:
402,192,148873,128,0,148910:0:0:0:0:
182,192,148873,128,0,148910:0:0:0:0:
256,192,148873,128,0,149060:0:0:0:0:
36,192,148873,128,0,149060:0:0:0:0:
329,192,148948,128,0,148985:0:0:0:0:
109,192,148948,128,0,148985:0:0:0:0:
329,192,149023,128,0,149060:0:0:0:0:
109,192,149023,128,0,149060:0:0:0:0:
182,192,149023,128,0,149210:0:0:0:0:
402,192,149023,128,0,149210:0:0:0:0:
475,192,149098,128,0,149135:0:0:0:0:
256,192,149098,128,0,149135:0:0:0:0:
475,192,149173,128,0,149210:0:0:0:0:
256,192,149173,128,0,149210:0:0:0:0:
36,192,149173,1,0,0:0:0:0:
329,192,149248,1,0,0:0:0:0:
402,192,149248,1,0,0:0:0:0:
182,192,149248,128,0,149473:0:0:0:0:
109,192,149248,1,0,0:0:0:0:
475,192,149323,128,0,149360:0:0:0:0:
256,192,149323,1,0,0:0:0:0:
36,192,149398,128,0,149473:0:0:0:0:
109,192,149398,128,0,149473:0:0:0:0:
402,192,149398,128,0,149623:0:0:0:0:
329,192,149398,1,0,0:0:0:0:
256,192,149473,128,0,149510:0:0:0:0:
329,192,149548,128,0,149623:0:0:0:0:
475,192,149548,128,0,149623:0:0:0:0:
109,192,149548,128,0,149773:0:0:0:0:
182,192,149548,1,0,0:0:0:0:
36,192,149623,128,0,149660:0:0:0:0:
256,192,149623,1,0,0:0:0:0:
182,192,149698,128,0,149773:0:0:0:0:
329,192,149698,128,0,149773:0:0:0:0:
475,192,149698,128,0,149773:0:0:0:0:
256,192,149773,128,0,149848:0:0:0:0:
402,192,149773,128,0,149848:0:0:0:0:
329,192,149848,128,0,149998:0:0:0:0:
475,192,149848,128,0,149998:0:0:0:0:
109,192,149848,1,0,0:0:0:0:
402,192,149923,128,0,150073:0:0:0:0:
36,192,149923,1,0,0:0:0:0:
182,192,149923,1,0,0:0:0:0:
109,192,149998,128,0,150073:0:0:0:0:
256,192,149998,128,0,150073:0:0:0:0:
182,192,150073,128,0,150148:0:0:0:0:
329,192,150073,128,0,150148:0:0:0:0:
475,192,150073,128,0,150223:0:0:0:0:
36,192,150073,1,0,0:0:0:0:
256,192,150148,128,0,150223:0:0:0:0:
402,192,150148,128,0,150223:0:0:0:0:
109,192,150148,1,0,0:0:0:0:
36,192,150223,1,0,0:0:0:0:
182,192,150223,1,0,0:0:0:0:
256,192,150298,128,0,150335:0:0:0:0:
329,192,150298,128,0,150335:0:0:0:0:
402,192,150298,128,0,150335:0:0:0:0:
475,192,150298,128,0,150335:0:0:0:0:
109,192,150298,1,0,0:0:0:0:
182,192,150373,1,0,0:0:0:0:
36,192,150373,1,0,0:0:0:0:
256,192,150448,128,0,150485:0:0:0:0:
329,192,150448,128,0,150485:0:0:0:0:
402,192,150448,128,0,150485:0:0:0:0:
475,192,150448,128,0,150485:0:0:0:0:
109,192,150448,128,0,150598:0:0:0:0:
402,192,150523,1,0,0:0:0:0:
475,192,150523,1,0,0:0:0:0:
256,192,150523,1,0,0:0:0:0:
182,192,150598,128,0,150673:0:0:0:0:
329,192,150598,128,0,150635:0:0:0:0:
36,192,150598,128,0,150935:0:0:0:0:
256,192,150673,128,0,150748:0:0:0:0:
402,192,150673,128,0,150710:0:0:0:0:
109,192,150673,128,0,150710:0:0:0:0:
329,192,150748,128,0,150898:0:0:0:0:
475,192,150748,128,0,150785:0:0:0:0:
182,192,150748,128,0,150898:0:0:0:0:
402,192,150823,1,0,0:0:0:0:
256,192,150898,128,0,150973:0:0:0:0:
109,192,150898,128,0,150935:0:0:0:0:
475,192,150898,1,0,0:0:0:0:
329,192,150973,128,0,151048:0:0:0:0:
182,192,150973,128,0,151010:0:0:0:0:
36,192,150973,128,0,151010:0:0:0:0:
402,192,151048,128,0,151198:0:0:0:0:
256,192,151048,128,0,151085:0:0:0:0:
109,192,151048,128,0,151348:0:0:0:0:
475,192,151048,128,0,151085:0:0:0:0:
36,192,151123,1,0,0:0:0:0:
475,192,151198,128,0,151273:0:0:0:0:
329,192,151198,128,0,151235:0:0:0:0:
182,192,151198,1,0,0:0:0:0:
402,192,151273,128,0,151348:0:0:0:0:
256,192,151273,128,0,151310:0:0:0:0:
475,192,151348,128,0,151498:0:0:0:0:
329,192,151348,128,0,151423:0:0:0:0:
182,192,151348,128,0,151423:0:0:0:0:
36,192,151348,128,0,151423:0:0:0:0:
402,192,151423,128,0,151573:0:0:0:0:
256,192,151423,128,0,151498:0:0:0:0:
109,192,151423,128,0,151498:0:0:0:0:
329,192,151498,128,0,151648:0:0:0:0:
182,192,151498,128,0,151573:0:0:0:0:
36,192,151498,128,0,151573:0:0:0:0:
475,192,151573,128,0,151648:0:0:0:0:
109,192,151573,128,0,151648:0:0:0:0:
256,192,151573,128,0,151648:0:0:0:0:
182,192,151648,128,0,152023:0:0:0:0:
402,192,151648,128,0,151948:0:0:0:0:
36,192,151648,128,0,151723:0:0:0:0:
109,192,151723,128,0,151798:0:0:0:0:
256,192,151723,128,0,151760:0:0:0:0:
329,192,151798,128,0,151835:0:0:0:0:
475,192,151798,1,0,0:0:0:0:
36,192,151798,1,0,0:0:0:0:
256,192,151873,128,0,151910:0:0:0:0:
109,192,151873,1,0,0:0:0:0:
36,192,151948,128,0,152023:0:0:0:0:
329,192,151948,128,0,151985:0:0:0:0:
475,192,151948,1,0,0:0:0:0:
109,192,152023,128,0,152098:0:0:0:0:
402,192,152023,128,0,152060:0:0:0:0:
182,192,152098,128,0,152285:0:0:0:0:
256,192,152098,128,0,152285:0:0:0:0:
475,192,152098,128,0,152135:0:0:0:0:
329,192,152098,1,0,0:0:0:0:
36,192,152098,1,0,0:0:0:0:
402,192,152248,128,0,152285:0:0:0:0:
475,192,152248,128,0,152285:0:0:0:0:
329,192,152248,128,0,152285:0:0:0:0:
109,192,152248,128,0,152435:0:0:0:0:
36,192,152248,128,0,152435:0:0:0:0:
182,192,152323,1,0,0:0:0:0:
256,192,152323,1,0,0:0:0:0:
329,192,152398,128,0,152435:0:0:0:0:
256,192,152398,128,0,152435:0:0:0:0:
182,192,152398,128,0,152435:0:0:0:0:
402,192,152398,128,0,152585:0:0:0:0:
475,192,152398,128,0,152585:0:0:0:0:
109,192,152473,1,0,0:0:0:0:
36,192,152473,1,0,0:0:0:0:
36,192,152548,128,0,152585:0:0:0:0:
182,192,152548,128,0,152585:0:0:0:0:
109,192,152548,128,0,152585:0:0:0:0:
329,192,152548,128,0,152735:0:0:0:0:
256,192,152548,128,0,152735:0:0:0:0:
402,192,152623,1,0,0:0:0:0:
475,192,152623,1,0,0:0:0:0:
182,192,152698,128,0,152735:0:0:0:0:
109,192,152698,128,0,152735:0:0:0:0:
402,192,152698,128,0,152735:0:0:0:0:
475,192,152698,128,0,152735:0:0:0:0:
36,192,152698,128,0,152773:0:0:0:0:
256,192,152773,1,0,0:0:0:0:
329,192,152773,1,0,0:0:0:0:
36,192,152848,128,0,152885:0:0:0:0:
182,192,152848,128,0,152923:0:0:0:0:
402,192,152848,128,0,152998:0:0:0:0:
475,192,152848,128,0,153073:0:0:0:0:
329,192,152848,128,0,152923:0:0:0:0:
109,192,152923,128,0,152998:0:0:0:0:
256,192,152923,128,0,152960:0:0:0:0:
182,192,152998,128,0,153035:0:0:0:0:
329,192,152998,128,0,153073:0:0:0:0:
36,192,152998,128,0,153148:0:0:0:0:
256,192,153073,128,0,153148:0:0:0:0:
402,192,153073,128,0,153110:0:0:0:0:
109,192,153073,128,0,153448:0:0:0:0:
475,192,153148,128,0,153223:0:0:0:0:
329,192,153148,128,0,153185:0:0:0:0:
182,192,153148,128,0,153373:0:0:0:0:
402,192,153223,128,0,153298:0:0:0:0:
256,192,153223,128,0,153260:0:0:0:0:
36,192,153223,128,0,153298:0:0:0:0:
475,192,153298,128,0,153373:0:0:0:0:
329,192,153298,128,0,153335:0:0:0:0:
402,192,153373,128,0,153410:0:0:0:0:
256,192,153373,128,0,153448:0:0:0:0:
36,192,153373,128,0,153523:0:0:0:0:
329,192,153448,128,0,153523:0:0:0:0:
182,192,153448,128,0,153485:0:0:0:0:
475,192,153448,128,0,153598:0:0:0:0:
256,192,153523,128,0,153560:0:0:0:0:
109,192,153523,128,0,153598:0:0:0:0:
402,192,153523,128,0,153898:0:0:0:0:
182,192,153598,128,0,153673:0:0:0:0:
36,192,153598,128,0,153635:0:0:0:0:
329,192,153598,128,0,153823:0:0:0:0:
109,192,153673,128,0,153710:0:0:0:0:
256,192,153673,128,0,153748:0:0:0:0:
475,192,153673,128,0,153748:0:0:0:0:
36,192,153748,128,0,153785:0:0:0:0:
182,192,153748,128,0,153823:0:0:0:0:
109,192,153823,128,0,153898:0:0:0:0:
256,192,153823,128,0,153860:0:0:0:0:
475,192,153823,128,0,154048:0:0:0:0:
329,192,153898,128,0,153973:0:0:0:0:
182,192,153898,128,0,153935:0:0:0:0:
36,192,153898,128,0,154048:0:0:0:0:
402,192,153973,128,0,154010:0:0:0:0:
256,192,153973,128,0,154048:0:0:0:0:
109,192,153973,128,0,154048:0:0:0:0:
329,192,154048,128,0,154123:0:0:0:0:
182,192,154048,128,0,154123:0:0:0:0:
402,192,154123,128,0,154198:0:0:0:0:
256,192,154123,128,0,154160:0:0:0:0:
109,192,154123,128,0,154198:0:0:0:0:
36,192,154123,128,0,154273:0:0:0:0:
329,192,154198,128,0,154235:0:0:0:0:
182,192,154198,128,0,154273:0:0:0:0:
475,192,154198,128,0,154348:0:0:0:0:
256,192,154273,128,0,154348:0:0:0:0:
109,192,154273,128,0,154310:0:0:0:0:
402,192,154273,128,0,154648:0:0:0:0:
36,192,154348,128,0,154423:0:0:0:0:
182,192,154348,128,0,154385:0:0:0:0:
329,192,154348,128,0,154573:0:0:0:0:
109,192,154423,128,0,154498:0:0:0:0:
256,192,154423,128,0,154460:0:0:0:0:
475,192,154423,128,0,154498:0:0:0:0:
36,192,154498,128,0,154573:0:0:0:0:
182,192,154498,128,0,154535:0:0:0:0:
109,192,154573,128,0,154610:0:0:0:0:
256,192,154573,128,0,154648:0:0:0:0:
475,192,154573,128,0,154723:0:0:0:0:
182,192,154648,128,0,154723:0:0:0:0:
329,192,154648,128,0,154685:0:0:0:0:
36,192,154648,128,0,154798:0:0:0:0:
256,192,154723,128,0,154760:0:0:0:0:
402,192,154723,128,0,154798:0:0:0:0:
109,192,154723,128,0,155098:0:0:0:0:
329,192,154798,128,0,154873:0:0:0:0:
475,192,154798,128,0,154835:0:0:0:0:
182,192,154798,128,0,155023:0:0:0:0:
402,192,154873,128,0,154910:0:0:0:0:
256,192,154873,128,0,154948:0:0:0:0:
36,192,154873,128,0,154948:0:0:0:0:
475,192,154948,128,0,154985:0:0:0:0:
329,192,154948,128,0,155023:0:0:0:0:
402,192,155023,128,0,155098:0:0:0:0:
256,192,155023,128,0,155060:0:0:0:0:
36,192,155023,128,0,155173:0:0:0:0:
182,192,155098,128,0,155173:0:0:0:0:
329,192,155098,128,0,155135:0:0:0:0:
475,192,155098,128,0,155173:0:0:0:0:
109,192,155173,128,0,155473:0:0:0:0:
256,192,155173,128,0,155473:0:0:0:0:
402,192,155173,128,0,155473:0:0:0:0:
36,192,155248,128,0,155473:0:0:0:0:
182,192,155248,128,0,155623:0:0:0:0:
329,192,155248,128,0,155623:0:0:0:0:
475,192,155248,128,0,155473:0:0:0:0:
36,192,155548,128,0,155810:0:0:0:0:
109,192,155548,128,0,155585:0:0:0:0:
256,192,155548,128,0,155585:0:0:0:0:
402,192,155548,128,0,155585:0:0:0:0:
475,192,155548,128,0,155810:0:0:0:0:
402,192,155698,128,0,156373:0:0:0:0:
256,192,155698,128,0,155885:0:0:0:0:
109,192,155698,128,0,156373:0:0:0:0:
329,192,155698,128,0,155848:0:0:0:0:
182,192,155698,128,0,155848:0:0:0:0:
36,192,155998,128,0,156373:0:0:0:0:
182,192,155998,128,0,156373:0:0:0:0:
329,192,155998,128,0,156373:0:0:0:0:
256,192,155998,128,0,156373:0:0:0:0:
475,192,155998,128,0,156373:0:0:0:0:
36,192,156448,128,0,156710:0:0:0:0:
182,192,156448,128,0,156485:0:0:0:0:
256,192,156448,128,0,156523:0:0:0:0:
329,192,156448,128,0,156560:0:0:0:0:
402,192,156448,128,0,156598:0:0:0:0:
475,192,156448,128,0,156635:0:0:0:0:
109,192,156485,128,0,156710:0:0:0:0:
182,192,156523,128,0,156710:0:0:0:0:
256,192,156560,128,0,156710:0:0:0:0:
329,192,156598,128,0,156710:0:0:0:0:
402,192,156635,128,0,156710:0:0:0:0:
475,192,156673,128,0,156710:0:0:0:0:
475,192,156748,128,0,157010:0:0:0:0:
329,192,156748,128,0,156785:0:0:0:0:
256,192,156748,128,0,156823:0:0:0:0:
182,192,156748,128,0,156860:0:0:0:0:
109,192,156748,128,0,156898:0:0:0:0:
36,192,156748,128,0,156935:0:0:0:0:
402,192,156785,128,0,157010:0:0:0:0:
329,192,156823,128,0,157010:0:0:0:0:
256,192,156860,128,0,157010:0:0:0:0:
182,192,156898,128,0,157010:0:0:0:0:
109,192,156935,128,0,157010:0:0:0:0:
36,192,156973,128,0,157010:0:0:0:0:
475,192,157048,128,0,157310:0:0:0:0:
329,192,157048,128,0,157085:0:0:0:0:
256,192,157048,128,0,157123:0:0:0:0:
182,192,157048,128,0,157160:0:0:0:0:
109,192,157048,128,0,157198:0:0:0:0:
36,192,157048,128,0,157235:0:0:0:0:
402,192,157085,128,0,157310:0:0:0:0:
329,192,157123,128,0,157310:0:0:0:0:
256,192,157160,128,0,157310:0:0:0:0:
182,192,157198,128,0,157310:0:0:0:0:
109,192,157235,128,0,157310:0:0:0:0:
36,192,157273,128,0,157310:0:0:0:0:
36,192,157348,128,0,157610:0:0:0:0:
182,192,157348,128,0,157385:0:0:0:0:
256,192,157348,128,0,157423:0:0:0:0:
329,192,157348,128,0,157460:0:0:0:0:
402,192,157348,128,0,157498:0:0:0:0:
475,192,157348,128,0,157535:0:0:0:0:
109,192,157385,128,0,157610:0:0:0:0:
182,192,157423,128,0,157610:0:0:0:0:
256,192,157460,128,0,157610:0:0:0:0:
329,192,157498,128,0,157610:0:0:0:0:
402,192,157535,128,0,157610:0:0:0:0:
475,192,157573,128,0,157610:0:0:0:0:
475,192,157648,5,0,0:0:0:0:
182,192,157648,1,0,0:0:0:0:
109,192,157648,128,0,157798:0:0:0:0:
402,192,157648,128,0,157873:0:0:0:0:
256,192,157648,128,0,157685:0:0:0:0:
36,192,157648,128,0,157723:0:0:0:0:
329,192,157723,128,0,157760:0:0:0:0:
256,192,157798,1,0,0:0:0:0:
475,192,157798,1,0,0:0:0:0:
36,192,157798,128,0,157873:0:0:0:0:
182,192,157798,128,0,157835:0:0:0:0:
329,192,157873,1,0,0:0:0:0:
109,192,157948,1,0,0:0:0:0:
475,192,157948,1,0,0:0:0:0:
182,192,157948,128,0,158173:0:0:0:0:
402,192,157948,128,0,158173:0:0:0:0:
36,192,157948,128,0,157985:0:0:0:0:
256,192,157948,128,0,158023:0:0:0:0:
329,192,158023,128,0,158060:0:0:0:0:
109,192,158098,128,0,158173:0:0:0:0:
36,192,158098,128,0,158135:0:0:0:0:
475,192,158098,128,0,158135:0:0:0:0:
256,192,158173,128,0,158248:0:0:0:0:
329,192,158173,1,0,0:0:0:0:
109,192,158248,1,0,0:0:0:0:
402,192,158248,128,0,158473:0:0:0:0:
36,192,158248,128,0,158473:0:0:0:0:
182,192,158248,128,0,158285:0:0:0:0:
475,192,158248,128,0,158323:0:0:0:0:
329,192,158323,1,0,0:0:0:0:
475,192,158398,1,0,0:0:0:0:
256,192,158398,128,0,158473:0:0:0:0:
109,192,158398,128,0,158435:0:0:0:0:
182,192,158473,128,0,158548:0:0:0:0:
329,192,158473,128,0,158510:0:0:0:0:
402,192,158548,128,0,158773:0:0:0:0:
36,192,158548,1,0,0:0:0:0:
109,192,158548,128,0,158698:0:0:0:0:
256,192,158548,128,0,158585:0:0:0:0:
475,192,158548,128,0,158623:0:0:0:0:
329,192,158623,128,0,158660:0:0:0:0:
256,192,158698,128,0,158848:0:0:0:0:
182,192,158698,1,0,0:0:0:0:
475,192,158698,1,0,0:0:0:0:
36,192,158698,128,0,158735:0:0:0:0:
329,192,158773,128,0,158810:0:0:0:0:
109,192,158848,128,0,158998:0:0:0:0:
402,192,158848,128,0,159073:0:0:0:0:
475,192,158848,1,0,0:0:0:0:
36,192,158848,128,0,158885:0:0:0:0:
182,192,158848,128,0,158923:0:0:0:0:
329,192,158923,128,0,158960:0:0:0:0:
182,192,158998,128,0,159073:0:0:0:0:
475,192,158998,1,0,0:0:0:0:
256,192,158998,128,0,159035:0:0:0:0:
36,192,159073,128,0,159148:0:0:0:0:
329,192,159073,128,0,159110:0:0:0:0:
256,192,159148,128,0,159223:0:0:0:0:
402,192,159148,128,0,159373:0:0:0:0:
475,192,159148,128,0,159223:0:0:0:0:
182,192,159148,128,0,159185:0:0:0:0:
109,192,159223,128,0,159298:0:0:0:0:
329,192,159223,128,0,159260:0:0:0:0:
256,192,159298,1,0,0:0:0:0:
182,192,159298,128,0,159373:0:0:0:0:
475,192,159298,128,0,159335:0:0:0:0:
36,192,159373,128,0,159448:0:0:0:0:
329,192,159373,128,0,159410:0:0:0:0:
182,192,159448,1,0,0:0:0:0:
256,192,159448,128,0,159598:0:0:0:0:
402,192,159448,128,0,159673:0:0:0:0:
109,192,159448,128,0,159523:0:0:0:0:
475,192,159448,128,0,159485:0:0:0:0:
329,192,159523,128,0,159560:0:0:0:0:
182,192,159598,1,0,0:0:0:0:
475,192,159598,1,0,0:0:0:0:
109,192,159598,128,0,159748:0:0:0:0:
36,192,159598,128,0,159635:0:0:0:0:
329,192,159673,128,0,159710:0:0:0:0:
256,192,159748,1,0,0:0:0:0:
182,192,159748,128,0,159898:0:0:0:0:
402,192,159748,128,0,159973:0:0:0:0:
475,192,159748,128,0,159823:0:0:0:0:
36,192,159748,128,0,159785:0:0:0:0:
329,192,159823,128,0,159860:0:0:0:0:
256,192,159898,128,0,159973:0:0:0:0:
475,192,159898,1,0,0:0:0:0:
36,192,159898,128,0,159935:0:0:0:0:
109,192,159973,128,0,160048:0:0:0:0:
329,192,159973,128,0,160010:0:0:0:0:
36,192,160048,128,0,160198:0:0:0:0:
475,192,160048,1,0,0:0:0:0:
402,192,160048,128,0,160273:0:0:0:0:
182,192,160048,128,0,160123:0:0:0:0:
256,192,160048,128,0,160085:0:0:0:0:
329,192,160123,128,0,160160:0:0:0:0:
256,192,160198,1,0,0:0:0:0:
475,192,160198,1,0,0:0:0:0:
109,192,160198,128,0,160348:0:0:0:0:
182,192,160198,128,0,160235:0:0:0:0:
329,192,160273,128,0,160310:0:0:0:0:
256,192,160348,128,0,160498:0:0:0:0:
475,192,160348,1,0,0:0:0:0:
402,192,160348,128,0,160573:0:0:0:0:
36,192,160348,128,0,160423:0:0:0:0:
182,192,160348,128,0,160385:0:0:0:0:
329,192,160423,128,0,160460:0:0:0:0:
36,192,160498,1,0,0:0:0:0:
182,192,160498,128,0,160573:0:0:0:0:
475,192,160498,128,0,160535:0:0:0:0:
109,192,160573,128,0,160648:0:0:0:0:
329,192,160573,128,0,160610:0:0:0:0:
36,192,160648,128,0,160723:0:0:0:0:
475,192,160648,1,0,0:0:0:0:
402,192,160648,128,0,160873:0:0:0:0:
256,192,160648,128,0,160723:0:0:0:0:
182,192,160648,128,0,160685:0:0:0:0:
329,192,160723,128,0,160760:0:0:0:0:
256,192,160798,1,0,0:0:0:0:
475,192,160798,1,0,0:0:0:0:
36,192,160798,128,0,160873:0:0:0:0:
109,192,160798,128,0,160835:0:0:0:0:
182,192,160873,128,0,160948:0:0:0:0:
329,192,160873,128,0,160910:0:0:0:0:
36,192,160948,1,0,0:0:0:0:
109,192,160948,128,0,161098:0:0:0:0:
402,192,160948,128,0,161173:0:0:0:0:
475,192,160948,128,0,161023:0:0:0:0:
256,192,160948,128,0,160985:0:0:0:0:
329,192,161023,128,0,161060:0:0:0:0:
182,192,161098,128,0,161173:0:0:0:0:
475,192,161098,1,0,0:0:0:0:
36,192,161098,128,0,161135:0:0:0:0:
256,192,161173,128,0,161248:0:0:0:0:
329,192,161173,128,0,161210:0:0:0:0:
182,192,161248,1,0,0:0:0:0:
109,192,161248,128,0,161323:0:0:0:0:
402,192,161248,128,0,161473:0:0:0:0:
475,192,161248,128,0,161323:0:0:0:0:
36,192,161248,128,0,161285:0:0:0:0:
182,192,161323,128,0,161398:0:0:0:0:
329,192,161323,128,0,161360:0:0:0:0:
36,192,161398,128,0,161473:0:0:0:0:
475,192,161398,1,0,0:0:0:0:
256,192,161398,128,0,161435:0:0:0:0:
109,192,161473,128,0,161548:0:0:0:0:
329,192,161473,128,0,161510:0:0:0:0:
256,192,161548,128,0,161698:0:0:0:0:
475,192,161548,1,0,0:0:0:0:
402,192,161548,128,0,161623:0:0:0:0:
182,192,161548,128,0,161623:0:0:0:0:
36,192,161548,128,0,161585:0:0:0:0:
329,192,161623,128,0,161660:0:0:0:0:
182,192,161698,128,0,161773:0:0:0:0:
475,192,161698,1,0,0:0:0:0:
402,192,161698,128,0,161773:0:0:0:0:
36,192,161698,128,0,161735:0:0:0:0:
109,192,161773,128,0,161848:0:0:0:0:
329,192,161773,128,0,161810:0:0:0:0:
182,192,161848,1,0,0:0:0:0:
36,192,161848,128,0,161998:0:0:0:0:
402,192,161848,128,0,162073:0:0:0:0:
256,192,161848,128,0,161923:0:0:0:0:
475,192,161848,128,0,161885:0:0:0:0:
329,192,161923,128,0,161960:0:0:0:0:
109,192,161998,1,0,0:0:0:0:
475,192,161998,1,0,0:0:0:0:
182,192,161998,128,0,162073:0:0:0:0:
256,192,161998,128,0,162035:0:0:0:0:
329,192,162073,128,0,162110:0:0:0:0:
256,192,162148,1,0,0:0:0:0:
475,192,162148,1,0,0:0:0:0:
402,192,162148,128,0,162373:0:0:0:0:
109,192,162148,128,0,162298:0:0:0:0:
36,192,162148,128,0,162223:0:0:0:0:
182,192,162148,128,0,162185:0:0:0:0:
329,192,162223,128,0,162260:0:0:0:0:
256,192,162298,128,0,162373:0:0:0:0:
475,192,162298,1,0,0:0:0:0:
36,192,162298,128,0,162335:0:0:0:0:
182,192,162373,128,0,162448:0:0:0:0:
329,192,162373,1,0,0:0:0:0:
109,192,162373,128,0,162410:0:0:0:0:
36,192,162448,5,0,0:0:0:0:
109,192,162448,128,0,162673:0:0:0:0:
329,192,162448,1,0,0:0:0:0:
402,192,162448,128,0,162598:0:0:0:0:
256,192,162448,128,0,162485:0:0:0:0:
475,192,162448,128,0,162523:0:0:0:0:
182,192,162523,128,0,162560:0:0:0:0:
256,192,162598,1,0,0:0:0:0:
36,192,162598,1,0,0:0:0:0:
475,192,162598,128,0,162673:0:0:0:0:
329,192,162598,128,0,162635:0:0:0:0:
182,192,162673,1,0,0:0:0:0:
402,192,162748,1,0,0:0:0:0:
36,192,162748,1,0,0:0:0:0:
329,192,162748,128,0,162973:0:0:0:0:
109,192,162748,128,0,162973:0:0:0:0:
475,192,162748,128,0,162785:0:0:0:0:
256,192,162748,128,0,162823:0:0:0:0:
182,192,162823,128,0,162860:0:0:0:0:
402,192,162898,128,0,162973:0:0:0:0:
475,192,162898,128,0,162935:0:0:0:0:
36,192,162898,128,0,162935:0:0:0:0:
256,192,162973,128,0,163048:0:0:0:0:
182,192,162973,1,0,0:0:0:0:
402,192,163048,1,0,0:0:0:0:
109,192,163048,128,0,163273:0:0:0:0:
475,192,163048,128,0,163273:0:0:0:0:
329,192,163048,128,0,163085:0:0:0:0:
36,192,163048,128,0,163123:0:0:0:0:
182,192,163123,1,0,0:0:0:0:
36,192,163198,1,0,0:0:0:0:
256,192,163198,128,0,163273:0:0:0:0:
402,192,163198,128,0,163235:0:0:0:0:
329,192,163273,128,0,163348:0:0:0:0:
182,192,163273,128,0,163310:0:0:0:0:
109,192,163348,128,0,163573:0:0:0:0:
475,192,163348,1,0,0:0:0:0:
402,192,163348,128,0,163498:0:0:0:0:
256,192,163348,128,0,163385:0:0:0:0:
36,192,163348,128,0,163423:0:0:0:0:
182,192,163423,128,0,163460:0:0:0:0:
256,192,163498,128,0,163648:0:0:0:0:
329,192,163498,1,0,0:0:0:0:
36,192,163498,1,0,0:0:0:0:
475,192,163498,128,0,163535:0:0:0:0:
182,192,163573,128,0,163610:0:0:0:0:
402,192,163648,128,0,163798:0:0:0:0:
109,192,163648,128,0,163873:0:0:0:0:
36,192,163648,1,0,0:0:0:0:
475,192,163648,128,0,163685:0:0:0:0:
329,192,163648,128,0,163723:0:0:0:0:
182,192,163723,128,0,163760:0:0:0:0:
329,192,163798,128,0,163873:0:0:0:0:
36,192,163798,1,0,0:0:0:0:
256,192,163798,128,0,163835:0:0:0:0:
475,192,163873,128,0,163948:0:0:0:0:
182,192,163873,128,0,163910:0:0:0:0:
256,192,163948,128,0,164023:0:0:0:0:
109,192,163948,128,0,164173:0:0:0:0:
36,192,163948,128,0,164023:0:0:0:0:
329,192,163948,128,0,163985:0:0:0:0:
402,192,164023,128,0,164098:0:0:0:0:
182,192,164023,128,0,164060:0:0:0:0:
256,192,164098,1,0,0:0:0:0:
329,192,164098,128,0,164173:0:0:0:0:
36,192,164098,128,0,164135:0:0:0:0:
475,192,164173,128,0,164248:0:0:0:0:
182,192,164173,128,0,164210:0:0:0:0:
329,192,164248,1,0,0:0:0:0:
256,192,164248,128,0,164398:0:0:0:0:
109,192,164248,128,0,164473:0:0:0:0:
402,192,164248,128,0,164323:0:0:0:0:
36,192,164248,128,0,164285:0:0:0:0:
182,192,164323,128,0,164360:0:0:0:0:
329,192,164398,1,0,0:0:0:0:
36,192,164398,1,0,0:0:0:0:
402,192,164398,128,0,164548:0:0:0:0:
475,192,164398,128,0,164435:0:0:0:0:
182,192,164473,128,0,164510:0:0:0:0:
256,192,164548,1,0,0:0:0:0:
329,192,164548,128,0,164698:0:0:0:0:
109,192,164548,128,0,164773:0:0:0:0:
36,192,164548,128,0,164623:0:0:0:0:
475,192,164548,128,0,164585:0:0:0:0:
182,192,164623,128,0,164660:0:0:0:0:
256,192,164698,128,0,164773:0:0:0:0:
36,192,164698,1,0,0:0:0:0:
475,192,164698,128,0,164735:0:0:0:0:
402,192,164773,128,0,164848:0:0:0:0:
182,192,164773,128,0,164810:0:0:0:0:
475,192,164848,128,0,164998:0:0:0:0:
36,192,164848,1,0,0:0:0:0:
109,192,164848,128,0,165073:0:0:0:0:
329,192,164848,128,0,164923:0:0:0:0:
256,192,164848,128,0,164885:0:0:0:0:
182,192,164923,128,0,164960:0:0:0:0:
256,192,164998,1,0,0:0:0:0:
36,192,164998,1,0,0:0:0:0:
402,192,164998,128,0,165148:0:0:0:0:
329,192,164998,128,0,165035:0:0:0:0:
182,192,165073,128,0,165110:0:0:0:0:
256,192,165148,128,0,165298:0:0:0:0:
36,192,165148,1,0,0:0:0:0:
109,192,165148,128,0,165373:0:0:0:0:
475,192,165148,128,0,165223:0:0:0:0:
329,192,165148,128,0,165185:0:0:0:0:
182,192,165223,128,0,165260:0:0:0:0:
475,192,165298,1,0,0:0:0:0:
329,192,165298,128,0,165373:0:0:0:0:
36,192,165298,128,0,165335:0:0:0:0:
402,192,165373,128,0,165448:0:0:0:0:
182,192,165373,128,0,165410:0:0:0:0:
475,192,165448,128,0,165523:0:0:0:0:
36,192,165448,1,0,0:0:0:0:
109,192,165448,128,0,165673:0:0:0:0:
256,192,165448,128,0,165523:0:0:0:0:
329,192,165448,128,0,165485:0:0:0:0:
182,192,165523,128,0,165560:0:0:0:0:
256,192,165598,1,0,0:0:0:0:
36,192,165598,1,0,0:0:0:0:
475,192,165598,128,0,165673:0:0:0:0:
402,192,165598,128,0,165635:0:0:0:0:
329,192,165673,128,0,165748:0:0:0:0:
182,192,165673,128,0,165710:0:0:0:0:
475,192,165748,1,0,0:0:0:0:
402,192,165748,128,0,165898:0:0:0:0:
109,192,165748,128,0,165973:0:0:0:0:
36,192,165748,128,0,165823:0:0:0:0:
256,192,165748,128,0,165785:0:0:0:0:
182,192,165823,128,0,165860:0:0:0:0:
329,192,165898,128,0,165973:0:0:0:0:
36,192,165898,1,0,0:0:0:0:
475,192,165898,128,0,165935:0:0:0:0:
256,192,165973,128,0,166048:0:0:0:0:
182,192,165973,128,0,166010:0:0:0:0:
329,192,166048,1,0,0:0:0:0:
402,192,166048,128,0,166123:0:0:0:0:
109,192,166048,128,0,166273:0:0:0:0:
36,192,166048,128,0,166123:0:0:0:0:
475,192,166048,128,0,166085:0:0:0:0:
329,192,166123,128,0,166198:0:0:0:0:
182,192,166123,128,0,166160:0:0:0:0:
475,192,166198,128,0,166273:0:0:0:0:
36,192,166198,1,0,0:0:0:0:
256,192,166198,128,0,166235:0:0:0:0:
402,192,166273,128,0,166348:0:0:0:0:
182,192,166273,128,0,166310:0:0:0:0:
256,192,166348,128,0,166498:0:0:0:0:
36,192,166348,1,0,0:0:0:0:
109,192,166348,128,0,166423:0:0:0:0:
329,192,166348,128,0,166423:0:0:0:0:
475,192,166348,128,0,166385:0:0:0:0:
182,192,166423,128,0,166460:0:0:0:0:
329,192,166498,128,0,166573:0:0:0:0:
36,192,166498,1,0,0:0:0:0:
109,192,166498,128,0,166573:0:0:0:0:
475,192,166498,128,0,166535:0:0:0:0:
402,192,166573,128,0,166648:0:0:0:0:
182,192,166573,128,0,166610:0:0:0:0:
329,192,166648,1,0,0:0:0:0:
475,192,166648,128,0,166798:0:0:0:0:
109,192,166648,128,0,166873:0:0:0:0:
256,192,166648,128,0,166723:0:0:0:0:
36,192,166648,128,0,166685:0:0:0:0:
182,192,166723,128,0,166760:0:0:0:0:
402,192,166798,1,0,0:0:0:0:
36,192,166798,1,0,0:0:0:0:
329,192,166798,128,0,166873:0:0:0:0:
256,192,166798,128,0,166835:0:0:0:0:
182,192,166873,128,0,166910:0:0:0:0:
256,192,166948,1,0,0:0:0:0:
36,192,166948,1,0,0:0:0:0:
109,192,166948,128,0,167173:0:0:0:0:
402,192,166948,128,0,167098:0:0:0:0:
475,192,166948,128,0,167023:0:0:0:0:
329,192,166948,128,0,166985:0:0:0:0:
182,192,167023,128,0,167060:0:0:0:0:
256,192,167098,128,0,167173:0:0:0:0:
36,192,167098,1,0,0:0:0:0:
475,192,167098,128,0,167135:0:0:0:0:
329,192,167173,128,0,167248:0:0:0:0:
182,192,167173,1,0,0:0:0:0:
402,192,167173,128,0,167210:0:0:0:0:
182,192,167248,5,0,0:0:0:0:
475,192,167248,1,0,0:0:0:0:
402,192,167248,128,0,167360:0:0:0:0:
36,192,167248,1,0,0:0:0:0:
256,192,167248,128,0,167473:0:0:0:0:
182,192,167323,128,0,167435:0:0:0:0:
109,192,167323,1,0,0:0:0:0:
329,192,167398,128,0,167510:0:0:0:0:
402,192,167398,128,0,167435:0:0:0:0:
36,192,167398,128,0,167473:0:0:0:0:
475,192,167398,128,0,167435:0:0:0:0:
109,192,167473,128,0,167585:0:0:0:0:
182,192,167473,128,0,167510:0:0:0:0:
36,192,167548,1,0,0:0:0:0:
402,192,167548,1,0,0:0:0:0:
475,192,167548,128,0,167660:0:0:0:0:
256,192,167548,128,0,167773:0:0:0:0:
329,192,167548,128,0,167585:0:0:0:0:
182,192,167623,128,0,167735:0:0:0:0:
109,192,167623,128,0,167660:0:0:0:0:
36,192,167623,128,0,167660:0:0:0:0:
402,192,167698,128,0,167810:0:0:0:0:
475,192,167698,128,0,167735:0:0:0:0:
329,192,167698,128,0,167735:0:0:0:0:
36,192,167773,128,0,167885:0:0:0:0:
182,192,167773,1,0,0:0:0:0:
329,192,167848,128,0,167960:0:0:0:0:
109,192,167848,1,0,0:0:0:0:
475,192,167848,128,0,168073:0:0:0:0:
402,192,167848,128,0,167885:0:0:0:0:
256,192,167848,128,0,167885:0:0:0:0:
109,192,167923,128,0,168035:0:0:0:0:
36,192,167923,128,0,167960:0:0:0:0:
182,192,167923,128,0,167960:0:0:0:0:
256,192,167998,128,0,168110:0:0:0:0:
329,192,167998,128,0,168035:0:0:0:0:
402,192,167998,128,0,168035:0:0:0:0:
182,192,168073,128,0,168185:0:0:0:0:
109,192,168073,128,0,168110:0:0:0:0:
36,192,168073,128,0,168223:0:0:0:0:
329,192,168148,128,0,168260:0:0:0:0:
109,192,168148,1,0,0:0:0:0:
475,192,168148,128,0,168373:0:0:0:0:
256,192,168148,128,0,168185:0:0:0:0:
402,192,168148,1,0,0:0:0:0:
109,192,168223,128,0,168335:0:0:0:0:
182,192,168223,128,0,168260:0:0:0:0:
402,192,168298,128,0,168410:0:0:0:0:
329,192,168298,128,0,168335:0:0:0:0:
256,192,168298,128,0,168335:0:0:0:0:
36,192,168373,128,0,168485:0:0:0:0:
109,192,168373,128,0,168410:0:0:0:0:
475,192,168448,128,0,168560:0:0:0:0:
109,192,168448,1,0,0:0:0:0:
182,192,168448,1,0,0:0:0:0:
329,192,168448,1,0,0:0:0:0:
256,192,168448,128,0,168673:0:0:0:0:
402,192,168448,128,0,168485:0:0:0:0:
182,192,168523,128,0,168635:0:0:0:0:
36,192,168523,128,0,168560:0:0:0:0:
402,192,168598,128,0,168710:0:0:0:0:
475,192,168598,128,0,168635:0:0:0:0:
329,192,168598,128,0,168635:0:0:0:0:
109,192,168673,128,0,168785:0:0:0:0:
182,192,168673,128,0,168710:0:0:0:0:
256,192,168748,128,0,168860:0:0:0:0:
329,192,168748,1,0,0:0:0:0:
182,192,168748,1,0,0:0:0:0:
36,192,168748,1,0,0:0:0:0:
475,192,168748,128,0,168973:0:0:0:0:
402,192,168748,128,0,168785:0:0:0:0:
36,192,168823,128,0,168935:0:0:0:0:
109,192,168823,128,0,168860:0:0:0:0:
329,192,168898,128,0,169010:0:0:0:0:
256,192,168898,128,0,168935:0:0:0:0:
402,192,168898,128,0,168935:0:0:0:0:
182,192,168973,128,0,169085:0:0:0:0:
36,192,168973,128,0,169010:0:0:0:0:
475,192,169048,128,0,169160:0:0:0:0:
402,192,169048,1,0,0:0:0:0:
109,192,169048,1,0,0:0:0:0:
36,192,169048,1,0,0:0:0:0:
256,192,169048,128,0,169273:0:0:0:0:
329,192,169048,128,0,169085:0:0:0:0:
36,192,169123,128,0,169235:0:0:0:0:
182,192,169123,128,0,169160:0:0:0:0:
109,192,169198,128,0,169310:0:0:0:0:
475,192,169198,128,0,169235:0:0:0:0:
329,192,169198,128,0,169423:0:0:0:0:
402,192,169198,128,0,169235:0:0:0:0:
182,192,169273,128,0,169385:0:0:0:0:
36,192,169273,128,0,169310:0:0:0:0:
256,192,169348,128,0,169460:0:0:0:0:
475,192,169348,1,0,0:0:0:0:
109,192,169348,128,0,169385:0:0:0:0:
402,192,169348,128,0,169610:0:0:0:0:
36,192,169423,1,0,0:0:0:0:
475,192,169423,128,0,169535:0:0:0:0:
182,192,169423,128,0,169460:0:0:0:0:
329,192,169498,128,0,169610:0:0:0:0:
109,192,169498,1,0,0:0:0:0:
256,192,169498,128,0,169535:0:0:0:0:
36,192,169573,1,0,0:0:0:0:
182,192,169573,128,0,169685:0:0:0:0:
475,192,169573,128,0,169610:0:0:0:0:
36,192,169648,128,0,169760:0:0:0:0:
109,192,169648,1,0,0:0:0:0:
256,192,169648,128,0,169873:0:0:0:0:
329,192,169648,128,0,169685:0:0:0:0:
402,192,169648,128,0,169685:0:0:0:0:
329,192,169723,128,0,169835:0:0:0:0:
182,192,169723,128,0,169760:0:0:0:0:
475,192,169798,128,0,169835:0:0:0:0:
109,192,169798,128,0,169910:0:0:0:0:
36,192,169798,128,0,169835:0:0:0:0:
182,192,169798,128,0,169835:0:0:0:0:
402,192,169873,128,0,169985:0:0:0:0:
329,192,169873,128,0,169910:0:0:0:0:
182,192,169948,128,0,170060:0:0:0:0:
329,192,169948,1,0,0:0:0:0:
475,192,169948,1,0,0:0:0:0:
36,192,169948,1,0,0:0:0:0:
256,192,169948,128,0,170173:0:0:0:0:
109,192,169948,128,0,169985:0:0:0:0:
475,192,170023,128,0,170135:0:0:0:0:
402,192,170023,128,0,170060:0:0:0:0:
36,192,170098,128,0,170210:0:0:0:0:
182,192,170098,128,0,170135:0:0:0:0:
109,192,170098,128,0,170135:0:0:0:0:
329,192,170173,128,0,170285:0:0:0:0:
475,192,170173,128,0,170210:0:0:0:0:
109,192,170248,128,0,170360:0:0:0:0:
182,192,170248,1,0,0:0:0:0:
402,192,170248,1,0,0:0:0:0:
475,192,170248,1,0,0:0:0:0:
36,192,170248,128,0,170473:0:0:0:0:
256,192,170248,128,0,170360:0:0:0:0:
402,192,170323,128,0,170435:0:0:0:0:
329,192,170323,128,0,170360:0:0:0:0:
182,192,170398,128,0,170510:0:0:0:0:
109,192,170398,128,0,170435:0:0:0:0:
256,192,170398,128,0,170435:0:0:0:0:
475,192,170473,128,0,170585:0:0:0:0:
402,192,170473,128,0,170510:0:0:0:0:
256,192,170548,128,0,170660:0:0:0:0:
402,192,170548,1,0,0:0:0:0:
329,192,170548,1,0,0:0:0:0:
109,192,170548,1,0,0:0:0:0:
36,192,170548,128,0,170773:0:0:0:0:
182,192,170548,128,0,170585:0:0:0:0:
329,192,170623,128,0,170735:0:0:0:0:
475,192,170623,128,0,170660:0:0:0:0:
109,192,170698,128,0,170810:0:0:0:0:
256,192,170698,128,0,170735:0:0:0:0:
182,192,170698,128,0,170735:0:0:0:0:
402,192,170773,128,0,170885:0:0:0:0:
329,192,170773,128,0,170810:0:0:0:0:
36,192,170848,128,0,170960:0:0:0:0:
182,192,170848,1,0,0:0:0:0:
329,192,170848,1,0,0:0:0:0:
475,192,170848,1,0,0:0:0:0:
256,192,170848,128,0,171073:0:0:0:0:
109,192,170848,128,0,170885:0:0:0:0:
475,192,170923,128,0,171035:0:0:0:0:
402,192,170923,128,0,170960:0:0:0:0:
182,192,170998,128,0,171110:0:0:0:0:
109,192,170998,1,0,0:0:0:0:
36,192,170998,128,0,171035:0:0:0:0:
329,192,170998,128,0,171035:0:0:0:0:
402,192,171073,128,0,171185:0:0:0:0:
475,192,171073,128,0,171110:0:0:0:0:
109,192,171148,128,0,171260:0:0:0:0:
256,192,171148,1,0,0:0:0:0:
329,192,171148,1,0,0:0:0:0:
475,192,171148,128,0,171373:0:0:0:0:
36,192,171148,128,0,171373:0:0:0:0:
182,192,171148,128,0,171185:0:0:0:0:
329,192,171223,128,0,171335:0:0:0:0:
402,192,171223,128,0,171260:0:0:0:0:
182,192,171298,128,0,171410:0:0:0:0:
109,192,171298,128,0,171335:0:0:0:0:
256,192,171373,128,0,171485:0:0:0:0:
329,192,171373,128,0,171410:0:0:0:0:
109,192,171448,1,0,0:0:0:0:
402,192,171448,1,0,0:0:0:0:
36,192,171448,128,0,171560:0:0:0:0:
475,192,171448,128,0,171560:0:0:0:0:
329,192,171448,128,0,171466:0:0:0:0:
182,192,171448,128,0,171466:0:0:0:0:
256,192,171523,1,0,0:0:0:0:
109,192,171523,1,0,0:0:0:0:
402,192,171523,1,0,0:0:0:0:
182,192,171598,128,0,171710:0:0:0:0:
329,192,171598,128,0,171710:0:0:0:0:
256,192,171598,1,0,0:0:0:0:
36,192,171598,128,0,171616:0:0:0:0:
475,192,171598,128,0,171616:0:0:0:0:
109,192,171673,1,0,0:0:0:0:
36,192,171673,1,0,0:0:0:0:
402,192,171673,1,0,0:0:0:0:
475,192,171673,1,0,0:0:0:0:
109,192,171748,128,0,171860:0:0:0:0:
402,192,171748,128,0,171860:0:0:0:0:
256,192,171748,1,0,0:0:0:0:
329,192,171748,128,0,171766:0:0:0:0:
182,192,171748,128,0,171766:0:0:0:0:
329,192,171823,1,0,0:0:0:0:
182,192,171823,1,0,0:0:0:0:
36,192,171823,1,0,0:0:0:0:
475,192,171823,1,0,0:0:0:0:
475,192,171898,128,0,172010:0:0:0:0:
36,192,171898,128,0,172010:0:0:0:0:
256,192,171898,1,0,0:0:0:0:
109,192,171898,128,0,171916:0:0:0:0:
402,192,171898,128,0,171916:0:0:0:0:
109,192,171973,1,0,0:0:0:0:
182,192,171973,1,0,0:0:0:0:
329,192,171973,1,0,0:0:0:0:
402,192,171973,1,0,0:0:0:0:
182,192,172048,5,0,0:0:0:0:
329,192,172048,1,0,0:0:0:0:
402,192,172048,128,0,172160:0:0:0:0:
109,192,172048,1,0,0:0:0:0:
256,192,172048,1,0,0:0:0:0:
475,192,172048,128,0,172085:0:0:0:0:
36,192,172048,128,0,172348:0:0:0:0:
182,192,172123,128,0,172235:0:0:0:0:
109,192,172123,1,0,0:0:0:0:
329,192,172198,128,0,172310:0:0:0:0:
475,192,172198,128,0,172235:0:0:0:0:
402,192,172198,128,0,172235:0:0:0:0:
256,192,172198,128,0,172310:0:0:0:0:
109,192,172273,128,0,172385:0:0:0:0:
182,192,172273,128,0,172310:0:0:0:0:
402,192,172348,1,0,0:0:0:0:
475,192,172348,128,0,172460:0:0:0:0:
182,192,172348,1,0,0:0:0:0:
256,192,172348,128,0,172648:0:0:0:0:
329,192,172348,128,0,172385:0:0:0:0:
182,192,172423,128,0,172535:0:0:0:0:
109,192,172423,128,0,172460:0:0:0:0:
36,192,172423,128,0,172460:0:0:0:0:
402,192,172498,128,0,172610:0:0:0:0:
329,192,172498,128,0,172610:0:0:0:0:
475,192,172498,128,0,172535:0:0:0:0:
36,192,172573,128,0,172685:0:0:0:0:
182,192,172573,128,0,172610:0:0:0:0:
329,192,172648,128,0,172760:0:0:0:0:
109,192,172648,1,0,0:0:0:0:
182,192,172648,1,0,0:0:0:0:
402,192,172648,1,0,0:0:0:0:
475,192,172648,128,0,172948:0:0:0:0:
256,192,172685,128,0,172723:0:0:0:0:
109,192,172723,128,0,172835:0:0:0:0:
36,192,172723,128,0,172760:0:0:0:0:
256,192,172798,128,0,172910:0:0:0:0:
402,192,172798,128,0,172910:0:0:0:0:
329,192,172798,128,0,172835:0:0:0:0:
182,192,172873,128,0,172985:0:0:0:0:
109,192,172873,128,0,172910:0:0:0:0:
329,192,172948,128,0,173060:0:0:0:0:
402,192,172948,1,0,0:0:0:0:
109,192,172948,1,0,0:0:0:0:
256,192,172948,128,0,173173:0:0:0:0:
36,192,172948,128,0,173098:0:0:0:0:
475,192,172985,128,0,173023:0:0:0:0:
109,192,173023,128,0,173135:0:0:0:0:
182,192,173023,128,0,173060:0:0:0:0:
402,192,173098,128,0,173210:0:0:0:0:
329,192,173098,128,0,173135:0:0:0:0:
475,192,173098,128,0,173135:0:0:0:0:
36,192,173173,128,0,173285:0:0:0:0:
109,192,173173,128,0,173210:0:0:0:0:
475,192,173248,128,0,173360:0:0:0:0:
182,192,173248,1,0,0:0:0:0:
256,192,173248,1,0,0:0:0:0:
402,192,173248,128,0,173285:0:0:0:0:
329,192,173248,128,0,173548:0:0:0:0:
109,192,173248,128,0,173285:0:0:0:0:
182,192,173323,128,0,173435:0:0:0:0:
36,192,173323,128,0,173360:0:0:0:0:
402,192,173398,128,0,173510:0:0:0:0:
475,192,173398,128,0,173435:0:0:0:0:
256,192,173398,128,0,173435:0:0:0:0:
109,192,173473,128,0,173585:0:0:0:0:
182,192,173473,128,0,173510:0:0:0:0:
256,192,173548,128,0,173660:0:0:0:0:
36,192,173548,1,0,0:0:0:0:
402,192,173548,128,0,173848:0:0:0:0:
182,192,173548,1,0,0:0:0:0:
475,192,173548,128,0,173698:0:0:0:0:
36,192,173623,128,0,173735:0:0:0:0:
109,192,173623,128,0,173660:0:0:0:0:
329,192,173698,128,0,173810:0:0:0:0:
256,192,173698,128,0,173735:0:0:0:0:
182,192,173773,128,0,173885:0:0:0:0:
36,192,173773,128,0,173810:0:0:0:0:
475,192,173848,128,0,173960:0:0:0:0:
109,192,173848,1,0,0:0:0:0:
36,192,173848,1,0,0:0:0:0:
256,192,173848,128,0,174073:0:0:0:0:
329,192,173848,128,0,173885:0:0:0:0:
36,192,173923,128,0,174035:0:0:0:0:
182,192,173923,128,0,173960:0:0:0:0:
109,192,173998,128,0,174110:0:0:0:0:
329,192,173998,128,0,174223:0:0:0:0:
402,192,173998,128,0,174035:0:0:0:0:
475,192,173998,128,0,174035:0:0:0:0:
182,192,174073,128,0,174185:0:0:0:0:
36,192,174073,128,0,174110:0:0:0:0:
256,192,174148,128,0,174260:0:0:0:0:
475,192,174148,1,0,0:0:0:0:
402,192,174148,128,0,174410:0:0:0:0:
109,192,174148,128,0,174185:0:0:0:0:
36,192,174223,1,0,0:0:0:0:
475,192,174223,128,0,174335:0:0:0:0:
182,192,174223,128,0,174260:0:0:0:0:
329,192,174298,128,0,174410:0:0:0:0:
109,192,174298,1,0,0:0:0:0:
256,192,174298,128,0,174335:0:0:0:0:
36,192,174373,1,0,0:0:0:0:
475,192,174373,128,0,174410:0:0:0:0:
329,192,174448,5,0,0:0:0:0:
182,192,174448,1,0,0:0:0:0:
402,192,174448,1,0,0:0:0:0:
109,192,174448,128,0,174523:0:0:0:0:
475,192,174448,1,0,0:0:0:0:
256,192,174448,128,0,174673:0:0:0:0:
36,192,174485,128,0,174523:0:0:0:0:
329,192,174523,128,0,174598:0:0:0:0:
402,192,174560,128,0,174598:0:0:0:0:
182,192,174598,128,0,174673:0:0:0:0:
36,192,174598,1,0,0:0:0:0:
475,192,174598,1,0,0:0:0:0:
109,192,174635,128,0,174673:0:0:0:0:
402,192,174673,128,0,174748:0:0:0:0:
329,192,174673,128,0,174898:0:0:0:0:
475,192,174710,128,0,174748:0:0:0:0:
256,192,174748,128,0,174823:0:0:0:0:
36,192,174748,1,0,0:0:0:0:
109,192,174748,1,0,0:0:0:0:
182,192,174785,128,0,174823:0:0:0:0:
402,192,174823,128,0,174898:0:0:0:0:
475,192,174860,128,0,174898:0:0:0:0:
182,192,174898,128,0,174973:0:0:0:0:
256,192,174898,128,0,175123:0:0:0:0:
36,192,174898,1,0,0:0:0:0:
109,192,174935,128,0,174973:0:0:0:0:
329,192,174973,128,0,175048:0:0:0:0:
402,192,175010,128,0,175048:0:0:0:0:
109,192,175048,128,0,175123:0:0:0:0:
182,192,175048,1,0,0:0:0:0:
475,192,175048,1,0,0:0:0:0:
36,192,175085,128,0,175123:0:0:0:0:
402,192,175123,128,0,175198:0:0:0:0:
329,192,175123,1,0,0:0:0:0:
475,192,175160,128,0,175198:0:0:0:0:
256,192,175198,128,0,175273:0:0:0:0:
36,192,175198,128,0,175273:0:0:0:0:
182,192,175198,1,0,0:0:0:0:
109,192,175235,128,0,175273:0:0:0:0:
329,192,175235,128,0,175273:0:0:0:0:
182,192,175273,128,0,175348:0:0:0:0:
402,192,175273,1,0,0:0:0:0:
256,192,175310,128,0,175348:0:0:0:0:
329,192,175348,128,0,175423:0:0:0:0:
475,192,175348,1,0,0:0:0:0:
36,192,175348,1,0,0:0:0:0:
109,192,175348,1,0,0:0:0:0:
402,192,175385,128,0,175423:0:0:0:0:
109,192,175423,128,0,175498:0:0:0:0:
182,192,175423,1,0,0:0:0:0:
36,192,175460,128,0,175498:0:0:0:0:
256,192,175498,128,0,175573:0:0:0:0:
329,192,175498,1,0,0:0:0:0:
402,192,175498,1,0,0:0:0:0:
475,192,175498,1,0,0:0:0:0:
182,192,175535,128,0,175573:0:0:0:0:
402,192,175573,128,0,175648:0:0:0:0:
109,192,175573,1,0,0:0:0:0:
329,192,175610,128,0,175648:0:0:0:0:
36,192,175648,128,0,175723:0:0:0:0:
256,192,175648,1,0,0:0:0:0:
182,192,175685,128,0,175723:0:0:0:0:
109,192,175723,128,0,175798:0:0:0:0:
329,192,175723,1,0,0:0:0:0:
475,192,175723,1,0,0:0:0:0:
256,192,175760,128,0,175798:0:0:0:0:
182,192,175798,128,0,175873:0:0:0:0:
402,192,175798,1,0,0:0:0:0:
36,192,175798,1,0,0:0:0:0:
329,192,175835,128,0,175873:0:0:0:0:
256,192,175873,128,0,175948:0:0:0:0:
475,192,175873,1,0,0:0:0:0:
109,192,175873,1,0,0:0:0:0:
402,192,175910,128,0,175948:0:0:0:0:
329,192,175948,128,0,176023:0:0:0:0:
182,192,175948,1,0,0:0:0:0:
36,192,175948,1,0,0:0:0:0:
402,192,175985,128,0,176023:0:0:0:0:
256,192,176023,128,0,176098:0:0:0:0:
109,192,176023,1,0,0:0:0:0:
475,192,176023,1,0,0:0:0:0:
329,192,176060,128,0,176098:0:0:0:0:
182,192,176098,128,0,176173:0:0:0:0:
36,192,176098,1,0,0:0:0:0:
402,192,176098,1,0,0:0:0:0:
256,192,176135,128,0,176173:0:0:0:0:
109,192,176173,1,0,0:0:0:0:
329,192,176173,1,0,0:0:0:0:
475,192,176173,1,0,0:0:0:0:
475,192,176248,128,0,176360:0:0:0:0:
402,192,176248,128,0,176360:0:0:0:0:
329,192,176248,128,0,176360:0:0:0:0:
256,192,176248,128,0,176360:0:0:0:0:
182,192,176248,128,0,176360:0:0:0:0:
109,192,176248,128,0,176360:0:0:0:0:
36,192,176248,128,0,176360:0:0:0:0:
329,192,176398,128,0,176491:0:0:0:0:
402,192,176398,128,0,176510:0:0:0:0:
182,192,176398,128,0,176491:0:0:0:0:
109,192,176398,128,0,176510:0:0:0:0:
36,192,176398,128,0,176510:0:0:0:0:
475,192,176398,128,0,176510:0:0:0:0:
256,192,176398,128,0,176473:0:0:0:0:
475,192,176548,128,0,176848:0:0:0:0:
402,192,176548,128,0,176848:0:0:0:0:
109,192,176548,128,0,176848:0:0:0:0:
36,192,176548,128,0,176848:0:0:0:0:
329,192,176566,128,0,176848:0:0:0:0:
182,192,176566,128,0,176848:0:0:0:0:
256,192,176585,128,0,176848:0:0:0:0:
