osu file format v14

[General]
AudioFilename: audio.mp3
AudioLeadIn: 0
PreviewTime: -1
Countdown: 1
SampleSet: Soft
StackLeniency: 0.7
Mode: 0
LetterboxInBreaks: 0
WidescreenStoryboard: 0

[Editor]
DistanceSpacing: 1.2
BeatDivisor: 4
GridSize: 16
TimelineZoom: 1.3

[Metadata]
Title:Breeze of Life
TitleUnicode:Breeze of Life
Artist:a_hisa
ArtistUnicode:a_hisa
Creator:rain1214
Version:Collab
Source:Colors 3
Tags:Ayakura Mei Echoy
BeatmapID:1431997
BeatmapSetID:677075

[Difficulty]
HPDrainRate:7
CircleSize:5
OverallDifficulty:7
ApproachRate:8.5
SliderMultiplier:1.4
SliderTickRate:1

[Events]
//Background and Video events
0,0,"yande.re 51972 landscape oban_star-racers.jpg",0,0
//Break Periods
//Storyboard Layer 0 (Background)
//Storyboard Layer 1 (Fail)
//Storyboard Layer 2 (Pass)
//Storyboard Layer 3 (Foreground)
//Storyboard Sound Samples

[TimingPoints]
568,600,4,2,0,50,1,0
568,-200,4,2,0,20,0,0
34168,-200,4,2,0,30,0,0
35368,-200,4,2,0,40,0,0
36568,-200,4,2,0,50,0,0
37768,-100,4,2,0,50,0,0
76918,-200,4,2,0,50,0,0
77368,-62.5,4,2,0,50,0,0
77968,-200,4,2,0,50,0,0
78268,-62.5,4,2,0,50,0,0
79168,-200,4,2,0,50,0,0
79468,-62.5,4,2,0,50,0,0
80368,-200,4,2,0,50,0,0
80668,-62.5,4,2,0,50,0,0
81568,-100,4,2,0,46,0,0
81718,-100,4,2,0,36,0,0
81868,-100,4,2,0,26,0,0
82018,-100,4,2,0,16,0,0
82168,-62.5,4,2,0,50,0,0
82768,-200,4,2,0,50,0,0
83068,-62.5,4,2,0,50,0,0
84568,-200,4,2,0,50,0,0
85468,-62.5,4,2,0,50,0,0
86368,-100,4,2,0,46,0,0
86518,-100,4,2,0,36,0,0
86668,-200,4,2,0,26,0,0
86818,-200,4,2,0,16,0,0
86968,-62.5,4,2,0,50,0,0
87568,-200,4,2,0,50,0,0
87868,-62.5,4,2,0,50,0,0
88768,-200,4,2,0,50,0,0
89068,-62.5,4,2,0,50,0,0
89968,-200,4,2,0,50,0,0
90268,-62.5,4,2,0,50,0,0
100768,-200,4,2,0,50,0,0
101368,-62.5,4,2,0,50,0,0
102568,-125,4,2,0,50,0,0
103168,-62.5,4,2,0,50,0,0
105568,-200,4,2,0,50,0,0
106168,-62.5,4,2,0,50,0,0
112768,-100,4,2,0,50,0,0
113368,-200,4,2,0,50,0,0
115168,-62.5,4,2,0,50,0,0
115768,-30.5,4,2,0,50,0,0
124168,-200,4,2,0,50,0,0
124768,-62.5,4,2,0,50,0,0
125368,-30.5,4,2,0,50,0,0
134068,-200,4,2,0,50,0,0
134968,-30.5,4,2,0,50,0,1
151768,-50,4,2,0,50,0,0
154168,-200,4,2,1,30,0,0
155968,-200,4,2,1,15,0,0
156568,-200,4,2,1,30,0,0
170368,-200,4,2,1,15,0,0
170968,-200,4,2,1,30,0,0
175168,-200,4,2,1,15,0,0
175768,-200,4,2,1,30,0,0
185668,-200,4,2,1,15,0,0
185968,-200,4,2,1,30,0,0
186268,-200,4,2,1,15,0,0
186568,-200,4,2,1,30,0,0
192418,-100,4,2,1,5,0,0
192568,-100,4,2,1,50,0,0
211768,-100,4,2,0,50,0,1
211768,-100,4,2,1,50,0,1
212968,-83.3333333333333,4,2,1,50,0,1
213868,-100,4,2,1,50,0,1
215368,-83.3333333333333,4,2,1,50,0,1
215668,-86.9565217391304,4,2,1,50,0,1
215968,-90.9090909090909,4,2,1,50,0,1
216268,-95.2380952380952,4,2,1,50,0,1
216568,-100,4,2,1,50,0,1
217768,-95.2380952380952,4,2,1,50,0,1
218068,-90.9090909090909,4,2,1,50,0,1
218368,-86.9565217391304,4,2,1,50,0,1
218668,-83.3333333333333,4,2,1,50,0,1
219268,-86.9565217391304,4,2,1,50,0,1
219568,-90.9090909090909,4,2,1,50,0,1
219868,-95.2380952380952,4,2,1,50,0,1
220168,-100,4,2,1,50,0,0
221368,-100,4,2,1,50,0,1
222568,-83.3333333333333,4,2,1,50,0,1
223468,-100,4,2,1,50,0,1
224968,-83.3333333333333,4,2,1,50,0,1
225268,-86.9565217391304,4,2,1,50,0,1
225568,-90.9090909090909,4,2,1,50,0,1
225868,-95.2380952380952,4,2,1,50,0,1
226168,-100,4,2,1,50,0,1
227368,-95.2380952380952,4,2,1,50,0,1
227668,-90.9090909090909,4,2,1,50,0,1
227968,-86.9565217391304,4,2,1,50,0,1
228268,-83.3333333333333,4,2,1,50,0,1
228568,-76.9230769230769,4,2,1,50,0,1
228868,-71.4285714285714,4,2,1,50,0,1
229168,-66.6666666666667,4,2,1,50,0,1
229468,-62.5,4,2,1,50,0,1
229768,-62.5,4,2,1,50,0,0
230968,-100,4,2,1,50,0,1
238168,-71.4285714285714,4,2,1,50,0,1
238468,-76.9230769230769,4,2,1,50,0,1
238768,-83.3333333333333,4,2,1,50,0,1
239068,-90.9090909090909,4,2,1,50,0,1
239368,-100,4,2,1,50,0,0
240568,-100,4,2,1,50,0,1
247768,-90.9090909090909,4,2,1,50,0,1
248068,-83.3333333333333,4,2,1,50,0,1
248368,-76.9230769230769,4,2,1,50,0,1
248668,-71.4285714285714,4,2,1,50,0,1
248968,-100,4,2,1,50,0,1
250168,-200,4,2,1,50,0,0
251368,-200,4,2,1,20,0,0
286918,600,4,2,0,20,1,0

[Colours]
Combo1 : 255,192,128
Combo2 : 192,255,128
Combo3 : 240,240,240
Combo4 : 128,192,255

[HitObjects]
128,32,568,6,0,P|176:32|208:48,1,70
384,64,1768,2,0,P|336:64|304:80,1,70
128,96,2968,2,0,P|176:96|208:112,1,70
384,128,4168,1,0,0:0:0:0:
352,208,4768,1,0,0:0:0:0:
336,292,5368,2,0,P|340:336|356:372,3,70
338,273,7768,2,0,P|338:193|322:129,1,140
200,12,10168,6,0,L|208:88,1,70
276,132,11368,1,0,0:0:0:0:
292,216,11968,1,0,0:0:0:0:
293,298,12568,1,0,0:0:0:0:
273,378,13168,1,0,0:0:0:0:
261,294,13768,1,0,0:0:0:0:
292,216,14368,1,0,0:0:0:0:
373,190,14968,2,0,L|384:120,1,70
388,208,16168,2,0,L|399:138,1,70
403,226,17368,2,0,L|414:156,1,70
96,64,19768,6,0,P|96:112|112:144,1,70
179,306,20968,2,0,P|189:272|187:238,1,70
161,78,22168,2,0,P|161:126|177:158,1,70
243,319,23368,6,0,P|254:286|252:252,1,70
226,92,24568,2,0,P|226:140|242:172,3,70
233,24,26968,2,0,P|222:57|235:163,1,140
308,333,29368,6,0,P|318:299|316:265,1,70
301,182,30568,1,0,0:0:0:0:
321,100,31168,1,0,0:0:0:0:
301,182,31768,1,0,0:0:0:0:
259,109,32368,1,0,0:0:0:0:
301,182,32968,1,0,0:0:0:0:
220,158,33568,1,0,0:0:0:0:
301,182,34168,2,0,L|290:252,1,70
316,200,35368,2,0,L|305:270,1,70
331,218,36568,2,0,L|320:288,1,70
256,48,38068,5,0,0:0:0:0:
256,192,38368,2,0,L|256:221,1,17.5
80,272,38968,5,0,0:0:0:0:
16,288,39118,1,0,0:0:0:0:
32,352,39268,1,0,0:0:0:0:
96,336,39418,1,0,0:0:0:0:
80,272,39568,2,0,L|96:224,1,35
192,368,39868,1,0,0:0:0:0:
256,384,40018,1,0,0:0:0:0:
320,368,40168,1,0,0:0:0:0:
256,256,40468,1,0,0:0:0:0:
256,128,40768,2,0,L|256:101,1,17.5
432,272,41368,5,0,0:0:0:0:
496,288,41518,1,0,0:0:0:0:
480,352,41668,1,0,0:0:0:0:
416,336,41818,1,0,0:0:0:0:
432,272,41968,2,0,L|416:224,1,35
320,144,42268,1,0,0:0:0:0:
256,128,42418,1,0,0:0:0:0:
192,144,42568,1,0,0:0:0:0:
256,256,42868,1,0,0:0:0:0:
112,224,43168,6,0,L|148:224,1,35
256,192,43468,1,0,0:0:0:0:
384,192,43768,5,0,0:0:0:0:
320,176,43918,1,0,0:0:0:0:
256,192,44068,1,0,0:0:0:0:
208,240,44218,1,0,0:0:0:0:
192,304,44368,2,0,L|206:366,1,35
192,176,44668,1,0,0:0:0:0:
144,128,44818,1,0,0:0:0:0:
80,112,44968,5,0,0:0:0:0:
432,272,45268,1,0,0:0:0:0:
192,176,45568,2,0,L|192:128,1,35
320,208,45868,1,0,0:0:0:0:
208,240,46168,5,0,0:0:0:0:
336,272,46468,1,0,0:0:0:0:
224,304,46768,2,0,L|224:256,1,35
352,336,47068,1,0,0:0:0:0:
240,368,47368,1,0,0:0:0:0:
112,336,47668,5,0,0:0:0:0:
208,240,47968,1,0,0:0:0:0:
192,176,48118,1,0,0:0:0:0:
304,16,48568,5,0,0:0:0:0:
320,80,48718,1,0,0:0:0:0:
368,128,48868,1,0,0:0:0:0:
432,144,49018,1,0,0:0:0:0:
496,128,49168,2,0,L|493:162,1,35
446,313,49468,2,0,L|443:279,1,35
432,144,49768,1,0,0:0:0:0:
502,256,50068,1,0,0:0:0:0:
386,190,50368,1,0,0:0:0:0:
208,368,50968,5,0,0:0:0:0:
192,304,51118,1,0,0:0:0:0:
144,256,51268,1,0,0:0:0:0:
80,240,51418,1,0,0:0:0:0:
16,256,51568,2,0,L|19:222,1,35
66,71,51868,2,0,L|69:105,1,35
80,240,52168,1,0,0:0:0:0:
131,117,52468,1,0,0:0:0:0:
144,256,52768,1,0,0:0:0:0:
195,133,53068,1,0,0:0:0:0:
317,133,53368,5,0,0:0:0:0:
381,117,53518,1,0,0:0:0:0:
445,133,53668,1,0,0:0:0:0:
381,117,53818,1,0,0:0:0:0:
317,133,53968,6,0,L|317:178,1,35
256,192,54268,1,0,0:0:0:0:
256,192,54418,1,0,0:0:0:0:
195,133,54568,5,0,0:0:0:0:
317,251,54868,1,0,0:0:0:0:
131,117,55168,2,0,L|75:149,1,35
381,267,55468,1,0,0:0:0:0:
256,192,55768,5,0,0:0:0:0:
381,267,56068,1,0,0:0:0:0:
131,117,56368,2,0,L|75:149,1,35
331,67,56668,1,0,0:0:0:0:
381,267,56968,1,0,0:0:0:0:
181,316,57268,1,0,0:0:0:0:
131,117,57568,5,0,0:0:0:0:
115,181,57718,1,0,0:0:0:0:
432,112,58168,5,0,0:0:0:0:
496,96,58318,1,0,0:0:0:0:
480,32,58468,1,0,0:0:0:0:
416,48,58618,1,0,0:0:0:0:
432,112,58768,2,0,L|416:160,1,35
320,16,59068,1,0,0:0:0:0:
256,0,59218,1,0,0:0:0:0:
192,16,59368,1,0,0:0:0:0:
256,128,59668,1,0,0:0:0:0:
256,256,59968,2,0,L|256:283,1,17.5
80,112,60568,5,0,0:0:0:0:
16,96,60718,1,0,0:0:0:0:
32,32,60868,1,0,0:0:0:0:
96,48,61018,1,0,0:0:0:0:
80,112,61168,2,0,L|96:160,1,35
192,240,61468,1,0,0:0:0:0:
256,256,61618,1,0,0:0:0:0:
320,240,61768,1,0,0:0:0:0:
256,128,62068,1,0,0:0:0:0:
400,160,62368,6,0,L|364:160,1,35
256,192,62668,1,0,0:0:0:0:
128,192,62968,5,0,0:0:0:0:
192,208,63118,1,0,0:0:0:0:
256,192,63268,1,0,0:0:0:0:
304,144,63418,1,0,0:0:0:0:
320,80,63568,2,0,L|306:18,1,35
320,208,63868,1,0,0:0:0:0:
368,256,64018,1,0,0:0:0:0:
432,272,64168,5,0,0:0:0:0:
80,112,64468,1,0,0:0:0:0:
320,208,64768,2,0,L|320:256,1,35
192,176,65068,1,0,0:0:0:0:
304,144,65368,5,0,0:0:0:0:
176,112,65668,1,0,0:0:0:0:
288,80,65968,2,0,L|288:128,1,35
160,48,66268,1,0,0:0:0:0:
272,16,66568,1,0,0:0:0:0:
400,48,66868,5,0,0:0:0:0:
304,144,67168,1,0,0:0:0:0:
320,208,67318,1,0,0:0:0:0:
208,368,67768,5,0,0:0:0:0:
192,304,67918,1,0,0:0:0:0:
144,256,68068,1,0,0:0:0:0:
80,240,68218,1,0,0:0:0:0:
16,256,68368,2,0,L|19:222,1,35
66,71,68668,2,0,L|69:105,1,35
80,240,68968,1,0,0:0:0:0:
10,128,69268,1,0,0:0:0:0:
126,194,69568,1,0,0:0:0:0:
304,16,70168,5,0,0:0:0:0:
320,80,70318,1,0,0:0:0:0:
368,128,70468,1,0,0:0:0:0:
432,144,70618,1,0,0:0:0:0:
496,128,70768,2,0,L|493:162,1,35
446,313,71068,2,0,L|443:279,1,35
432,144,71368,1,0,0:0:0:0:
381,267,71668,1,0,0:0:0:0:
368,128,71968,1,0,0:0:0:0:
317,251,72268,1,0,0:0:0:0:
195,251,72568,5,0,0:0:0:0:
131,267,72718,1,0,0:0:0:0:
67,251,72868,1,0,0:0:0:0:
131,267,73018,1,0,0:0:0:0:
195,251,73168,6,0,L|195:206,1,35
256,192,73468,1,0,0:0:0:0:
256,192,73618,1,0,0:0:0:0:
317,251,73768,5,0,0:0:0:0:
195,133,74068,1,0,0:0:0:0:
381,267,74368,2,0,L|349:211,1,35
131,117,74668,1,0,0:0:0:0:
448,256,74968,5,0,0:0:0:0:
64,128,75268,1,0,0:0:0:0:
381,267,75568,2,0,L|349:211,1,35
131,117,75868,1,0,0:0:0:0:
256,192,76168,1,0,0:0:0:0:
256,192,76468,5,0,0:0:0:0:
256,123,76618,1,0,0:0:0:0:
256,54,76768,1,0,0:0:0:0:
256,192,76918,2,0,L|256:240,1,35
352,336,77368,6,0,P|376:288|352:224,1,112
288,192,77818,1,0,0:0:0:0:
296,280,77968,2,0,L|264:304,1,35
80,320,78568,2,0,P|56:272|80:208,1,112
136,168,79018,1,0,0:0:0:0:
208,216,79168,2,0,L|256:208,1,35
456,88,79768,2,0,P|408:72|344:88,1,112
304,160,80218,1,0,0:0:0:0:
328,240,80368,2,0,L|336:288,1,35
480,136,80968,6,0,L|472:80,2,56
448,256,81418,1,0,0:0:0:0:
368,96,81568,2,0,L|376:56,1,35
280,136,81868,2,0,L|272:96,1,35
168,32,82168,6,0,P|120:48|56:24,1,112
16,120,82618,1,0,0:0:0:0:
88,192,82768,2,0,L|96:240,1,35
192,160,83218,1,0,0:0:0:0:
328,40,83368,2,0,P|280:32|224:56,1,112
224,200,83968,2,0,P|248:248|240:312,1,112
152,344,84418,1,0,0:0:0:0:
96,264,84568,2,0,L|56:256,1,35
254,173,85168,2,0,L|220:180,1,35
376,280,85768,5,0,0:0:0:0:
424,208,85918,1,0,0:0:0:0:
464,136,86068,2,0,L|456:80,1,56
368,136,86368,2,0,L|360:88,1,35
272,136,86668,2,0,L|268:104,1,17.5
176,256,86968,6,0,P|128:272|64:256,1,112
0,192,87418,1,0,0:0:0:0:
80,96,87568,2,0,L|88:144,1,35
328,144,88168,2,0,P|336:88|312:40,1,112
224,8,88618,1,0,0:0:0:0:
152,88,88768,2,0,L|104:80,1,35
40,272,89368,6,0,P|88:272|136:232,1,112
160,152,89818,1,0,0:0:0:0:
240,208,89968,2,0,P|264:216|288:216,1,35
440,144,90568,6,0,P|448:136|416:152,2,224
328,312,92068,1,0,0:0:0:0:
328,312,92218,1,0,0:0:0:0:
328,312,92368,2,0,P|264:296|216:320,1,112
144,240,92818,1,0,0:0:0:0:
56,320,92968,2,0,P|32:264|40:208,1,112
96,80,93568,1,0,0:0:0:0:
224,184,93868,1,0,0:0:0:0:
480,104,94168,6,0,P|416:88|360:120,1,112
352,192,94618,1,0,0:0:0:0:
264,64,94768,2,0,P|216:72|184:128,1,112
256,192,95368,12,0,96268,0:0:0:0:
64,280,96568,6,0,P|48:232|56:168,1,112
104,64,97018,1,0,0:0:0:0:
200,160,97168,2,0,P|248:176|312:160,1,112
512,96,97768,2,0,P|448:112|400:80,1,112
368,16,98218,1,0,0:0:0:0:
400,176,98368,2,0,P|408:232|400:288,1,112
160,344,98968,6,0,P|152:288|112:240,1,112
16,184,99418,1,0,0:0:0:0:
120,104,99568,2,0,P|152:64|144:0,2,112
24,120,100318,1,0,0:0:0:0:
80,192,100468,1,0,0:0:0:0:
168,224,100618,1,0,0:0:0:0:
264,208,100768,2,0,L|256:240,1,17.5
248,88,101068,2,0,L|240:56,1,17.5
384,168,101368,6,0,P|440:160|480:120,1,112
320,112,101818,1,0,0:0:0:0:
304,304,101968,2,0,P|336:264|336:200,1,112
32,208,102568,2,0,P|80:232|136:224,1,112
224,56,103468,1,0,0:0:0:0:
288,128,103618,1,0,0:0:0:0:
192,152,103768,6,0,P|128:144|96:104,1,112
88,16,104218,1,0,0:0:0:0:
0,152,104368,2,0,P|-16:216|8:264,2,112
72,96,105118,1,0,0:0:0:0:
168,104,105268,1,0,0:0:0:0:
232,168,105418,1,0,0:0:0:0:
256,264,105568,2,0,L|280:272,1,17.5
96,299,105868,2,0,L|80:304,1,17.5
232,352,106168,6,0,P|280:360|336:336,1,112
376,240,106618,1,0,0:0:0:0:
160,240,106768,2,0,P|208:272|280:272,1,112
304,72,107368,2,0,P|360:64|416:88,1,112
464,152,107818,1,0,0:0:0:0:
392,296,107968,2,0,P|328:304|280:280,1,112
56,208,108568,2,0,L|40:88,1,112
48,0,109018,1,0,0:0:0:0:
104,136,109168,6,0,L|88:248,1,112
240,352,109768,2,0,P|320:296|432:336,2,224
136,216,111268,1,0,0:0:0:0:
136,216,111418,1,0,0:0:0:0:
136,216,111568,2,0,L|144:104,1,112
64,24,112018,1,0,0:0:0:0:
8,176,112168,2,0,L|32:288,1,112
144,360,112768,6,0,L|152:288,1,70
272,250,113368,6,0,L|280:320,1,70
384,368,114268,1,0,0:0:0:0:
384,368,114568,1,0,0:0:0:0:
448,248,115168,6,0,L|456:176,1,56
464,88,115468,1,0,0:0:0:0:
464,88,115768,5,0,0:0:0:0:
456,232,115918,1,0,0:0:0:0:
344,304,116068,1,0,0:0:0:0:
200,272,116218,1,0,0:0:0:0:
152,136,116368,2,0,P|264:144|384:112,1,229.508196721311
504,168,116818,1,0,0:0:0:0:
344,339,116968,2,0,P|344:219|376:115,2,229.508196721311
344,339,117868,1,0,0:0:0:0:
344,339,118168,5,0,0:0:0:0:
304,224,118318,1,0,0:0:0:0:
168,184,118468,1,0,0:0:0:0:
48,224,118618,1,0,0:0:0:0:
8,344,118768,2,0,P|0:232|-24:112,1,229.508196721311
104,32,119218,1,0,0:0:0:0:
216,320,119368,2,0,P|216:200|248:88,1,229.508196721311
472,80,119968,2,0,P|480:200|520:312,1,229.508196721311
448,368,120568,5,0,0:0:0:0:
320,320,120718,1,0,0:0:0:0:
304,200,120868,1,0,0:0:0:0:
368,88,121018,1,0,0:0:0:0:
504,72,121168,2,0,L|480:304,1,229.508196721311
344,360,121618,1,0,0:0:0:0:
293,121,121768,2,0,P|389:65|525:81,1,229.508196721311
150,83,122368,2,0,P|257:120|368:96,1,229.508196721311
80,32,122968,5,0,0:0:0:0:
160,8,123268,1,0,0:0:0:0:
240,32,123568,1,0,0:0:0:0:
280,104,123868,1,0,0:0:0:0:
272,184,124168,2,0,L|264:240,1,52.5
176,280,124768,6,0,L|168:216,1,56
152,88,125068,1,0,0:0:0:0:
152,88,125368,5,0,0:0:0:0:
280,64,125518,1,0,0:0:0:0:
392,120,125668,1,0,0:0:0:0:
456,232,125818,1,0,0:0:0:0:
432,344,125968,2,0,P|400:304|464:344,1,229.508196721311
280,352,126418,1,0,0:0:0:0:
339,134,126568,2,0,B|304:192|304:192|280:352,2,229.508196721311
339,134,127468,1,0,0:0:0:0:
339,134,127768,5,0,0:0:0:0:
304,248,127918,1,0,0:0:0:0:
184,280,128068,1,0,0:0:0:0:
64,232,128218,1,0,0:0:0:0:
56,104,128368,2,0,B|96:48|96:48|80:232,1,229.508196721311
240,328,128818,1,0,0:0:0:0:
432,304,128968,2,0,B|408:136|408:136|368:80,1,229.508196721311
96,160,129568,2,0,B|80:328|80:328|32:384,1,229.508196721311
8,144,130168,5,0,0:0:0:0:
128,112,130318,1,0,0:0:0:0:
256,144,130468,1,0,0:0:0:0:
328,248,130618,1,0,0:0:0:0:
336,368,130768,2,0,P|224:336|120:376,1,229.508196721311
24,224,131218,1,0,0:0:0:0:
264,112,131368,2,0,P|152:80|40:96,1,229.508196721311
408,86,131968,2,0,P|302:127|192:104,1,229.508196721311
424,16,132568,5,0,0:0:0:0:
481,80,132868,1,0,0:0:0:0:
437,155,133168,1,0,0:0:0:0:
352,136,133468,1,0,0:0:0:0:
344,50,133768,1,0,0:0:0:0:
440,192,134068,5,0,0:0:0:0:
456,112,134218,1,0,0:0:0:0:
472,32,134368,1,0,0:0:0:0:
440,192,134518,2,0,L|432:232,1,35
367,338,134968,5,0,0:0:0:0:
348,130,135118,1,0,0:0:0:0:
240,310,135268,1,0,0:0:0:0:
433,226,135418,1,0,0:0:0:0:
227,181,135568,2,0,P|104:168|8:224,1,229.508196721311
208,344,136018,1,0,0:0:0:0:
456,272,136168,2,0,B|432:112|432:112|384:48,2,229.508196721311
456,272,137068,1,0,0:0:0:0:
456,272,137368,5,0,0:0:0:0:
384,103,137518,1,0,0:0:0:0:
216,176,137668,1,0,0:0:0:0:
288,344,137818,1,0,0:0:0:0:
384,103,137968,2,0,P|296:104|312:224,1,229.508196721311
456,272,138418,1,0,0:0:0:0:
448,88,138568,2,0,B|424:24|424:24|384:200,1,229.508196721311
104,336,139168,2,0,B|88:176|88:176|104:96,1,229.508196721311
101,108,139768,5,0,0:0:0:0:
149,236,139918,1,0,0:0:0:0:
165,68,140068,1,0,0:0:0:0:
141,332,140218,1,0,0:0:0:0:
53,140,140368,2,0,B|245:124|245:124|285:132,1,229.508196721311
384,200,140818,1,0,0:0:0:0:
168,336,140968,2,0,L|136:96,1,229.508196721311
464,288,141568,2,0,L|472:56,1,229.508196721311
368,32,142168,5,0,0:0:0:0:
32,280,142468,1,0,0:0:0:0:
384,336,142768,1,0,0:0:0:0:
232,24,143068,1,0,0:0:0:0:
160,272,143368,5,0,0:0:0:0:
256,240,143668,1,0,0:0:0:0:
224,144,143968,1,0,0:0:0:0:
128,176,144268,1,0,0:0:0:0:
112,320,144568,6,0,P|208:304|136:48,1,459.016393442623
216,272,144718,1,0,0:0:0:0:
296,192,144868,1,0,0:0:0:0:
224,112,145018,1,0,0:0:0:0:
138,48,145168,1,0,0:0:0:0:
448,72,145468,5,0,0:0:0:0:
392,184,145618,1,0,0:0:0:0:
472,288,145768,2,0,P|256:216|96:360,1,459.016393442623
248,184,146068,1,0,0:0:0:0:
97,355,146368,2,0,B|112:224|8:144|8:144|120:160|216:88,1,459.016393442623
213,89,146968,6,0,P|416:64|448:280,1,459.016393442623
312,16,147118,1,0,0:0:0:0:
408,80,147268,1,0,0:0:0:0:
496,160,147418,1,0,0:0:0:0:
453,272,147568,2,0,B|376:160|408:56|408:56|512:136|488:264,1,459.016393442623
408,56,147868,5,0,0:0:0:0:
480,144,148018,1,0,0:0:0:0:
489,257,148168,2,0,P|336:360|144:200,1,459.016393442623
304,328,148468,1,0,0:0:0:0:
145,209,148768,1,0,0:0:0:0:
336,240,149068,1,0,0:0:0:0:
424,64,149368,6,0,B|376:144|392:280|392:280|336:168|224:120,1,459.016393442623
408,168,149518,1,0,0:0:0:0:
392,280,149668,1,0,0:0:0:0:
304,192,149818,1,0,0:0:0:0:
224,120,149968,1,0,0:0:0:0:
32,240,150268,5,0,0:0:0:0:
112,160,150418,1,0,0:0:0:0:
16,112,150568,2,0,B|80:216|112:360|112:360|128:240|248:224,1,459.016393442623
112,336,150868,1,0,0:0:0:0:
230,227,151168,2,0,B|256:328|256:328|80:344|56:120|224:104,1,459.016393442623
136,264,151468,1,0,0:0:0:0:
194,109,151768,6,0,B|336:144|456:64|456:64|344:144|344:320,1,560
328,96,152068,1,0,0:0:0:0:
456,64,152368,1,0,0:0:0:0:
392,192,152668,1,0,0:0:0:0:
344,314,152968,1,0,0:0:0:0:
256,192,153268,12,0,153868,0:0:0:0:
55,264,154168,5,0,0:0:0:0:
122,307,154468,1,0,0:0:0:0:
201,316,154768,1,0,0:0:0:0:
277,291,155068,1,0,0:0:0:0:
336,236,155368,2,0,P|371:217|410:214,1,70,2|0,0:0|0:0,0:0:0:0:
306,367,156568,5,0,0:0:0:0:
277,291,156868,1,0,0:0:0:0:
275,210,157168,1,0,0:0:0:0:
305,135,157468,1,0,0:0:0:0:
363,79,157768,2,0,P|334:48|295:33,1,70,2|0,0:0|0:0,0:0:0:0:
59,115,158968,6,0,L|135:110,1,70
226,204,160168,2,0,L|156:208,1,70,2|0,0:0|0:0,0:0:0:0:
0,335,161368,5,0,0:0:0:0:
64,245,161668,1,0,0:0:0:0:
64,356,161968,1,0,0:0:0:0:
0,266,162268,1,0,0:0:0:0:
105,300,162568,1,2,0:0:0:0:
105,300,163168,6,0,P|154:301|185:291,1,70
64,245,164068,1,0,0:0:0:0:
54,171,164368,1,0,0:0:0:0:
75,92,164668,1,0,0:0:0:0:
138,32,164968,2,0,P|146:65|140:103,1,70,2|0,0:0|0:0,0:0:0:0:
202,224,166168,6,0,L|190:273,2,35
294,243,167068,1,0,0:0:0:0:
261,161,167368,2,0,P|255:125|267:78,1,70,2|0,0:0|0:0,0:0:0:0:
278,64,168568,5,0,0:0:0:0:
338,124,168868,1,0,0:0:0:0:
362,197,169168,1,0,0:0:0:0:
356,268,169468,1,0,0:0:0:0:
331,334,169768,2,0,P|304:365|279:378,1,70,2|0,0:0|0:0,0:0:0:0:
49,284,170968,5,0,0:0:0:0:
94,222,171268,1,0,0:0:0:0:
167,246,171568,1,0,0:0:0:0:
167,323,171868,1,0,0:0:0:0:
94,346,172168,2,0,P|70:350|54:349,2,35,2|0|0,0:0|0:0|0:0,0:0:0:0:
167,323,173368,5,0,0:0:0:0:
240,291,173668,1,0,0:0:0:0:
320,293,173968,1,0,0:0:0:0:
393,325,174268,1,0,0:0:0:0:
447,384,174568,2,0,P|462:352|465:308,1,70,2|0,0:0|0:0,0:0:0:0:
422,197,175768,5,0,0:0:0:0:
413,116,176068,1,0,0:0:0:0:
428,37,176368,1,0,0:0:0:0:
451,114,176668,1,0,0:0:0:0:
454,194,176968,2,0,P|447:222|409:261,1,70,2|0,0:0|0:0,0:0:0:0:
260,135,178168,6,0,P|299:140|333:168,1,70
240,226,179368,2,0,P|206:238|169:236,1,70,2|0,0:0|0:0,0:0:0:0:
55,190,180568,5,0,0:0:0:0:
31,112,180868,1,0,0:0:0:0:
49,32,181168,2,0,P|74:13|115:6,2,70,0|2|0,0:0|0:0|0:0,0:0:0:0:
146,112,182968,6,0,L|139:146,2,35
212,54,183868,1,0,0:0:0:0:
230,150,184168,2,0,L|244:223,1,70,2|0,0:0|0:0,0:0:0:0:
430,72,185368,6,0,P|403:68|380:69,1,35
330,167,185968,2,0,P|357:171|380:170,1,35
463,151,186568,2,0,P|472:178|464:233,1,70,2|0,0:0|0:0,0:0:0:0:
176,192,187768,5,0,0:0:0:0:
99,200,188068,1,0,0:0:0:0:
41,252,188368,1,0,0:0:0:0:
20,323,188668,1,0,0:0:0:0:
151,322,188968,5,2,0:0:0:0:
336,192,190168,5,0,0:0:0:0:
413,200,190468,1,0,0:0:0:0:
471,252,190768,1,0,0:0:0:0:
492,323,191068,1,0,0:0:0:0:
361,322,191368,5,2,0:0:0:0:
256,192,191668,12,0,192418,0:0:0:0:
136,83,192568,5,0,0:0:0:0:
101,74,192718,1,0,0:0:0:0:
67,77,192868,1,0,0:0:0:0:
35,92,193018,1,0,0:0:0:0:
10,117,193168,1,2,0:0:0:0:
128,177,193468,2,0,P|147:187|182:189,1,35
263,178,193768,5,0,0:0:0:0:
288,94,194068,1,0,0:0:0:0:
316,10,194368,1,2,0:0:0:0:
429,150,194968,5,0,0:0:0:0:
439,183,195118,1,0,0:0:0:0:
436,217,195268,1,0,0:0:0:0:
421,249,195418,1,0,0:0:0:0:
395,272,195568,1,2,0:0:0:0:
280,287,195868,2,0,P|252:279|222:284,1,35
112,334,196168,6,0,P|152:336|197:314,1,70
85,240,196768,2,0,P|45:238|0:260,1,70,2|0,0:0|0:0,0:0:0:0:
246,279,197368,5,0,0:0:0:0:
238,235,197518,1,0,0:0:0:0:
230,192,197668,1,0,0:0:0:0:
222,149,197818,1,0,0:0:0:0:
214,106,197968,1,2,0:0:0:0:
114,75,198268,2,0,L|123:19,1,35
101,157,198568,5,0,0:0:0:0:
220,70,198868,1,0,0:0:0:0:
95,193,199168,1,2,0:0:0:0:
214,106,199468,1,0,0:0:0:0:
321,185,199768,6,0,P|358:197|395:192,1,70
487,70,200368,2,0,P|444:81|419:108,1,70,2|0,0:0|0:0,0:0:0:0:
486,180,200968,5,0,0:0:0:0:
429,297,201268,2,0,L|341:284,2,70,0|2|0,0:0|0:0|0:0,0:0:0:0:
289,348,202168,5,0,0:0:0:0:
255,357,202318,1,0,0:0:0:0:
220,358,202468,1,0,0:0:0:0:
186,350,202618,1,0,0:0:0:0:
156,333,202768,1,2,0:0:0:0:
50,310,203068,2,0,P|59:285|60:265,1,35
50,184,203368,5,0,0:0:0:0:
161,161,203668,1,0,0:0:0:0:
83,71,203968,1,2,0:0:0:0:
359,65,204568,5,0,0:0:0:0:
324,58,204718,1,0,0:0:0:0:
290,63,204868,1,0,0:0:0:0:
260,81,205018,1,0,0:0:0:0:
239,109,205168,1,2,0:0:0:0:
398,168,205468,2,0,P|379:158|349:154,1,35
261,213,205768,6,0,L|275:298,1,70
378,345,206368,2,0,L|366:275,1,70,2|0,0:0|0:0,0:0:0:0:
476,254,206968,5,0,0:0:0:0:
481,210,207118,1,0,0:0:0:0:
486,167,207268,1,0,0:0:0:0:
492,123,207418,1,0,0:0:0:0:
497,80,207568,1,2,0:0:0:0:
383,106,207868,2,0,P|357:105|331:98,1,35
247,24,208168,5,0,0:0:0:0:
86,89,208468,1,0,0:0:0:0:
224,122,208768,1,2,0:0:0:0:
86,89,209068,1,0,0:0:0:0:
154,202,209368,5,0,0:0:0:0:
229,279,209668,2,0,P|201:307|159:320,2,70,0|2|0,0:0|0:0|0:0,0:0:0:0:
274,193,210568,1,0,0:0:0:0:
173,318,210868,1,0,0:0:0:0:
3,315,211168,6,0,P|41:296|123:298,1,105,2|0,0:0|0:0,0:0:0:0:
173,318,211768,5,8,0:0:0:0:
242,327,211918,1,0,0:0:0:0:
310,314,212068,1,0,0:0:0:0:
371,280,212218,1,0,0:0:0:0:
415,226,212368,6,0,L|402:165,1,35,2|0,1:2|0:0,0:0:0:0:
333,113,212668,1,8,0:0:0:0:
295,171,212818,1,0,0:0:0:0:
226,181,212968,6,0,P|200:171|183:160,1,41.9999987182618
168,14,213268,2,0,P|172:41|171:61,1,41.9999987182618,8|0,0:0|0:0,0:0:0:0:
55,150,213568,2,0,P|76:132|94:123,1,41.9999987182618,0|0,1:2|0:0,0:0:0:0:
44,321,213868,6,0,L|-10:307,1,35,2|0,0:0|0:0,0:0:0:0:
163,350,214168,5,8,0:0:0:0:
215,303,214318,1,0,0:0:0:0:
283,288,214468,1,0,0:0:0:0:
351,301,214618,1,0,0:0:0:0:
411,335,214768,6,0,L|467:316,1,35,2|0,1:2|0:0,0:0:0:0:
511,198,215068,1,8,0:0:0:0:
512,130,215218,1,0,0:0:0:0:
475,69,215368,6,0,P|448:59|423:56,1,41.9999987182618
376,165,215668,2,0,P|349:163|327:155,1,40.2500007677078,8|0,0:0|0:0,0:0:0:0:
259,61,215968,2,0,P|236:59|217:61,1,38.5000011749268,0|0,1:0|0:0,0:0:0:0:
156,141,216268,2,0,P|131:136|113:128,1,35
19,84,216568,5,8,0:0:0:0:
43,149,216718,1,0,0:0:0:0:
40,218,216868,1,0,0:0:0:0:
20,285,217018,1,0,0:0:0:0:
23,354,217168,6,0,P|43:364|64:366,1,35,2|0,1:2|0:0,0:0:0:0:
258,341,217468,1,8,0:0:0:0:
189,333,217618,1,0,0:0:0:0:
311,384,217768,6,0,P|333:373|351:349,1,36.749998878479
454,302,218068,2,0,P|427:288|412:271,1,38.5000011749268,8|0,0:0|0:0,0:0:0:0:
332,264,218368,2,0,P|343:237|344:210,1,40.2500007677078,0|0,1:2|0:0,0:0:0:0:
392,148,218668,2,0,P|383:121|380:92,1,41.9999987182618
337,0,218968,6,0,P|326:31|304:58,1,41.9999987182618,8|0,0:0|0:0,0:0:0:0:
248,99,219268,2,0,P|219:115|189:121,1,40.2500007677078
38,111,219568,2,0,P|64:127|80:145,1,38.5000011749268,2|0,1:2|0:0,0:0:0:0:
127,206,219868,2,0,P|142:226|149:248,1,36.749998878479,8|0,0:0|0:0,0:0:0:0:
160,332,220168,6,0,L|203:322,1,35
413,350,220468,2,0,L|378:357,1,35,8|0,0:0|0:0,0:0:0:0:
287,341,220768,5,0,1:0:0:0:
343,295,220918,1,8,0:0:0:0:
302,237,221068,1,0,0:0:0:0:
242,280,221218,1,0,0:0:0:0:
287,341,221368,5,8,0:0:0:0:
311,275,221518,1,0,0:0:0:0:
306,205,221668,1,0,0:0:0:0:
272,143,221818,1,0,0:0:0:0:
211,108,221968,6,0,L|146:94,1,35,2|0,1:2|0:0,0:0:0:0:
81,268,222268,1,8,0:0:0:0:
28,223,222418,1,0,0:0:0:0:
148,286,222568,6,0,P|174:287|201:279,1,41.9999987182618
298,381,222868,2,0,P|285:356|265:337,1,41.9999987182618,8|0,0:0|0:0,0:0:0:0:
306,205,223168,2,0,P|290:227|284:253,1,41.9999987182618,0|0,1:0|0:0,0:0:0:0:
463,91,223468,6,0,L|454:57,1,35,2|0,0:0|0:0,0:0:0:0:
394,231,223768,5,8,0:0:0:0:
384,300,223918,1,0,0:0:0:0:
447,331,224068,1,0,0:0:0:0:
495,280,224218,1,0,0:0:0:0:
462,218,224368,6,0,L|453:184,1,35,2|0,1:2|0:0,0:0:0:0:
388,21,224668,1,8,0:0:0:0:
344,75,224818,1,0,0:0:0:0:
275,90,224968,6,0,P|249:89|219:75,1,41.9999987182618
206,160,225268,2,0,P|180:146|166:128,1,40.2500007677078,8|0,0:0|0:0,0:0:0:0:
103,179,225568,2,0,P|93:149|95:130,1,38.5000011749268,0|0,1:0|0:0,0:0:0:0:
12,148,225868,2,0,P|14:126|20:107,1,36.749998878479
110,22,226168,5,8,0:0:0:0:
147,80,226318,1,0,0:0:0:0:
155,149,226468,1,0,0:0:0:0:
136,216,226618,1,0,0:0:0:0:
123,284,226768,6,0,P|125:314|135:335,1,35,2|0,1:2|0:0,0:0:0:0:
396,315,227068,1,8,0:0:0:0:
451,360,227218,1,0,0:0:0:0:
329,296,227368,6,0,P|304:295|275:303,1,36.749998878479
136,216,227668,2,0,P|168:222|197:245,1,38.5000011749268,8|0,0:0|0:0,0:0:0:0:
377,167,227968,2,0,P|352:173|320:196,1,40.2500007677078,0|0,1:0|0:0,0:0:0:0:
170,82,228268,2,0,P|196:97|216:120,1,41.9999987182618
221,319,228568,6,0,P|221:292|231:262,1,45.4999979171754,8|0,0:0|0:0,0:0:0:0:
275,137,228868,2,0,P|282:111|280:78,1,48.9999985046387
88,11,229168,2,0,P|82:42|96:87,1,52.5000020027161,2|0,1:2|0:0,0:0:0:0:
113,189,229468,2,0,P|120:226|111:261,1,56,8|0,0:0|0:0,0:0:0:0:
74,318,229768,5,0,0:0:0:0:
29,260,229918,1,0,0:0:0:0:
86,215,230068,1,8,0:0:0:0:
131,273,230218,1,0,0:0:0:0:
142,346,230368,5,0,1:0:0:0:
159,204,230518,1,8,0:0:0:0:
18,187,230668,1,0,0:0:0:0:
0,328,230818,1,0,0:0:0:0:
153,362,230968,6,0,P|180:365|210:358,1,35,8|0,0:0|0:0,0:0:0:0:
303,347,231268,2,0,P|330:338|354:321,1,35
384,171,231568,6,0,L|394:228,1,35,2|0,1:2|0:0,0:0:0:0:
454,338,231868,1,8,0:0:0:0:
485,275,232018,1,0,0:0:0:0:
490,205,232168,5,0,0:0:0:0:
470,185,232318,1,0,0:0:0:0:
470,94,232468,5,8,0:0:0:0:
442,86,232618,1,0,0:0:0:0:
380,18,232768,5,0,1:0:0:0:
351,25,232918,1,0,0:0:0:0:
245,54,233068,6,0,L|197:44,1,35,2|0,0:0|0:0,0:0:0:0:
317,156,233368,6,0,P|292:165|267:165,1,35,8|0,0:0|0:0,0:0:0:0:
174,166,233668,2,0,P|149:162|127:151,1,35
54,55,233968,6,0,L|107:65,1,35,2|0,1:2|0:0,0:0:0:0:
187,234,234268,1,8,0:0:0:0:
155,296,234418,1,0,0:0:0:0:
86,309,234568,5,0,0:0:0:0:
62,297,234718,1,0,0:0:0:0:
233,283,234868,5,8,0:0:0:0:
257,295,235018,1,0,0:0:0:0:
109,230,235168,5,0,1:0:0:0:
85,218,235318,1,0,0:0:0:0:
208,361,235468,5,0,0:0:0:0:
232,373,235618,1,0,0:0:0:0:
316,374,235768,6,0,P|336:369|351:361,1,35,8|0,0:0|0:0,0:0:0:0:
442,307,236068,2,0,P|430:283|427:257,1,35
395,101,236368,6,0,L|388:146,1,35,2|0,1:2|0:0,0:0:0:0:
231,207,236668,1,8,0:0:0:0:
166,179,236818,1,0,0:0:0:0:
130,118,236968,5,0,0:0:0:0:
140,93,237118,1,0,0:0:0:0:
231,93,237268,5,8,0:0:0:0:
243,63,237418,1,0,0:0:0:0:
333,68,237568,5,0,1:0:0:0:
347,32,237718,1,0,0:0:0:0:
432,42,237868,5,0,0:0:0:0:
447,3,238018,1,0,0:0:0:0:
477,93,238168,6,0,P|472:121|456:144,1,48.9999985046387,8|0,0:0|0:0,0:0:0:0:
479,222,238468,2,0,P|457:243|427:252,1,45.4999979171754
426,332,238768,2,0,P|393:321|377:307,1,41.9999987182618,2|0,1:2|0:0,0:0:0:0:
313,356,239068,2,0,P|300:338|294:310,1,38.5000011749268,8|0,0:0|0:0,0:0:0:0:
274,200,239368,5,0,0:0:0:0:
298,135,239518,1,0,0:0:0:0:
368,137,239668,1,8,0:0:0:0:
388,204,239818,1,0,0:0:0:0:
330,244,239968,5,0,1:0:0:0:
263,220,240118,1,8,0:0:0:0:
193,220,240268,1,0,0:0:0:0:
132,254,240418,1,0,0:0:0:0:
98,315,240568,6,0,P|74:338|52:346,1,35,8|0,0:0|0:0,0:0:0:0:
0,213,240868,2,0,P|18:226|43:234,1,35
103,61,241168,6,0,L|92:18,1,35,2|0,1:2|0:0,0:0:0:0:
165,154,241468,1,8,0:0:0:0:
234,164,241618,1,0,0:0:0:0:
298,135,241768,5,0,0:0:0:0:
308,98,241918,1,0,0:0:0:0:
414,172,242068,5,8,0:0:0:0:
439,198,242218,1,0,0:0:0:0:
323,254,242368,5,0,1:0:0:0:
285,262,242518,1,0,0:0:0:0:
203,338,242668,6,0,L|244:347,1,35,2|0,0:0|0:0,0:0:0:0:
410,348,242968,6,0,P|393:327|373:315,1,35,8|0,0:0|0:0,0:0:0:0:
285,262,243268,2,0,P|262:255|241:254,1,35
69,384,243568,6,0,L|59:338,1,35,2|0,1:2|0:0,0:0:0:0:
30,202,243868,1,8,0:0:0:0:
99,203,244018,1,0,0:0:0:0:
159,167,244168,5,0,0:0:0:0:
194,175,244318,1,0,0:0:0:0:
222,107,244468,5,8,0:0:0:0:
240,76,244618,1,0,0:0:0:0:
186,28,244768,5,0,1:0:0:0:
162,1,244918,1,0,0:0:0:0:
99,38,245068,5,0,0:0:0:0:
65,52,245218,1,0,0:0:0:0:
82,124,245368,6,0,L|85:168,1,35,8|0,0:0|0:0,0:0:0:0:
153,306,245668,2,0,L|150:271,1,35
264,178,245968,6,0,P|300:167|329:167,1,35,2|0,1:2|0:0,0:0:0:0:
494,286,246268,1,8,0:0:0:0:
468,222,246418,1,0,0:0:0:0:
476,353,246568,5,0,0:0:0:0:
449,377,246718,1,0,0:0:0:0:
300,291,246868,5,8,0:0:0:0:
332,319,247018,1,0,0:0:0:0:
422,242,247168,5,0,1:0:0:0:
468,222,247318,1,0,0:0:0:0:
353,134,247468,5,0,0:0:0:0:
301,104,247618,1,0,0:0:0:0:
455,135,247768,6,0,P|477:127|500:107,1,38.5000011749268,8|0,0:0|0:0,0:0:0:0:
356,33,248068,2,0,P|338:21|307:14,1,41.9999987182618
231,138,248368,2,0,P|202:161|173:166,1,45.4999979171754,2|0,1:2|0:0,0:0:0:0:
9,11,248668,2,0,P|30:20|54:44,1,48.9999985046387,8|0,0:0|0:0,0:0:0:0:
123,151,248968,5,0,0:0:0:0:
142,218,249118,1,0,0:0:0:0:
139,287,249268,1,8,0:0:0:0:
97,343,249418,1,0,0:0:0:0:
31,366,249568,5,0,1:0:0:0:
53,267,249718,1,8,0:0:0:0:
142,218,249868,1,0,0:0:0:0:
243,227,250018,1,0,0:0:0:0:
308,271,250168,5,4,0:0:0:0:
308,271,251368,1,0,0:0:0:0:
308,271,252568,1,0,0:0:0:0:
308,271,253768,1,0,0:0:0:0:
299,170,254368,1,0,0:0:0:0:
348,81,254968,1,0,0:0:0:0:
447,59,255568,1,0,0:0:0:0:
348,81,256168,5,0,0:0:0:0:
299,170,256768,1,0,0:0:0:0:
308,271,257368,1,0,0:0:0:0:
204,271,259768,5,0,0:0:0:0:
204,271,260968,1,0,0:0:0:0:
213,170,261568,1,0,0:0:0:0:
164,81,262168,1,0,0:0:0:0:
65,59,262768,1,0,0:0:0:0:
164,81,263368,5,0,0:0:0:0:
213,170,263968,1,0,0:0:0:0:
204,271,264568,1,0,0:0:0:0:
204,271,265768,1,0,0:0:0:0:
204,271,266968,1,0,0:0:0:0:
386,219,269368,5,0,0:0:0:0:
386,219,270568,1,0,0:0:0:0:
386,219,271768,1,0,0:0:0:0:
386,219,272968,1,0,0:0:0:0:
296,218,273568,1,0,0:0:0:0:
204,271,274168,5,0,0:0:0:0:
159,350,274768,1,0,0:0:0:0:
204,271,275368,1,0,0:0:0:0:
204,166,275968,1,0,0:0:0:0:
159,87,276568,1,0,0:0:0:0:
386,219,278968,5,0,0:0:0:0:
386,219,280168,1,0,0:0:0:0:
159,350,280768,1,0,0:0:0:0:
159,87,281368,1,0,0:0:0:0:
296,218,281968,1,0,0:0:0:0:
204,271,282568,1,0,0:0:0:0:
204,166,283168,1,0,0:0:0:0:
235,218,283768,5,0,0:0:0:0:
238,213,284968,1,0,0:0:0:0:
241,208,285718,1,0,0:0:0:0:
241,208,286918,5,0,0:0:0:0:
266,185,287018,5,0,0:0:0:0:
259,218,287118,5,0,0:0:0:0:
245,187,287218,5,0,0:0:0:0:
275,204,287318,5,0,0:0:0:0:
