osu file format v14

[General]
AudioFilename: audio.mp3
AudioLeadIn: 2500
PreviewTime: 167031
Countdown: 0
SampleSet: Soft
StackLeniency: 0.2
Mode: 0
LetterboxInBreaks: 0
EpilepsyWarning: 1
WidescreenStoryboard: 1

[Editor]
DistanceSpacing: 1.4
BeatDivisor: 4
GridSize: 32
TimelineZoom: 2.5

[Metadata]
Title:Alexithymia | Lupinus | Tokei no Heya to Seishin Sekai
TitleUnicode:Alexithymia | Lupinus | 時計の部屋と精神世界
Artist:a_hisa
ArtistUnicode:a_hisa
Creator:ProfessionalBox
Version:Chronostasis
Source:
Tags:ProBox -Tochi PoNo thzz Azer Artcore Spiritual Core Kvacm ahisa
BeatmapID:2202493
BeatmapSetID:1054045

[Difficulty]
HPDrainRate:4
CircleSize:4
OverallDifficulty:8.4
ApproachRate:9.2
SliderMultiplier:1.92
SliderTickRate:1

[Events]
//Background and Video events
0,0,"bg.jpg",0,0
//Break Periods
2,93142,96578
2,97559,102078
//Storyboard Layer 0 (Background)
//Storyboard Layer 1 (Fail)
//Storyboard Layer 2 (Pass)
//Storyboard Layer 3 (Foreground)
//Storyboard Layer 4 (Overlay)
//Storyboard Sound Samples

[TimingPoints]
27,333.333333333333,4,2,99,30,1,0
6693,-232.558139534884,4,2,99,30,0,0
7360,-232.558139534884,4,2,99,30,0,0
7693,-232.558139534884,4,2,99,30,0,0
8026,-232.558139534884,4,2,99,30,0,0
8693,-232.558139534884,4,2,99,30,0,0
9026,-232.558139534884,4,2,99,30,0,0
9360,-232.558139534884,4,2,99,30,0,0
10026,-232.558139534884,4,2,99,30,0,0
10693,-232.558139534884,4,2,99,30,0,0
11360,-232.558139534884,4,2,99,30,0,0
12026,-232.558139534884,4,2,99,30,0,0
12360,-232.558139534884,4,2,99,30,0,0
12693,-232.558139534884,4,2,99,30,0,0
13026,-232.558139534884,4,2,99,30,0,0
13360,-232.558139534884,4,2,99,30,0,0
13693,-232.558139534884,4,2,99,30,0,0
14026,-232.558139534884,4,2,99,30,0,0
14693,-232.558139534884,4,2,99,30,0,0
15360,-232.558139534884,4,2,99,30,0,0
15693,-232.558139534884,4,2,99,30,0,0
16026,-232.558139534884,4,2,99,30,0,0
17026,-232.558139534884,4,2,99,5,0,0
17360,-232.558139534884,4,2,99,30,0,0
18026,-232.558139534884,4,2,99,30,0,0
18360,-232.558139534884,4,2,99,30,0,0
18693,-232.558139534884,4,2,99,30,0,0
19360,-232.558139534884,4,2,99,30,0,0
19693,-232.558139534884,4,2,99,30,0,0
20026,-232.558139534884,4,2,99,30,0,0
20693,-232.558139534884,4,2,99,30,0,0
21360,-232.558139534884,4,2,99,30,0,0
22026,-232.558139534884,4,2,99,30,0,0
22693,-232.558139534884,4,2,99,30,0,0
23026,-232.558139534884,4,2,99,30,0,0
23360,-232.558139534884,4,2,99,30,0,0
23693,-232.558139534884,4,2,99,30,0,0
24026,-232.558139534884,4,2,99,30,0,0
24360,-232.558139534884,4,2,99,30,0,0
24693,-232.558139534884,4,2,99,30,0,0
25360,-232.558139534884,4,2,99,30,0,0
26026,-232.558139534884,4,2,99,30,0,0
26360,-232.558139534884,4,2,99,30,0,0
26693,-232.558139534884,4,2,99,30,0,0
27360,-232.558139534884,4,2,99,5,0,0
27860,-232.558139534884,4,3,57,60,0,0
27943,-232.558139534884,4,3,58,60,0,0
28026,-149.253731343284,4,3,59,60,0,0
28360,-128.205128205128,4,3,61,60,0,0
28693,-111.111111111111,4,3,60,60,0,0
29026,-100,4,3,63,60,0,0
29276,-100,4,3,63,20,0,0
29360,-128.205128205128,4,3,61,60,0,0
29693,-111.111111111111,4,3,64,60,0,0
30026,-149.253731343284,4,3,65,60,0,0
30360,-125,4,3,60,60,0,0
30610,-125,4,3,60,20,0,0
30693,-125,4,3,61,60,0,0
31026,-125,4,3,60,60,0,0
31193,-125,4,3,61,60,0,0
31360,-125,4,3,60,60,0,0
31693,-100,4,3,63,60,0,0
31943,-100,4,3,63,20,0,0
32026,-113.636363636364,4,3,61,60,0,0
32360,-113.636363636364,4,3,60,60,0,0
32526,-113.636363636364,4,3,59,60,0,0
32693,-113.636363636364,4,3,58,60,0,0
32860,-113.636363636364,4,3,58,20,0,0
33026,-113.636363636364,4,3,56,60,0,0
33360,-113.636363636364,4,3,59,60,0,0
33693,-113.636363636364,4,3,61,60,0,0
34026,-113.636363636364,4,3,60,60,0,0
34360,-113.636363636364,4,3,63,60,0,0
34693,-113.636363636364,4,3,61,60,0,0
35026,-113.636363636364,4,3,64,60,0,0
35360,-113.636363636364,4,3,65,60,0,0
35693,-113.636363636364,4,3,60,60,0,0
36026,-113.636363636364,4,3,61,60,0,0
36360,-113.636363636364,4,3,60,60,0,0
36526,-113.636363636364,4,3,61,60,0,0
36693,-113.636363636364,4,3,60,60,0,0
37026,-113.636363636364,4,3,63,60,0,0
37276,-113.636363636364,4,3,63,20,0,0
37360,-113.636363636364,4,3,61,60,0,0
37693,-113.636363636364,4,3,60,60,0,0
37860,-113.636363636364,4,3,59,60,0,0
38026,-113.636363636364,4,3,1,60,0,0
38693,-105.263157894737,4,2,10,60,0,0
39360,-100,4,2,10,60,0,0
46693,-105.263157894737,4,2,10,60,0,0
48026,-142.857142857143,4,2,2,60,0,0
48276,-142.857142857143,4,2,2,5,0,0
48360,-106.382978723404,4,2,2,60,0,0
48526,-106.382978723404,4,2,2,5,0,0
48610,-45.4545454545455,4,2,2,60,0,0
48693,-45.4545454545455,4,2,2,5,0,0
48860,-100,4,2,2,60,0,0
49193,-88.4955752212389,4,2,1,60,0,0
49360,-100,4,2,1,60,0,0
53860,-90.9090909090909,4,2,1,60,0,0
54193,-100,4,2,1,60,0,0
60026,-84.7457627118644,4,2,1,60,0,0
70693,-125,4,2,10,60,0,0
79860,-90.9090909090909,4,2,10,60,0,0
80026,-76.9230769230769,4,2,1,60,0,0
80693,-66.6666666666667,4,2,1,60,0,0
81026,-76.9230769230769,4,2,1,60,0,0
81360,-69.9300699300699,4,2,1,60,0,0
81776,-69.9300699300699,4,2,1,30,0,0
81860,-69.9300699300699,4,2,1,60,0,0
84026,-62.111801242236,4,2,1,60,0,0
86693,-62.111801242236,4,2,1,60,0,0
87193,-64.9350649350649,4,2,1,60,0,0
87360,-71.4285714285714,4,2,1,60,0,0
87860,-69.4444444444444,4,2,1,60,0,0
88526,-76.3358778625954,4,2,1,60,0,0
89360,-87.719298245614,4,2,1,60,0,0
90693,-83.3333333333333,4,2,1,60,0,0
91460,-84.7457627118644,4,2,1,60,0,0
92943,-125,4,2,1,5,0,0
97193,-125,4,2,1,60,0,0
100026,-125,4,2,1,60,0,0
102693,-200,4,2,1,60,0,0
112943,-200,4,2,1,20,0,0
113026,-72.992700729927,4,2,1,60,0,0
113276,-66.6666666666667,4,2,1,20,0,0
113360,-66.6666666666667,4,2,10,60,0,0
114360,-100,4,2,10,60,0,0
114693,-90.9090909090909,4,2,10,60,0,0
115360,-90.9090909090909,4,2,10,60,0,0
115401,-90.9090909090909,4,2,10,30,0,0
115693,-90.9090909090909,4,2,10,60,0,0
115735,-90.9090909090909,4,2,10,30,0,0
116026,-90.9090909090909,4,2,10,60,0,0
116860,-90.9090909090909,4,2,10,60,0,0
117401,-90.9090909090909,4,2,10,30,0,0
117693,-90.9090909090909,4,2,10,60,0,0
118068,-90.9090909090909,4,2,10,30,0,0
118360,-100,4,2,10,60,0,0
118693,-90.9090909090909,4,2,10,60,0,0
119068,-90.9090909090909,4,2,10,30,0,0
119360,-90.9090909090909,4,2,10,60,0,0
119693,-90.9090909090909,4,2,10,60,0,0
121360,-90.9090909090909,4,2,10,60,0,0
121860,-90.9090909090909,4,2,10,60,0,0
122193,-90.9090909090909,4,2,10,60,0,0
122360,-90.9090909090909,4,2,10,60,0,0
122693,-80.6451612903226,4,2,10,60,0,0
123026,-69.9300699300699,4,2,10,60,0,0
123526,-81.3008130081301,4,2,10,60,0,0
123693,-81.3008130081301,4,2,1,60,0,0
124026,-75.7575757575758,4,2,3,60,0,0
124360,-70.4225352112676,4,2,3,60,0,0
124610,-45.045045045045,4,2,3,60,0,0
124860,-58.8235294117647,4,2,3,60,0,0
125026,-58.8235294117647,4,2,3,60,0,0
125360,-65.7894736842105,4,2,3,60,0,0
125860,-70.4225352112676,4,2,3,60,0,0
125943,-52.0833333333333,4,2,3,60,0,0
126193,-52.6315789473684,4,2,3,60,0,0
126360,-52.6315789473684,4,2,3,60,0,0
126693,-58.8235294117647,4,2,3,60,0,0
127193,-71.4285714285714,4,2,3,60,0,0
127276,-58.8235294117647,4,2,3,60,0,0
127526,-58.8235294117647,4,2,3,60,0,0
127693,-58.8235294117647,4,2,3,60,0,0
128026,-53.763440860215,4,2,3,60,0,0
128276,-53.763440860215,4,2,3,60,0,0
128360,-53.763440860215,4,2,3,60,0,0
128526,-68.4931506849315,4,2,3,60,0,0
128610,-53.763440860215,4,2,3,60,0,0
128860,-74.6268656716418,4,2,3,60,0,0
129026,-74.6268656716418,4,2,3,60,0,0
129860,-57.4712643678161,4,2,3,60,0,0
130193,-65.7894736842105,4,2,3,60,0,0
130360,-65.7894736842105,4,2,3,60,0,0
130693,-75.7575757575758,4,2,3,60,0,0
131693,-65.7894736842105,4,2,3,60,0,0
132526,-75.7575757575758,4,2,3,60,0,0
133026,-75.7575757575758,4,2,3,60,0,0
133360,-89.2857142857143,4,2,3,60,0,0
134360,-89.2857142857143,4,2,3,60,0,0
134693,-76.9230769230769,4,2,3,60,0,0
135193,-86.9565217391304,4,2,3,60,0,0
135693,-76.9230769230769,4,2,3,60,0,0
136443,-76.9230769230769,4,2,3,30,0,0
136526,-76.9230769230769,4,2,3,60,0,0
137026,-76.9230769230769,4,2,3,60,0,0
138360,-76.9230769230769,4,2,3,60,0,0
138610,-76.9230769230769,4,2,3,30,0,0
138693,-66.6666666666667,4,2,3,60,0,0
139026,-76.9230769230769,4,2,3,60,0,0
139110,-76.9230769230769,4,2,3,30,0,0
139193,-90.9090909090909,4,2,3,60,0,0
139693,-90.9090909090909,4,2,3,60,0,0
140860,-76.9230769230769,4,2,3,60,0,0
140943,-76.9230769230769,4,2,3,10,0,0
141026,-76.9230769230769,4,2,3,60,0,0
141110,-76.9230769230769,4,2,3,20,0,0
141193,-76.9230769230769,4,2,3,60,0,0
141276,-76.9230769230769,4,2,3,30,0,0
141360,-62.5,4,2,3,60,0,0
141693,-76.9230769230769,4,2,3,60,0,0
141776,-76.9230769230769,4,2,3,30,0,0
141860,-68.0272108843537,4,2,3,60,0,0
142193,-76.9230769230769,4,2,3,60,0,0
142360,-76.9230769230769,4,2,3,60,0,0
143610,-76.9230769230769,4,2,3,40,0,0
143693,-76.9230769230769,4,2,3,60,0,0
144026,-62.5,4,2,1,60,0,0
145360,-76.9230769230769,4,2,1,60,0,0
145860,-86.2068965517241,4,2,1,60,0,0
146693,-94.3396226415094,4,2,1,60,0,0
155026,-76.9230769230769,4,2,1,60,0,0
156026,-86.2068965517241,4,2,1,60,0,0
167026,-86.2068965517241,4,2,20,60,0,0
168026,-70.4225352112676,4,2,1,60,0,1
168276,-70.4225352112676,4,2,1,30,0,1
168360,-75.7575757575758,4,2,1,60,0,1
169693,-70.4225352112676,4,2,1,60,0,1
169943,-70.4225352112676,4,2,1,30,0,1
170026,-81.9672131147541,4,2,1,60,0,1
170693,-70.4225352112676,4,2,1,60,0,1
171026,-75.7575757575758,4,2,1,60,0,1
172026,-81.9672131147541,4,2,1,60,0,1
172943,-81.9672131147541,4,2,1,30,0,1
173026,-81.9672131147541,4,2,1,60,0,1
173360,-70.4225352112676,4,2,1,60,0,1
173610,-70.4225352112676,4,2,1,30,0,1
173693,-75.7575757575758,4,2,1,60,0,1
174943,-75.7575757575758,4,2,1,30,0,1
175026,-75.7575757575758,4,2,1,60,0,1
175610,-75.7575757575758,4,2,1,30,0,1
175693,-75.7575757575758,4,2,1,60,0,1
176026,-70.4225352112676,4,2,1,60,0,1
176276,-70.4225352112676,4,2,1,30,0,1
176360,-70.4225352112676,4,2,1,60,0,1
178693,-62.8930817610063,4,2,1,60,0,1
179026,-60.9756097560976,4,2,1,60,0,1
179693,-69.4444444444444,4,2,1,60,0,1
180610,-69.4444444444444,4,2,1,30,0,1
180693,-69.4444444444444,4,2,1,60,0,1
180776,-69.4444444444444,4,2,1,30,0,1
180860,-69.4444444444444,4,2,1,60,0,1
180943,-69.4444444444444,4,2,1,30,0,1
181026,-69.4444444444444,4,2,1,60,0,1
181110,-69.4444444444444,4,2,1,30,0,1
181193,-69.4444444444444,4,2,1,60,0,1
181276,-69.4444444444444,4,2,1,30,0,1
181360,-69.4444444444444,4,2,1,60,0,1
181610,-69.4444444444444,4,2,1,30,0,1
181693,-69.4444444444444,4,2,1,60,0,1
182610,-69.4444444444444,4,2,1,30,0,1
182693,-69.4444444444444,4,2,1,60,0,1
182776,-69.4444444444444,4,2,1,30,0,1
182860,-69.4444444444444,4,2,1,60,0,1
182943,-69.4444444444444,4,2,1,30,0,1
183026,-69.4444444444444,4,2,1,60,0,1
183110,-69.4444444444444,4,2,1,30,0,1
183193,-69.4444444444444,4,2,1,60,0,1
183276,-69.4444444444444,4,2,1,30,0,1
183360,-69.4444444444444,4,2,1,60,0,1
183610,-69.4444444444444,4,2,1,30,0,1
183693,-69.4444444444444,4,2,1,60,0,1
184276,-69.4444444444444,4,2,1,30,0,1
184360,-69.4444444444444,4,2,1,60,0,1
186276,-69.4444444444444,4,2,1,30,0,1
186360,-69.4444444444444,4,2,1,60,0,1
186943,-69.4444444444444,4,2,1,30,0,1
187026,-69.4444444444444,4,2,1,60,0,1
189360,-81.3008130081301,4,3,58,60,0,1
189443,-81.3008130081301,4,3,59,60,0,1
189526,-81.3008130081301,4,3,60,60,0,1
189693,-81.3008130081301,4,3,66,60,0,1
189860,-81.3008130081301,4,3,63,60,0,1
190026,-81.3008130081301,4,3,64,60,0,1
190193,-81.3008130081301,4,3,56,60,0,1
190276,-81.3008130081301,4,3,60,60,0,1
190443,-81.3008130081301,4,3,59,60,0,1
190526,-81.3008130081301,4,3,58,60,0,1
190610,-81.3008130081301,4,3,56,60,0,1
190693,-81.3008130081301,4,3,53,60,0,1
190776,-81.3008130081301,4,3,54,40,0,1
190860,-81.3008130081301,4,3,56,50,0,1
190943,-81.3008130081301,4,3,59,60,0,1
191026,-81.3008130081301,4,3,60,70,0,1
191110,-81.3008130081301,4,3,63,80,0,1
191193,-81.3008130081301,4,3,60,60,0,1
191276,-81.3008130081301,4,3,59,40,0,1
191360,-81.3008130081301,4,3,58,60,0,1
191443,-81.3008130081301,4,3,59,50,0,1
191526,-81.3008130081301,4,3,58,50,0,1
191610,-81.3008130081301,4,3,56,60,0,1
191693,-81.3008130081301,4,3,58,60,0,1
191776,-81.3008130081301,4,3,59,60,0,1
191860,-81.3008130081301,4,3,60,60,0,1
191943,-81.3008130081301,4,3,63,60,0,1
192026,-81.3008130081301,4,3,58,40,0,1
192110,-81.3008130081301,4,3,59,50,0,1
192193,-81.3008130081301,4,3,60,60,0,1
192360,-81.3008130081301,4,3,66,70,0,1
192526,-81.3008130081301,4,3,63,60,0,1
192693,-81.3008130081301,4,3,64,60,0,1
192860,-81.3008130081301,4,3,56,60,0,1
192943,-81.3008130081301,4,3,60,60,0,1
193110,-81.3008130081301,4,3,59,60,0,1
193193,-81.3008130081301,4,3,58,60,0,1
193276,-81.3008130081301,4,3,56,60,0,1
193360,-81.3008130081301,4,3,53,60,0,1
193443,-81.3008130081301,4,3,54,60,0,1
193526,-81.3008130081301,4,3,56,50,0,1
193610,-81.3008130081301,4,3,59,50,0,1
193693,-81.3008130081301,4,3,60,60,0,1
193776,-81.3008130081301,4,3,63,40,0,1
193860,-81.3008130081301,4,3,60,40,0,1
193943,-81.3008130081301,4,3,59,40,0,1
194026,-81.3008130081301,4,3,58,50,0,1
194110,-81.3008130081301,4,3,59,50,0,1
194193,-81.3008130081301,4,3,58,60,0,1
194276,-81.3008130081301,4,3,56,60,0,1
194360,-81.3008130081301,4,3,58,70,0,1
194443,-81.3008130081301,4,3,59,70,0,1
194526,-81.3008130081301,4,3,60,80,0,1
194610,-81.3008130081301,4,3,63,80,0,1
194693,-72.992700729927,4,3,31,60,0,1
194776,-72.992700729927,4,3,32,60,0,1
194860,-72.992700729927,4,3,33,60,0,1
195026,-72.992700729927,4,3,39,90,0,1
195193,-72.992700729927,4,3,36,60,0,1
195360,-72.992700729927,4,3,37,60,0,1
195526,-72.992700729927,4,3,43,60,0,1
195610,-72.992700729927,4,3,33,60,0,1
195776,-72.992700729927,4,3,32,60,0,1
195860,-72.992700729927,4,3,31,60,0,1
195943,-72.992700729927,4,3,43,60,0,1
196026,-72.992700729927,4,3,28,60,0,1
196110,-72.992700729927,4,3,29,60,0,1
196193,-72.992700729927,4,3,43,60,0,1
196276,-72.992700729927,4,3,32,60,0,1
196360,-72.992700729927,4,3,33,60,0,1
196443,-72.992700729927,4,3,36,60,0,1
196526,-72.992700729927,4,3,33,60,0,1
196610,-72.992700729927,4,3,32,60,0,1
196693,-72.992700729927,4,3,31,60,0,1
196776,-72.992700729927,4,3,32,40,0,1
196860,-72.992700729927,4,3,31,40,0,1
196943,-72.992700729927,4,3,43,40,0,1
197026,-72.992700729927,4,3,31,60,0,1
197110,-72.992700729927,4,3,32,60,0,1
197193,-72.992700729927,4,3,33,60,0,1
197276,-72.992700729927,4,3,36,60,0,1
197360,-72.992700729927,4,3,31,60,0,1
197443,-72.992700729927,4,3,32,60,0,1
197526,-72.992700729927,4,3,33,60,0,1
197693,-72.992700729927,4,3,39,70,0,1
197860,-72.992700729927,4,3,36,60,0,1
198026,-72.992700729927,4,3,37,60,0,1
198193,-72.992700729927,4,3,43,60,0,1
198276,-72.992700729927,4,3,33,60,0,1
198443,-72.992700729927,4,3,32,60,0,1
198526,-72.992700729927,4,3,31,60,0,1
198610,-72.992700729927,4,3,43,60,0,1
198693,-72.992700729927,4,3,28,60,0,1
198776,-72.992700729927,4,3,29,60,0,1
198860,-72.992700729927,4,3,43,60,0,1
198943,-72.992700729927,4,3,32,60,0,1
199026,-72.992700729927,4,3,33,60,0,1
199110,-72.992700729927,4,3,36,60,0,1
199193,-72.992700729927,4,3,33,60,0,1
199276,-72.992700729927,4,3,32,60,0,1
199360,-72.992700729927,4,3,31,60,0,1
199443,-72.992700729927,4,3,32,50,0,1
199526,-72.992700729927,4,3,31,50,0,1
199610,-72.992700729927,4,3,43,50,0,1
199693,-72.992700729927,4,3,31,60,0,1
199776,-72.992700729927,4,3,32,60,0,1
199860,-72.992700729927,4,3,33,70,0,1
199943,-72.992700729927,4,3,36,70,0,1
200026,-75.7575757575758,4,2,1,60,0,0
202693,-70.9219858156028,4,2,1,5,0,0
203420,413.793103448276,4,2,1,60,1,0
203420,-83.3333333333333,4,2,1,60,0,0
203833,-100,4,2,1,60,0,0
205488,-100,4,2,1,60,0,0
208385,-83.3333333333333,4,2,1,60,0,0
208799,-100,4,2,1,60,0,0
211592,-100,4,2,1,20,0,0
211695,-100,4,2,1,60,0,0
213351,-100,4,2,1,60,0,0
215833,-66.6666666666667,4,2,1,60,0,0
216661,-57.1428571428571,4,2,1,60,0,0
217385,-57.1428571428571,4,2,1,20,0,0
217488,-33.003300330033,4,2,1,60,0,0
217799,-26.8096514745308,4,2,1,20,0,0
217902,-175.438596491228,4,2,1,60,0,0
218213,-270.27027027027,4,2,1,20,0,0
218316,-83.3333333333334,4,2,1,60,0,0
218368,-83.3333333333334,4,2,1,5,0,0
218420,-83.3333333333334,4,2,1,60,0,0
218471,-83.3333333333334,4,2,1,5,0,0
218523,-83.3333333333334,4,2,1,60,0,0
218575,-83.3333333333334,4,2,1,5,0,0
218626,-83.3333333333334,4,2,1,60,0,0
218678,-83.3333333333334,4,2,1,5,0,0
218730,-83.3333333333334,4,2,1,60,0,0
218782,-83.3333333333334,4,2,1,5,0,0
218833,-83.3333333333334,4,2,1,60,0,0
218885,-83.3333333333334,4,2,1,5,0,0
218937,-83.3333333333334,4,2,1,60,0,0
218988,-83.3333333333334,4,2,1,5,0,0
219040,-83.3333333333334,4,2,1,60,0,0
219092,-83.3333333333334,4,2,1,5,0,0
219144,-66.6666666666667,4,2,1,60,0,0
219454,-66.6666666666667,4,2,1,20,0,0
219557,-66.6666666666667,4,2,1,60,0,0
219868,-66.6666666666667,4,2,1,20,0,0
219971,-44.4444444444445,4,2,1,60,0,0
220488,-44.4444444444445,4,2,1,20,0,0
220592,-48.780487804878,4,2,1,60,0,0
220799,-57.1428571428571,4,2,1,60,0,0
221109,-57.1428571428571,4,2,1,20,0,0
221213,-57.1428571428571,4,2,1,60,0,0
221523,-57.1428571428571,4,2,1,20,0,0
221626,-83.3333333333334,4,2,1,60,0,0
221678,-83.3333333333334,4,2,1,5,0,0
221730,-83.3333333333334,4,2,1,60,0,0
221782,-83.3333333333334,4,2,1,5,0,0
221833,-83.3333333333334,4,2,1,60,0,0
221885,-83.3333333333334,4,2,1,5,0,0
221937,-83.3333333333334,4,2,1,60,0,0
221988,-83.3333333333334,4,2,1,5,0,0
222040,-83.3333333333334,4,2,1,60,0,0
222092,-83.3333333333334,4,2,1,5,0,0
222144,-83.3333333333334,4,2,1,60,0,0
222195,-83.3333333333334,4,2,1,5,0,0
222247,-83.3333333333334,4,2,1,60,0,0
222299,-83.3333333333334,4,2,1,5,0,0
222351,-83.3333333333334,4,2,1,60,0,0
222402,-83.3333333333334,4,2,1,5,0,0
222454,-84.7457627118644,4,2,1,60,0,0
222557,-84.7457627118644,4,2,1,20,0,0
222661,-84.7457627118644,4,2,1,60,0,0
222764,-84.7457627118644,4,2,1,20,0,0
222868,-84.7457627118644,4,2,1,60,0,0
222971,-84.7457627118644,4,2,1,20,0,0
223075,-84.7457627118644,4,2,1,60,0,0
223178,-84.7457627118644,4,2,1,20,0,0
223282,-41.1522633744856,4,2,1,60,0,0
223799,-41.1522633744856,4,2,1,60,0,0
223902,-52.6315789473684,4,2,1,20,0,0
224109,-58.1395348837209,4,2,1,60,0,0
224420,-58.1395348837209,4,2,1,20,0,0
224523,-89.2857142857143,4,2,1,60,0,0
224833,-58.1395348837209,4,2,1,20,0,0
224937,-41.8410041841004,4,2,1,60,0,0
225661,-41.8410041841004,4,2,1,20,0,0
225764,-67.5675675675676,4,2,1,60,0,0
226592,-61.7283950617284,4,2,1,60,0,0
226644,-61.7283950617284,4,2,1,5,0,0
226695,-61.7283950617284,4,2,1,60,0,0
226747,-61.7283950617284,4,2,1,5,0,0
226799,-61.7283950617284,4,2,1,60,0,0
226851,-61.7283950617284,4,2,1,5,0,0
226902,-61.7283950617284,4,2,1,60,0,0
226954,-61.7283950617284,4,2,1,5,0,0
227006,-61.7283950617284,4,2,1,60,0,0
227057,-61.7283950617284,4,2,1,5,0,0
227109,-61.7283950617284,4,2,1,60,0,0
227161,-61.7283950617284,4,2,1,5,0,0
227213,-61.7283950617284,4,2,1,60,0,0
227264,-61.7283950617284,4,2,1,5,0,0
227316,-61.7283950617284,4,2,1,60,0,0
227368,-54.6448087431694,4,2,1,5,0,0
227420,-54.6448087431694,4,2,1,60,0,0
227730,-54.6448087431694,4,2,1,20,0,0
227833,-54.6448087431694,4,2,1,60,0,0
228144,-54.6448087431694,4,2,1,20,0,0
228247,-61.7283950617284,4,2,1,60,0,0
228299,-61.7283950617284,4,2,1,5,0,0
228351,-61.7283950617284,4,2,1,60,0,0
228402,-61.7283950617284,4,2,1,5,0,0
228454,-61.7283950617284,4,2,1,60,0,0
228506,-61.7283950617284,4,2,1,5,0,0
228557,-61.7283950617284,4,2,1,60,0,0
228609,-61.7283950617284,4,2,1,5,0,0
228661,-61.7283950617284,4,2,1,60,0,0
228713,-61.7283950617284,4,2,1,5,0,0
228764,-61.7283950617284,4,2,1,60,0,0
228816,-61.7283950617284,4,2,1,5,0,0
228868,-61.7283950617284,4,2,1,60,0,0
228920,-61.7283950617284,4,2,1,5,0,0
228971,-61.7283950617284,4,2,1,60,0,0
229023,-54.6448087431694,4,2,1,5,0,0
229075,-54.6448087431694,4,2,1,60,0,0
229178,-54.6448087431694,4,2,1,20,0,0
229282,-54.6448087431694,4,2,1,60,0,0
229385,-54.6448087431694,4,2,1,20,0,0
229488,-46.9483568075117,4,2,1,60,0,0
229799,-46.9483568075117,4,2,1,5,0,0
229902,-200,4,3,59,20,0,0
230006,-200,4,3,58,20,0,0
230109,-200,4,3,56,20,0,0
230213,-200,4,3,54,20,0,0
230316,-200,4,3,59,20,0,0
230420,-200,4,3,58,20,0,0
230523,-200,4,3,56,20,0,0
230626,-200,4,3,54,20,0,0
230730,-200,4,3,59,20,0,0
230833,-200,4,3,58,20,0,0
230937,-200,4,3,56,20,0,0
231040,-200,4,3,54,20,0,0
231144,-200,4,3,59,20,0,0
231247,-200,4,3,58,20,0,0
231351,-200,4,3,56,20,0,0
231454,-200,4,3,54,20,0,0
231557,-200,4,3,59,30,0,0
231661,-200,4,3,58,20,0,0
231764,-200,4,3,56,20,0,0
231868,-200,4,3,54,20,0,0
231971,-200,4,3,59,20,0,0
232075,-200,4,3,58,20,0,0
232178,-200,4,3,56,20,0,0
232282,-200,4,3,54,20,0,0
232385,-200,4,3,59,20,0,0
232488,-200,4,3,58,20,0,0
232592,-200,4,3,56,20,0,0
232695,-200,4,3,54,20,0,0
232799,-200,4,3,59,20,0,0
232902,-200,4,3,58,20,0,0
233006,-200,4,3,56,20,0,0
233109,-200,4,3,54,20,0,0
233213,-200,4,3,59,30,0,0
233316,-200,4,3,58,20,0,0
233420,-200,4,3,56,20,0,0
233523,-200,4,3,53,20,0,0
233626,-200,4,3,59,20,0,0
233730,-200,4,3,58,20,0,0
233833,-200,4,3,56,20,0,0
233937,-200,4,3,53,20,0,0
234040,-200,4,3,59,20,0,0
234144,-200,4,3,58,20,0,0
234247,-200,4,3,56,20,0,0
234351,-200,4,3,53,20,0,0
234454,-200,4,3,59,20,0,0
234557,-200,4,3,58,20,0,0
234661,-200,4,3,56,20,0,0
234764,-200,4,3,53,20,0,0
234868,-200,4,3,59,30,0,0
234971,-200,4,3,58,20,0,0
235075,-200,4,3,56,20,0,0
235178,-200,4,3,54,20,0,0
235282,-200,4,3,59,20,0,0
235385,-200,4,3,58,20,0,0
235488,-200,4,3,56,20,0,0
235592,-200,4,3,54,20,0,0
235695,-200,4,3,59,20,0,0
235799,-200,4,3,58,20,0,0
235902,-200,4,3,56,20,0,0
236006,-200,4,3,54,20,0,0
236109,-200,4,3,59,20,0,0
236213,-200,4,3,58,20,0,0
236316,-200,4,3,56,20,0,0
236420,-200,4,3,54,20,0,0
236523,-200,4,3,59,30,0,0
236626,-200,4,3,58,20,0,0
236730,-200,4,3,56,20,0,0
236833,-200,4,3,54,20,0,0
236937,-200,4,3,59,20,0,0
237040,-200,4,3,58,20,0,0
237144,-200,4,3,56,20,0,0
237247,-200,4,3,54,20,0,0
237351,-200,4,3,59,20,0,0
237454,-200,4,3,58,20,0,0
237557,-200,4,3,56,20,0,0
237661,-200,4,3,54,20,0,0
237764,-200,4,3,59,20,0,0
237868,-200,4,3,58,20,0,0
237971,-200,4,3,56,20,0,0
238075,-200,4,3,54,20,0,0
238178,-200,4,3,59,30,0,0
238282,-200,4,3,58,20,0,0
238385,-200,4,3,56,20,0,0
238488,-200,4,3,54,20,0,0
238592,-200,4,3,59,20,0,0
238695,-200,4,3,58,20,0,0
238799,-200,4,3,56,20,0,0
238902,-200,4,3,54,20,0,0
239006,-200,4,3,59,20,0,0
239109,-200,4,3,58,20,0,0
239213,-200,4,3,56,20,0,0
239316,-200,4,3,54,20,0,0
239420,-200,4,3,59,20,0,0
239523,-200,4,3,58,20,0,0
239626,-200,4,3,56,20,0,0
239730,-200,4,3,54,20,0,0
239833,-200,4,3,59,30,0,0
239937,-200,4,3,58,20,0,0
240040,-200,4,3,56,20,0,0
240144,-200,4,3,53,20,0,0
240247,-200,4,3,59,20,0,0
240351,-200,4,3,58,20,0,0
240454,-200,4,3,56,20,0,0
240557,-200,4,3,53,20,0,0
240661,-200,4,3,59,20,0,0
240764,-200,4,3,58,20,0,0
240868,-200,4,3,56,20,0,0
240971,-200,4,3,53,20,0,0
241075,-200,4,3,59,20,0,0
241178,-200,4,3,58,20,0,0
241282,-200,4,3,56,20,0,0
241385,-200,4,3,53,20,0,0
241488,-200,4,2,1,60,0,0
241592,-200,4,2,1,30,0,0
241902,-200,4,2,1,60,0,0
242109,-200,4,2,1,30,0,0
242213,-200,4,2,1,60,0,0
242833,-200,4,2,1,40,0,0
243144,-100,4,2,1,60,0,0
244385,-100,4,2,1,30,0,0
244799,-100,4,2,1,60,0,0
246040,-100,4,2,1,30,0,0
246454,-100,4,2,1,60,0,0
247695,-100,4,2,1,30,0,0
248109,-100,4,2,1,60,0,0
249351,-100,4,2,1,30,0,0
249764,-100,4,2,1,60,0,0
251006,-100,4,2,1,30,0,0
251420,-100,4,2,1,60,0,0
252661,-100,4,2,1,30,0,0
253075,-100,4,2,1,60,0,0
254316,-100,4,2,1,30,0,0
254730,-100,4,2,1,60,0,0
255868,-100,4,2,1,40,0,0
255971,-100,4,2,1,20,0,0
256385,-66.6666666666667,4,2,1,40,0,0
256695,-66.6666666666667,4,2,1,20,0,0
256799,-66.6666666666667,4,2,1,40,0,0
257109,-66.6666666666667,4,2,1,20,0,0
257213,-66.6666666666667,4,2,1,60,0,0
258040,-66.6666666666667,4,2,1,40,0,0
258247,-66.6666666666667,4,2,1,20,0,0
258351,-66.6666666666667,4,2,1,40,0,0
258557,-66.6666666666667,4,2,1,20,0,0
258661,-66.6666666666667,4,2,1,20,0,0
258868,-66.6666666666667,4,2,1,60,0,0
259695,-66.6666666666667,4,2,1,40,0,0
260006,-66.6666666666667,4,2,1,20,0,0
260109,-71.4285714285714,4,2,1,40,0,0
260523,-76.9230769230769,4,2,1,60,0,0
260833,-66.6666666666667,4,2,1,20,0,0
260937,-83.3333333333333,4,2,1,60,0,0
261144,-66.6666666666667,4,2,1,20,0,0
261351,-66.6666666666667,4,2,1,40,0,0
261557,-66.6666666666667,4,2,1,20,0,0
261661,-66.6666666666667,4,2,1,40,0,0
261868,-66.6666666666667,4,2,1,20,0,0
261971,-66.6666666666667,4,2,1,40,0,0
262178,-66.6666666666667,4,2,1,60,0,0
262385,-66.6666666666667,4,2,1,30,0,0
262592,-66.6666666666667,4,2,1,40,0,0
262902,-66.6666666666667,4,2,1,20,0,0
263006,-66.6666666666667,4,2,1,40,0,0
263316,-66.6666666666667,4,2,1,20,0,0
263420,-66.6666666666667,4,2,1,40,0,0
263730,-66.6666666666667,4,2,1,20,0,0
263833,-66.6666666666667,4,2,1,60,0,0
264661,-66.6666666666667,4,2,1,40,0,0
264868,-66.6666666666667,4,2,1,20,0,0
264971,-66.6666666666667,4,2,1,40,0,0
265178,-66.6666666666667,4,2,1,20,0,0
265282,-66.6666666666667,4,2,1,40,0,0
265488,-66.6666666666667,4,2,1,60,0,0
266316,-66.6666666666667,4,2,1,40,0,0
266626,-62.5,4,2,1,20,0,0
266730,-71.4285714285714,4,2,1,40,0,0
267144,-76.9230769230769,4,2,1,60,0,0
267454,-62.5,4,2,1,20,0,0
267557,-83.3333333333333,4,2,1,40,0,0
267971,-66.6666666666667,4,2,1,40,0,0
268385,-66.6666666666667,4,2,1,40,0,0
268488,-66.6666666666667,4,2,1,20,0,0
268592,-66.6666666666667,4,2,1,40,0,0
268695,-66.6666666666667,4,2,1,20,0,0
268799,-59.8802395209581,4,2,1,60,0,0
269109,-62.5,4,2,1,20,0,0
269213,-59.8802395209581,4,2,1,40,0,0
269523,-62.5,4,2,1,20,0,0
269626,-62.5,4,2,1,60,0,0
270351,-62.5,4,2,1,20,0,0
270454,-62.5,4,2,1,60,0,0
270764,-62.5,4,2,1,20,0,0
270868,-62.5,4,2,1,40,0,0
271075,-62.5,4,2,1,20,0,0
271282,-62.5,4,2,1,60,0,0
272006,-62.5,4,2,1,20,0,0
272109,-62.5,4,2,1,60,0,0
272316,-62.5,4,2,1,20,0,0
272523,-62.5,4,2,1,40,0,0
272730,-62.5,4,2,1,10,0,0
272937,-62.5,4,2,99,40,0,0
274592,-555.555555555556,4,2,1,40,0,0
274695,-555.555555555556,4,2,1,60,0,0
276144,-62.5,4,2,1,5,0,0
276247,-36.231884057971,4,2,1,60,0,1
276557,-36.231884057971,4,2,1,30,0,1
276661,-45.045045045045,4,2,1,60,0,1
276713,-45.045045045045,4,2,1,30,0,1
276764,-45.045045045045,4,2,1,60,0,1
276816,-45.045045045045,4,2,1,30,0,1
276868,-45.045045045045,4,2,1,60,0,1
276920,-45.045045045045,4,2,1,30,0,1
276971,-45.045045045045,4,2,1,60,0,1
277023,-45.045045045045,4,2,1,30,0,1
277075,-43.4782608695654,4,2,1,60,0,1
277109,-43.4782608695654,4,2,1,30,0,1
277351,-43.4782608695654,4,2,1,60,0,1
277385,-43.4782608695654,4,2,1,30,0,1
277626,-43.4782608695654,4,2,1,60,0,1
277661,-43.4782608695654,4,2,1,30,0,1
277902,-35.7142857142857,4,2,1,60,0,1
278316,-70.4225352112676,4,2,1,60,0,1
278368,-70.4225352112676,4,2,1,30,0,1
278420,-56.1797752808989,4,2,1,60,0,1
278471,-56.1797752808989,4,2,1,30,0,1
278523,-46.7289719626168,4,2,1,60,0,1
278575,-46.7289719626168,4,2,1,30,0,1
278626,-40,4,2,1,60,0,1
278678,-40,4,2,1,30,0,1
278730,-40,4,2,1,60,0,1
279144,-40,4,2,1,60,0,1
279454,-40,4,2,1,20,0,1
279557,-50,4,2,1,60,0,1
280385,-45.4545454545455,4,2,1,60,0,1
281109,-45.4545454545455,4,2,1,20,0,1
281213,-40,4,2,1,60,0,1
281937,-40,4,2,1,20,0,1
282040,-43.4782608695652,4,2,1,60,0,1
282454,-55.5555555555556,4,2,1,60,0,1
282868,-43.4782608695652,4,2,1,60,0,1
283592,-43.4782608695652,4,2,1,20,0,1
283695,-43.4782608695652,4,2,1,60,0,1
283902,-52.6315789473684,4,2,1,60,0,1
283954,-52.6315789473684,4,2,1,20,0,1
284006,-52.6315789473684,4,2,1,60,0,1
284057,-52.6315789473684,4,2,1,20,0,1
284109,-52.6315789473684,4,2,1,60,0,1
284161,-52.6315789473684,4,2,1,20,0,1
284316,-52.6315789473684,4,2,1,60,0,1
284368,-52.6315789473684,4,2,1,20,0,1
284420,-52.6315789473684,4,2,1,60,0,1
284471,-52.6315789473684,4,2,1,20,0,1
284523,-38.4615384615385,4,2,1,60,0,1
285247,-38.4615384615385,4,2,1,20,0,1
285351,-45.4545454545455,4,2,1,60,0,1
285661,-45.4545454545455,4,2,1,20,0,1
285764,-66.6666666666667,4,2,1,60,0,1
286075,-66.6666666666667,4,2,1,20,0,1
286178,-40,4,2,1,60,0,1
286592,-40,4,2,1,20,0,1
287006,-43.4782608695652,4,2,1,60,0,1
287057,-43.4782608695652,4,2,1,10,0,1
287109,-47.6190476190476,4,2,1,60,0,1
287161,-43.4782608695652,4,2,1,10,0,1
287213,-52.6315789473684,4,2,1,60,0,1
287264,-43.4782608695652,4,2,1,10,0,1
287316,-58.8235294117647,4,2,1,60,0,1
287368,-43.4782608695652,4,2,1,10,0,1
287420,-66.6666666666667,4,2,1,60,0,1
287471,-43.4782608695652,4,2,1,10,0,1
287523,-76.9230769230769,4,2,1,60,0,1
287575,-43.4782608695652,4,2,1,10,0,1
287626,-90.9090909090909,4,2,1,60,0,1
287678,-43.4782608695652,4,2,1,10,0,1
287730,-111.111111111111,4,2,1,60,0,1
287782,-43.4782608695652,4,2,1,10,0,1
287833,-45.4545454545455,4,2,1,60,0,1
288144,-43.4782608695652,4,2,1,60,0,1
288247,-43.4782608695652,4,2,1,60,0,1
288557,-43.4782608695652,4,2,1,20,0,1
288661,-43.4782608695652,4,2,1,60,0,1
288868,-52.6315789473684,4,2,1,60,0,1
289488,-66.6666666666667,4,2,1,60,0,0
290730,-58.8235294117647,4,2,1,60,0,0
291040,-58.8235294117647,4,2,1,30,0,0
291144,-66.6666666666667,4,2,1,60,0,0
291557,-58.8235294117647,4,2,1,60,0,0
291868,-58.8235294117647,4,2,1,30,0,0
291971,-66.6666666666667,4,2,1,60,0,0
292282,-66.6666666666667,4,2,1,30,0,0
292385,-66.6666666666667,4,2,1,60,0,0
292488,-66.6666666666667,4,2,1,30,0,0
292592,-66.6666666666667,4,2,1,60,0,0
292695,-66.6666666666667,4,2,1,30,0,0
292799,-66.6666666666667,4,2,1,60,0,0
293109,-66.6666666666667,4,2,1,30,0,0
293213,-66.6666666666667,4,2,1,60,0,0
295282,-72.463768115942,4,2,1,60,0,0
295695,-56.8181818181818,4,2,1,60,0,0
296109,-60.2409638554217,4,2,1,60,0,0
297247,-60.2409638554217,4,2,1,30,0,0
297351,-60.2409638554217,4,2,1,60,0,0
297764,-66.6666666666667,4,2,1,60,0,0
298592,-57.1428571428571,4,2,1,60,0,0
298902,-57.1428571428571,4,2,1,30,0,0
299006,-57.1428571428571,4,2,1,60,0,0
299316,-57.1428571428571,4,2,1,30,0,0
299420,-60.2409638554217,4,2,1,60,0,0
300661,-66.6666666666667,4,2,1,60,0,0
301075,-57.1428571428571,4,2,1,60,0,0
301385,-57.1428571428571,4,2,1,30,0,0
301488,-57.1428571428571,4,2,1,60,0,0
301799,-57.1428571428571,4,2,1,30,0,0
301902,-57.1428571428571,4,2,1,60,0,0
302213,-57.1428571428571,4,2,1,30,0,0
302316,-64.1025641025641,4,2,1,60,0,0
302626,-64.1025641025641,4,2,1,30,0,0
302730,-60.6060606060606,4,3,59,60,0,0
302833,-60.6060606060606,4,3,58,40,0,0
302937,-60.6060606060606,4,3,56,40,0,0
303040,-60.6060606060606,4,3,54,40,0,0
303144,-60.6060606060606,4,3,59,55,0,0
303247,-60.6060606060606,4,3,58,40,0,0
303351,-60.6060606060606,4,3,56,40,0,0
303454,-60.6060606060606,4,3,54,40,0,0
303557,-60.6060606060606,4,3,59,55,0,0
303661,-60.6060606060606,4,3,58,40,0,0
303764,-60.6060606060606,4,3,56,40,0,0
303868,-60.6060606060606,4,3,54,40,0,0
303971,-60.6060606060606,4,3,59,55,0,0
304075,-60.6060606060606,4,3,58,40,0,0
304178,-60.6060606060606,4,3,56,40,0,0
304282,-60.6060606060606,4,3,54,40,0,0
304385,-60.6060606060606,4,3,59,55,0,0
304488,-60.6060606060606,4,3,58,40,0,0
304592,-60.6060606060606,4,3,56,40,0,0
304695,-60.6060606060606,4,3,54,40,0,0
304799,-60.6060606060606,4,3,59,55,0,0
304902,-60.6060606060606,4,3,58,40,0,0
305006,-60.6060606060606,4,3,56,40,0,0
305109,-60.6060606060606,4,3,54,40,0,0
305213,-60.6060606060606,4,3,59,55,0,0
305316,-60.6060606060606,4,3,58,40,0,0
305420,-60.6060606060606,4,3,56,40,0,0
305523,-60.6060606060606,4,3,54,40,0,0
305626,-60.6060606060606,4,3,59,55,0,0
305730,-60.6060606060606,4,3,58,40,0,0
305833,-60.6060606060606,4,3,56,40,0,0
305937,-60.6060606060606,4,3,54,40,0,0
306040,-60.6060606060606,4,3,59,55,0,0
306144,-60.6060606060606,4,3,58,40,0,0
306247,-60.6060606060606,4,3,56,40,0,0
306351,-60.6060606060606,4,3,53,40,0,0
306454,-60.6060606060606,4,3,59,55,0,0
306557,-60.6060606060606,4,3,58,40,0,0
306661,-60.6060606060606,4,3,56,40,0,0
306764,-60.6060606060606,4,3,53,40,0,0
306868,-60.6060606060606,4,3,59,55,0,0
306971,-60.6060606060606,4,3,58,40,0,0
307075,-60.6060606060606,4,3,56,40,0,0
307178,-60.6060606060606,4,3,53,40,0,0
307282,-60.6060606060606,4,3,59,55,0,0
307385,-60.6060606060606,4,3,58,40,0,0
307488,-60.6060606060606,4,3,56,40,0,0
307592,-60.6060606060606,4,3,53,40,0,0
307695,-60.6060606060606,4,3,59,55,0,0
307799,-60.6060606060606,4,3,58,40,0,0
307902,-60.6060606060606,4,3,56,40,0,0
308006,-60.6060606060606,4,3,54,40,0,0
308109,-60.6060606060606,4,3,59,55,0,0
308213,-60.6060606060606,4,3,58,40,0,0
308316,-60.6060606060606,4,3,56,40,0,0
308420,-60.6060606060606,4,3,54,40,0,0
308523,-60.6060606060606,4,3,59,55,0,0
308626,-60.6060606060606,4,3,58,40,0,0
308730,-60.6060606060606,4,3,56,40,0,0
308833,-60.6060606060606,4,3,54,40,0,0
308937,-60.6060606060606,4,3,59,55,0,0
309040,-60.6060606060606,4,3,58,40,0,0
309144,-60.6060606060606,4,3,56,40,0,0
309247,-60.6060606060606,4,3,54,40,0,0
309351,-60.6060606060606,4,3,59,55,0,0
309454,-60.6060606060606,4,3,58,40,0,0
309557,-60.6060606060606,4,3,56,40,0,0
309661,-60.6060606060606,4,3,54,40,0,0
309764,-60.6060606060606,4,3,59,55,0,0
309868,-60.6060606060606,4,3,58,40,0,0
309971,-60.6060606060606,4,3,56,40,0,0
310075,-60.6060606060606,4,3,54,40,0,0
310178,-60.6060606060606,4,3,59,55,0,0
310282,-60.6060606060606,4,3,58,40,0,0
310385,-60.6060606060606,4,3,56,40,0,0
310488,-60.6060606060606,4,3,54,40,0,0
310592,-60.6060606060606,4,3,59,55,0,0
310695,-60.6060606060606,4,3,58,40,0,0
310799,-60.6060606060606,4,3,56,40,0,0
310902,-60.6060606060606,4,3,54,40,0,0
311006,-60.6060606060606,4,3,59,55,0,0
311109,-60.6060606060606,4,3,58,40,0,0
311213,-60.6060606060606,4,3,56,40,0,0
311316,-60.6060606060606,4,3,54,40,0,0
311420,-60.6060606060606,4,3,59,55,0,0
311523,-60.6060606060606,4,3,58,40,0,0
311626,-60.6060606060606,4,3,56,40,0,0
311730,-60.6060606060606,4,3,54,40,0,0
311833,-60.6060606060606,4,3,59,55,0,0
311937,-60.6060606060606,4,3,58,40,0,0
312040,-60.6060606060606,4,3,56,40,0,0
312144,-60.6060606060606,4,3,54,40,0,0
312247,-60.6060606060606,4,3,59,55,0,0
312351,-60.6060606060606,4,3,58,40,0,0
312454,-60.6060606060606,4,3,56,40,0,0
312557,-60.6060606060606,4,3,54,40,0,0
312661,-60.6060606060606,4,3,59,55,0,0
312764,-60.6060606060606,4,3,58,40,0,0
312868,-60.6060606060606,4,3,56,40,0,0
312971,-60.6060606060606,4,3,53,40,0,0
313075,-60.6060606060606,4,3,59,55,0,0
313178,-60.6060606060606,4,3,58,40,0,0
313282,-60.6060606060606,4,3,56,40,0,0
313385,-60.6060606060606,4,3,53,40,0,0
313488,-60.6060606060606,4,3,59,55,0,0
313592,-60.6060606060606,4,3,58,40,0,0
313695,-60.6060606060606,4,3,56,40,0,0
313799,-60.6060606060606,4,3,53,40,0,0
313902,-60.6060606060606,4,3,59,55,0,0
314006,-60.6060606060606,4,3,58,40,0,0
314109,-60.6060606060606,4,3,56,40,0,0
314213,-60.6060606060606,4,3,53,40,0,0
314316,-60.6060606060606,4,3,59,55,0,0
314420,-60.6060606060606,4,3,58,40,0,0
314523,-60.6060606060606,4,3,56,40,0,0
314626,-60.6060606060606,4,3,54,40,0,0
314730,-60.6060606060606,4,3,59,55,0,0
314833,-60.6060606060606,4,3,58,40,0,0
314937,-60.6060606060606,4,3,56,40,0,0
315040,-60.6060606060606,4,3,54,40,0,0
315144,-60.6060606060606,4,3,59,55,0,0
315247,-60.6060606060606,4,3,58,40,0,0
315351,-60.6060606060606,4,3,56,40,0,0
315454,-60.6060606060606,4,3,54,40,0,0
315557,-60.6060606060606,4,3,59,55,0,0
315661,-60.6060606060606,4,3,58,40,0,0
315764,-60.6060606060606,4,3,56,40,0,0
315868,-60.6060606060606,4,3,54,40,0,0
315971,-44.4444444444445,4,2,1,60,0,0
316178,-44.4444444444445,4,2,1,30,0,0
316385,-44.4444444444445,4,2,1,60,0,0
316592,-44.4444444444445,4,2,1,30,0,0
317213,-44.4444444444445,4,2,1,60,0,0
317420,-44.4444444444445,4,2,1,30,0,0
318040,-44.4444444444445,4,2,1,60,0,0
318247,-44.4444444444445,4,2,1,30,0,0
318868,-44.4444444444445,4,2,1,60,0,0
319075,-44.4444444444445,4,2,1,30,0,0
319695,-44.4444444444445,4,2,1,60,0,0
319902,-44.4444444444445,4,2,1,30,0,0
320523,-44.4444444444445,4,2,1,60,0,0
320730,-44.4444444444445,4,2,1,30,0,0
321351,-44.4444444444445,4,2,1,60,0,0
321557,-44.4444444444445,4,2,1,30,0,0
322178,-44.4444444444445,4,2,1,60,0,0
322385,-44.4444444444445,4,2,1,30,0,0
322592,-44.4444444444445,4,2,1,60,0,0
322799,-44.4444444444445,4,2,1,30,0,0
323006,-44.4444444444445,4,2,1,60,0,0
323213,-44.4444444444445,4,2,1,30,0,0
323833,-44.4444444444445,4,2,1,60,0,0
324040,-44.4444444444445,4,2,1,30,0,0
324661,-44.4444444444445,4,2,1,50,0,0
324868,-44.4444444444445,4,2,1,30,0,0
325488,-44.4444444444445,4,2,1,40,0,0
325695,-44.4444444444445,4,2,1,30,0,0
326730,-44.4444444444445,4,2,1,20,0,0
327557,-44.4444444444445,4,2,1,30,0,0
328385,-44.4444444444445,4,2,1,40,0,0
328592,-44.4444444444445,4,2,1,50,0,0
328799,-44.4444444444445,4,2,1,60,0,0
329006,-44.4444444444445,4,2,1,30,0,0
330040,-133.333333333333,4,2,1,60,0,0
330764,-133.333333333333,4,2,1,20,0,0
330868,-100,4,2,1,60,0,0
331592,-100,4,2,1,20,0,0
331695,-69.4444444444444,4,2,1,60,0,0
332420,-133.333333333333,4,2,1,20,0,0
332523,-47.39336492891,4,2,1,60,0,1
333661,-52.3560209424084,4,2,2,60,0,1
333971,-55.2486187845304,4,2,1,60,0,1
334488,-47.39336492891,4,2,2,60,0,1
334799,-47.39336492891,4,2,1,60,0,1
335316,-47.39336492891,4,2,2,60,0,1
335626,-55.2486187845304,4,2,1,60,0,1
335833,-52.3560209424084,4,2,1,60,0,1
336144,-52.3560209424084,4,2,2,60,0,1
336454,-47.39336492891,4,2,1,60,0,1
336971,-47.39336492891,4,2,1,40,0,1
337075,-47.39336492891,4,2,1,60,0,1
338109,-52.3560209424084,4,2,1,60,0,1
338730,-47.39336492891,4,2,1,60,0,1
339454,-47.39336492891,4,2,2,60,0,1
339764,-47.39336492891,4,2,1,60,0,1
340282,-47.39336492891,4,2,2,60,0,1
340592,-47.39336492891,4,2,1,60,0,1
341109,-47.39336492891,4,2,2,60,0,1
341420,-47.39336492891,4,2,1,60,0,1
341626,-52.3560209424084,4,2,1,60,0,1
342040,-47.39336492891,4,2,1,60,0,1
342764,-47.39336492891,4,2,1,40,0,1
342868,-52.3560209424084,4,2,1,60,0,1
343282,-58.4795321637427,4,2,1,60,0,1
343695,-52.3560209424084,4,2,1,60,0,1
344109,-47.39336492891,4,2,1,60,0,1
344420,-47.39336492891,4,2,1,40,0,1
344523,-52.3560209424084,4,2,1,60,0,1
345764,-49.7512437810945,4,2,1,60,0,1
346075,-49.7512437810945,4,2,1,40,0,1
346178,-50.761421319797,4,2,1,60,0,1
346385,-47.39336492891,4,2,1,60,0,1
346902,-47.39336492891,4,2,2,60,0,1
347213,-47.39336492891,4,2,1,60,0,1
347730,-47.39336492891,4,2,2,60,0,1
348040,-47.39336492891,4,2,1,60,0,1
348557,-47.39336492891,4,2,1,40,0,1
348661,-47.39336492891,4,2,1,60,0,1
349592,-47.39336492891,4,2,1,30,0,1
349695,-52.3560209424084,4,2,1,60,0,1
350730,-52.3560209424084,4,2,1,60,0,1
351144,-47.39336492891,4,2,1,60,0,1
352695,-47.39336492891,4,2,1,30,0,1
352799,-47.39336492891,4,2,1,60,0,1
353523,-47.39336492891,4,2,1,30,0,1
353626,-47.39336492891,4,2,1,60,0,1
354040,-51.5463917525773,4,2,1,60,0,1
354351,-51.5463917525773,4,2,1,30,0,1
354454,-49.0196078431373,4,2,1,60,0,1
355282,-51.5463917525773,4,2,1,60,0,1
355695,-53.1914893617021,4,2,1,60,0,1
357351,-50.5050505050505,4,2,1,60,0,1
359006,-40,4,2,99,40,0,0
359213,-40,4,2,99,20,0,0
359626,-40,4,2,99,40,0,0
359833,-40,4,2,99,20,0,0
360247,-40,4,2,99,40,0,0
360454,-40,4,2,99,20,0,0
360868,-40,4,2,99,40,0,0
361075,-40,4,2,99,20,0,0
361488,-40,4,2,99,40,0,0
362523,-40,4,2,99,20,0,0
362937,-40,4,2,99,40,0,0
363144,-40,4,2,99,20,0,0
363557,-40,4,2,99,40,0,0
363764,-40,4,2,99,20,0,0
364178,-40,4,2,99,40,0,0
364385,-40,4,2,99,20,0,0
364799,-40,4,2,99,40,0,0
365833,-40,4,2,99,20,0,0
366247,-40,4,2,99,40,0,0
366454,-40,4,2,99,20,0,0
366868,-40,4,2,99,40,0,0
367075,-40,4,2,99,20,0,0
367488,-40,4,2,99,40,0,0
367695,-40,4,2,99,20,0,0
368316,-40,4,2,99,30,0,0
368523,-40,4,2,99,40,0,0
368730,-40,4,2,99,50,0,0
368935,431.654676258993,4,2,99,60,1,0
368935,-100,4,2,99,60,0,0
369150,-100,4,2,99,20,0,0
369592,458.015267175573,4,2,99,60,1,0
369592,-100,4,2,99,60,0,0
369821,-100,4,2,99,20,0,0
370259,476.190476190476,4,2,99,60,1,0
370259,-153.846153846153,4,2,99,60,0,0
370973,-153.846153846153,4,2,99,20,0,0
371216,566.037735849057,4,2,99,60,1,0
371216,-158.730158730159,4,2,99,60,0,0
371316,-181.818181818182,4,2,99,60,0,0
371499,-181.818181818182,4,2,99,10,0,0
371782,-181.818181818182,4,2,99,40,0,0
372065,-181.818181818182,4,2,99,10,0,0
372348,-181.818181818182,4,2,99,20,0,0
372671,1148.7,4,2,99,30,1,0
372671,-200,4,2,99,30,0,0
374681,-100,4,2,99,5,0,0
374968,368.098159509202,4,3,50,20,1,0
375139,344.827586206897,4,3,54,30,1,0
375253,-100,4,3,57,40,0,0
375368,-100,4,3,60,30,0,0
375483,-100,4,3,63,40,0,0
375598,-100,4,3,59,50,0,0
375713,-100,4,3,60,40,0,0
375828,-100,4,3,66,40,0,0
375943,-100,4,3,63,50,0,0
376058,-100,4,3,67,60,0,0
376168,1094,4,2,1,60,1,0
376168,-44.0528634361233,4,2,1,60,0,0
380475,-44.0528634361233,4,2,1,5,0,0
380556,333.333333333333,4,2,1,60,1,0
380556,-120.481927710843,4,2,1,60,0,0
380722,-120.481927710843,4,2,2,40,0,0
385889,-120.481927710843,4,2,2,60,0,0
386056,-120.481927710843,4,2,2,40,0,0
386389,-120.481927710843,4,2,2,60,0,0
386556,-120.481927710843,4,2,2,40,0,0
386889,-120.481927710843,4,2,2,60,0,0
387056,-120.481927710843,4,2,2,40,0,0
388056,-111.111111111111,4,2,2,30,0,0
388222,-111.111111111111,4,2,2,40,0,0
388389,-111.111111111111,4,2,2,50,0,0
388556,-107.52688172043,4,2,2,60,0,0
388722,-107.52688172043,4,2,2,40,0,0
389056,-107.52688172043,4,2,2,60,0,0
389389,-107.52688172043,4,2,2,40,0,0
389556,-107.52688172043,4,2,2,60,0,0
390056,-107.52688172043,4,2,2,20,0,0
390222,-107.52688172043,4,2,2,50,0,0
390389,-107.52688172043,4,2,2,20,0,0
390556,-107.52688172043,4,2,2,40,0,0
390722,-107.52688172043,4,2,2,20,0,0
390889,-107.52688172043,4,2,2,30,0,0
391139,-107.52688172043,4,2,2,10,0,0
391222,-107.52688172043,4,2,2,60,0,0
391389,-107.52688172043,4,2,2,40,0,0
391722,-107.52688172043,4,2,2,60,0,0
391889,-107.52688172043,4,2,2,40,0,0
392222,-107.52688172043,4,2,2,60,0,0
392389,-107.52688172043,4,2,2,40,0,0
393222,-107.52688172043,4,2,2,60,0,0
393389,-107.52688172043,4,2,2,40,0,0
393556,-107.52688172043,4,2,2,60,0,0
393722,-107.52688172043,4,2,2,40,0,0
393889,-107.52688172043,4,2,2,60,0,0
394056,-107.52688172043,4,2,2,40,0,0
394389,-107.52688172043,4,2,2,60,0,0
394556,-107.52688172043,4,2,2,40,0,0
394889,-107.52688172043,4,2,2,60,0,0
395056,-107.52688172043,4,2,2,40,0,0
395556,-107.52688172043,4,2,2,30,0,0
395722,-107.52688172043,4,2,2,50,0,0
395889,-107.52688172043,4,2,2,60,0,0
396556,-121.951219512195,4,2,1,60,0,0
396889,-113.636363636364,4,2,1,60,0,0
397222,-106.382978723404,4,2,1,60,0,0
397556,-100,4,2,1,60,0,0
397889,-94.3396226415094,4,2,1,60,0,0
398222,-89.2857142857143,4,2,1,60,0,0
398556,-84.7457627118644,4,2,1,60,0,0
398889,-81.9672131147541,4,2,1,60,0,0
401889,-87.719298245614,4,2,1,60,0,0
403389,-87.719298245614,4,2,2,60,0,0
403722,-87.719298245614,4,2,1,60,0,0
405306,-87.719298245614,4,2,1,30,0,0
405389,-87.719298245614,4,2,1,60,0,0
406056,-87.719298245614,4,2,2,60,0,0
406389,-87.719298245614,4,2,1,60,0,0
407889,-87.719298245614,4,2,1,40,0,0
408222,-87.719298245614,4,2,1,60,0,0
408722,-87.719298245614,4,2,2,60,0,0
409056,-87.719298245614,4,2,1,60,0,0
412389,-87.719298245614,4,3,32,60,0,0
412472,-87.719298245614,4,3,33,60,0,0
412555,-87.719298245614,4,3,34,60,0,0
412722,-87.719298245614,4,3,30,60,0,0
412889,-87.719298245614,4,3,33,60,0,0
413055,-87.719298245614,4,3,43,60,0,0
413222,-87.719298245614,4,3,32,60,0,0
413389,-87.719298245614,4,3,34,60,0,0
413555,-87.719298245614,4,3,38,60,0,0
413722,-87.719298245614,4,3,36,60,0,0
413889,-87.719298245614,4,3,41,60,0,0
414055,-87.719298245614,4,3,38,60,0,0
414389,-87.719298245614,4,3,36,60,0,0
414555,-87.719298245614,4,3,34,60,0,0
414722,-87.719298245614,4,3,36,60,0,0
414889,-87.719298245614,4,3,38,60,0,0
415055,-87.719298245614,4,3,36,60,0,0
415222,-87.719298245614,4,3,39,60,0,0
415389,-87.719298245614,4,3,38,60,0,0
415555,-87.719298245614,4,3,36,60,0,0
415722,-87.719298245614,4,3,37,60,0,0
415889,-87.719298245614,4,3,34,60,0,0
416055,-87.719298245614,4,3,36,60,0,0
416222,-87.719298245614,4,3,37,60,0,0
416389,-87.719298245614,4,3,38,60,0,0
416555,-87.719298245614,4,3,39,60,0,0
416722,-87.719298245614,4,3,40,60,0,0
416889,-87.719298245614,4,3,38,60,0,0
417055,-87.719298245614,4,3,39,60,0,0
417222,-87.719298245614,4,3,38,60,0,0
417389,-87.719298245614,4,3,36,60,0,0
417555,-87.719298245614,4,3,34,60,0,0
417722,-87.719298245614,4,3,36,60,0,0
417889,-87.719298245614,4,3,37,60,0,0
418055,-87.719298245614,4,3,34,60,0,0
418389,-87.719298245614,4,3,38,65,0,0
418555,-87.719298245614,4,3,34,60,0,0
418889,-87.719298245614,4,3,39,70,0,0
419055,-87.719298245614,4,3,34,60,0,0
419222,-87.719298245614,4,3,39,70,0,0
419389,-87.719298245614,4,3,34,60,0,0
419722,-87.719298245614,4,3,40,60,0,0
419889,-87.719298245614,4,3,34,60,0,0
420222,-87.719298245614,4,3,41,60,0,0
420389,-87.719298245614,4,3,39,60,0,0
420472,-87.719298245614,4,3,40,60,0,0
420555,-87.719298245614,4,3,41,60,0,0
420722,-87.719298245614,4,3,37,60,0,0
420889,-87.719298245614,4,3,40,60,0,0
421055,-87.719298245614,4,3,37,60,0,0
421222,-87.719298245614,4,3,39,60,0,0
421389,-87.719298245614,4,3,37,60,0,0
421555,-87.719298245614,4,3,39,60,0,0
421722,-87.719298245614,4,3,40,60,0,0
421889,-87.719298245614,4,3,41,60,0,0
422055,-87.719298245614,4,3,42,60,0,0
422222,-87.719298245614,4,3,40,60,0,0
422389,-87.719298245614,4,3,39,60,0,0
422555,-87.719298245614,4,3,38,60,0,0
422722,-87.719298245614,4,3,39,55,0,0
422889,-87.719298245614,4,3,40,50,0,0
423055,-87.719298245614,4,3,38,45,0,0
423222,-89.2857142857143,4,2,1,50,0,0
423889,-169.491525423729,4,2,2,50,0,0
424472,-144.927536231884,4,2,1,10,0,0
424555,-76.9230769230769,4,2,2,50,0,0
424805,-1000,4,2,1,10,0,0
424889,-76.9230769230769,4,2,1,50,0,0
425139,-1000,4,2,1,10,0,0
425222,-76.9230769230769,4,2,2,50,0,0
425472,-66.6666666666667,4,2,1,10,0,0
425555,-100,4,2,1,50,0,0
425805,-100,4,2,1,10,0,0
425889,-416.666666666667,4,2,2,50,0,0
426055,-416.666666666667,4,2,1,30,0,0
426222,-416.666666666667,4,2,1,50,0,0
426389,-416.666666666667,4,2,1,30,0,0
426555,-333.333333333333,4,2,2,50,0,0
426639,-333.333333333333,4,2,1,20,0,0
426722,-333.333333333333,4,2,1,50,0,0
426805,-333.333333333333,4,2,1,20,0,0
426889,-333.333333333333,4,2,1,50,0,0
426972,-333.333333333333,4,2,1,20,0,0
427055,-333.333333333333,4,2,1,50,0,0
427139,-333.333333333333,4,2,1,20,0,0
427222,-588.235294117647,4,2,2,50,0,0
427305,-588.235294117647,4,2,1,20,0,0
427389,-588.235294117647,4,2,1,50,0,0
427472,-588.235294117647,4,2,1,20,0,0
427555,-588.235294117647,4,2,1,50,0,0
427639,-588.235294117647,4,2,1,20,0,0
427722,-588.235294117647,4,2,1,50,0,0
427805,-588.235294117647,4,2,1,20,0,0
427889,-769.230769230769,4,2,2,50,0,0
428055,-769.230769230769,4,2,2,30,0,0
428222,-769.230769230769,4,2,2,50,0,0
428389,-769.230769230769,4,2,2,30,0,0
428555,-112.359550561798,4,2,2,50,0,0
428889,-112.359550561798,4,2,2,30,0,0
429222,-169.491525423729,4,2,2,50,0,0
429805,-144.927536231884,4,2,2,10,0,0
429889,-72.992700729927,4,2,2,50,0,0
430139,-72.992700729927,4,2,2,10,0,0
430222,-72.992700729927,4,2,2,50,0,0
430472,-72.992700729927,4,2,2,10,0,0
430555,-72.992700729927,4,2,2,50,0,0
430805,-72.992700729927,4,2,2,10,0,0
430889,-72.992700729927,4,2,2,50,0,0
431139,-72.992700729927,4,2,2,10,0,0
431222,-370.370370370374,4,2,2,50,0,0
431389,-370.370370370374,4,2,2,30,0,0
431555,-370.370370370374,4,2,2,50,0,0
431722,-370.370370370374,4,2,2,30,0,0
431889,-149.253731343284,4,2,2,50,0,0
432139,-149.253731343284,4,2,2,30,0,0
432222,-149.253731343284,4,2,2,50,0,0
432555,-172.413793103448,4,2,2,50,0,0
432722,-172.413793103448,4,2,2,20,0,0
432889,-172.413793103448,4,2,2,50,0,0
433055,-172.413793103448,4,2,2,30,0,0
433222,-129.87012987013,4,2,2,50,0,0
433389,-129.87012987013,4,2,2,40,0,0
433555,-129.87012987013,4,2,2,50,0,0
433722,-129.87012987013,4,2,2,50,0,0
433889,-100,4,2,3,40,0,0
443972,-100,4,2,3,25,0,0
444055,-100,4,2,3,30,0,0
444139,-100,4,2,3,35,0,0
444222,-100,4,2,3,40,0,0
444305,-100,4,2,3,45,0,0
444389,-100,4,2,3,50,0,0
444472,-100,4,2,3,55,0,0
444555,-84.7457627118644,4,2,1,60,0,0
444805,-84.7457627118644,4,2,1,40,0,0
444889,-84.7457627118644,4,2,1,60,0,0
446139,-84.7457627118644,4,2,1,40,0,0
446222,-84.7457627118644,4,2,1,60,0,0
450139,-84.7457627118644,4,2,1,40,0,0
450222,-84.7457627118644,4,2,1,60,0,0
450805,-84.7457627118644,4,2,1,40,0,0
450889,-84.7457627118644,4,2,1,60,0,0
450972,-84.7457627118644,4,2,1,40,0,0
451222,-84.7457627118644,4,2,1,60,0,0
451472,-84.7457627118644,4,2,1,40,0,0
451555,-84.7457627118644,4,2,1,60,0,0
452805,-84.7457627118644,4,2,1,40,0,0
452889,-84.7457627118644,4,2,1,60,0,0
453222,-98.0392156862745,4,2,1,60,0,0
453472,-84.7457627118644,4,2,1,60,0,0
455222,-81.3008130081301,4,2,1,60,0,0
455472,-81.3008130081301,4,2,1,30,0,0
455555,-81.3008130081301,4,2,1,60,0,0
458139,-81.3008130081301,4,2,1,30,0,0
458222,-81.3008130081301,4,2,1,60,0,0
458389,-81.3008130081301,4,2,1,30,0,0
458555,-81.3008130081301,4,2,1,60,0,0
459222,-88.4955752212389,4,2,1,60,0,0
460555,-81.3008130081301,4,2,1,60,0,0
460722,-81.3008130081301,4,2,1,40,0,0
460889,-81.3008130081301,4,2,1,60,0,0
461055,-81.3008130081301,4,2,1,40,0,0
461222,-81.3008130081301,4,2,1,50,0,0
461555,-81.3008130081301,4,2,1,70,0,0
461889,-81.3008130081301,4,2,1,60,0,0
464055,-81.3008130081301,4,2,1,40,0,0
464222,-81.3008130081301,4,2,1,60,0,0
465055,-81.3008130081301,4,2,1,40,0,0
465139,-81.3008130081301,4,2,1,60,0,0
465305,-81.3008130081301,4,2,1,40,0,0
465389,-81.3008130081301,4,2,1,60,0,0
465889,-81.3008130081301,4,3,57,60,0,0
466055,-81.3008130081301,4,3,54,40,0,0
466222,-81.3008130081301,4,3,59,40,0,0
466389,-81.3008130081301,4,3,58,60,0,0
466555,-81.3008130081301,4,3,56,40,0,0
466722,-81.3008130081301,4,3,53,60,0,0
466889,-81.3008130081301,4,3,56,40,0,0
467055,-81.3008130081301,4,3,59,40,0,0
467222,-81.3008130081301,4,3,60,60,0,0
467389,-81.3008130081301,4,3,59,40,0,0
467555,-81.3008130081301,4,3,58,60,0,0
467722,-81.3008130081301,4,3,56,40,0,0
467889,-81.3008130081301,4,3,61,60,0,0
468055,-81.3008130081301,4,3,55,40,0,0
468222,-81.3008130081301,4,3,61,40,0,0
468389,-81.3008130081301,4,3,60,60,0,0
468555,-81.3008130081301,4,3,59,40,0,0
468722,-81.3008130081301,4,3,57,60,0,0
468889,-81.3008130081301,4,3,58,40,0,0
469055,-81.3008130081301,4,3,59,40,0,0
469222,-81.3008130081301,4,3,60,60,0,0
469389,-81.3008130081301,4,3,59,40,0,0
469555,-81.3008130081301,4,3,58,60,0,0
469722,-81.3008130081301,4,3,56,40,0,0
469889,-100,4,3,37,60,0,0
469972,-100,4,3,37,40,0,0
470055,-100,4,3,34,40,0,0
470222,-100,4,3,39,40,0,0
470389,-100,4,3,38,60,0,0
470472,-100,4,3,38,40,0,0
470555,-100,4,3,36,40,0,0
470722,-100,4,3,33,60,0,0
470805,-100,4,3,33,40,0,0
470889,-100,4,3,36,40,0,0
471055,-100,4,3,39,40,0,0
471222,-100,4,3,40,60,0,0
471305,-100,4,3,40,40,0,0
471389,-100,4,3,39,40,0,0
471555,-100,4,3,38,60,0,0
471639,-100,4,3,38,40,0,0
471722,-100,4,3,36,40,0,0
471889,-100,4,3,41,60,0,0
471972,-100,4,3,41,40,0,0
472055,-100,4,3,35,40,0,0
472222,-100,4,3,41,40,0,0
472389,-100,4,3,40,60,0,0
472472,-100,4,3,40,40,0,0
472555,-100,4,3,39,40,0,0
472722,-100,4,3,37,60,0,0
472805,-100,4,3,37,40,0,0
472889,-100,4,3,38,40,0,0
473055,-100,4,3,39,40,0,0
473222,-100,4,3,40,60,0,0
473305,-100,4,3,40,40,0,0
473389,-100,4,3,42,60,0,0
473555,-100,4,3,27,60,0,0
473722,-100,4,3,24,60,0,0
473889,-81.9672131147541,4,3,27,60,0,0
474139,-81.9672131147541,4,2,1,60,0,0
476805,-81.9672131147541,4,2,1,40,0,0
476889,-81.9672131147541,4,2,1,60,0,0
477472,-81.9672131147541,4,2,1,40,0,0
477555,-81.9672131147541,4,2,1,60,0,0
478389,-81.9672131147541,4,2,61,50,0,0
478722,-81.9672131147541,4,2,1,60,0,0
479472,-81.9672131147541,4,2,1,40,0,0
479555,-81.9672131147541,4,2,1,60,0,0
480139,-81.9672131147541,4,2,1,40,0,0
480222,-81.9672131147541,4,2,1,60,0,0
480555,-81.9672131147541,4,2,1,60,0,0
480722,-81.9672131147541,4,2,1,30,0,0
480889,-81.9672131147541,4,2,1,50,0,0
481055,-81.9672131147541,4,2,1,30,0,0
481222,-81.9672131147541,4,2,1,60,0,0
481389,-81.9672131147541,4,2,1,30,0,0
481555,-81.9672131147541,4,2,1,60,0,0
481722,-81.9672131147541,4,2,1,40,0,0
481889,-79.3650793650794,4,2,1,60,0,0
482139,-79.3650793650794,4,2,1,40,0,0
482222,-79.3650793650794,4,2,1,60,0,0
482389,-79.3650793650794,4,3,62,50,0,0
482722,-79.3650793650794,4,3,1,60,0,0
482805,-79.3650793650794,4,3,61,50,0,0
483055,-79.3650793650794,4,3,60,50,0,0
483222,-72.463768115942,4,2,61,50,0,0
483389,-72.463768115942,4,2,1,60,0,0
484222,-72.463768115942,4,3,41,60,0,0
484555,-65.7894736842105,4,3,25,60,0,1
484889,-65.7894736842105,4,2,1,60,0,1
485055,-65.7894736842105,4,3,41,60,0,1
485139,-65.7894736842105,4,3,40,60,0,1
485222,-65.7894736842105,4,3,41,60,0,1
485472,-65.7894736842105,4,3,41,40,0,1
485555,-65.7894736842105,4,3,37,60,0,1
485722,-65.7894736842105,4,3,42,60,0,1
485889,-65.7894736842105,4,3,25,60,0,1
486139,-65.7894736842105,4,3,41,60,0,1
486389,-65.7894736842105,4,3,40,60,0,1
486555,-65.7894736842105,4,3,39,60,0,1
486639,-65.7894736842105,4,2,1,60,0,1
487222,-65.7894736842105,4,3,26,60,0,1
487555,-65.7894736842105,4,2,1,60,0,1
487722,-65.7894736842105,4,3,37,60,0,1
487805,-65.7894736842105,4,3,36,60,0,1
487889,-65.7894736842105,4,3,37,60,0,1
488139,-65.7894736842105,4,3,37,40,0,1
488222,-65.7894736842105,4,3,40,60,0,1
488389,-65.7894736842105,4,3,41,60,0,1
488555,-65.7894736842105,4,3,25,60,0,1
488805,-65.7894736842105,4,3,41,60,0,1
489055,-65.7894736842105,4,3,40,60,0,1
489222,-65.7894736842105,4,3,41,60,0,1
489305,-65.7894736842105,4,2,1,60,0,1
489555,-65.7894736842105,4,3,25,60,0,1
489722,-65.7894736842105,4,3,42,60,0,1
489889,-58.1395348837209,4,3,27,60,0,1
490389,-58.1395348837209,4,3,42,60,0,1
490472,-58.1395348837209,4,3,25,60,0,1
490555,-58.1395348837209,4,3,41,60,0,1
490805,-58.1395348837209,4,3,41,40,0,1
490889,-65.7894736842105,4,3,39,60,0,1
490972,-65.7894736842105,4,2,1,60,0,1
491222,-65.7894736842105,4,3,40,60,0,1
491472,-65.7894736842105,4,3,41,60,0,1
491722,-65.7894736842105,4,3,25,60,0,1
491889,-65.7894736842105,4,3,39,60,0,1
491972,-65.7894736842105,4,2,1,60,0,1
492555,-65.7894736842105,4,3,26,60,0,1
493055,-65.7894736842105,4,3,37,60,0,1
493139,-65.7894736842105,4,3,36,60,0,1
493222,-65.7894736842105,4,3,37,60,0,1
493472,-65.7894736842105,4,3,37,40,0,1
493555,-65.7894736842105,4,3,40,60,0,1
493722,-65.7894736842105,4,3,41,60,0,1
493889,-65.7894736842105,4,3,25,60,0,1
494139,-65.7894736842105,4,3,42,60,0,1
494389,-65.7894736842105,4,3,25,60,0,1
494555,-65.7894736842105,4,3,41,60,0,1
494639,-65.7894736842105,4,2,1,60,0,1
494889,-65.7894736842105,4,3,25,60,0,1
495222,-100,4,2,2,40,0,0
496555,-100,4,2,1,60,0,0
497222,-87.719298245614,4,2,1,60,0,0
497389,-106.382978723404,4,2,1,50,0,0
497555,-135.135135135135,4,2,1,40,0,0
497722,-200,4,2,1,30,0,0
497889,-250,4,2,1,20,0,0
498555,-200,4,2,1,20,0,0
499222,-200,4,2,1,20,0,0
499889,-200,4,2,1,20,0,0
500555,-200,4,2,2,40,0,0
501222,-200,4,2,2,40,0,0
501889,-200,4,2,2,40,0,0
502555,-200,4,2,2,40,0,0
503222,-200,4,2,2,40,0,0
503889,-200,4,2,2,40,0,0
504555,-200,4,2,2,40,0,0
505222,-200,4,2,2,40,0,0
505889,-200,4,2,2,40,0,0
506555,-200,4,2,2,40,0,0
507222,-200,4,2,2,40,0,0
507889,-200,4,2,2,40,0,0
508555,-200,4,2,2,40,0,0
509222,-200,4,2,2,40,0,0
509889,-200,4,2,2,40,0,0
510555,-200,4,2,2,40,0,0
511222,-200,4,2,2,40,0,0
524222,-169.491525423729,4,2,2,40,0,0
525222,-153.846153846154,4,2,2,40,0,0
527222,-153.846153846154,4,2,99,40,0,0
528472,-153.846153846154,4,2,99,10,0,0
528555,-153.846153846154,4,2,99,60,0,0
529222,-153.846153846154,4,2,99,60,0,0
529389,-153.846153846154,4,2,99,30,0,0
529889,-153.846153846154,4,2,99,60,0,0
530055,-153.846153846154,4,2,99,30,0,0
530555,-153.846153846154,4,2,99,60,0,0
530722,-153.846153846154,4,2,99,30,0,0
531222,-153.846153846154,4,2,99,60,0,0
531555,-153.846153846154,4,2,99,20,0,0
531722,-153.846153846154,4,2,99,60,0,0
532222,-153.846153846154,4,2,99,30,0,0
532555,-153.846153846154,4,2,99,60,0,0
532722,-153.846153846154,4,2,99,40,0,0
533555,-153.846153846154,4,2,99,10,0,0
533722,-153.846153846154,4,2,99,20,0,0
534222,-153.846153846154,4,2,99,20,0,0
534555,-153.846153846154,4,2,99,40,0,0
535222,-153.846153846154,4,2,99,60,0,0
536472,-153.846153846154,4,2,99,20,0,0
536555,-153.846153846154,4,2,99,60,0,0
537389,-153.846153846154,4,2,99,30,0,0
537889,-153.846153846154,4,2,99,60,0,0
538055,-153.846153846154,4,2,99,30,0,0
538555,-153.846153846154,4,2,99,60,0,0
538722,-153.846153846154,4,2,99,30,0,0
539222,-153.846153846154,4,2,99,60,0,0
539472,-153.846153846154,4,2,99,20,0,0
539555,-153.846153846154,4,2,99,40,0,0
539722,-153.846153846154,4,2,99,60,0,0
539889,-153.846153846154,4,2,99,40,0,0
540472,-153.846153846154,4,2,99,20,0,0
540555,-153.846153846154,4,2,99,60,0,0
540722,-153.846153846154,4,2,99,40,0,0
541555,-153.846153846154,4,2,99,20,0,0
541722,-153.846153846154,4,2,99,40,0,0
542889,-153.846153846154,4,2,99,10,0,0
543222,-153.846153846154,4,2,2,50,0,0
543389,-153.846153846154,4,2,2,30,0,0
543889,-153.846153846154,4,2,2,50,0,0
544055,-153.846153846154,4,2,2,30,0,0
544555,-153.846153846154,4,2,2,50,0,0
544722,-153.846153846154,4,2,2,30,0,0
544889,-153.846153846154,4,2,2,50,0,0
545055,-153.846153846154,4,2,2,30,0,0
545222,-153.846153846154,4,2,2,50,0,0
545389,-153.846153846154,4,2,2,30,0,0
545555,-153.846153846154,4,2,2,50,0,0
545722,-153.846153846154,4,2,2,30,0,0
545889,-153.846153846154,4,2,2,50,0,0
546055,-153.846153846154,4,2,2,30,0,0
546222,-153.846153846154,4,2,2,50,0,0
546389,-153.846153846154,4,2,2,30,0,0
546555,-153.846153846154,4,2,2,50,0,0
546722,-153.846153846154,4,2,2,40,0,0
547222,-153.846153846154,4,2,2,50,0,0
547389,-153.846153846154,4,2,2,40,0,0
547889,-153.846153846154,4,2,2,50,0,0
548055,-153.846153846154,4,2,2,30,0,0
548222,-153.846153846154,4,2,2,50,0,0
548389,-153.846153846154,4,2,2,30,0,0
548555,-153.846153846154,4,2,2,50,0,0
548722,-153.846153846154,4,2,2,30,0,0
549222,-153.846153846154,4,2,2,50,0,0
549389,-153.846153846154,4,2,2,30,0,0
549889,-153.846153846154,4,2,2,50,0,0
550055,-153.846153846154,4,2,2,30,0,0
550222,-153.846153846154,4,2,2,50,0,0
550389,-153.846153846154,4,2,2,30,0,0
550555,-153.846153846154,4,2,2,50,0,0
550722,-153.846153846154,4,2,2,30,0,0
550889,-153.846153846154,4,2,2,50,0,0
551055,-153.846153846154,4,2,2,20,0,0
551222,-153.846153846154,4,2,1,18,0,0
551389,-153.846153846154,4,2,1,22,0,0
551555,-153.846153846154,4,2,1,26,0,0
551722,-153.846153846154,4,2,1,30,0,0
551889,-153.846153846154,4,2,1,34,0,0
552055,-153.846153846154,4,2,1,38,0,0
552222,-153.846153846154,4,2,1,42,0,0
552389,-153.846153846154,4,2,1,46,0,0
552555,-153.846153846154,4,2,1,60,0,0
553555,-76.9230769230769,4,2,1,60,0,0
553889,-69.4444444444444,4,2,4,60,0,1
554139,-69.4444444444444,4,2,4,40,0,1
554222,-69.4444444444444,4,2,4,60,0,1
554555,-69.4444444444444,4,2,4,60,0,1
554722,-69.4444444444444,4,2,4,60,0,1
556805,-69.4444444444444,4,2,4,30,0,1
556889,-69.4444444444444,4,2,4,60,0,1
559472,-69.4444444444444,4,2,4,40,0,1
559555,-69.4444444444444,4,2,4,60,0,1
560139,-69.4444444444444,4,2,4,40,0,1
560222,-69.4444444444444,4,2,4,60,0,1
562139,-69.4444444444444,4,2,4,40,0,1
562222,-69.4444444444444,4,2,4,60,0,1
564555,-60.9756097560976,4,2,4,70,0,1
564805,-60.9756097560976,4,2,4,40,0,1
564889,-60.9756097560976,4,2,4,60,0,1
565055,-69.4444444444444,4,2,4,70,0,1
565389,-69.4444444444444,4,2,4,60,0,1
565722,-69.4444444444444,4,2,4,70,0,1
565889,-69.4444444444444,4,2,4,70,0,1
566139,-69.4444444444444,4,2,4,30,0,1
566222,-69.4444444444444,4,2,4,60,0,1
566389,-69.4444444444444,4,2,4,70,0,1
566639,-69.4444444444444,4,2,4,60,0,1
567055,-69.4444444444444,4,2,4,70,0,1
567222,-71.9424460431655,4,2,4,70,0,1
567472,-71.9424460431655,4,2,4,40,0,1
567555,-71.9424460431655,4,2,4,60,0,1
567722,-71.9424460431655,4,2,4,70,0,1
567972,-71.9424460431655,4,2,4,60,0,1
568222,-71.9424460431655,4,2,4,70,0,1
568389,-71.9424460431655,4,2,4,40,0,1
568555,-71.9424460431655,4,2,4,70,0,1
568722,-71.9424460431655,4,2,4,60,0,1
568889,-67.1140939597315,4,2,4,60,0,1
569639,-67.1140939597315,4,2,4,50,0,1
569889,-64.9350649350649,4,2,4,70,0,1
570139,-64.9350649350649,4,2,4,40,0,1
570222,-60.9756097560976,4,2,4,60,0,1
570389,-60.9756097560976,4,2,4,70,0,1
570639,-60.9756097560976,4,2,4,60,0,1
570889,-80.6451612903226,4,2,4,70,0,1
570972,-80.6451612903226,4,2,4,40,0,1
571055,-80.6451612903226,4,2,4,75,0,1
571139,-80.6451612903226,4,2,4,40,0,1
571222,-58.1395348837209,4,2,4,80,0,1
571472,-58.1395348837209,4,2,4,40,0,1
571555,-58.1395348837209,4,2,4,60,0,1
571722,-58.1395348837209,4,2,4,60,0,1
572055,-58.1395348837209,4,2,4,50,0,1
572222,-58.1395348837209,4,2,4,70,0,1
572305,-58.1395348837209,4,2,4,40,0,1
572389,-58.1395348837209,4,2,4,75,0,1
572472,-58.1395348837209,4,2,4,40,0,1
572555,-55.5555555555556,4,2,4,80,0,1
572805,-55.5555555555556,4,2,4,40,0,1
572889,-55.5555555555556,4,2,4,60,0,1
573055,-64.9350649350649,4,2,4,70,0,1
573305,-64.9350649350649,4,2,4,60,0,1
573805,-64.9350649350649,4,2,4,40,0,1
573889,-64.9350649350649,4,2,4,60,0,1
574222,-69.4444444444444,4,2,4,60,0,1
575222,-133.333333333333,4,2,2,60,0,0
575889,-133.333333333333,4,2,2,60,0,0
576555,-133.333333333333,4,2,2,60,0,0
577222,-133.333333333333,4,2,2,60,0,0
577389,-133.333333333333,4,2,2,30,0,0
577555,-133.333333333333,4,2,2,60,0,0
577805,-133.333333333333,4,2,2,20,0,0
577889,-133.333333333333,4,2,2,60,0,0
578222,-133.333333333333,4,2,2,30,0,0
578555,-133.333333333333,4,2,2,60,0,0
579222,-133.333333333333,4,2,2,60,0,0
579889,-133.333333333333,4,2,2,60,0,0
580555,-133.333333333333,4,2,2,60,0,0
580805,-133.333333333333,4,2,2,30,0,0
580889,-133.333333333333,4,2,2,60,0,0
581222,-133.333333333333,4,2,2,60,0,0
581889,-133.333333333333,4,2,2,60,0,0
582555,-133.333333333333,4,2,2,60,0,0
583222,-133.333333333333,4,2,2,60,0,0
583472,-133.333333333333,4,2,2,20,0,0
583555,-133.333333333333,4,2,2,60,0,0
583889,-133.333333333333,4,2,2,60,0,0
584555,-133.333333333333,4,2,2,60,0,0
585222,-133.333333333333,4,2,2,60,0,0
585389,-133.333333333333,4,2,2,30,0,0
585555,-133.333333333333,4,2,2,60,0,0
585722,-133.333333333333,4,2,2,30,0,0
585889,-133.333333333333,4,3,70,60,0,0
586222,-133.333333333333,4,3,71,60,0,0
586555,-133.333333333333,4,3,72,60,0,0
586889,-133.333333333333,4,3,73,60,0,0
587222,-69.9300699300699,4,2,1,60,0,1
587722,-69.9300699300699,4,2,1,60,0,1
587805,-69.9300699300699,4,2,1,60,0,1
587889,-69.9300699300699,4,2,1,60,0,1
588222,-69.9300699300699,4,2,1,60,0,1
588389,-69.9300699300699,4,2,1,60,0,1
588555,-69.9300699300699,4,2,1,60,0,1
588805,-69.9300699300699,4,2,1,60,0,1
589055,-69.9300699300699,4,2,1,60,0,1
589222,-69.9300699300699,4,2,1,60,0,1
589305,-69.9300699300699,4,2,1,60,0,1
589889,-69.9300699300699,4,2,1,60,0,1
590389,-69.9300699300699,4,2,1,60,0,1
590472,-69.9300699300699,4,2,1,60,0,1
590555,-69.9300699300699,4,2,1,60,0,1
590639,-69.9300699300699,4,2,1,60,0,1
590889,-69.9300699300699,4,2,1,60,0,1
591055,-69.9300699300699,4,2,1,60,0,1
591139,-69.9300699300699,4,2,1,60,0,1
591222,-69.9300699300699,4,2,1,60,0,1
591472,-69.9300699300699,4,2,1,60,0,1
591722,-69.9300699300699,4,2,1,60,0,1
591889,-69.9300699300699,4,2,1,60,0,1
592222,-69.9300699300699,4,2,1,60,0,1
592389,-69.9300699300699,4,2,1,60,0,1
592555,-69.9300699300699,4,2,1,60,0,1
593055,-69.9300699300699,4,2,1,60,0,1
593139,-69.9300699300699,4,2,1,60,0,1
593222,-69.9300699300699,4,2,1,60,0,1
593555,-69.9300699300699,4,2,1,60,0,1
593722,-69.9300699300699,4,2,1,60,0,1
593889,-69.9300699300699,4,2,1,60,0,1
594139,-69.9300699300699,4,2,1,60,0,1
594389,-69.9300699300699,4,2,1,60,0,1
594555,-69.9300699300699,4,2,1,60,0,1
594639,-69.9300699300699,4,2,1,60,0,1
595222,-69.9300699300699,4,2,1,60,0,1
595722,-69.9300699300699,4,2,1,60,0,1
595805,-69.9300699300699,4,2,1,60,0,1
595889,-69.9300699300699,4,2,1,60,0,1
596222,-69.9300699300699,4,2,1,60,0,1
596389,-69.9300699300699,4,2,1,60,0,1
596555,-69.9300699300699,4,2,1,60,0,1
596805,-69.9300699300699,4,2,1,60,0,1
597055,-69.9300699300699,4,2,1,60,0,1
597555,-69.9300699300699,4,2,1,60,0,1
597889,-69.9300699300699,4,3,39,60,0,1
598389,-69.9300699300699,4,3,38,60,0,1
598472,-69.9300699300699,4,3,37,60,0,1
598555,-69.9300699300699,4,3,38,60,0,1
598889,-69.9300699300699,4,3,34,60,0,1
599055,-69.9300699300699,4,3,40,60,0,1
599139,-69.9300699300699,4,2,1,60,0,1
599222,-69.9300699300699,4,3,39,60,0,1
599472,-69.9300699300699,4,3,38,60,0,1
599722,-69.9300699300699,4,3,37,60,0,1
599889,-69.9300699300699,4,3,36,60,0,1
600055,-69.9300699300699,4,2,1,60,0,1
600555,-69.9300699300699,4,3,35,60,0,1
601055,-69.9300699300699,4,3,34,60,0,1
601139,-69.9300699300699,4,3,33,60,0,1
601222,-69.9300699300699,4,3,34,60,0,1
601555,-69.9300699300699,4,3,37,60,0,1
601722,-69.9300699300699,4,3,38,60,0,1
601889,-69.9300699300699,4,3,39,60,0,1
602139,-69.9300699300699,4,3,38,60,0,1
602389,-69.9300699300699,4,3,37,60,0,1
602555,-69.9300699300699,4,3,38,60,0,1
602722,-69.9300699300699,4,2,1,60,0,1
602889,-69.9300699300699,4,3,39,60,0,1
603055,-69.9300699300699,4,3,40,60,0,1
603222,-69.9300699300699,4,3,41,60,0,1
603722,-69.9300699300699,4,3,40,60,0,1
603805,-69.9300699300699,4,3,39,60,0,1
603889,-69.9300699300699,4,3,38,60,0,1
604222,-69.9300699300699,4,3,36,60,0,1
604389,-69.9300699300699,4,2,1,60,0,1
604555,-69.9300699300699,4,3,37,60,0,1
604805,-69.9300699300699,4,3,38,60,0,1
605055,-69.9300699300699,4,3,39,60,0,1
605139,-69.9300699300699,4,2,1,60,0,1
605222,-69.9300699300699,4,3,36,60,0,1
605305,-69.9300699300699,4,2,1,60,0,1
605889,-69.9300699300699,4,3,35,60,0,1
606389,-69.9300699300699,4,3,34,60,0,1
606472,-69.9300699300699,4,3,33,60,0,1
606555,-69.9300699300699,4,3,34,60,0,1
606889,-69.9300699300699,4,3,37,60,0,1
607055,-69.9300699300699,4,3,38,60,0,1
607222,-69.9300699300699,4,3,39,60,0,1
607472,-69.9300699300699,4,3,40,60,0,1
607722,-69.9300699300699,4,3,41,60,0,1
607889,-69.9300699300699,4,3,40,60,0,1
608222,-69.9300699300699,4,3,42,70,0,1
608305,-69.9300699300699,4,2,1,60,0,1
608555,-81.3008130081301,4,3,27,60,0,1
608722,-81.3008130081301,4,2,4,80,0,1
609055,-81.3008130081301,4,2,4,80,0,1
609139,-81.3008130081301,4,2,4,60,0,1
609555,-81.3008130081301,4,2,4,80,0,1
609639,-81.3008130081301,4,2,4,60,0,1
610055,-81.3008130081301,4,2,4,80,0,1
610139,-81.3008130081301,4,2,4,60,0,1
610555,-81.3008130081301,4,2,4,80,0,1
610639,-81.3008130081301,4,2,4,60,0,1
610889,-81.3008130081301,4,2,4,80,0,1
610972,-81.3008130081301,4,2,4,60,0,1
611222,-81.3008130081301,4,2,4,80,0,1
611389,-81.3008130081301,4,2,4,60,0,1
611722,-81.3008130081301,4,2,4,80,0,1
611805,-81.3008130081301,4,2,4,60,0,1
612222,-81.3008130081301,4,2,4,80,0,1
612305,-81.3008130081301,4,2,4,60,0,1
612722,-81.3008130081301,4,2,4,80,0,1
612805,-81.3008130081301,4,2,4,60,0,1
613222,-81.3008130081301,4,2,4,80,0,1
613305,-81.3008130081301,4,2,4,60,0,1
613555,-81.3008130081301,4,2,4,80,0,1
613639,-81.3008130081301,4,2,4,60,0,1
613889,-81.3008130081301,4,2,4,80,0,1
614055,-81.3008130081301,4,2,4,60,0,1
614389,-81.3008130081301,4,2,4,80,0,1
614472,-81.3008130081301,4,2,4,60,0,1
614889,-81.3008130081301,4,2,4,80,0,1
614972,-81.3008130081301,4,2,4,60,0,1
615389,-81.3008130081301,4,2,4,80,0,1
615472,-81.3008130081301,4,2,4,60,0,1
615889,-81.3008130081301,4,2,4,80,0,1
615972,-81.3008130081301,4,2,4,60,0,1
616222,-81.3008130081301,4,2,4,80,0,1
616305,-81.3008130081301,4,2,4,60,0,1
616555,-81.3008130081301,4,2,4,80,0,1
616639,-81.3008130081301,4,2,4,60,0,1
617055,-81.3008130081301,4,2,4,80,0,1
617139,-81.3008130081301,4,2,4,60,0,1
617555,-81.3008130081301,4,2,4,80,0,1
617639,-81.3008130081301,4,2,4,60,0,1
618222,-81.3008130081301,4,2,4,80,0,1
618305,-81.3008130081301,4,2,4,60,0,1
618555,-81.3008130081301,4,2,4,80,0,1
618639,-81.3008130081301,4,2,4,60,0,1
618889,-81.3008130081301,4,2,4,80,0,1
618972,-81.3008130081301,4,2,4,60,0,1
619222,-81.3008130081301,4,2,4,80,0,1
619389,-81.3008130081301,4,2,4,60,0,1
619722,-81.3008130081301,4,2,4,80,0,1
619805,-81.3008130081301,4,2,4,60,0,1
620222,-81.3008130081301,4,2,4,80,0,1
620305,-81.3008130081301,4,2,4,60,0,1
620722,-81.3008130081301,4,2,4,80,0,1
620805,-81.3008130081301,4,2,4,60,0,1
621222,-81.3008130081301,4,2,4,80,0,1
621305,-81.3008130081301,4,2,4,60,0,1
621555,-81.3008130081301,4,2,4,80,0,1
621639,-81.3008130081301,4,2,4,60,0,1
621889,-81.3008130081301,4,2,4,80,0,1
622055,-81.3008130081301,4,2,4,60,0,1
622389,-81.3008130081301,4,2,4,80,0,1
622472,-81.3008130081301,4,2,4,60,0,1
622889,-81.3008130081301,4,2,4,80,0,1
622972,-81.3008130081301,4,2,4,60,0,1
623389,-81.3008130081301,4,2,4,80,0,1
623472,-81.3008130081301,4,2,4,60,0,1
623889,-81.3008130081301,4,2,4,80,0,1
623972,-81.3008130081301,4,2,4,60,0,1
624222,-81.3008130081301,4,2,4,80,0,1
624305,-81.3008130081301,4,2,4,60,0,1
624555,-81.3008130081301,4,2,4,80,0,1
624722,-81.3008130081301,4,2,4,60,0,1
625055,-81.3008130081301,4,2,4,80,0,1
625139,-81.3008130081301,4,2,4,60,0,1
625555,-81.3008130081301,4,2,4,80,0,1
625639,-81.3008130081301,4,2,4,60,0,1
626055,-81.3008130081301,4,2,4,80,0,1
626139,-81.3008130081301,4,2,4,60,0,1
626555,-81.3008130081301,4,2,4,80,0,1
626639,-81.3008130081301,4,2,4,60,0,1
626889,-81.3008130081301,4,2,4,80,0,1
626972,-81.3008130081301,4,2,4,60,0,1
627222,-81.3008130081301,4,2,4,80,0,1
627389,-81.3008130081301,4,2,4,60,0,1
627722,-81.3008130081301,4,2,4,80,0,1
627805,-81.3008130081301,4,2,4,60,0,1
628222,-81.3008130081301,4,2,4,80,0,1
628305,-81.3008130081301,4,2,4,60,0,1
628805,-81.3008130081301,4,2,4,30,0,1
628889,-81.3008130081301,4,2,4,70,0,1
629055,-81.3008130081301,4,2,4,60,0,1
629139,-81.3008130081301,4,2,4,30,0,1
629222,-81.3008130081301,4,2,4,80,0,1
629389,-81.3008130081301,4,2,4,60,0,1
629472,-81.3008130081301,4,2,4,30,0,1
629555,-81.3008130081301,4,2,4,90,0,1
629722,-81.3008130081301,4,2,4,60,0,1
629805,-81.3008130081301,4,2,4,30,0,1
629889,-75.7575757575758,4,2,1,80,0,0
629972,-75.7575757575758,4,2,99,60,0,0
632555,-75.7575757575758,4,2,99,5,0,0

[Colours]
Combo1 : 205,205,205
Combo2 : 91,206,164
Combo3 : 63,220,248
Combo4 : 214,189,103
Combo5 : 250,169,80
Combo6 : 116,225,64
Combo7 : 204,49,96
Combo8 : 129,87,86

[HitObjects]
332,96,6693,6,0,P|341:174|355:274,1,165.120002519531,2|2,0:0|0:0,0:0:0:0:
322,349,7693,1,2,0:0:0:0:
243,298,8026,2,0,B|150:280|182:343|74:318,1,165.120002519531,2|2,0:0|0:0,0:0:0:0:
1,277,9026,1,2,0:0:0:0:
53,198,9360,86,0,P|49:118|5:34,2,165.120002519531,2|2|2,0:0|0:0|0:0,0:0:0:0:
163,139,11360,1,2,0:0:0:0:
432,300,12026,21,2,0:0:0:0:
356,274,12359,1,2,0:0:0:0:
314,193,12693,1,2,0:0:0:0:
340,95,13026,1,2,0:0:0:0:
411,180,13359,1,2,0:0:0:0:
356,274,13693,1,2,0:0:0:0:
249,305,14026,1,2,0:0:0:0:
33,113,14693,86,0,P|74:64|176:62,1,165.120002519531,2|2,0:0|0:0,0:0:0:0:
232,118,15693,1,2,0:0:0:0:
289,182,16026,2,0,P|399:184|510:86,1,247.680003779297,2|0,0:0|0:0,0:0:0:0:
502,101,17360,22,0,P|494:179|483:278,1,165.120002519531,2|2,0:0|0:0,0:0:0:0:
419,333,18360,1,2,0:0:0:0:
341,281,18693,2,0,P|328:193|319:111,1,165.120002519531,2|2,0:0|0:0,0:0:0:0:
289,28,19693,1,2,0:0:0:0:
217,89,20026,86,0,P|141:99|65:39,2,165.120002519531,2|2|2,0:0|0:0|0:0,0:0:0:0:
313,0,22026,1,2,0:0:0:0:
35,139,22693,21,2,0:0:0:0:
111,165,23026,1,2,0:0:0:0:
153,246,23360,1,2,0:0:0:0:
121,342,23693,1,2,0:0:0:0:
58,263,24026,1,2,0:0:0:0:
111,165,24360,1,2,0:0:0:0:
218,134,24693,1,2,0:0:0:0:
461,337,25360,86,0,L|438:168,1,165.120002519531,2|2,0:0|0:0,0:0:0:0:
459,81,26360,1,2,0:0:0:0:
346,135,26693,2,0,P|267:141|199:84,1,165.120002519531,2|0,0:0|0:0,0:0:0:0:
61,225,27860,21,2,0:0:0:0:
68,225,27943,1,2,0:0:0:0:
74,225,28026,6,0,L|155:221,1,64.3199969575197,2|0,0:0|0:0,0:0:0:0:
211,277,28360,102,0,P|233:306|256:336,1,74.880002513672,2|0,0:0|0:0,0:0:0:0:
208,163,28693,6,0,P|232:130|262:92,1,86.3999973632813,2|0,0:0|0:0,0:0:0:0:
418,202,29026,102,0,P|341:208|250:214,1,144,2|0,0:0|0:0,0:0:0:0:
211,277,29360,6,0,P|188:308|161:345,1,74.880002513672,2|0,0:0|0:0,0:0:0:0:
208,163,29693,102,0,P|179:128|143:85,1,86.3999973632813,2|0,0:0|0:0,0:0:0:0:
138,222,30026,6,0,L|69:227,1,64.3199969575197,2|0,0:0|0:0,0:0:0:0:
275,212,30360,102,0,P|346:207|413:202,1,115.2,2|0,0:0|0:0,0:0:0:0:
430,200,30693,5,2,0:0:0:0:
483,58,30860,1,0,0:0:0:0:
406,109,31026,1,2,0:0:0:0:
512,152,31193,1,2,0:0:0:0:
406,109,31360,2,0,L|313:77,1,76.8,2|0,0:0|0:0,0:0:0:0:
128,93,31693,2,0,B|200:111|200:111|273:62,1,144,2|0,0:0|0:0,0:0:0:0:
258,72,32026,102,0,L|275:182,1,84.4800025781251,2|0,0:0|0:0,0:0:0:0:
185,20,32360,1,2,0:0:0:0:
128,93,32526,1,2,0:0:0:0:
38,83,32693,2,0,L|16:-37,1,84.4800025781251,2|0,0:0|0:0,0:0:0:0:
56,168,33026,1,2,0:0:0:0:
56,168,33360,6,0,L|137:147,1,84.4800025781251,2|0,0:0|0:0,0:0:0:0:
173,265,33694,2,0,L|254:287,1,84.4800025781251,2|0,0:0|0:0,0:0:0:0:
413,118,34026,2,0,L|332:97,1,84.4800025781251,2|0,0:0|0:0,0:0:0:0:
330,289,34360,2,0,L|411:267,1,84.4800025781251,2|0,0:0|0:0,0:0:0:0:
505,192,34693,102,0,L|420:192,1,84.4800025781251,2|0,0:0|0:0,0:0:0:0:
300,342,35026,2,0,L|342:268,1,84.4800025781251,2|0,0:0|0:0,0:0:0:0:
295,38,35360,2,0,L|337:111,1,84.4800025781251,2|0,0:0|0:0,0:0:0:0:
420,192,35693,2,0,L|335:192,1,84.4800025781251,2|0,0:0|0:0,0:0:0:0:
207,347,36026,5,2,0:0:0:0:
304,292,36193,1,0,0:0:0:0:
208,247,36360,1,2,0:0:0:0:
302,191,36526,1,2,0:0:0:0:
209,140,36693,2,0,P|166:129|117:120,1,84.4800025781251,2|0,0:0|0:0,0:0:0:0:
304,292,37026,2,0,P|375:290|446:240,1,126.720003867188,2|0,0:0|0:0,0:0:0:0:
423,264,37360,102,0,L|409:360,1,84.4800025781251,2|0,0:0|0:0,0:0:0:0:
302,191,37693,1,2,0:0:0:0:
208,247,37860,1,2,0:0:0:0:
183,66,38026,37,0,0:0:0:0:
332,112,38193,21,0,0:0:0:0:
170,68,38360,85,0,0:0:0:0:
345,110,38527,21,0,0:0:0:0:
157,300,38693,22,0,L|59:277,1,91.1999975646973,6|2,0:0|0:0,0:0:0:0:
47,276,38943,2,0,L|57:346,1,45.5999987823487,2|8,0:0|0:0,0:0:0:0:
235,286,39193,1,2,0:0:0:0:
239,278,39276,1,8,0:0:0:0:
243,269,39360,102,0,P|238:242|228:181,1,48,2|2,0:0|0:0,0:0:0:0:
218,135,39526,1,8,0:0:0:0:
140,112,39693,1,2,0:0:0:0:
151,254,39860,1,8,0:0:0:0:
314,192,40026,5,2,0:0:0:0:
331,186,40110,1,8,0:0:0:0:
348,181,40192,1,2,0:0:0:0:
366,176,40276,1,2,0:0:0:0:
383,171,40359,1,8,0:0:0:0:
218,135,40526,101,2,0:0:0:0:
192,127,40610,1,8,0:0:0:0:
166,120,40693,1,2,0:0:0:0:
140,112,40776,1,2,0:0:0:0:
114,105,40860,1,8,0:0:0:0:
257,62,41026,5,8,0:0:0:0:
261,38,41109,1,2,0:0:0:0:
265,14,41192,1,8,0:0:0:0:
188,207,41360,102,0,P|133:220|81:197,1,96,2|2,0:0|0:0,0:0:0:0:
47,145,41610,2,0,P|38:112|41:82,1,48,2|8,0:0|0:0,0:0:0:0:
160,34,41860,2,0,L|214:26,2,48,2|8|2,0:0|0:0|0:0,0:0:0:0:
142,137,42193,5,8,0:0:0:0:
126,241,42360,1,2,0:0:0:0:
319,216,42526,102,0,P|366:209|448:202,1,96,8|2,0:0|0:0,0:0:0:0:
442,187,42776,1,8,0:0:0:0:
448,224,42859,1,2,0:0:0:0:
455,262,42942,1,2,0:0:0:0:
460,300,43026,1,8,0:0:0:0:
353,350,43193,5,2,0:0:0:0:
349,325,43276,1,8,0:0:0:0:
345,300,43360,1,2,0:0:0:0:
256,339,43526,101,8,0:0:0:0:
168,301,43693,5,2,0:0:0:0:
163,326,43776,1,8,0:0:0:0:
158,350,43860,1,8,0:0:0:0:
259,138,44026,102,0,B|276:109|276:109|258:6,1,96,2|2,0:0|0:0,0:0:0:0:
263,249,44360,2,0,B|245:277|245:277|263:381,1,96,8|2,0:0|0:0,0:0:0:0:
240,375,44610,1,8,0:0:0:0:
217,335,44693,1,2,0:0:0:0:
174,319,44776,1,2,0:0:0:0:
128,328,44860,2,0,L|7:342,1,96,8|2,0:0|0:0,0:0:0:0:
338,290,45193,1,8,0:0:0:0:
166,226,45360,5,2,0:0:0:0:
159,203,45443,1,8,0:0:0:0:
152,180,45526,1,2,0:0:0:0:
145,157,45610,1,2,0:0:0:0:
139,134,45693,1,8,0:0:0:0:
256,299,45860,102,0,L|256:352,2,48,2|8|2,0:0|0:0|0:0,0:0:0:0:
256,192,46193,1,8,0:0:0:0:
336,226,46360,5,2,0:0:0:0:
347,188,46443,1,8,0:0:0:0:
359,149,46526,1,2,0:0:0:0:
370,111,46610,1,8,0:0:0:0:
382,75,46693,102,0,P|427:79|489:89,1,91.1999975646973,2|2,0:0|0:0,0:0:0:0:
237,110,47026,2,0,P|213:50|231:-9,1,91.1999975646973,8|2,0:0|0:0,0:0:0:0:
294,1,47276,2,0,P|299:26|288:71,1,45.5999987823487,8|2,0:0|0:0,0:0:0:0:
189,180,47526,2,0,P|144:184|82:194,1,91.1999975646973,8|2,0:0|0:0,0:0:0:0:
307,281,47860,2,0,P|334:285|377:292,1,45.5999987823487,8|8,0:0|0:0,0:0:0:0:
370,323,48026,6,0,L|269:307,1,100.799996923828,0|0,3:0|0:0,0:0:0:0:
361,205,48360,38,0,L|462:221,1,89.5999972656251,0|0,1:0|0:0,0:0:0:0:
260,330,48610,70,0,L|123:306,1,105.600003222656,0|0,1:0|0:0,0:0:0:0:
356,81,48860,38,0,L|348:13,2,48,0|0|0,1:0|1:0|3:0,0:0:0:0:
398,178,49193,1,0,0:0:0:0:
398,178,49276,1,0,0:0:0:0:
398,178,49360,102,0,P|350:172|269:165,1,96,6|0,0:0|3:0,0:0:0:0:
472,191,49693,1,8,0:0:0:0:
258,165,49860,2,0,P|248:95|238:-6,1,144,2|0,0:0|3:0,0:0:0:0:
270,0,50193,1,2,0:0:0:0:
170,86,50360,2,0,L|107:73,2,48,8|0|0,0:0|0:0|3:0,0:0:0:0:
356,70,50693,6,0,L|346:171,1,96,2|0,0:0|3:0,0:0:0:0:
344,238,50943,2,0,P|373:233|414:227,1,48,2|8,0:0|0:0,0:0:0:0:
334,41,51193,2,0,P|263:52|167:67,1,144,2|2,0:0|3:2,0:0:0:0:
154,48,51526,1,2,0:0:0:0:
177,175,51693,1,8,0:0:0:0:
210,179,51776,1,0,0:0:0:0:
244,160,51860,1,0,3:0:0:0:
90,117,52026,102,0,L|69:247,1,96,2|0,0:0|3:0,0:0:0:0:
121,343,52360,1,8,0:0:0:0:
23,315,52526,2,0,P|85:247|189:266,1,192,2|2,0:0|0:0,0:0:0:0:
244,353,53026,1,8,0:0:0:0:
322,298,53193,1,0,3:0:0:0:
413,328,53360,5,2,0:0:0:0:
234,263,53526,1,0,3:0:0:0:
393,234,53693,1,8,0:0:0:0:
335,380,53860,2,0,L|305:202,1,158.400004833985,2|2,0:0|3:2,0:0:0:0:
308,185,54193,2,0,L|362:194,1,48,2|0,0:0|0:0,0:0:0:0:
436,212,54360,1,8,0:0:0:0:
234,263,54526,1,0,3:0:0:0:
234,263,54610,1,0,0:0:0:0:
234,263,54693,102,0,B|115:283,1,96,6|0,0:0|3:0,0:0:0:0:
322,298,55026,1,8,0:0:0:0:
72,345,55193,2,0,B|47:277|47:277|73:208,1,144,2|0,0:0|3:0,0:0:0:0:
85,175,55526,1,2,0:0:0:0:
234,263,55693,6,0,L|249:197,1,48,8|2,0:0|0:0,0:0:0:0:
163,202,55860,2,0,L|151:248,1,48,0|0,3:0|0:0,0:0:0:0:
186,356,56026,102,0,B|281:340,1,96,2|0,0:0|3:0,0:0:0:0:
439,269,56360,1,8,0:0:0:0:
367,333,56526,2,0,B|342:269|342:269|375:183,1,144,2|2,0:0|3:2,0:0:0:0:
384,165,56860,6,0,L|336:168,1,48,2|0,0:0|0:0,0:0:0:0:
236,97,57026,2,0,L|263:137,1,48,8|0,0:0|0:0,0:0:0:0:
254,261,57193,2,0,L|274:213,1,48,0|0,3:0|0:0,0:0:0:0:
331,84,57360,101,2,0:0:0:0:
200,187,57526,1,0,3:0:0:0:
144,109,57693,1,8,0:0:0:0:
384,165,57860,2,0,P|422:106|403:14,1,144,2|0,0:0|3:0,0:0:0:0:
333,0,58193,2,0,L|283:7,1,48,2|0,0:0|0:0,0:0:0:0:
236,97,58360,2,0,L|360:80,1,96,8|0,0:0|3:0,0:0:0:0:
416,35,58693,5,2,0:0:0:0:
416,35,58860,1,2,0:0:0:0:
249,187,59026,102,0,B|227:142|227:142|238:86,1,96,8|0,0:0|3:0,0:0:0:0:
331,84,59276,2,0,B|352:128|352:128|341:184,1,96,8|2,3:2|0:0,0:0:0:0:
276,29,59526,1,2,0:0:0:0:
142,171,59693,6,0,P|130:147|121:109,1,48,8|2,3:2|0:0,0:0:0:0:
53,18,59860,2,0,P|49:44|41:70,1,48,2|0,3:2|3:0,0:0:0:0:
23,168,60026,86,0,P|85:157|144:92,1,113.279996024414,6|0,0:0|3:0,0:0:0:0:
175,46,60360,1,8,0:0:0:0:
172,221,60526,2,0,P|209:275|327:277,1,169.919994036621,2|0,0:0|3:0,0:0:0:0:
373,331,60860,2,0,P|381:313|383:268,1,56.6399980122071,2|0,0:0|0:0,0:0:0:0:
378,176,61026,2,0,P|324:190|267:196,1,113.279996024414,8|0,0:0|3:0,0:0:0:0:
491,269,61360,6,0,P|472:324|460:380,1,113.279996024414,2|0,0:0|3:0,0:0:0:0:
478,172,61693,1,8,0:0:0:0:
373,331,61860,2,0,B|230:365|299:248|122:301,1,226.559992048828,2|2,0:0|0:0,0:0:0:0:
150,295,62276,1,0,3:0:0:0:
140,301,62360,1,8,0:0:0:0:
231,199,62526,1,0,3:0:0:0:
57,325,62693,6,0,P|44:255|90:184,1,113.279996024414,2|0,0:0|3:0,0:0:0:0:
144,245,62943,2,0,P|146:272|134:316,1,56.6399980122071,2|8,0:0|0:0,0:0:0:0:
0,156,63193,2,0,P|50:121|161:109,1,169.919994036621,2|0,0:0|3:0,0:0:0:0:
164,25,63526,2,0,P|135:24|109:14,1,56.6399980122071,2|0,0:0|0:0,0:0:0:0:
241,179,63693,1,8,0:0:0:0:
330,232,63860,1,0,3:0:0:0:
431,134,64026,86,0,P|434:73|405:7,1,113.279996024414,2|0,0:0|3:0,0:0:0:0:
323,94,64360,1,8,0:0:0:0:
232,8,64526,2,0,P|212:60|226:190,1,169.919994036621,2|2,0:0|3:2,0:0:0:0:
166,237,64860,2,0,P|136:221|89:214,1,56.6399980122071,2|0,0:0|0:0,0:0:0:0:
249,251,65026,1,8,0:0:0:0:
15,305,65193,1,0,3:0:0:0:
7,314,65276,1,0,3:0:0:0:
0,324,65360,6,0,P|40:305|116:299,1,113.279996024414,6|0,0:0|3:0,0:0:0:0:
187,342,65693,1,8,0:0:0:0:
95,210,65860,2,0,P|66:163|70:6,1,169.919994036621,2|0,0:0|3:0,0:0:0:0:
122,3,66193,2,0,P|136:33|122:95,1,56.6399980122071,2|0,0:0|0:0,0:0:0:0:
225,180,66360,2,0,P|226:151|237:126,1,56.6399980122071,8|0,0:0|0:0,0:0:0:0:
329,57,66526,1,0,3:0:0:0:
216,47,66693,6,0,L|378:61,1,113.279996024414,2|0,0:0|3:0,0:0:0:0:
407,65,66943,1,0,0:0:0:0:
407,65,67026,1,8,0:0:0:0:
295,221,67193,2,0,P|360:219|425:120,1,169.919994036621,2|2,0:0|0:0,0:0:0:0:
407,65,67526,1,2,0:0:0:0:
280,0,67693,1,8,0:0:0:0:
324,128,67860,1,0,3:0:0:0:
477,29,68026,86,0,P|452:83|443:139,2,113.279996024414,2|0|8,0:0|3:0|0:0,0:0:0:0:
213,130,68526,2,0,P|295:117|372:175,1,169.919994036621,2|0,0:0|3:0,0:0:0:0:
430,214,68860,1,2,0:0:0:0:
377,70,69026,1,8,0:0:0:0:
274,221,69193,1,0,3:0:0:0:
442,233,69360,5,2,0:0:0:0:
442,233,69526,1,2,0:0:0:0:
332,265,69693,6,0,L|201:246,1,113.279996024414,8|2,0:0|3:2,0:0:0:0:
193,161,69943,2,0,L|308:177,1,113.279996024414,8|2,0:0|3:2,0:0:0:0:
334,163,70193,1,2,0:0:0:0:
300,335,70360,1,8,3:2:0:0:
298,347,70443,1,2,0:0:0:0:
296,359,70526,1,2,3:2:0:0:
220,249,70693,70,0,P|278:216|373:236,1,153.6,4|8,0:0|0:0,0:0:0:0:
447,188,71193,1,2,0:0:0:0:
504,258,71360,2,0,P|467:277|423:275,1,76.8,2|8,0:0|0:0,0:0:0:0:
403,112,71693,1,2,0:0:0:0:
426,100,71776,1,8,0:0:0:0:
452,99,71859,1,8,0:0:0:0:
350,192,72026,6,0,L|261:171,2,76.8,2|2|8,0:0|0:0|0:0,0:0:0:0:
251,85,72526,1,2,0:0:0:0:
228,107,72610,1,8,0:0:0:0:
201,123,72693,1,2,0:0:0:0:
170,128,72776,1,2,0:0:0:0:
139,122,72860,1,8,0:0:0:0:
0,75,73026,102,0,P|12:71|37:72,1,38.4,8|2,0:0|0:0,0:0:0:0:
88,22,73193,2,0,P|97:31|108:54,1,38.4,8|8,0:0|0:0,0:0:0:0:
139,122,73360,6,0,L|117:236,1,115.2,2|2,0:0|0:0,0:0:0:0:
117,235,73693,2,0,L|32:269,1,76.8,8|8,0:0|0:0,0:0:0:0:
210,215,74026,2,0,L|228:122,1,76.8,2|8,0:0|0:0,0:0:0:0:
272,296,74360,2,0,L|300:332,2,38.4,8|2|8,0:0|0:0|0:0,0:0:0:0:
346,168,74693,102,0,P|315:207|225:214,1,115.2,2|2,0:0|0:0,0:0:0:0:
210,215,75026,1,8,0:0:0:0:
361,270,75193,1,2,0:0:0:0:
372,275,75276,1,8,0:0:0:0:
384,280,75360,1,2,0:0:0:0:
259,135,75526,5,8,0:0:0:0:
241,105,75610,1,2,0:0:0:0:
234,71,75693,1,2,0:0:0:0:
242,37,75776,1,2,0:0:0:0:
263,9,75860,1,8,0:0:0:0:
142,68,76026,102,0,P|98:110|-10:92,1,153.6,2|8,0:0|0:0,0:0:0:0:
57,21,76526,1,2,0:0:0:0:
87,158,76693,1,2,0:0:0:0:
82,187,76776,1,8,0:0:0:0:
78,216,76860,1,8,0:0:0:0:
176,148,77026,5,2,0:0:0:0:
274,237,77193,1,8,0:0:0:0:
269,199,77276,1,8,0:0:0:0:
264,160,77360,102,0,L|254:68,1,76.8,2|2,0:0|0:0,0:0:0:0:
179,240,77693,2,0,P|137:257|83:266,1,76.8,8|2,0:0|0:0,0:0:0:0:
337,306,78026,2,0,P|374:314|435:341,1,76.8,2|8,0:0|0:0,0:0:0:0:
244,323,78360,1,2,0:0:0:0:
229,327,78443,1,2,0:0:0:0:
214,332,78526,1,8,0:0:0:0:
402,239,78693,6,0,P|427:192|436:80,1,153.6,2|8,0:0|0:0,0:0:0:0:
356,10,79193,1,2,0:0:0:0:
254,75,79360,1,2,0:0:0:0:
218,89,79443,1,2,0:0:0:0:
180,83,79526,1,8,0:0:0:0:
108,8,79693,1,2,0:0:0:0:
105,167,79860,2,0,L|175:176,1,52.8000016113282,8|8,0:0|0:0,0:0:0:0:
255,191,80026,38,0,B|277:146|277:146|241:34,1,124.79999428711,6|0,0:0|0:0,0:0:0:0:
255,191,80276,2,0,B|233:236|233:236|269:348,1,124.79999428711,6|0,0:0|0:0,0:0:0:0:
385,371,80526,2,0,L|418:316,1,62.3999971435548,12|8,0:0|0:0,0:0:0:0:
442,224,80693,22,0,B|367:240|367:240|331:291|331:291|230:313,1,216.000008239746,6|2,0:0|0:0,0:0:0:0:
162,351,81026,2,0,L|151:285,1,62.3999971435548,12|2,0:0|0:0,0:0:0:0:
19,241,81193,37,8,0:0:0:0:
29,238,81276,1,8,0:0:0:0:
39,236,81360,38,0,B|101:188|121:92|121:92|185:193|278:196,1,343.200004713135,6|0,0:0|0:0,0:0:0:0:
256,194,81860,2,0,P|248:157|242:114,1,68.640000942627,8|0,3:2|0:0,0:0:0:0:
121,92,82026,2,0,P|133:157|148:254,1,137.280001885254,2|2,0:0|0:0,0:0:0:0:
76,366,82276,2,0,P|138:341|227:336,1,137.280001885254,0|0,3:0|0:0,0:0:0:0:
425,351,82526,1,0,3:0:0:0:
425,351,82610,1,0,0:0:0:0:
425,351,82693,86,0,P|372:309|323:235,1,137.280001885254,2|2,0:0|0:0,0:0:0:0:
223,125,82943,2,0,P|213:191|173:270,1,137.280001885254,0|0,3:0|0:0,0:0:0:0:
208,334,83193,2,0,P|164:336|127:310,1,68.640000942627,0|0,3:0|0:0,0:0:0:0:
50,246,83360,22,0,P|118:238|186:255,1,137.280001885254,2|2,0:0|0:0,0:0:0:0:
332,253,83610,2,0,P|376:252|475:187,1,137.280001885254,0|0,3:0|0:0,0:0:0:0:
481,131,83860,2,0,P|472:99|472:62,1,68.640000942627,0|0,3:0|0:0,0:0:0:0:
329,101,84026,86,0,P|343:165|317:287,1,154.56000023584,2|0,0:0|0:0,0:0:0:0:
184,254,84276,2,0,P|172:177|186:102,1,154.56000023584,0|0,3:0|0:0,0:0:0:0:
305,22,84526,2,0,P|340:20|380:35,1,77.2800001179199,0|0,3:0|0:0,0:0:0:0:
186,102,84693,22,0,P|83:136|-4:38,1,231.84000035376,2|0,0:0|3:0,0:0:0:0:
0,191,85026,2,0,P|30:224|41:271,1,77.2800001179199,8|0,0:0|0:0,0:0:0:0:
156,325,85193,2,0,P|165:286|186:252,1,77.2800001179199,8|0,3:2|0:0,0:0:0:0:
316,218,85360,85,2,0:0:0:0:
326,207,85526,1,0,0:0:0:0:
183,141,85693,21,8,0:0:0:0:
171,129,85860,1,8,0:0:0:0:
348,60,86026,85,2,0:0:0:0:
358,49,86193,1,0,0:0:0:0:
161,10,86360,21,8,0:0:0:0:
147,0,86526,1,0,3:0:0:0:
64,284,86693,86,0,B|30:336|81:434|242:352|170:221|102:183,1,309.12000047168,6|8,0:0|0:0,0:0:0:0:
0,114,87193,2,0,P|36:122|99:139,1,73.9199985336914,0|0,3:0|0:0,0:0:0:0:
216,172,87360,2,0,B|255:135|294:25|156:-25|111:66|155:119,1,268.799991796875,2|8,0:0|0:0,0:0:0:0:
111,352,87860,1,0,3:0:0:0:
121,357,87943,1,0,3:0:0:0:
130,362,88026,22,0,B|179:377|259:348|273:262|213:167,1,276.48000675,6|8,0:0|0:0,0:0:0:0:
404,76,88526,2,0,P|396:111|390:153,1,62.8800011513672,0|0,3:0|0:0,0:0:0:0:
417,223,88693,2,0,B|368:238|290:210|277:127|335:35,1,251.520004605469,2|8,0:0|0:0,0:0:0:0:
455,329,89193,1,0,3:0:0:0:
457,339,89276,1,0,3:0:0:0:
458,347,89360,86,0,P|365:303|236:273,1,218.879997328125,6|8,0:0|0:0,0:0:0:0:
129,264,89860,21,0,3:0:0:0:
202,335,90026,1,2,0:0:0:0:
117,360,90193,1,2,0:0:0:0:
35,301,90360,1,8,0:0:0:0:
24,197,90526,2,0,P|55:188|94:181,1,54.7199993320313,0|0,3:0|3:0,0:0:0:0:
120,93,90693,86,0,B|212:134|133:184|256:230,1,172.799994726563,14|2,3:2|0:0,0:0:0:0:
257,360,91026,2,0,B|246:259|329:303|307:173,1,172.799994726563,12|2,3:2|0:0,0:0:0:0:
421,106,91360,2,0,B|339:165|335:71|234:155,1,172.799994726563,12|2,3:2|0:0,0:0:0:0:
128,184,91693,2,0,B|90:208|49:217|49:217|90:223|129:247,1,169.919994036621,8|0,3:2|0:0,0:0:0:0:
256,259,92026,22,0,B|480:322|359:184|524:155|687:333|512:467|298:390|510:289|237:307,1,623.039978134278,6|0,0:0|0:0,0:0:0:0:
253,200,97193,54,0,L|258:168,3,25.6,0|0|0|0,0:0|0:0|0:0|0:0,0:0:0:0:
87,77,102693,118,0,L|65:267,1,192,0|0,0:0|0:0,0:0:0:0:
194,354,103693,1,0,0:0:0:0:
144,262,104026,2,0,P|235:260|299:349,1,192,0|0,0:0|0:0,0:0:0:0:
416,261,105026,1,0,0:0:0:0:
325,192,105360,86,0,B|282:87|368:107|317:0,2,192,0|0|0,0:0|0:0|0:0,0:0:0:0:
237,58,107360,1,0,0:0:0:0:
502,118,108026,21,0,0:0:0:0:
466,205,108360,1,0,0:0:0:0:
372,256,108693,1,0,0:0:0:0:
250,209,109026,1,0,0:0:0:0:
223,64,109360,1,0,0:0:0:0:
352,108,109693,1,0,0:0:0:0:
136,194,110026,1,0,0:0:0:0:
424,356,110693,86,0,B|458:311|458:311|425:157,1,192,0|0,0:0|0:0,0:0:0:0:
406,86,111693,1,0,0:0:0:0:
511,29,112026,2,0,B|407:45|407:45|371:85|371:85|247:101,1,264,0|0,0:0|0:0,0:0:0:0:
194,194,113026,22,0,B|148:173|98:168|98:168|149:171|210:156,1,197.28000556897,0|0,0:0|0:0,2:0:0:0:
313,220,113360,85,2,0:0:0:0:
325,186,113443,1,8,0:0:0:0:
319,150,113526,1,2,0:0:0:0:
290,123,113610,1,2,0:0:0:0:
253,116,113693,1,8,0:0:0:0:
214,129,113776,1,2,0:0:0:0:
194,159,113860,1,2,0:0:0:0:
194,194,113943,1,8,0:0:0:0:
210,225,114026,1,2,0:0:0:0:
201,260,114110,1,8,0:0:0:0:
172,282,114193,1,2,0:0:0:0:
136,286,114276,1,2,0:0:0:0:
113,272,114360,2,0,L|107:158,1,96,8|8,0:0|0:0,0:0:0:0:
92,21,114693,69,2,0:0:0:0:
59,37,114776,1,2,0:0:0:0:
41,69,114860,1,8,0:0:0:0:
42,105,114943,1,2,0:0:0:0:
64,134,115026,1,8,0:0:0:0:
98,148,115110,1,8,0:0:0:0:
134,142,115193,1,2,0:0:0:0:
160,116,115276,1,8,0:0:0:0:
163,78,115360,38,0,L|157:36,6,26.4000008056641,2|2|2|2|2|2|2,0:0|0:0|0:0|0:0|0:0|0:0|0:0,0:0:0:0:
237,131,115693,2,0,L|232:164,6,26.4000008056641,8|8|8|8|8|8|8,0:0|0:0|0:0|0:0|0:0|0:0|0:0,0:0:0:0:
292,39,116026,69,2,0:0:0:0:
341,22,116110,1,2,0:0:0:0:
384,53,116193,1,8,0:0:0:0:
381,106,116276,1,2,0:0:0:0:
335,134,116360,2,0,P|305:134|273:136,3,52.8000016113282,8|8|8|8,0:0|0:0|0:0|0:0,0:0:0:0:
233,157,116693,37,2,0:0:0:0:
232,219,116777,1,8,0:0:0:0:
281,256,116860,1,2,0:0:0:0:
338,234,116943,1,2,0:0:0:0:
401,234,117026,1,8,0:0:0:0:
445,278,117110,1,2,0:0:0:0:
445,340,117193,1,8,0:0:0:0:
399,382,117276,1,8,0:0:0:0:
337,380,117360,70,0,P|331:365|324:344,4,26.4000008056641,2|2|2|2|2,0:0|0:0|0:0|0:0|0:0,0:0:0:0:
256,320,117693,1,8,0:0:0:0:
248,332,117776,1,2,0:0:0:0:
241,342,117860,2,0,P|212:348|170:353,1,52.8000016113282,8|8,0:0|0:0,0:0:0:0:
107,305,118026,2,0,P|104:317|100:332,4,26.4000008056641,8|8|8|8|8,0:0|0:0|0:0|0:0|0:0,0:0:0:0:
156,164,118360,2,0,L|271:175,1,96,8|2,0:0|0:0,0:0:0:0:
84,225,118693,37,2,0:0:0:0:
63,192,118776,1,2,0:0:0:0:
56,153,118860,1,8,0:0:0:0:
71,115,118943,1,2,0:0:0:0:
106,86,119026,2,0,L|148:77,4,26.4000008056641,8|8|8|8|8,0:0|0:0|0:0|0:0|0:0,0:0:0:0:
176,262,119360,69,2,0:0:0:0:
157,291,119443,1,8,0:0:0:0:
129,312,119526,1,2,0:0:0:0:
95,322,119609,1,2,0:0:0:0:
61,319,119693,1,8,0:0:0:0:
29,303,119776,1,8,0:0:0:0:
6,277,119859,1,2,0:0:0:0:
172,173,120026,37,8,0:0:0:0:
208,180,120109,1,8,0:0:0:0:
244,187,120193,1,2,0:0:0:0:
280,193,120276,1,2,0:0:0:0:
316,199,120360,1,8,0:0:0:0:
445,149,120526,70,0,L|516:135,2,52.8000016113282,2|8|2,0:0|0:0|0:0,0:0:0:0:
409,140,120776,1,8,0:0:0:0:
388,108,120860,1,2,0:0:0:0:
394,71,120943,1,2,0:0:0:0:
422,48,121026,1,8,0:0:0:0:
459,47,121110,1,8,0:0:0:0:
489,67,121193,1,2,0:0:0:0:
493,287,121360,37,8,0:0:0:0:
474,319,121443,1,8,0:0:0:0:
448,346,121526,2,0,P|407:362|356:365,1,52.8000016113282,2|2,0:0|0:0,0:0:0:0:
335,234,121693,69,8,0:0:0:0:
319,222,121776,1,2,0:0:0:0:
301,213,121859,2,0,P|268:202|216:196,1,52.8000016113282,2|8,0:0|0:0,0:0:0:0:
200,332,122026,37,2,0:0:0:0:
192,337,122109,1,8,0:0:0:0:
183,341,122192,2,0,P|146:350|100:351,1,52.8000016113282,2|2,0:0|0:0,0:0:0:0:
61,259,122360,70,0,L|-6:244,3,52.8000016113282,8|2|8|8,0:0|0:0|0:0|0:0,0:0:0:0:
53,163,122693,38,0,L|68:86,1,59.519997638672,2|2,0:0|0:0,0:0:0:0:
153,138,122860,2,0,L|168:61,1,59.519997638672,8|8,0:0|0:0,0:0:0:0:
227,220,123026,70,0,L|242:296,1,68.640000942627,2|8,0:0|0:0,0:0:0:0:
331,246,123193,2,0,L|346:322,1,68.640000942627,2|8,0:0|0:0,0:0:0:0:
409,191,123360,1,8,0:0:0:0:
231,144,123526,38,0,L|196:136,2,29.5200004504395,8|8|8,0:0|0:0|0:0,0:0:0:0:
319,166,123693,1,2,0:0:0:0:
319,166,123860,1,8,0:0:0:0:
187,268,124026,38,0,L|92:283,1,63.3599998066406,2|0,0:0|0:0,0:0:0:0:
50,206,124193,2,0,L|162:187,1,63.3599998066406,0|0,3:0|0:0,0:0:0:0:
211,292,124360,1,8,0:0:0:0:
231,144,124526,2,0,L|243:48,1,68.1599965678713,0|0,3:0|0:0,0:0:0:0:
242,52,124860,54,0,B|312:58|312:58|339:44|339:44|387:49|387:49|411:68|411:68|509:79,1,244.80000466919,2|0,0:0|0:0,0:0:0:0:
506,61,125193,1,0,3:0:0:0:
360,148,125360,54,0,B|324:141|324:141|358:123,1,72.959999109375,2|0,0:0|0:0,0:0:0:0:
436,252,125526,2,0,B|472:259|472:259|439:275,1,72.959999109375,0|0,3:0|0:0,0:0:0:0:
470,153,125693,1,8,0:0:0:0:
331,316,125860,2,0,L|214:301,1,68.1599965678713,0|0,3:0|0:0,0:0:0:0:
245,306,126193,54,0,B|139:339|139:339|182:129,1,273.599992694092,2|0,0:0|0:0,0:0:0:0:
179,146,126526,1,0,3:0:0:0:
68,195,126693,54,0,B|128:187|179:146|179:146|221:211|310:215,1,244.80000466919,2|0,0:0|0:0,0:0:0:0:
318,207,127026,1,8,0:0:0:0:
301,104,127193,2,0,L|286:-3,1,67.1999979492188,0|0,3:0|0:0,0:0:0:0:
285,0,127526,53,2,0:0:0:0:
301,104,127693,1,8,0:0:0:0:
318,207,127860,1,0,3:0:0:0:
180,146,128026,54,0,B|116:140|74:194|74:194|31:100|131:29,1,267.840008378174,2|0,0:0|0:0,0:0:0:0:
119,39,128360,1,8,0:0:0:0:
164,259,128526,2,0,L|179:354,1,70.0800019248047,0|0,3:0|0:0,0:0:0:0:
180,350,128860,54,0,B|236:342|236:342|254:355|254:355|324:344|324:344|343:325|343:325|447:308,1,257.279987830079,2|0,0:0|3:0,0:0:0:0:
278,260,129360,53,2,0:0:0:0:
372,177,129526,1,0,3:0:0:0:
423,312,129693,1,8,0:0:0:0:
278,260,129860,54,0,B|317:105|317:105|393:205,1,250.560002102783,0|0,3:0|0:0,0:0:0:0:
372,177,130193,2,0,L|251:166,1,72.959999109375,2|0,0:0|0:0,0:0:0:0:
200,158,130360,1,8,0:0:0:0:
200,158,130526,1,0,3:0:0:0:
45,217,130693,54,0,P|136:225|205:126,1,190.079999419922,2|0,0:0|0:0,0:0:0:0:
236,71,131026,2,0,P|200:64|130:95,1,63.3599998066406,8|0,0:0|0:0,0:0:0:0:
200,158,131193,2,0,P|306:241|456:204,1,253.439999226562,0|2,3:0|0:0,0:0:0:0:
480,179,131610,1,2,0:0:0:0:
480,179,131693,1,8,0:0:0:0:
410,9,131860,1,0,3:0:0:0:
329,69,132027,53,2,0:0:0:0:
387,150,132194,1,0,0:0:0:0:
466,87,132361,1,8,0:0:0:0:
317,68,132526,2,0,B|243:61|243:61|200:82|200:82|82:72,1,190.079999419922,0|0,3:0|0:0,0:0:0:0:
97,71,132860,1,2,0:0:0:0:
184,0,133026,1,8,0:0:0:0:
256,144,133193,1,0,3:0:0:0:
97,71,133360,54,0,P|90:130|84:177,1,107.5200013125,2|0,0:0|0:0,0:0:0:0:
107,319,133693,1,8,0:0:0:0:
2,288,133860,2,0,P|45:230|185:242,1,215.040002625,0|2,3:0|0:0,0:0:0:0:
286,306,134360,53,8,0:0:0:0:
317,301,134443,1,2,0:0:0:0:
347,296,134526,1,8,0:0:0:0:
378,290,134610,1,8,0:0:0:0:
408,284,134693,69,6,0:0:0:0:
362,378,134860,1,0,0:0:0:0:
410,193,135026,2,0,L|322:211,1,62.3999971435548,8|0,0:0|0:0,0:0:0:0:
264,220,135193,2,0,L|280:103,1,110.400002105713,0|0,3:0|0:0,0:0:0:0:
347,296,135526,1,2,0:0:0:0:
182,296,135693,1,8,0:0:0:0:
185,324,135776,1,0,0:0:0:0:
188,352,135860,1,0,3:0:0:0:
264,220,136026,101,2,0:0:0:0:
109,242,136193,1,0,0:0:0:0:
287,215,136360,2,0,L|381:200,1,62.3999971435548,8|0,0:0|0:0,0:0:0:0:
425,139,136526,2,0,B|400:113|400:113|282:131,1,124.79999428711,0|0,3:0|0:0,0:0:0:0:
139,114,136860,2,0,L|145:41,1,62.3999971435548,2|0,0:0|0:0,0:0:0:0:
228,23,137026,2,0,L|216:172,1,124.79999428711,8|0,0:0|3:0,0:0:0:0:
60,75,137360,53,2,0:0:0:0:
218,147,137526,1,0,0:0:0:0:
247,160,137610,1,0,0:0:0:0:
276,172,137693,1,8,0:0:0:0:
149,247,137860,2,0,B|102:269|102:269|17:254,1,124.79999428711,0|0,3:0|0:0,0:0:0:0:
92,182,138193,1,2,0:0:0:0:
139,359,138360,1,8,0:0:0:0:
36,338,138526,2,0,L|127:354,1,62.3999971435548,0|0,3:0|0:0,0:0:0:0:
217,357,138693,70,0,B|269:289|203:218|203:218|107:271,1,216.000008239746,2|0,0:0|0:0,0:0:0:0:
217,357,139026,2,0,L|303:344,1,62.3999971435548,8|0,0:0|0:0,0:0:0:0:
348,265,139193,2,0,L|488:286,1,105.600003222656,0|0,3:0|0:0,0:0:0:0:
272,180,139526,1,2,0:0:0:0:
272,180,139610,1,0,0:0:0:0:
272,180,139693,2,0,L|218:47,1,105.600003222656,8|0,0:0|3:0,0:0:0:0:
240,286,140026,101,2,0:0:0:0:
379,160,140193,1,0,0:0:0:0:
348,265,140360,1,8,0:0:0:0:
171,198,140526,2,0,L|38:217,1,105.600003222656,0|0,3:0|0:0,0:0:0:0:
232,82,140860,54,0,L|308:56,1,62.3999971435548,2|0,0:0|0:0,0:0:0:0:
240,286,141026,2,0,L|316:312,1,62.3999971435548,8|0,0:0|0:0,0:0:0:0:
309,180,141193,2,0,L|396:168,1,62.3999971435548,0|0,3:0|0:0,0:0:0:0:
435,80,141360,70,0,B|351:37|351:37|373:187,1,230.4,2|0,0:0|0:0,0:0:0:0:
389,261,141693,2,0,L|461:252,1,62.3999971435548,8|0,0:0|0:0,0:0:0:0:
508,342,141860,2,0,B|433:380|433:380|452:246,1,211.67999014856,2|0,0:0|0:0,0:0:0:0:
512,160,142193,2,0,L|434:169,1,62.3999971435548,2|0,0:0|0:0,0:0:0:0:
371,172,142360,1,8,0:0:0:0:
443,11,142526,1,0,3:0:0:0:
439,46,142610,1,0,3:0:0:0:
435,80,142693,101,2,0:0:0:0:
418,256,142860,1,0,0:0:0:0:
512,160,143026,1,8,0:0:0:0:
293,139,143193,2,0,B|265:99|265:99|298:-6,1,124.79999428711,2|0,0:0|0:0,0:0:0:0:
308,272,143526,2,0,L|318:342,1,62.3999971435548,2|0,0:0|0:0,0:0:0:0:
355,201,143693,1,8,0:0:0:0:
223,324,143860,1,0,3:0:0:0:
223,324,144026,54,0,L|122:314,1,76.8,8|0,0:0|0:0,0:0:0:0:
41,261,144193,1,0,0:0:0:0:
45,220,144276,1,2,0:0:0:0:
78,195,144360,2,0,L|165:187,1,76.8,8|0,0:0|0:0,0:0:0:0:
267,109,144526,1,2,0:0:0:0:
263,68,144610,1,2,0:0:0:0:
230,43,144693,2,0,L|142:35,1,76.8,8|0,0:0|0:0,0:0:0:0:
198,188,144860,69,2,0:0:0:0:
247,218,144943,1,2,0:0:0:0:
304,215,145026,1,8,0:0:0:0:
346,175,145110,1,2,0:0:0:0:
394,144,145193,1,8,0:0:0:0:
451,140,145276,1,8,0:0:0:0:
490,165,145360,6,0,P|482:241|470:361,1,187.199991430664,6|2,0:0|0:0,0:0:0:0:
467,374,145693,1,8,0:0:0:0:
316,270,145860,2,0,L|303:209,2,55.6800016992188,2|0|0,3:2|3:0|0:0,0:0:0:0:
341,384,146193,1,2,0:0:0:0:
402,287,146360,1,8,0:0:0:0:
246,320,146526,1,0,3:0:0:0:
415,274,146693,102,0,L|395:128,1,101.760000155273,2|0,0:0|0:0,0:0:0:0:
452,98,146943,1,0,3:0:0:0:
463,86,147026,2,0,L|475:20,2,50.8800000776367,8|0|0,0:0|0:0|3:0,0:0:0:0:
308,206,147360,6,0,L|254:197,1,50.8800000776367,2|0,0:0|0:0,0:0:0:0:
269,29,147526,2,0,L|320:36,1,50.8800000776367,2|0,0:0|3:0,0:0:0:0:
338,125,147693,2,0,L|215:106,1,101.760000155273,8|0,0:0|3:0,0:0:0:0:
31,258,148026,102,0,P|111:260|175:343,1,152.64000023291,2|0,0:0|3:0,0:0:0:0:
181,341,148360,2,0,P|180:287|198:196,1,101.760000155273,8|0,0:0|3:0,0:0:0:0:
67,363,148693,2,0,L|5:371,2,50.8800000776367,2|0|2,0:0|3:0|3:2,0:0:0:0:
271,296,149026,2,0,L|410:312,1,101.760000155273,8|0,0:0|3:0,0:0:0:0:
429,379,149276,1,0,3:0:0:0:
429,379,149360,6,0,L|409:202,1,152.64000023291,2|0,0:0|3:0,0:0:0:0:
424,190,149693,1,8,0:0:0:0:
271,296,149860,1,2,3:2:0:0:
271,296,149943,1,0,0:0:0:0:
271,296,150026,2,0,L|212:303,1,50.8800000776367,0|0,0:0|3:0,0:0:0:0:
138,313,150193,1,2,0:0:0:0:
347,331,150360,2,0,B|359:293|359:293|331:226,1,101.760000155273,8|0,0:0|3:0,0:0:0:0:
424,190,150693,102,0,B|409:146|409:146|451:5,1,152.64000023291,2|2,0:0|0:0,0:0:0:0:
452,11,151026,1,8,0:0:0:0:
506,144,151193,1,2,3:2:0:0:
328,45,151360,2,0,L|205:8,1,101.760000155273,0|2,0:0|3:2,0:0:0:0:
327,203,151693,2,0,L|204:240,1,101.760000155273,8|0,0:0|3:0,0:0:0:0:
75,102,152026,6,0,B|171:83|127:150|264:113,1,152.64000023291,2|0,0:0|3:0,0:0:0:0:
243,117,152360,2,0,P|233:75|233:1,1,101.760000155273,8|0,0:0|3:0,0:0:0:0:
103,195,152693,2,0,P|93:250|84:287,2,50.8800000776367,0|2|2,0:0|3:2|3:2,0:0:0:0:
262,113,153026,2,0,P|321:103|395:118,1,101.760000155273,8|0,0:0|3:0,0:0:0:0:
173,35,153360,102,0,P|119:93|39:80,1,152.64000023291,2|2,0:0|0:0,0:0:0:0:
39,6,153693,2,0,P|70:6|107:24,1,50.8800000776367,8|0,0:0|0:0,0:0:0:0:
139,125,153860,1,0,3:0:0:0:
139,125,153943,1,0,3:0:0:0:
139,125,154026,2,0,L|122:264,1,101.760000155273,0|2,3:0|0:0,0:0:0:0:
287,324,154360,2,0,L|275:234,1,50.8800000776367,8|0,0:0|0:0,0:0:0:0:
266,182,154526,1,0,3:0:0:0:
202,335,154693,5,2,0:0:0:0:
202,335,154860,1,2,0:0:0:0:
345,178,155026,102,0,P|400:185|504:235,1,124.79999428711,8|2,3:2|0:0,0:0:0:0:
489,220,155276,2,0,P|472:159|470:97,1,124.79999428711,8|2,3:2|0:0,0:0:0:0:
478,69,155526,2,0,P|450:82|379:91,1,62.3999971435548,2|0,0:0|0:0,0:0:0:0:
227,150,155693,1,8,0:0:0:0:
232,119,155776,1,2,0:0:0:0:
235,87,155860,1,8,0:0:0:0:
239,56,155943,1,8,0:0:0:0:
246,29,156026,6,0,L|273:233,1,167.040005097656,6|2,0:0|0:0,0:0:0:0:
278,279,156360,2,0,L|206:260,1,55.6800016992188,8|0,0:0|0:0,0:0:0:0:
161,198,156526,1,2,3:2:0:0:
252,360,156693,1,0,0:0:0:0:
299,366,156776,1,0,3:0:0:0:
339,341,156860,1,2,3:2:0:0:
378,201,157026,102,0,L|362:289,1,55.6800016992188,8|0,0:0|0:0,0:0:0:0:
455,285,157193,2,0,L|465:231,1,55.6800016992188,0|0,3:0|0:0,0:0:0:0:
451,145,157360,6,0,L|268:181,1,167.040005097656,2|0,0:0|3:0,0:0:0:0:
249,183,157693,2,0,B|230:138|230:138|255:44,1,111.360003398438,8|0,0:0|3:0,0:0:0:0:
202,66,157943,1,0,3:0:0:0:
161,84,158026,1,0,3:0:0:0:
116,78,158110,1,2,0:0:0:0:
79,50,158193,1,2,0:0:0:0:
301,24,158360,2,0,P|352:32|427:47,1,111.360003398438,8|0,0:0|3:0,0:0:0:0:
305,281,158693,102,0,P|214:289|144:220,1,167.040005097656,2|2,0:0|0:0,0:0:0:0:
145,225,159026,2,0,L|132:321,1,55.6800016992188,8|0,0:0|0:0,0:0:0:0:
126,364,159193,1,0,3:0:0:0:
251,183,159360,2,0,L|336:170,2,55.6800016992188,0|0|2,0:0|3:0|3:2,0:0:0:0:
93,159,159693,2,0,P|74:109|70:43,1,111.360003398438,8|0,0:0|3:0,0:0:0:0:
160,33,159943,1,0,3:0:0:0:
160,33,160026,6,0,P|178:86|174:164,1,111.360003398438,2|0,0:0|3:0,0:0:0:0:
141,288,160360,2,0,P|85:276|10:266,1,111.360003398438,8|0,0:0|3:0,0:0:0:0:
245,351,160693,2,0,P|314:334|457:319,1,167.040005097656,2|0,0:0|3:0,0:0:0:0:
439,322,161026,2,0,L|420:217,1,55.6800016992188,8|2,3:2|0:0,0:0:0:0:
413,191,161193,1,8,3:2:0:0:
245,351,161360,102,0,L|258:171,1,167.040005097656,6|2,0:0|3:2,0:0:0:0:
336,167,161693,2,0,L|326:310,1,111.360003398438,8|2,0:0|0:2,0:0:0:0:
148,339,162026,1,2,3:2:0:0:
148,339,162110,1,0,3:0:0:0:
148,339,162193,2,0,L|70:326,1,55.6800016992188,2|0,0:0|0:0,0:0:0:0:
41,240,162360,2,0,L|159:259,1,111.360003398438,8|0,0:0|3:0,0:0:0:0:
257,184,162693,6,0,L|269:-5,1,167.040005097656,6|0,0:0|3:0,0:0:0:0:
190,0,163026,2,0,L|180:143,1,111.360003398438,8|0,0:0|3:0,0:0:0:0:
381,177,163360,1,2,0:0:0:0:
381,177,163443,1,0,3:0:0:0:
381,177,163526,2,0,L|459:164,1,55.6800016992188,2|0,0:0|0:0,0:0:0:0:
487,79,163693,2,0,L|369:98,1,111.360003398438,8|0,0:0|3:0,0:0:0:0:
190,0,164026,101,6,0:0:0:0:
172,130,164193,1,0,3:0:0:0:
172,130,164276,1,2,0:0:0:0:
172,130,164360,2,0,L|155:249,1,111.360003398438,8|0,0:0|3:0,0:0:0:0:
381,177,164693,6,0,L|392:243,1,55.6800016992188,12|0,3:2|0:0,0:0:0:0:
408,312,164860,1,2,0:0:0:0:
156,240,165026,102,0,L|144:306,1,55.6800016992188,12|8,0:0|0:0,0:0:0:0:
132,376,165193,1,2,0:0:0:0:
285,357,165360,5,6,0:0:0:0:
230,264,165526,1,2,0:0:0:0:
326,188,165693,2,0,L|404:172,1,55.6800016992188,8|0,0:0|0:0,0:0:0:0:
211,109,165860,1,2,0:0:0:0:
180,103,165943,2,0,L|110:91,1,55.6800016992188,8|0,0:0|0:0,0:0:0:0:
304,36,166110,1,2,0:0:0:0:
335,29,166193,1,2,0:0:0:0:
228,185,166360,101,8,0:0:0:0:
234,235,166443,1,2,0:0:0:0:
241,286,166526,1,2,0:0:0:0:
245,335,166610,1,2,0:0:0:0:
250,382,166693,5,6,0:0:0:0:
404,283,167026,37,4,0:2:0:0:
108,192,167360,101,4,0:3:0:0:
401,101,167693,5,4,0:1:0:0:
131,324,168026,102,0,B|163:340|251:338|266:233|197:165,1,204.479989703614,6|0,0:0|3:0,0:0:0:0:
195,125,168360,2,0,P|157:151|144:207,1,63.3599998066406,8|0,0:0|0:0,0:0:0:0:
157,251,168526,1,2,0:0:0:0:
297,118,168693,1,0,0:0:0:0:
303,108,168776,1,0,3:0:0:0:
307,98,168860,2,0,P|313:55|315:-9,1,63.3599998066406,2|0,0:0|0:0,0:0:0:0:
375,193,169026,2,0,P|395:267|429:350,1,126.719999613281,8|0,0:0|3:0,0:0:0:0:
252,316,169360,85,2,0:0:0:0:
291,193,169526,1,0,3:0:0:0:
156,230,169693,2,0,B|114:242|49:219|38:149|87:72,1,204.479989703614,8|0,0:0|3:0,0:0:0:0:
122,19,170026,22,0,P|155:60|156:103,1,58.5599975874024,2|0,0:0|0:0,0:0:0:0:
222,175,170193,2,0,P|225:138|244:106,1,58.5599975874024,2|0,3:2|0:0,0:0:0:0:
85,86,170360,86,0,P|121:82|181:76,1,58.5599975874024,8|0,0:0|0:0,0:0:0:0:
250,112,170526,2,0,P|286:116|352:127,1,58.5599975874024,0|0,3:0|0:0,0:0:0:0:
442,66,170693,22,0,B|400:53|333:77|322:147|372:226,1,204.479989703614,2|2,0:0|3:2,0:0:0:0:
372,279,171026,2,0,P|420:253|434:223,1,63.3599998066406,8|0,0:0|0:0,0:0:0:0:
425,145,171193,1,0,3:0:0:0:
427,379,171360,1,0,0:0:0:0:
419,374,171443,1,0,0:0:0:0:
410,371,171526,2,0,P|367:358|305:349,1,63.3599998066406,2|0,3:2|0:0,0:0:0:0:
253,352,171693,2,0,P|187:370|93:371,1,126.719999613281,8|0,0:0|3:0,0:0:0:0:
253,56,172026,86,0,P|287:58|331:84,1,58.5599975874024,2|0,0:0|0:0,0:0:0:0:
355,154,172193,2,0,P|349:188|324:233,1,58.5599975874024,0|0,3:0|0:0,0:0:0:0:
255,259,172360,2,0,P|219:254|173:229,1,58.5599975874024,8|0,0:0|0:0,0:0:0:0:
153,162,172526,2,0,P|153:124|179:81,1,58.5599975874024,8|0,0:0|3:0,0:0:0:0:
261,27,172693,22,0,B|373:7|329:87|450:56,1,175.679992762207,2|0,0:0|3:0,0:0:0:0:
459,49,173026,1,8,0:0:0:0:
392,277,173193,1,0,3:0:0:0:
347,289,173276,1,0,3:0:0:0:
302,278,173360,86,0,B|277:270|256:240|249:215|251:160|298:96,1,204.479989703614,6|0,0:0|3:0,0:0:0:0:
392,277,173693,2,0,P|388:314|337:362,1,63.3599998066406,8|0,0:0|0:0,0:0:0:0:
303,375,173860,1,0,3:0:0:0:
185,252,174026,1,2,0:0:0:0:
177,245,174110,1,0,3:0:0:0:
168,239,174193,2,0,P|132:219|87:202,1,63.3599998066406,2|0,0:0|0:0,0:0:0:0:
341,208,174360,2,0,P|367:162|471:83,1,126.719999613281,8|0,0:0|3:0,0:0:0:0:
229,332,174693,22,0,P|135:343|34:376,1,190.079999419922,2|0,0:0|3:0,0:0:0:0:
5,288,175026,2,0,P|16:257|22:220,1,63.3599998066406,8|0,0:0|0:0,0:0:0:0:
96,149,175193,2,0,P|101:182|113:215,1,63.3599998066406,0|0,3:0|0:0,0:0:0:0:
176,298,175360,2,0,P|269:296|325:184,1,190.079999419922,2|0,0:0|3:0,0:0:0:0:
382,167,175693,2,0,P|357:150|291:153,1,63.3599998066406,8|0,0:0|0:0,0:0:0:0:
244,167,175860,1,0,3:0:0:0:
238,359,176026,86,0,B|280:371|347:347|359:275|309:196,1,204.479989703614,2|0,0:0|3:0,0:0:0:0:
406,107,176360,2,0,P|386:133|396:196,1,68.1599965678713,8|0,0:0|0:0,0:0:0:0:
428,244,176526,1,0,3:0:0:0:
466,162,176693,1,0,3:0:0:0:
475,158,176776,1,0,0:0:0:0:
484,155,176860,1,2,0:0:0:0:
324,224,177026,2,0,P|241:220|155:178,1,136.319993135743,8|0,0:0|3:0,0:0:0:0:
25,175,177360,22,0,P|55:141|115:144,1,68.1599965678713,2|0,0:0|0:0,0:0:0:0:
71,63,177526,2,0,P|115:71|144:123,1,68.1599965678713,2|0,3:2|0:0,0:0:0:0:
191,45,177693,2,0,P|205:87|179:138,1,68.1599965678713,8|0,3:2|0:0,0:0:0:0:
192,202,177860,85,2,0:0:0:0:
157,208,177943,2,0,P|88:188|8:173,1,136.319993135743,8|0,3:2|0:0,0:0:0:0:
152,305,178193,2,0,P|192:299|227:274,1,68.1599965678713,2|0,3:2|0:0,0:0:0:0:
257,156,178360,21,8,0:0:0:0:
314,113,178443,1,2,0:0:0:0:
386,117,178526,1,8,0:0:0:0:
446,155,178610,1,8,0:0:0:0:
486,220,178693,86,0,B|506:275|426:324|360:243|405:148|484:144,1,228.960000349365,6|2,0:0|3:2,0:0:0:0:
365,49,179026,2,0,P|404:61|482:83,1,78.7200012011719,8|0,0:0|0:0,0:0:0:0:
512,103,179193,1,2,3:2:0:0:
338,299,179360,1,0,0:0:0:0:
329,309,179443,1,0,3:0:0:0:
319,319,179526,2,0,P|310:278|290:190,1,78.7200012011719,2|0,0:0|0:0,0:0:0:0:
245,176,179693,2,0,P|163:192|91:207,1,138.240003375,8|0,0:0|3:0,0:0:0:0:
321,158,180026,21,2,0:0:0:0:
215,91,180193,1,0,3:0:0:0:
130,285,180360,2,0,B|87:298|19:273|8:201|53:120,1,207.3600050625,8|0,0:0|3:0,0:0:0:0:
118,131,180693,86,0,P|126:167|134:234,1,69.1200016875,0|0,0:0|3:0,0:0:0:0:
308,303,180860,2,0,P|313:265|321:226,1,69.1200016875,2|0,0:0|0:0,0:0:0:0:
233,118,181026,22,0,L|222:224,1,69.1200016875,8|0,0:0|0:0,0:0:0:0:
206,340,181193,2,0,L|215:271,1,69.1200016875,8|0,3:2|0:0,0:0:0:0:
131,74,181360,86,0,P|204:10|316:44,1,207.3600050625,2|0,0:0|3:0,0:0:0:0:
332,59,181693,1,8,0:0:0:0:
240,249,181860,1,0,3:0:0:0:
219,246,181943,1,0,0:0:0:0:
199,240,182026,2,0,P|154:227|114:201,1,69.1200016875,0|0,0:0|3:0,0:0:0:0:
52,169,182193,1,2,0:0:0:0:
41,351,182360,22,0,B|85:364|156:339|168:263|115:179,1,207.3600050625,8|0,0:0|3:0,0:0:0:0:
240,249,182693,86,0,P|225:285|223:328,1,69.1200016875,2|0,0:0|0:0,0:0:0:0:
323,210,182860,2,0,P|359:223|402:225,1,69.1200016875,0|0,3:0|0:0,0:0:0:0:
280,120,183026,2,0,P|293:82|295:40,1,69.1200016875,8|0,0:0|0:0,0:0:0:0:
194,160,183193,2,0,P|156:145|114:143,1,69.1200016875,8|0,3:2|0:0,0:0:0:0:
333,317,183360,22,0,P|349:233|402:68,1,207.3600050625,2|0,0:0|3:0,0:0:0:0:
400,89,183693,1,8,0:0:0:0:
216,277,183860,1,0,3:0:0:0:
168,277,183943,1,0,3:0:0:0:
137,240,184026,86,0,P|120:157|64:16,1,207.3600050625,6|0,0:0|3:0,0:0:0:0:
55,9,184360,1,8,0:0:0:0:
1,116,184526,1,0,3:0:0:0:
201,118,184693,2,0,P|233:113|289:82,1,69.1200016875,2|0,0:0|3:0,0:0:0:0:
325,44,184860,1,2,0:0:0:0:
353,231,185026,2,0,P|296:202|174:200,1,138.240003375,8|0,0:0|3:0,0:0:0:0:
138,237,185276,1,0,0:0:0:0:
135,256,185360,22,0,P|128:299|119:353,1,69.1200016875,2|0,0:0|0:0,0:0:0:0:
246,350,185526,2,0,P|238:307|230:253,1,69.1200016875,0|0,3:0|0:0,0:0:0:0:
353,231,185693,86,0,P|345:272|337:328,1,69.1200016875,8|0,0:0|0:0,0:0:0:0:
455,343,185859,2,0,P|449:303|439:246,1,69.1200016875,0|0,3:0|0:0,0:0:0:0:
449,99,186026,22,0,B|403:85|332:110|320:187|373:271,1,207.3600050625,2|0,0:0|3:0,0:0:0:0:
353,314,186360,2,0,P|383:309|428:236,1,69.1200016875,8|0,0:0|0:0,0:0:0:0:
429,183,186526,1,0,3:0:0:0:
273,283,186693,86,0,B|142:308|196:210|56:243,1,207.3600050625,6|0,0:0|3:2,0:0:0:0:
43,246,187026,1,8,0:0:0:0:
236,192,187193,1,0,3:0:0:0:
241,181,187276,1,0,0:0:0:0:
244,169,187360,2,0,P|261:95|277:-9,1,138.240003375,0|2,0:0|3:2,0:0:0:0:
196,4,187693,1,8,0:0:0:0:
346,122,187860,1,0,0:0:0:0:
162,225,188026,22,0,P|239:233|361:253,1,138.240003375,6|2,0:0|3:2,0:0:0:0:
409,334,188276,1,0,0:0:0:0:
423,350,188360,2,0,P|345:358|224:378,1,138.240003375,8|2,0:0|3:2,0:0:0:0:
121,333,188610,1,8,0:0:0:0:
141,340,188693,86,0,P|175:337|225:293,1,69.1200016875,4|2,0:0|0:0,0:0:0:0:
363,262,188860,2,0,P|329:259|279:215,1,69.1200016875,2|0,0:0|0:0,0:0:0:0:
158,179,189026,2,0,P|185:159|207:96,1,69.1200016875,8|2,3:2|3:2,0:0:0:0:
354,139,189193,2,0,P|326:119|304:56,1,69.1200016875,8|8,3:2|3:2,0:0:0:0:
256,0,189360,21,6,0:0:0:0:
256,18,189443,1,2,0:0:0:0:
256,36,189526,1,2,0:0:0:0:
257,341,189693,101,10,0:0:0:0:
256,161,189860,1,2,0:0:0:0:
435,295,190026,6,0,B|367:280|367:280|301:317,1,118.080001801758,2|2,0:0|0:0,0:0:0:0:
200,229,190276,2,0,B|264:248|264:248|346:203,1,118.080001801758,2|2,0:0|0:0,0:0:0:0:
354,139,190526,2,0,L|337:40,1,59.0400009008789,2|2,0:0|0:0,0:0:0:0:
454,114,190693,101,2,0:0:0:0:
457,161,190776,1,2,0:0:0:0:
439,205,190860,1,2,0:0:0:0:
401,232,190943,1,2,0:0:0:0:
354,238,191026,1,10,0:0:0:0:
309,223,191110,1,2,0:0:0:0:
272,194,191193,1,2,0:0:0:0:
224,192,191276,1,2,0:0:0:0:
187,221,191360,5,2,0:0:0:0:
177,267,191443,1,2,0:0:0:0:
199,309,191526,1,2,0:0:0:0:
241,329,191610,1,2,0:0:0:0:
287,316,191693,2,0,P|312:309|352:311,1,59.0400009008789,10|2,0:0|0:0,0:0:0:0:
466,255,191860,2,0,P|436:252|409:242,1,59.0400009008789,2|2,0:0|0:0,0:0:0:0:
308,109,192026,101,2,0:0:0:0:
310,86,192110,1,2,0:0:0:0:
313,64,192193,1,2,0:0:0:0:
287,316,192360,1,10,0:0:0:0:
301,205,192526,1,2,0:0:0:0:
409,242,192693,6,0,P|358:210|298:206,1,118.080001801758,2|2,0:0|0:0,0:0:0:0:
308,109,192943,2,0,P|367:106|418:78,1,118.080001801758,2|2,0:0|0:0,0:0:0:0:
255,39,193193,2,0,P|232:64|223:109,1,59.0400009008789,2|2,0:0|0:0,0:0:0:0:
217,221,193360,101,2,0:0:0:0:
192,261,193443,1,2,0:0:0:0:
150,283,193526,1,2,0:0:0:0:
102,278,193610,1,2,0:0:0:0:
67,245,193693,1,10,0:0:0:0:
57,198,193776,1,2,0:0:0:0:
75,154,193860,1,2,0:0:0:0:
115,129,193943,1,2,0:0:0:0:
161,133,194026,5,2,0:0:0:0:
202,110,194110,1,2,0:0:0:0:
212,64,194193,1,2,0:0:0:0:
182,27,194276,1,2,0:0:0:0:
134,24,194360,2,0,L|49:35,1,59.0400009008789,10|2,0:0|0:0,0:0:0:0:
137,205,194526,2,0,L|207:214,1,59.0400009008789,2|2,0:0|0:0,0:0:0:0:
327,126,194693,37,2,0:0:0:0:
364,119,194776,1,2,0:0:0:0:
398,113,194860,1,2,0:0:0:0:
255,136,195026,69,14,0:0:0:0:
465,205,195193,1,2,0:0:0:0:
352,277,195360,2,0,B|319:241|319:241|336:136,1,131.520003712647,2|2,0:0|0:0,0:0:0:0:
237,18,195610,2,0,B|269:53|269:53|252:158,1,131.520003712647,2|2,0:0|0:0,0:0:0:0:
150,156,195860,2,0,L|49:142,1,65.7600018563233,2|2,0:0|0:0,0:0:0:0:
26,227,196026,101,2,0:0:0:0:
53,269,196110,1,2,0:0:0:0:
100,285,196193,1,2,0:0:0:0:
149,276,196276,1,2,0:0:0:0:
182,238,196360,1,10,0:0:0:0:
215,200,196443,1,2,0:0:0:0:
262,183,196526,1,2,0:0:0:0:
311,186,196610,1,2,0:0:0:0:
351,215,196693,5,2,0:0:0:0:
401,221,196776,1,2,0:0:0:0:
448,202,196860,1,2,0:0:0:0:
487,170,196943,1,2,0:0:0:0:
494,120,197026,2,0,P|489:82|480:49,1,65.7600018563233,10|2,0:0|0:0,0:0:0:0:
316,45,197193,2,0,P|307:79|303:110,1,65.7600018563233,2|2,0:0|0:0,0:0:0:0:
394,132,197360,101,2,0:0:0:0:
397,91,197443,1,2,0:0:0:0:
399,50,197526,1,2,0:0:0:0:
489,233,197693,5,10,0:0:0:0:
294,217,197860,1,2,0:0:0:0:
510,89,198026,2,0,B|493:58|463:45|463:45|432:44|396:63,1,131.520003712647,2|2,0:0|0:0,0:0:0:0:
317,136,198276,2,0,B|297:166|265:179|265:179|236:180|200:161,1,131.520003712647,2|2,0:0|0:0,0:0:0:0:
262,34,198526,2,0,L|342:18,1,65.7600018563233,2|2,0:0|0:0,0:0:0:0:
400,61,198693,101,2,0:0:0:0:
371,110,198776,1,2,0:0:0:0:
317,136,198860,1,2,0:0:0:0:
258,127,198943,1,2,0:0:0:0:
205,97,199026,1,10,0:0:0:0:
145,89,199110,1,2,0:0:0:0:
92,115,199193,1,2,0:0:0:0:
60,165,199276,1,10,0:0:0:0:
61,224,199360,5,2,0:0:0:0:
93,273,199443,1,2,0:0:0:0:
146,297,199526,1,2,0:0:0:0:
204,287,199610,1,2,0:0:0:0:
248,248,199693,2,0,P|277:235|327:244,1,65.7600018563233,10|2,0:0|0:0,0:0:0:0:
368,320,199860,2,0,P|397:333|447:324,1,65.7600018563233,2|2,0:0|0:0,0:0:0:0:
503,242,200026,102,0,B|503:151|486:46|337:-31|193:-85|-67:-30|25:315|35:424|68:487|332:433|353:439|406:421|518:369|528:230|496:131|473:65|435:51|344:57|189:66|142:122|115:185|149:209|279:197|317:210|337:261|187:336|78:358|-13:341|-48:293|-41:191|-61:133|-106:126|-65:50|-4:34|111:-13|303:61|93:182|64:188|71:223|90:287|228:336|288:275|338:203,1,2027.5199938125,4|0,0:3|0:0,0:0:0:0:
310,237,203420,54,0,L|300:179,2,57.5999982421876,2|0|0,0:0|0:0|0:0,0:0:0:0:
355,353,203833,2,0,B|311:330|311:330|258:342,1,96,0|2,0:0|0:0,0:0:0:0:
137,344,204247,2,0,P|84:367|27:358,1,96,8|0,0:0|0:0,0:0:0:0:
27,276,204557,2,0,P|79:252|136:261,1,96,0|0,0:0|0:0,0:0:0:0:
176,196,204868,2,0,P|193:219|202:261,1,48,0|0,0:0|0:0,0:0:0:0:
310,238,205075,86,0,P|318:217|341:189,2,48,2|0|0,0:0|0:0|0:0,0:0:0:0:
257,140,205488,2,0,L|264:28,1,96,0|2,0:0|0:0,0:0:0:0:
388,37,205902,2,0,B|429:63|429:63|515:52,1,96,8|0,0:0|0:0,0:0:0:0:
496,144,206213,2,0,B|445:151|445:151|393:212,1,96,0|0,0:0|0:0,0:0:0:0:
427,281,206523,2,0,L|433:352,1,48,0|0,0:0|0:0,0:0:0:0:
416,185,206730,22,0,L|410:133,2,48,2|0|0,0:0|0:0|0:0,0:0:0:0:
431,329,207144,2,0,L|315:305,1,96,0|2,0:0|0:0,0:0:0:0:
128,268,207557,2,0,P|68:278|0:308,1,96,8|0,0:0|0:0,0:0:0:0:
128,268,207868,2,0,P|149:211|158:134,1,96,0|0,0:0|0:0,0:0:0:0:
128,268,208178,2,0,P|150:295|188:324,1,48,0|0,0:0|0:0,0:0:0:0:
255,359,208385,86,0,L|255:282,2,57.5999982421876,2|0|0,0:0|0:0|0:0,0:0:0:0:
359,260,208799,2,0,L|386:122,1,96,0|2,0:0|0:0,0:0:0:0:
150,189,209213,2,0,L|126:78,1,96,8|0,0:0|0:0,0:0:0:0:
256,45,209523,2,0,L|256:162,1,96,0|0,0:0|0:0,0:0:0:0:
256,226,209833,2,0,L|256:281,1,48,0|0,0:0|0:0,0:0:0:0:
255,359,210040,21,2,0:0:0:0:
255,367,210144,1,0,0:0:0:0:
255,376,210247,1,0,0:0:0:0:
162,298,210454,2,0,P|103:307|51:325,1,96,0|2,0:0|0:0,0:0:0:0:
347,242,210868,2,0,P|406:251|461:268,1,96,8|0,0:0|0:0,0:0:0:0:
255,245,211282,2,0,P|231:165|226:65,1,144,0|0,0:0|0:0,0:0:0:0:
229,64,211695,85,2,0:0:0:0:
131,169,211902,1,0,0:0:0:0:
131,169,212006,1,2,0:0:0:0:
131,169,212109,2,0,P|69:149|3:145,1,96,0|2,0:0|0:0,0:0:0:0:
171,267,212523,21,8,0:0:0:0:
255,243,212730,1,0,0:0:0:0:
395,192,212937,1,0,0:0:0:0:
312,172,213144,1,0,0:0:0:0:
361,268,213351,86,0,L|345:368,1,96,2|0,0:0|0:0,0:0:0:0:
376,384,213661,1,0,0:0:0:0:
413,376,213764,1,0,0:0:0:0:
440,349,213868,1,0,0:0:0:0:
452,312,213971,1,2,0:0:0:0:
447,273,214075,1,0,0:0:0:0:
428,239,214178,1,8,0:0:0:0:
370,160,214385,21,0,0:0:0:0:
357,124,214488,1,0,0:0:0:0:
363,85,214592,1,0,0:0:0:0:
421,6,214799,1,0,0:0:0:0:
217,232,215006,86,0,L|157:239,2,48,2|0|0,0:0|0:0|0:0,0:0:0:0:
310,260,215316,2,0,P|304:190|269:148,1,96,2|0,0:0|0:0,0:0:0:0:
182,142,215626,2,0,L|122:148,1,48,2|0,0:0|0:0,0:0:0:0:
357,123,215833,2,0,L|497:109,1,72.0000027465821,8|0,0:0|0:0,0:0:0:0:
254,49,216247,21,0,0:0:0:0:
255,103,216350,1,0,0:0:0:0:
258,159,216453,1,0,0:0:0:0:
261,214,216557,1,0,0:0:0:0:
263,266,216661,86,0,B|266:343|266:343|313:376|313:376|403:372|403:372|452:308|452:308|508:305|508:305|520:322|520:322|510:338|510:338|455:341|455:341|393:290|393:290|303:293,1,588.000005607605,2|0,0:0|0:0,0:0:0:0:
184,251,217488,86,0,B|161:251|161:251|149:236|132:222|107:220|107:220|107:214|107:214|106:220|106:220|77:219|53:235|43:255|43:255|39:253|39:253|42:257|42:257|33:274|32:294|34:307|45:326|45:326|40:328|40:328|45:327|45:327|58:346|80:359|102:358|102:358|106:363|106:363|107:358|107:358|129:356|146:346|158:330|158:330|209:328,1,436.320008155701,8|0,0:0|0:0,0:0:0:0:
255,194,217902,22,0,B|267:173|267:173|259:152|259:152|247:170|247:170|251:183,1,82.0799989980469,0|0,0:0|0:0,0:0:0:0:
253,285,218316,86,0,P|244:275|238:254,1,28.7999991210938,2|0,0:0|0:0,0:0:0:0:
184,251,218420,2,0,P|185:238|197:220,1,28.7999991210938,0|0,0:0|0:0,0:0:0:0:
162,180,218523,2,0,P|172:173|194:170,1,28.7999991210938,0|0,0:0|0:0,0:0:0:0:
203,117,218627,2,0,P|215:121|231:136,1,28.7999991210938,2|0,0:0|0:0,0:0:0:0:
273,102,218730,2,0,P|278:114|279:136,1,28.7999991210938,0|0,0:0|0:0,0:0:0:0:
334,141,218834,2,0,P|328:153|313:169,1,28.7999991210938,0|0,0:0|0:0,0:0:0:0:
350,210,218937,2,0,P|337:215|315:216,1,28.7999991210938,2|0,0:0|0:0,0:0:0:0:
310,271,219041,2,0,P|296:265|281:250,1,28.7999991210938,0|0,0:0|0:0,0:0:0:0:
255,194,219144,22,0,B|233:100|233:100|223:50|242:19|296:-5,1,216.000008239746,8|0,0:0|0:0,0:0:0:0:
438,80,219557,2,0,B|460:174|460:174|470:218|451:255|397:279,1,216.000008239746,0|0,0:0|0:0,0:0:0:0:
307,363,219971,86,0,B|258:364|220:349|228:302|198:276|149:269|149:269|37:259|37:259|2:261|-15:295|-13:336|30:349|30:349|161:361|161:361,1,540.000020599366,2|0,0:0|0:0,0:0:0:0:
297,276,220592,2,0,L|427:285,1,98.4000015014649,2|0,0:0|0:0,0:0:0:0:
478,278,220799,22,0,B|487:226|487:226|491:226|491:226|487:225|487:225|502:146|502:146|470:114|470:114|465:116|465:116|470:114|470:114|389:33,1,252.000002403259,8|0,0:0|0:0,0:0:0:0:
271,70,221213,2,0,B|232:108|232:108|237:110|237:110|232:108|232:108|200:140|200:140|215:219|215:219|211:220|211:220|215:220|215:220|224:272,1,252.000002403259,0|0,0:0|0:0,0:0:0:0:
297,276,221626,86,0,P|308:283|322:288,1,28.7999991210938,2|0,0:0|0:0,0:0:0:0:
346,218,221730,2,0,P|360:215|373:209,1,28.7999991210938,0|0,0:0|0:0,0:0:0:0:
337,146,221833,2,0,P|345:134|350:121,1,28.7999991210938,0|0,0:0|0:0,0:0:0:0:
280,98,221937,2,0,P|278:84|272:71,1,28.7999991210938,2|0,0:0|0:0,0:0:0:0:
207,102,222040,2,0,P|195:94|182:90,1,28.7999991210938,0|0,0:0|0:0,0:0:0:0:
158,160,222144,2,0,P|144:162|131:169,1,28.7999991210938,0|0,0:0|0:0,0:0:0:0:
164,234,222247,2,0,P|156:246|152:260,1,28.7999991210938,2|0,0:0|0:0,0:0:0:0:
222,283,222351,2,0,P|224:297|231:311,1,28.7999991210938,0|0,0:0|0:0,0:0:0:0:
297,276,222454,22,0,P|318:264|370:269,1,56.6399980122071,8|0,0:0|0:0,0:0:0:0:
381,197,222661,86,0,P|400:210|422:257,1,56.6399980122071,0|0,0:0|0:0,0:0:0:0:
490,233,222868,22,0,P|487:257|457:299,1,56.6399980122071,0|0,0:0|0:0,0:0:0:0:
512,345,223075,86,0,P|488:356|436:351,1,56.6399980122071,0|0,0:0|0:0,0:0:0:0:
222,283,223282,22,0,B|213:201|213:201|210:171|229:139|263:135|263:135|339:128|339:128|379:154|379:154|492:139|492:139|482:181|482:181|489:181|489:181|482:184|482:184|473:223|473:223|379:236,1,583.199996217956,2|0,0:0|0:0,0:0:0:0:
317,304,223902,86,0,L|305:198,1,91.1999975646973,2|0,0:0|0:0,0:0:0:0:
110,5,224109,22,0,B|-11:41|-11:41|141:120,1,247.680003779297,8|0,0:0|0:0,0:0:0:0:
110,5,224523,86,0,B|170:10|170:10|192:4|192:4|217:15|217:15|305:22,1,161.28000196875,0|0,0:0|0:0,0:0:0:0:
398,32,224937,22,0,B|505:43|505:43|531:92|531:92|494:133|494:133|372:119|372:119|351:104|351:104|292:98|292:98|248:150|248:150|280:212|280:212|341:219|341:219|367:206|367:206|418:212|418:212|414:217|414:217|418:212|418:212|458:217|458:217|460:223|460:223|460:217|460:217|536:227,1,803.040014704102,2|0,0:0|0:0,0:0:0:0:
446,360,225764,86,0,B|422:340|422:340|269:319,1,142.08000346875,8|0,0:0|0:0,0:0:0:0:
224,264,226075,22,0,B|247:283|247:283|401:303,1,142.08000346875,0|0,0:0|0:0,0:0:0:0:
234,361,226385,86,0,L|138:349,1,71.040001734375,0|0,0:0|0:0,0:0:0:0:
57,194,226592,22,0,P|71:184|94:179,1,38.8800009492188,2|0,0:0|0:0,0:0:0:0:
86,124,226695,2,0,P|104:128|120:139,1,38.8800009492188,0|0,0:0|0:0,0:0:0:0:
156,96,226799,2,0,P|165:109|170:130,1,38.8800009492188,0|0,0:0|0:0,0:0:0:0:
224,124,226902,2,0,P|220:140|209:158,1,38.8800009492188,0|0,0:0|0:0,0:0:0:0:
253,191,227006,2,0,P|269:187|287:173,1,38.8800009492188,0|0,0:0|0:0,0:0:0:0:
318,219,227109,2,0,P|327:204|333:183,1,38.8800009492188,0|0,0:0|0:0,0:0:0:0:
389,189,227213,2,0,P|385:172|373:153,1,38.8800009492188,2|0,0:0|0:0,0:0:0:0:
422,126,227316,2,0,P|407:115|384:110,1,38.8800009492188,0|0,0:0|0:0,0:0:0:0:
414,52,227420,86,0,B|292:69|292:69|278:79|278:79|156:96,1,263.51999527533,8|0,0:0|0:0,0:0:0:0:
156,96,227833,2,0,B|279:79|279:79|295:85|295:85|416:67,1,263.51999527533,0|0,0:0|0:0,0:0:0:0:
478,101,228247,22,0,P|497:107|513:119,1,38.8800009492188,2|0,0:0|0:0,0:0:0:0:
466,172,228350,2,0,P|474:189|478:209,1,38.8800009492188,0|0,0:0|0:0,0:0:0:0:
406,214,228454,2,0,P|400:233|389:249,1,38.8800009492188,0|0,0:0|0:0,0:0:0:0:
335,202,228557,2,0,P|318:210|299:214,1,38.8800009492188,2|0,0:0|0:0,0:0:0:0:
297,141,228661,2,0,P|305:124|309:105,1,38.8800009492188,0|0,0:0|0:0,0:0:0:0:
236,102,228764,2,0,P|230:83|219:68,1,38.8800009492188,0|0,0:0|0:0,0:0:0:0:
166,116,228868,2,0,P|149:108|130:105,1,38.8800009492188,2|0,0:0|0:0,0:0:0:0:
127,177,228971,2,0,P|108:183|93:195,1,38.8800009492188,0|0,0:0|0:0,0:0:0:0:
207,274,229075,86,0,B|214:235|214:235|211:228|211:228|218:188,1,87.8399984251099,8|0,0:0|0:0,0:0:0:0:
336,202,229282,2,0,B|329:241|329:241|332:248|332:248|326:289,1,87.8399984251099,0|0,0:0|0:0,0:0:0:0:
161,366,229488,22,0,B|52:422|57:263|178:274|134:400|313:348,1,306.720001170044,0|0,0:0|0:0,0:0:0:0:
326,288,229902,22,0,L|315:249,3,24,2|2|2|2,0:0|0:0|0:0|0:0,0:0:0:0:
396,232,230316,2,0,L|405:192,3,24,2|2|2|2,0:0|0:0|0:0|0:0,0:0:0:0:
467,262,230730,2,0,L|506:251,3,24,2|2|2|2,0:0|0:0|0:0|0:0,0:0:0:0:
489,339,231144,2,0,L|528:348,3,24,2|2|2|2,0:0|0:0|0:0|0:0,0:0:0:0:
328,284,231557,6,0,L|288:274,3,24,2|2|2|2,0:0|0:0|0:0|0:0,0:0:0:0:
314,195,231971,2,0,L|283:167,3,24,2|2|2|2,0:0|0:0|0:0|0:0,0:0:0:0:
375,148,232385,2,0,L|384:108,3,24,2|2|2|2,0:0|0:0|0:0|0:0,0:0:0:0:
453,168,232799,2,0,L|480:138,3,24,2|2|2|2,0:0|0:0|0:0|0:0,0:0:0:0:
328,284,233213,102,0,P|316:286|304:288,3,24,2|2|2|2,0:0|0:0|0:0|0:0,0:0:0:0:
205,184,233626,2,0,P|193:182|182:180,3,24,2|2|2|2,0:0|0:0|0:0|0:0,0:0:0:0:
210,291,234040,2,0,P|198:293|187:296,3,24,2|2|2|2,0:0|0:0|0:0|0:0,0:0:0:0:
306,184,234454,2,0,P|318:182|330:180,3,24,2|2|2|2,0:0|0:0|0:0|0:0,0:0:0:0:
170,108,234868,6,0,P|158:106|147:104,3,24,2|2|2|2,0:0|0:0|0:0|0:0,0:0:0:0:
330,23,235281,2,0,P|347:20|369:14,3,24,2|2|2|2,0:0|0:0|0:0|0:0,0:0:0:0:
184,20,235695,2,0,P|166:17|144:11,3,24,2|2|2|2,0:0|0:0|0:0|0:0,0:0:0:0:
344,106,236109,2,0,P|361:103|383:97,3,24,2|2|2|2,0:0|0:0|0:0|0:0,0:0:0:0:
438,177,236523,102,0,L|434:216,3,24,2|2|2|2,0:0|0:0|0:0|0:0,0:0:0:0:
352,289,236937,2,0,L|355:313,3,24,2|2|2|2,0:0|0:0|0:0|0:0,0:0:0:0:
270,192,237351,2,0,L|273:169,3,24,2|2|2|2,0:0|0:0|0:0|0:0,0:0:0:0:
181,101,237765,2,0,L|177:62,3,24,2|2|2|2,0:0|0:0|0:0|0:0,0:0:0:0:
169,197,238178,6,0,L|173:236,3,24,2|2|2|2,0:0|0:0|0:0|0:0,0:0:0:0:
283,82,238592,2,0,L|287:43,3,24,2|2|2|2,0:0|0:0|0:0|0:0,0:0:0:0:
352,181,239006,2,0,L|356:220,3,24,2|2|2|2,0:0|0:0|0:0|0:0,0:0:0:0:
445,281,239420,2,0,L|442:304,3,24,2|2|2|2,0:0|0:0|0:0|0:0,0:0:0:0:
335,358,239833,102,0,L|305:350,3,24,2|2|2|2,0:0|0:0|0:0|0:0,0:0:0:0:
194,251,240247,2,0,L|170:257,3,24,2|2|2|2,0:0|0:0|0:0|0:0,0:0:0:0:
177,358,240661,2,0,L|207:350,3,24,2|2|2|2,0:0|0:0|0:0|0:0,0:0:0:0:
318,251,241075,2,0,L|342:257,3,24,2|2|2|2,0:0|0:0|0:0|0:0,0:0:0:0:
229,166,241488,5,0,0:0:0:0:
193,141,241592,1,0,0:0:0:0:
159,116,241695,1,0,0:0:0:0:
312,123,241902,1,0,0:0:0:0:
138,205,242109,101,0,0:0:0:0:
138,205,242213,1,0,0:0:0:0:
267,252,242420,1,0,0:0:0:0:
113,199,242626,1,0,0:0:0:0:
312,123,242833,5,0,0:0:0:0:
353,109,242937,1,2,0:0:0:0:
401,95,243040,1,2,0:0:0:0:
445,83,243144,6,0,L|514:92,1,48,2|0,0:0|0:0,0:0:0:0:
455,172,243351,2,0,L|524:181,1,48,0|0,0:0|0:0,0:0:0:0:
312,123,243557,102,0,L|243:114,1,48,0|0,0:0|0:0,0:0:0:0:
302,34,243764,2,0,L|233:25,1,48,2|0,0:0|0:0,0:0:0:0:
386,0,243971,5,8,0:0:0:0:
386,0,244385,1,0,0:0:0:0:
119,101,244799,102,0,B|144:142|144:142|121:212,1,96,2|0,0:0|0:0,0:0:0:0:
211,273,245109,2,0,B|196:237|196:237|214:181,1,96,2|0,0:0|0:0,0:0:0:0:
144,142,245420,2,0,L|78:151,1,48,2|0,0:0|0:0,0:0:0:0:
1,161,245626,5,8,0:0:0:0:
249,128,246040,1,0,0:0:0:0:
375,351,246454,102,0,L|401:291,1,48,2|0,0:0|0:0,0:0:0:0:
137,351,246661,2,0,L|111:291,1,48,0|0,0:0|0:0,0:0:0:0:
306,292,246868,6,0,L|322:229,1,48,0|0,0:0|0:0,0:0:0:0:
205,287,247075,2,0,L|189:224,1,48,2|0,0:0|0:0,0:0:0:0:
256,192,247282,101,8,0:0:0:0:
256,192,247695,1,0,0:0:0:0:
41,147,248109,6,0,P|81:128|154:117,1,96,2|0,0:0|0:0,0:0:0:0:
166,39,248420,2,0,P|209:59|256:68,1,96,2|0,0:0|0:0,0:0:0:0:
351,126,248730,2,0,L|342:67,1,48,2|0,0:0|0:0,0:0:0:0:
331,0,248937,101,8,0:0:0:0:
367,233,249351,1,0,0:0:0:0:
138,222,249764,6,0,L|211:263,1,48,2|0,0:0|0:0,0:0:0:0:
213,350,249971,2,0,L|284:391,1,48,0|0,0:0|0:0,0:0:0:0:
95,337,250178,102,0,L|168:296,1,48,0|0,0:0|0:0,0:0:0:0:
261,289,250385,2,0,L|332:248,1,48,2|0,0:0|0:0,0:0:0:0:
130,188,250592,5,8,0:0:0:0:
130,188,251006,1,0,0:0:0:0:
382,191,251420,102,0,L|488:119,1,96,2|0,0:0|0:0,0:0:0:0:
363,231,251730,2,0,L|372:358,1,96,2|0,0:0|0:0,0:0:0:0:
339,194,252040,2,0,L|281:166,1,48,2|0,0:0|0:0,0:0:0:0:
213,130,252247,5,8,0:0:0:0:
459,257,252661,1,0,0:0:0:0:
300,20,253075,102,0,L|289:87,1,48,2|0,0:0|0:0,0:0:0:0:
379,73,253282,2,0,L|368:140,1,48,0|0,0:0|0:0,0:0:0:0:
213,130,253488,6,0,L|224:197,1,48,0|0,0:0|0:0,0:0:0:0:
134,183,253695,2,0,L|145:250,1,48,2|0,0:0|0:0,0:0:0:0:
256,306,253902,101,8,0:0:0:0:
256,306,254316,1,0,0:0:0:0:
316,212,254523,1,2,0:0:0:0:
316,212,254626,1,2,0:0:0:0:
316,212,254730,6,0,L|439:199,1,96,2|0,0:0|0:0,0:0:0:0:
466,110,255040,2,0,L|343:123,1,96,2|0,0:0|0:0,0:0:0:0:
393,244,255351,2,0,L|462:237,1,48,2|0,0:0|0:0,0:0:0:0:
512,179,255557,101,8,0:0:0:0:
423,329,255868,5,8,0:0:0:0:
422,347,255971,1,0,0:0:0:0:
213,190,256385,102,0,P|131:135|-24:144,1,216.000008239746,2|0,0:0|0:0,0:0:0:0:
17,252,256799,2,0,P|123:248|213:191,1,216.000008239746,0|0,0:0|0:0,0:0:0:0:
256,64,257213,1,8,0:0:0:0:
436,263,258040,54,0,P|439:191|414:124,1,144.000005493164,2|0,0:0|0:0,0:0:0:0:
318,139,258351,2,0,P|315:210|340:277,1,144.000005493164,2|0,0:0|0:0,0:0:0:0:
290,346,258661,2,0,P|325:362|368:358,1,72.0000027465821,2|0,0:0|0:0,0:0:0:0:
482,331,258868,1,8,0:0:0:0:
28,170,259695,54,0,P|118:117|219:145,1,216.000008239746,2|0,0:0|0:0,0:0:0:0:
311,181,260109,2,0,P|266:232|188:237,1,134.399995898438,0|2,0:0|0:0,0:0:0:0:
347,69,260523,2,0,P|415:130|419:221,1,187.199991430664,8|0,0:0|0:0,0:0:0:0:
335,311,260937,2,0,P|395:343|470:333,1,115.199996484375,0|0,0:0|0:0,0:0:0:0:
293,211,261351,54,0,P|234:270|231:342,1,144.000005493164,2|0,0:0|0:0,0:0:0:0:
293,211,261661,2,0,P|268:129|206:101,1,144.000005493164,2|0,0:0|0:0,0:0:0:0:
293,211,261971,2,0,P|349:226|399:209,1,72.0000027465821,2|0,0:0|0:0,0:0:0:0:
417,149,262178,2,0,P|394:75|401:-21,1,144.000005493164,8|0,0:0|0:0,0:0:0:0:
128,0,262592,2,0,P|139:70|105:223,1,216.000008239746,0|0,0:0|0:0,0:0:0:0:
76,300,263006,54,0,P|19:238|124:257,1,216.000008239746,2|0,0:0|0:0,0:0:0:0:
191,285,263420,2,0,P|295:300|417:204,1,216.000008239746,0|0,0:0|0:0,0:0:0:0:
456,163,263833,1,8,0:0:0:0:
177,165,264661,54,0,P|83:192|17:165,1,144.000005493164,2|0,0:0|0:0,0:0:0:0:
28,81,264971,2,0,P|93:55|163:66,1,144.000005493164,2|0,0:0|0:0,0:0:0:0:
215,0,265282,2,0,P|242:34|248:96,1,72.0000027465821,2|0,0:0|0:0,0:0:0:0:
256,192,265488,1,8,0:0:0:0:
2,320,266316,54,0,P|93:274|241:296,1,216.000008239746,2|0,0:0|0:0,0:0:0:0:
205,280,266730,2,0,P|175:221|187:102,1,134.399995898438,0|2,0:0|0:0,0:0:0:0:
291,36,267144,2,0,P|382:82|509:66,1,187.199991430664,8|0,0:0|0:0,0:0:0:0:
465,81,267558,2,0,P|442:120|448:231,1,115.199996484375,0|0,0:0|0:0,0:0:0:0:
368,368,267971,54,0,P|346:256|241:191,1,216.000008239746,2|2,0:0|0:0,0:0:0:0:
168,157,268385,2,0,P|160:191|164:227,1,72.0000027465821,0|0,0:0|0:0,0:0:0:0:
100,283,268592,2,0,P|127:304|171:313,1,72.0000027465821,2|0,0:0|0:0,0:0:0:0:
368,368,268799,54,0,P|360:282|186:194,1,240.479992477661,8|0,0:0|0:0,0:0:0:0:
245,191,269213,2,0,P|139:245|12:233,1,240.479992477661
174,130,269626,54,0,B|239:43|194:-96|-74:-83|-20:213|159:102|95:310,1,537.6,2|0,0:0|0:0,0:0:0:0:
0,371,270454,2,0,P|86:325|275:355,1,230.4,8|0,0:0|0:0,0:0:0:0:
285,258,270868,2,0,P|367:292|487:270,1,153.6,0|0,0:0|0:0,0:0:0:0:
492,25,271282,54,0,B|375:-23|194:17|323:174|131:210|-14:164,1,537.6,2|0,0:0|0:0,0:0:0:0:
14,172,272109,2,0,P|32:73|2:-23,1,153.6,8|0,0:0|0:0,0:0:0:0:
14,172,272523,2,0,P|11:302|70:384,1,230.4
168,371,272937,101,2,0:0:0:0:
275,347,273351,1,2,0:0:0:0:
417,236,273764,69,2,0:0:0:0:
340,212,274178,1,2,0:0:0:0:
246,149,274592,38,0,L|264:279,1,129.600003164063,0|0,0:0|0:0,0:0:0:0:
138,351,276247,86,0,B|90:369|90:369|88:372|88:372|90:369|90:369|17:327|17:327|13:330|13:330|17:327|17:327|27:238|27:238|23:235|23:235|27:238|27:238|108:214|108:214|109:210|109:210|108:214|108:214|179:256,1,397.440000606445,6|0,0:0|0:0,0:0:0:0:
266,349,276661,54,0,P|297:342|326:317,1,53.2800013007813,0|0,0:0|0:0,0:0:0:0:
264,277,276764,2,0,P|273:246|266:209,1,53.2800013007813,0|0,0:0|0:0,0:0:0:0:
200,240,276868,2,0,P|178:216|142:204,1,53.2800013007813,2|0,0:0|0:0,0:0:0:0:
137,277,276971,2,0,P|105:284|76:309,1,53.2800013007813,0|0,0:0|0:0,0:0:0:0:
138,351,277075,54,0,L|181:361,6,36.8000007019043,8|0|0|0|0|0|0,0:0|0:0|0:0|0:0|0:0|0:0|0:0,0:0:0:0:
253,153,277351,54,0,L|296:143,6,36.8000007019043,0|0|0|0|0|0|0,0:0|0:0|0:0|0:0|0:0|0:0|0:0,0:0:0:0:
363,297,277626,54,0,L|406:307,6,36.8000007019043,0|0|0|0|0|0|0,0:0|0:0|0:0|0:0|0:0|0:0|0:0,0:0:0:0:
200,240,277902,54,0,B|259:220|289:144|289:144|363:164|455:182|455:182|386:176|351:240,1,403.199987695313,2|2,0:0|0:0,0:0:0:0:
294,328,278316,54,0,L|285:381,1,34.0799982839356,0|0,0:0|0:0,0:0:0:0:
242,336,278420,2,0,L|231:409,1,42.7200000325928,0|0,0:0|0:0,0:0:0:0:
163,293,278523,54,0,L|154:228,1,51.3599984326172,2|0,0:0|0:0,0:0:0:0:
115,270,278627,2,0,L|105:197,1,60,0|0,0:0|0:0,0:0:0:0:
52,308,278730,54,0,B|112:322|112:322|210:265,1,120,8|0,0:0|0:0,0:0:0:0:
146,102,278937,2,0,B|86:88|86:88|-12:145,1,120,0|0,0:0|0:0,0:0:0:0:
52,308,279144,54,0,B|0:393|148:460|199:337|170:256|39:292|114:153,1,360,0|0,0:0|0:0,0:0:0:0:
242,121,279557,54,0,B|284:126|284:126|285:130|285:130|285:126|285:126|328:132|328:132|364:100,2,128,2|0|0,0:0|0:0|0:0,0:0:0:0:
326,300,279971,2,0,B|283:294|283:294|283:291|283:291|282:294|282:294|239:288|239:288|203:320,2,128,0|0|0,0:0|0:0|0:0,0:0:0:0:
479,279,280385,54,0,B|482:250|482:250|482:226|466:202|432:198|432:198|388:193|388:193|342:220|342:220|312:216|312:216|313:221|313:221|310:216|310:216|278:212|278:212|270:215|270:215|277:212|277:212|237:206|237:206|187:131|187:131|134:124|134:124|119:140|119:140|129:160|129:160|183:167|183:167|253:122|253:122|342:134|342:134,1,739.200022558594,8|0,0:0|0:0,0:0:0:0:
456,21,281213,54,0,B|485:64|485:64|488:124|488:124|422:116|422:116|377:55|377:55|333:48|333:48|334:43|334:43|333:48|333:48|285:41|285:41|286:37|286:37|285:41|285:41|229:33|229:33|199:49|199:49|96:36|96:36|16:123|16:123|74:237|74:237|139:247,1,840,2|0,0:0|0:0,0:0:0:0:
190,260,282040,54,0,P|184:206|137:162,1,110.400002105713,8|0,0:0|0:0,0:0:0:0:
107,242,282247,54,0,P|167:223|332:204,1,220.800004211426,0|0,0:0|0:0,0:0:0:0:
323,204,282557,54,0,B|306:160|310:119|310:119|300:160|261:207,1,172.799994726563,0|0,0:0|0:0,0:0:0:0:
190,260,282868,54,0,B|114:446|-19:456|-71:281|61:177|207:321|145:426|384:370|384:370|287:380|226:294,1,772.800014739991,2|0,0:0|0:0,0:0:0:0:
284,252,283695,1,8,0:0:0:0:
203,152,283902,54,0,P|222:147|247:121,1,45.5999987823487,0|0,0:0|0:0,0:0:0:0:
295,153,284006,2,0,P|280:136|246:127,1,45.5999987823487,0|0,0:0|0:0,0:0:0:0:
251,70,284109,2,0,P|243:89|252:122,1,45.5999987823487,0|0,0:0|0:0,0:0:0:0:
238,247,284316,54,0,L|298:253,1,45.5999987823487,0|0,0:0|0:0,0:0:0:0:
310,255,284420,2,0,L|370:261,1,45.5999987823487,0|0,0:0|0:0,0:0:0:0:
374,260,284523,54,0,B|411:223|416:185|405:132|362:83|362:83|442:102|484:229|448:308|338:414|116:349|64:152|202:69|326:104|315:219,1,873.599960009768,2|0,0:0|0:0,0:0:0:0:
256,287,285351,54,0,B|247:313|247:313|219:399|137:397|71:346|97:268|97:268|105:240,1,316.800009667969,8|0,0:0|0:0,0:0:0:0:
105,240,285764,54,0,B|98:258|98:258|79:316|23:315|-22:280|-4:227|-4:227|1:208,1,216.000008239746,0|0,0:0|0:0,0:0:0:0:
115,144,286178,54,0,B|171:109|260:102|245:169|311:172|369:154|369:154|310:166|248:165|263:97|138:-80|-43:-39|-74:226|62:272|182:233,1,840,2|0,0:0|0:0,0:0:0:0:
182,258,287006,54,0,P|180:219|162:189,1,55.2000010528565,8|0,0:0|0:0,0:0:0:0:
260,243,287109,2,0,P|258:204|240:174,1,50.3999984619141
315,195,287213,2,0,P|300:158|273:136,1,45.5999987823487
336,133,287316,2,0,P|307:106|273:97,1,40.8000007781983
324,76,287420,2,0,P|286:66|259:75,1,36.0000013732911
293,37,287523,2,0,P|256:51|245:68,1,31.1999985717774
257,14,287626,2,0,P|243:33|236:59,1,26.4000008056641
221,16,287730,2,0,P|226:42|235:52,1,21.5999993408203
185,100,287833,54,0,P|90:163|54:-14,1,316.800009667969,2|2,0:0|0:0,0:0:0:0:
96,67,288247,54,0,B|71:211|0:85|-45:291|66:302|179:231|53:119,1,331.200006317139,0|0,0:0|0:0,0:0:0:0:
18,19,288661,53,8,0:0:0:0:
223,37,288868,53,2,0:0:0:0:
233,38,288971,1,8,0:0:0:0:
243,40,289075,1,0,0:0:0:0:
214,229,289282,53,8,0:0:0:0:
218,218,289385,1,8,0:0:0:0:
223,208,289488,70,0,P|251:180|302:180,1,72.0000027465821,6|0,0:0|0:0,0:0:0:0:
408,134,289695,2,0,P|381:110|345:107,1,72.0000027465821,0|0,3:0|0:0,0:0:0:0:
306,187,289902,70,0,P|378:191|407:126,1,144.000005493164,10|0,0:0|3:0,0:0:0:0:
407,40,290213,1,0,0:0:0:0:
405,32,290316,1,2,0:0:0:0:
243,46,290523,2,0,P|283:40|322:37,1,72.0000027465821,0|0,3:0|0:0,0:0:0:0:
485,89,290730,2,0,B|436:87|405:32|405:32|402:90|362:132|291:127,1,244.80000466919,10|0,0:0|0:0,0:0:0:0:
169,174,291144,38,0,P|161:91|203:32,1,144.000005493164,2|0,0:0|3:0,0:0:0:0:
280,213,291454,1,0,0:0:0:0:
269,220,291557,2,0,B|209:247|129:226|172:169|87:144|-1:194,1,244.80000466919,10|0,0:0|0:0,0:0:0:0:
94,344,291971,2,0,P|173:284|126:182,1,216.000008239746,2|0,0:0|0:0,0:0:0:0:
42,176,292385,2,0,B|39:152|50:136|50:136|30:150|26:192,1,72.0000027465821,10|0,0:0|0:0,0:0:0:0:
152,57,292592,2,0,B|149:80|160:96|160:96|140:82|135:40,1,72.0000027465821,0|0,3:0|0:0,0:0:0:0:
89,258,292799,70,0,P|142:186|252:219,1,216.000008239746,2|0,0:0|0:0,0:0:0:0:
315,268,293213,2,0,P|283:295|237:295,1,72.0000027465821,10|0,0:0|0:0,0:0:0:0:
178,270,293420,1,0,3:0:0:0:
342,184,293626,38,0,L|429:193,1,72.0000027465821,2|0,0:0|0:0,0:0:0:0:
251,173,293833,1,0,3:0:0:0:
231,336,294040,70,0,L|243:246,1,72.0000027465821,10|0,0:0|0:0,0:0:0:0:
251,173,294247,1,0,3:0:0:0:
158,163,294454,38,0,L|71:152,1,72.0000027465821,2|0,0:0|0:0,0:0:0:0:
251,173,294661,1,0,3:0:0:0:
264,30,294868,70,0,L|249:198,1,144.000005493164,10|0,0:0|3:0,0:0:0:0:
159,245,295178,1,0,0:0:0:0:
160,259,295282,38,0,P|169:295|205:334,1,66.2400001010742,2|0,0:0|0:0,0:0:0:0:
345,257,295489,2,0,P|358:224|358:180,1,66.2400001010742,0|0,3:0|0:0,0:0:0:0:
251,173,295695,86,0,P|240:212|254:263,1,84.4800025781251,10|0,0:0|0:0,0:0:0:0:
393,340,295902,2,0,P|421:318|444:270,1,84.4800025781251,0|0,3:0|0:0,0:0:0:0:
448,97,296109,22,0,P|400:90|353:112,1,79.6800011550293,6|0,0:0|0:0,0:0:0:0:
256,82,296316,2,0,P|221:57|180:51,1,79.6800011550293,0|0,3:0|0:0,0:0:0:0:
410,168,296523,86,0,P|379:205|375:256,1,79.6800011550293,10|0,0:0|0:0,0:0:0:0:
203,208,296730,2,0,P|206:166|190:127,1,79.6800011550293,0|0,3:0|0:0,0:0:0:0:
322,38,296937,22,0,P|301:157|277:303,1,239.040003465088,2|0,0:0|0:0,0:0:0:0:
276,312,297351,1,10,0:0:0:0:
409,275,297557,1,0,3:0:0:0:
171,88,297764,86,0,P|177:48|189:0,1,72.0000027465821,2|0,0:0|0:0,0:0:0:0:
311,70,297971,2,0,P|343:46|385:20,1,72.0000027465821,0|0,3:0|0:0,0:0:0:0:
396,171,298178,2,0,P|435:177|483:189,1,72.0000027465821,10|0,0:0|0:0,0:0:0:0:
392,310,298385,2,0,P|414:341|440:384,1,72.0000027465821,0|0,3:0|0:0,0:0:0:0:
240,337,298592,22,0,P|212:224|268:49,1,252.000002403259,2|0,0:0|0:0,0:0:0:0:
240,94,299006,2,0,P|269:215|239:338,1,252.000002403259,10|0,0:0|0:0,0:0:0:0:
81,316,299420,86,0,P|47:285|36:230,1,79.6800011550293,2|0,0:0|0:0,0:0:0:0:
290,219,299627,2,0,P|280:264|236:302,1,79.6800011550293,0|0,3:0|0:0,0:0:0:0:
112,246,299834,22,0,P|102:291|58:329,1,79.6800011550293,10|0,0:0|0:0,0:0:0:0:
214,226,300041,2,0,P|257:213|311:231,1,79.6800011550293,0|0,3:0|0:0,0:0:0:0:
36,254,300248,86,0,P|73:241|113:246,1,79.6800011550293,2|0,0:0|0:0,0:0:0:0:
259,289,300455,2,0,P|229:262|214:226,1,79.6800011550293,0|0,3:0|0:0,0:0:0:0:
140,107,300661,22,0,L|151:184,1,72.0000027465821,10|0,0:0|0:0,0:0:0:0:
181,379,300868,2,0,L|170:302,1,72.0000027465821,0|0,3:0|0:0,0:0:0:0:
228,150,301075,86,0,P|320:135|459:216,1,252.000002403259,2|0,0:0|0:0,0:0:0:0:
289,374,301488,2,0,P|218:272|229:148,1,252.000002403259,10|0,0:0|0:0,0:0:0:0:
454,209,301902,2,0,P|401:320|289:374,1,252.000002403259,2|0,0:0|0:0,0:0:0:0:
294,214,302316,22,0,B|335:208|368:233|368:233|351:273|311:288|311:288|285:253|291:209,1,224.640007541016,10|2,0:0|0:0,0:0:0:0:
504,182,302730,5,6,0:0:0:0:
501,143,302833,1,2,0:0:0:0:
497,103,302937,2,0,L|506:198,1,79.2000007553101,2|2,0:0|0:0,0:0:0:0:
447,261,303144,69,10,0:0:0:0:
444,300,303247,1,2,0:0:0:0:
440,340,303351,2,0,L|449:245,1,79.2000007553101,2|2,0:0|0:0,0:0:0:0:
389,175,303557,37,2,0:0:0:0:
386,136,303660,1,2,0:0:0:0:
382,96,303764,2,0,L|391:191,1,79.2000007553101,2|2,0:0|0:0,0:0:0:0:
329,253,303971,69,10,0:0:0:0:
326,292,304074,1,2,0:0:0:0:
322,332,304178,2,0,L|331:237,1,79.2000007553101,2|2,0:0|0:0,0:0:0:0:
314,166,304385,37,2,0:0:0:0:
350,150,304488,1,2,0:0:0:0:
386,134,304592,2,0,L|299:173,1,79.2000007553101,2|2,0:0|0:0,0:0:0:0:
212,152,304799,69,10,0:0:0:0:
181,129,304902,1,2,0:0:0:0:
148,106,305006,2,0,L|225:161,1,79.2000007553101,2|2,0:0|0:0,0:0:0:0:
247,249,305213,37,2,0:0:0:0:
244,288,305316,1,2,0:0:0:0:
240,328,305420,2,0,L|249:232,1,79.2000007553101,2|2,0:0|0:0,0:0:0:0:
314,166,305626,69,10,0:0:0:0:
350,150,305729,1,2,0:0:0:0:
386,134,305833,2,0,L|299:172,1,79.2000007553101,2|2,0:0|0:0,0:0:0:0:
158,296,306040,37,2,0:0:0:0:
128,274,306144,1,2,0:0:0:0:
114,236,306247,2,0,P|135:282|174:300,1,79.2000007553101,2|2,0:0|0:0,0:0:0:0:
29,241,306454,69,10,0:0:0:0:
34,203,306558,1,2,0:0:0:0:
60,173,306661,2,0,P|30:215|34:258,1,79.2000007553101,2|2,0:0|0:0,0:0:0:0:
14,98,306868,37,2,0:0:0:0:
51,83,306972,1,2,0:0:0:0:
89,91,307075,2,0,P|37:86|3:111,1,79.2000007553101,2|2,0:0|0:0,0:0:0:0:
129,15,307282,69,10,0:0:0:0:
160,39,307386,1,2,0:0:0:0:
173,76,307489,2,0,P|151:29|112:11,1,79.2000007553101,2|2,0:0|0:0,0:0:0:0:
28,29,307695,37,2,0:0:0:0:
4,60,307799,1,2,0:0:0:0:
0,99,307902,2,0,P|4:60|28:29,1,79.2000007553101,2|2,0:0|0:0,0:0:0:0:
134,165,308109,69,10,0:0:0:0:
98,181,308213,1,2,0:0:0:0:
60,173,308316,2,0,P|112:178|146:153,1,79.2000007553101,2|2,0:0|0:0,0:0:0:0:
174,75,308523,37,2,0:0:0:0:
160,39,308627,1,2,0:0:0:0:
129,15,308730,2,0,P|160:40|175:77,1,79.2000007553101,2|2,0:0|0:0,0:0:0:0:
0,99,308937,69,10,0:0:0:0:
4,60,309041,1,2,0:0:0:0:
27,29,309144,2,0,P|0:72|5:115,1,79.2000007553101,2|2,0:0|0:0,0:0:0:0:
89,275,309351,37,6,0:0:0:0:
91,317,309454,1,2,0:0:0:0:
92,355,309557,2,0,L|88:246,1,79.2000007553101,2|2,0:0|0:0,0:0:0:0:
167,235,309764,69,10,0:0:0:0:
202,254,309867,1,2,0:0:0:0:
237,273,309971,2,0,L|140:221,1,79.2000007553101,2|2,0:0|0:0,0:0:0:0:
165,146,310178,37,2,0:0:0:0:
199,125,310281,1,2,0:0:0:0:
233,105,310385,2,0,L|139:162,1,79.2000007553101,2|2,0:0|0:0,0:0:0:0:
85,111,310592,69,10,0:0:0:0:
85,71,310695,1,2,0:0:0:0:
84,32,310799,2,0,L|86:141,1,79.2000007553101,2|2,0:0|0:0,0:0:0:0:
167,235,311006,37,2,0:0:0:0:
203,254,311109,1,2,0:0:0:0:
237,273,311213,2,0,L|140:221,1,79.2000007553101,2|2,0:0|0:0,0:0:0:0:
233,105,311420,69,10,0:0:0:0:
199,125,311523,1,2,0:0:0:0:
165,146,311626,2,0,L|258:88,1,79.2000007553101,2|2,0:0|0:0,0:0:0:0:
323,192,311833,37,2,0:0:0:0:
363,192,311937,1,2,0:0:0:0:
403,192,312040,2,0,L|293:192,1,79.2000007553101,2|2,0:0|0:0,0:0:0:0:
156,190,312247,69,10,0:0:0:0:
117,190,312350,1,2,0:0:0:0:
77,190,312454,2,0,L|186:190,1,79.2000007553101,2|2,0:0|0:0,0:0:0:0:
403,192,312661,37,2,0:0:0:0:
425,224,312765,1,2,0:0:0:0:
425,263,312868,2,0,P|425:223|402:191,1,79.2000007553101,2|2,0:0|0:0,0:0:0:0:
265,220,313075,69,10,0:0:0:0:
243,252,313179,1,2,0:0:0:0:
242,292,313282,2,0,P|248:241|280:212,1,79.2000007553101,2|2,0:0|0:0,0:0:0:0:
346,246,313488,37,2,0:0:0:0:
345,285,313592,1,2,0:0:0:0:
323,318,313695,2,0,P|348:273|340:231,1,79.2000007553101,2|2,0:0|0:0,0:0:0:0:
243,138,313902,69,10,0:0:0:0:
208,156,314006,1,2,0:0:0:0:
187,189,314109,2,0,P|218:148|259:138,1,79.2000007553101,2|2,0:0|0:0,0:0:0:0:
425,263,314316,37,2,0:0:0:0:
457,286,314420,1,2,0:0:0:0:
496,287,314523,2,0,P|446:281|417:249,1,79.2000007553101,2|2,0:0|0:0,0:0:0:0:
427,83,314730,69,10,0:0:0:0:
459,60,314834,1,2,0:0:0:0:
498,60,314937,2,0,P|448:65|419:97,1,79.2000007553101,2|2,0:0|0:0,0:0:0:0:
344,287,315144,37,2,0:0:0:0:
348,325,315248,1,2,0:0:0:0:
329,360,315351,2,0,P|349:314|336:273,1,79.2000007553101,2|2,0:0|0:0,0:0:0:0:
187,189,315557,69,10,0:0:0:0:
152,206,315661,1,2,0:0:0:0:
132,239,315764,2,0,P|162:198|204:189,1,79.2000007553101,2|2,0:0|0:0,0:2:0:0:
447,326,315971,101,4,0:0:0:0:
384,211,316178,101,0,0:0:0:0:
385,205,316282,1,0,0:0:0:0:
387,199,316385,1,8,0:0:0:0:
320,326,316592,21,0,0:0:0:0:
321,332,316696,1,0,0:0:0:0:
322,338,316799,1,0,0:0:0:0:
281,211,317006,101,0,0:0:0:0:
283,205,317110,1,0,0:0:0:0:
285,199,317213,1,8,0:0:0:0:
211,326,317420,101,0,0:0:0:0:
212,332,317524,1,0,0:0:0:0:
213,338,317626,1,0,0:0:0:0:
179,211,317833,21,0,0:0:0:0:
180,205,317937,1,0,0:0:0:0:
181,199,318040,1,8,0:0:0:0:
108,332,318247,101,0,0:0:0:0:
110,338,318351,1,0,0:0:0:0:
111,344,318454,1,0,0:0:0:0:
63,211,318661,101,0,0:0:0:0:
58,209,318765,1,0,0:0:0:0:
53,207,318868,1,8,0:0:0:0:
115,102,319075,21,0,0:0:0:0:
116,96,319179,1,0,0:0:0:0:
118,91,319282,1,0,0:0:0:0:
175,200,319488,101,0,0:0:0:0:
177,205,319591,1,0,0:0:0:0:
179,210,319695,1,8,0:0:0:0:
230,102,319902,101,0,0:0:0:0:
231,96,320005,1,0,0:0:0:0:
233,91,320109,1,0,0:0:0:0:
281,217,320316,21,0,0:0:0:0:
282,291,320523,1,8,0:0:0:0:
338,102,320730,101,0,0:0:0:0:
340,96,320833,1,0,0:0:0:0:
342,91,320937,1,0,0:0:0:0:
392,222,321144,101,0,0:0:0:0:
394,227,321247,1,0,0:0:0:0:
395,232,321351,1,8,0:0:0:0:
443,119,321557,21,0,0:0:0:0:
448,117,321661,1,0,0:0:0:0:
453,116,321764,1,0,0:0:0:0:
342,168,321971,101,0,0:0:0:0:
341,91,322178,1,8,0:0:0:0:
392,222,322385,101,0,0:0:0:0:
394,227,322488,1,0,0:0:0:0:
395,232,322592,1,4,0:0:0:0:
268,140,322799,21,0,0:0:0:0:
274,139,322902,1,0,0:0:0:0:
279,138,323006,1,8,0:0:0:0:
208,200,323213,101,0,0:0:0:0:
208,275,323420,1,0,0:0:0:0:
273,238,323626,101,0,0:0:0:0:
278,239,323729,1,0,0:0:0:0:
283,240,323833,1,8,0:0:0:0:
130,154,324040,21,0,0:0:0:0:
130,78,324247,1,0,0:0:0:0:
193,113,324454,101,0,0:0:0:0:
198,111,324557,1,0,0:0:0:0:
203,110,324661,1,8,0:0:0:0:
70,205,324868,101,0,0:0:0:0:
70,277,325075,1,0,0:0:0:0:
211,345,325282,21,0,0:0:0:0:
211,275,325489,1,8,0:0:0:0:
211,204,325695,1,0,0:0:0:0:
140,240,325902,101,0,0:0:0:0:
281,240,326109,101,0,0:0:0:0:
287,241,326212,1,0,0:0:0:0:
292,242,326316,1,0,0:0:0:0:
282,154,326523,1,0,0:0:0:0:
399,208,326730,21,0,0:0:0:0:
377,311,326937,1,0,0:0:0:0:
282,154,327144,101,0,0:0:0:0:
267,47,327351,1,0,0:0:0:0:
195,201,327557,101,0,0:0:0:0:
91,175,327764,1,0,0:0:0:0:
0,69,327971,21,0,0:0:0:0:
102,42,328178,1,0,0:0:0:0:
119,281,328385,101,0,0:0:0:0:
91,175,328592,1,0,0:0:0:0:
279,32,328799,69,0,0:0:0:0:
256,190,329006,1,0,0:0:0:0:
23,128,330040,38,0,B|69:76|69:11|69:11|106:64|189:76,1,252.000009613037,0|0,0:0|0:0,0:0:0:0:
206,67,330868,6,0,B|112:67|63:-11|63:-11|65:80|0:140,1,336,0|0,0:0|0:0,0:0:0:0:
132,148,331695,102,0,B|226:230|222:372|222:372|298:252|441:252,1,483.8400118125,0|0,0:0|0:0,0:0:0:0:
511,166,332523,22,0,P|412:167|327:114,1,202.560004172608,6|0,0:0|3:0,0:0:0:0:
262,177,332833,1,0,0:0:0:0:
249,159,332937,2,0,P|238:110|264:50,1,101.280002086304,2|0,0:0|0:0,0:0:0:0:
322,15,333144,2,0,P|359:7|331:33,1,101.280002086304,0|0,3:0|0:0,0:0:0:0:
168,90,333351,2,0,P|183:10|245:85,1,202.560004172608,2|0,0:0|0:0,0:0:0:0:
226,242,333661,2,0,P|139:193|31:202,1,183.359996712524,2|0,0:2|0:0,0:0:0:0:
226,242,333971,2,0,P|271:242|311:219,1,86.8799995360107,0|0,3:0|0:0,0:0:0:0:
373,134,334178,85,2,0:0:0:0:
385,308,334385,1,0,3:0:0:0:
365,330,334488,2,0,B|319:233|387:106,1,202.560004172608,2|0,0:0|0:0,0:0:0:0:
443,71,334799,2,0,P|466:113|443:198,1,101.280002086304,0|0,3:0|0:0,0:0:0:0:
281,107,335006,2,0,P|351:41|443:71,1,202.560004172608,2|0,0:0|3:0,0:0:0:0:
463,165,335316,2,0,P|395:217|376:131,1,202.560004172608,2|0,0:0|0:0,0:0:0:0:
237,35,335626,2,0,P|270:73|280:142,1,86.8799995360107,0|0,3:0|0:0,0:0:0:0:
206,186,335833,22,0,P|109:134|11:166,1,183.359996712524,2|0,0:0|3:0,0:0:0:0:
19,240,336144,2,0,P|116:292|214:260,1,183.359996712524,2|0,0:0|0:0,0:0:0:0:
323,189,336454,86,0,B|388:266|394:346|323:380|259:310|304:190|383:292|426:119|426:119|414:177|447:220,1,506.400010431519,2|0,3:0|0:0,0:0:0:0:
492,292,337075,2,0,P|500:328|477:293,1,101.280002086304,2|0,0:0|0:0,0:0:0:0:
360,303,337282,2,0,P|327:316|354:285,1,101.280002086304,0|0,3:0|0:0,0:0:0:0:
250,176,337488,22,0,P|352:176|486:252,1,202.560004172608,2|0,0:0|3:0,0:0:0:0:
492,292,337799,1,2,0:0:0:0:
492,292,337902,1,2,0:0:0:0:
505,78,338109,2,0,P|459:112|380:110,1,91.6799983562622,0|0,3:0|0:0,0:0:0:0:
338,156,338316,2,0,P|276:85|178:58,1,183.359996712524,2|0,0:0|3:0,0:0:0:0:
149,239,338627,1,2,0:0:0:0:
121,249,338730,2,0,P|73:240|25:159,1,101.280002086304,2|0,0:0|0:0,0:0:0:0:
88,114,338937,2,0,P|135:122|184:203,1,101.280002086304,2|0,3:2|0:0,0:0:0:0:
206,291,339144,86,0,P|86:286|4:356,1,202.560004172608,2|0,0:0|3:0,0:0:0:0:
241,372,339454,2,0,P|240:273|195:330,1,202.560004172608,2|0,0:0|0:0,0:0:0:0:
369,359,339764,2,0,P|415:340|487:345,1,101.280002086304,0|0,3:0|0:0,0:0:0:0:
405,108,339971,22,0,B|329:45|329:45|315:148,1,202.560004172608,2|0,0:0|3:0,0:0:0:0:
301,251,340282,2,0,B|315:148|315:148|391:211,1,202.560004172608,2|0,0:0|0:0,0:0:0:0:
509,284,340592,2,0,B|470:251|470:251|451:338,1,101.280002086304,0|0,3:0|0:0,0:0:0:0:
371,335,340799,86,0,P|287:357|181:276,1,202.560004172608,2|0,0:0|3:0,0:0:0:0:
289,194,341109,2,0,P|335:240|261:220,1,202.560004172608,2|0,0:0|0:0,0:0:0:0:
193,300,341420,2,0,P|173:334|211:320,1,101.280002086304,0|0,3:0|0:0,0:0:0:0:
209,143,341626,22,0,P|168:128|110:141,1,91.6799983562622,2|0,0:0|0:0,0:0:0:0:
94,17,341833,2,0,P|64:48|54:109,1,91.6799983562622,0|0,3:0|0:0,0:0:0:0:
289,194,342040,86,0,P|322:165|340:109,1,101.280002086304,2|0,0:0|0:0,0:0:0:0:
209,143,342247,2,0,P|222:96|260:63,1,101.280002086304,2|0,3:2|0:0,0:0:0:0:
319,275,342454,22,0,B|389:248|426:171|426:171|426:258|501:336,1,303.840006258911,2|0,0:2|0:0,0:0:0:0:
386,354,342868,2,0,P|312:309|193:287,1,183.359996712524,2|0,0:0|3:0,0:0:0:0:
225,183,343178,1,2,0:0:0:0:
225,183,343282,2,0,P|190:202|149:202,1,82.080002567505,2|0,0:0|0:0,0:0:0:0:
116,281,343488,2,0,P|81:253|65:200,1,82.080002567505,0|0,3:0|0:0,0:0:0:0:
9,65,343695,2,0,P|97:48|167:103,1,183.359996712524,2|0,0:0|0:0,0:0:0:0:
201,268,344006,1,2,0:0:0:0:
220,259,344109,86,0,P|257:151|148:228,1,303.840006258911,2|0,0:0|0:0,0:0:0:0:
49,242,344523,22,0,P|76:277|120:296,1,91.6799983562622,2|0,0:0|0:0,0:0:0:0:
62,130,344730,2,0,P|40:171|40:216,1,91.6799983562622,2|0,3:2|0:0,0:0:0:0:
303,296,344937,86,0,P|316:249|289:178,1,91.6799983562622,2|0,0:0|0:0,0:0:0:0:
198,205,345144,2,0,P|190:250|204:294,1,91.6799983562622,0|2,3:0|0:0,0:0:0:0:
468,278,345351,21,2,0:0:0:0:
471,205,345454,1,0,0:0:0:0:
437,140,345557,1,8,0:0:0:0:
371,106,345661,1,8,0:0:0:0:
299,124,345764,86,0,P|228:187|25:142,1,289.440001104126,6|0,0:0|0:0,0:0:0:0:
47,164,346178,2,0,L|58:278,1,94.5600002164307,2|0,0:0|0:0,0:0:0:0:
24,68,346385,22,0,P|73:67|116:94,1,101.280002086304,0|0,3:0|0:0,0:0:0:0:
230,41,346592,2,0,P|234:139|168:212,1,202.560004172608,2|0,0:0|3:0,0:0:0:0:
222,324,346902,2,0,P|124:328|55:257,1,202.560004172608,2|0,0:0|0:0,0:0:0:0:
47,164,347213,2,0,P|76:119|140:89,1,101.280002086304,0|0,3:0|0:0,0:0:0:0:
167,212,347420,86,0,P|261:240|348:193,1,202.560004172608,2|0,0:0|3:0,0:0:0:0:
444,273,347730,2,0,P|472:192|397:78,1,202.560004172608,2|0,0:0|0:0,0:0:0:0:
342,54,348040,2,0,P|290:66|247:99,1,101.280002086304,0|0,3:0|0:0,0:0:0:0:
167,212,348247,21,2,0:0:0:0:
74,185,348351,2,0,B|51:147|9:110|9:110|54:131|194:140,1,202.560004172608,0|2,3:0|0:0,0:0:0:0:
268,194,348661,2,0,L|242:37,1,101.280002086304,2|0,0:0|0:0,0:0:0:0:
236,7,348868,1,0,3:2:0:0:
167,212,349075,86,0,B|139:245|157:304|157:304|135:277|86:166|183:107|303:122|321:211|317:294|237:328,1,506.400010431519,2|0,0:0|0:0,0:0:0:0:
157,304,349695,2,0,P|111:284|40:278,1,91.6799983562622,0|0,3:0|0:0,0:0:0:0:
257,317,349902,2,0,P|348:317|431:281,1,183.359996712524,2|0,0:0|3:0,0:0:0:0:
500,189,350213,1,0,0:0:0:0:
500,189,350316,2,0,P|498:139|470:80,1,91.6799983562622,2|0,0:0|0:0,0:0:0:0:
325,126,350523,2,0,P|301:170|295:239,1,91.6799983562622,0|0,3:0|0:0,0:0:0:0:
374,238,350730,22,0,P|397:193|402:128,1,91.6799983562622,2|0,0:0|0:0,0:0:0:0:
296,35,350937,2,0,P|253:61|216:115,1,91.6799983562622,8|0,3:2|0:0,0:0:0:0:
297,303,351144,2,0,P|371:338|474:224,1,202.560004172608,2|0,0:0|3:0,0:0:0:0:
404,153,351454,1,8,0:0:0:0:
404,153,351557,86,0,P|361:130|277:139,1,101.280002086304,2|0,0:0|0:0,0:0:0:0:
228,265,351764,2,0,P|185:283|100:270,1,101.280002086304,8|0,3:2|0:0,0:0:0:0:
71,214,351971,2,0,P|190:173|285:191,1,202.560004172608,2|0,0:0|3:2,0:0:0:0:
385,199,352282,1,8,0:0:0:0:
385,199,352385,22,0,B|325:149|313:88|346:13|346:13|343:85|393:143,1,303.840006258911,6|0,0:0|0:0,0:0:0:0:
368,282,352799,2,0,B|362:318|332:330|332:330|354:315|358:290,1,101.280002086304,10|0,0:0|0:0,0:0:0:0:
451,258,353006,2,0,B|485:244|510:265|510:265|487:253|462:261,1,101.280002086304,0|0,3:0|0:0,0:0:0:0:
279,238,353213,86,0,B|197:226|161:146|161:146|61:131|-19:222,1,303.840006258911,2|0,0:0|0:0,0:0:0:0:
38,87,353626,2,0,B|57:63|85:63|85:63|116:34|101:-10,1,101.280002086304,10|0,0:0|0:0,0:0:0:0:
239,47,353833,2,0,B|249:75|235:100|235:100|245:141|291:150,1,101.280002086304,0|0,3:0|0:0,0:0:0:0:
192,296,354040,22,0,B|82:374|82:374|125:180,1,279.360006607178,6|0,0:0|0:0,0:0:0:0:
260,138,354454,2,0,B|306:150|306:150|256:165,1,97.9200005976563,10|0,0:0|0:0,0:0:0:0:
96,97,354661,2,0,B|83:49|83:49|121:86,1,97.9200005976563,0|0,3:0|0:0,0:0:0:0:
114,233,354868,86,0,P|206:247|322:269,1,195.840001195313,2|0,0:0|3:0,0:0:0:0:
399,334,355178,1,2,0:0:0:0:
399,334,355282,2,0,P|407:283|441:229,1,93.1200022023926,10|0,0:0|0:0,0:0:0:0:
498,167,355488,2,0,P|447:159|393:125,1,93.1200022023926,2|0,3:2|0:0,0:0:0:0:
243,116,355695,22,0,L|256:18,1,90.2399986230469,6|0,0:0|0:0,0:0:0:0:
338,39,355902,2,0,L|325:137,1,90.2399986230469,0|0,2:0|3:0,0:0:0:0:
170,234,356109,2,0,P|162:183|128:129,1,90.2399986230469,10|0,0:0|0:0,0:0:0:0:
71,67,356316,2,0,P|122:59|176:25,1,90.2399986230469,0|0,3:0|0:0,0:0:0:0:
326,128,356523,86,0,L|339:34,1,90.2399986230469,6|0,0:0|0:0,0:0:0:0:
254,26,356730,2,0,L|242:121,1,90.2399986230469
186,289,356937,22,0,L|198:194,1,90.2399986230469,8|0,0:0|0:0,0:0:0:0:
341,217,357144,2,0,L|328:311,1,90.2399986230469,0|0,3:0|0:0,0:0:0:0:
218,370,357351,86,0,P|178:375|111:339,1,95.0399997099609,6|0,0:0|0:0,0:0:0:0:
109,108,357557,2,0,P|141:83|217:81,1,95.0399997099609,0|0,3:0|0:0,0:0:0:0:
180,161,357764,22,0,P|140:186|120:229,1,95.0399997099609,14|0,0:0|0:0,0:0:0:0:
186,289,357971,2,0,P|226:264|246:221,1,95.0399997099609,0|0,3:0|0:0,0:0:0:0:
226,0,358178,2,0,P|120:6|30:72,1,190.079999419922,6|0,0:0|0:0,0:0:0:0:
11,118,358488,1,2,0:0:0:0:
11,118,358592,1,6,0:0:0:0:
387,218,358799,1,2,0:0:0:0:
173,216,359006,85,6,0:0:0:0:
201,143,359213,1,0,0:0:0:0:
273,111,359420,1,0,0:0:0:0:
314,251,359626,5,2,0:0:0:0:
236,263,359833,1,0,0:0:0:0:
173,216,360040,1,0,0:0:0:0:
273,111,360247,101,2,0:0:0:0:
322,172,360454,1,0,0:0:0:0:
314,251,360661,1,0,0:0:0:0:
140,288,360868,5,2,0:0:0:0:
173,216,361075,1,0,0:0:0:0:
247,190,361282,1,0,0:0:0:0:
382,322,361488,101,2,0:0:0:0:
241,287,361902,5,2,0:0:0:0:
430,260,362316,101,2,0:0:0:0:
456,187,362523,1,0,0:0:0:0:
434,114,362730,1,0,0:0:0:0:
254,93,362937,5,2,0:0:0:0:
304,152,363144,1,0,0:0:0:0:
378,169,363351,1,0,0:0:0:0:
484,29,363557,101,2,0:0:0:0:
407,41,363764,1,0,0:0:0:0:
355,98,363971,1,0,0:0:0:0:
369,245,364178,5,2,0:0:0:0:
378,169,364385,1,0,0:0:0:0:
369,245,364592,1,0,0:0:0:0:
198,189,364799,101,2,0:0:0:0:
378,169,365213,5,2,0:0:0:0:
202,144,365626,101,2,0:0:0:0:
198,189,365833,1,0,0:0:0:0:
193,231,366040,1,0,0:0:0:0:
309,221,366247,5,2,0:0:0:0:
312,255,366454,1,0,0:0:0:0:
315,288,366661,1,0,0:0:0:0:
183,307,366868,101,2,0:0:0:0:
181,328,367075,1,0,0:0:0:0:
178,349,367282,1,0,0:0:0:0:
323,362,367488,5,2,0:0:0:0:
324,368,367695,1,0,0:0:0:0:
325,383,368109,101,0,0:0:0:0:
406,362,368316,5,2,0:0:0:0:
460,304,368523,1,2,0:0:0:0:
462,224,368730,1,2,0:0:0:0:
417,158,368935,101,2,0:0:0:0:
334,137,369150,5,0,0:0:0:0:
417,158,369366,101,0,0:0:0:0:
277,240,369592,5,2,0:0:0:0:
365,219,369821,101,0,0:0:0:0:
277,240,370050,5,0,0:0:0:0:
342,305,370259,102,0,L|360:95,1,187.199991430664,2|0,0:0|0:0,0:0:0:0:
298,10,371216,6,0,L|287:70,1,60.4799981542969,2|0,0:0|0:0,0:0:0:0:
376,84,371782,102,0,P|383:120|388:143,1,52.8000016113282,2|0,0:0|0:0,0:0:0:0:
361,208,372348,5,2,0:0:0:0:
296,166,372671,102,0,L|111:147,1,168
129,149,374968,53,2,0:0:0:0:
59,237,375139,69,2,0:0:0:0:
34,200,375253,37,2,0:0:0:0:
23,156,375368,69,2,0:0:0:0:
30,111,375483,37,2,0:0:0:0:
55,74,375598,69,2,0:0:0:0:
93,49,375713,37,2,0:0:0:0:
136,40,375828,69,2,0:0:0:0:
180,47,375943,37,2,0:0:0:0:
213,76,376058,69,2,0:0:0:0:
224,124,376168,38,0,B|235:185|160:240|93:206|54:133|99:32|191:86|215:4|215:4|98:87|94:-9|-14:88|-71:190|64:324|200:323|277:232|277:232|353:140|448:147|522:244|484:340|411:386|345:365|345:365|410:343|454:302|445:210|368:188|300:217|301:298,1,1716.11997512338
254,361,380556,38,0,P|213:375|163:376,1,79.6800011550293,6|0,0:0|0:0,0:0:0:0:
99,350,380889,1,0,0:0:0:0:
254,361,381056,6,0,P|221:332|195:289,1,79.6800011550293,2|0,0:0|0:0,0:0:0:0:
186,221,381389,1,0,0:0:0:0:
254,361,381556,102,0,P|262:318|286:274,1,79.6800011550293,2|0,0:0|0:0,0:0:0:0:
341,232,381889,1,0,0:0:0:0:
254,361,382056,6,0,P|294:346|345:346,1,79.6800011550293,2|0,0:0|0:0,0:0:0:0:
409,371,382389,1,0,0:0:0:0:
341,232,382556,102,0,P|330:192|331:131,1,79.6800011550293,2|0,0:0|0:0,0:0:0:0:
183,154,382889,2,0,P|181:193|171:232,1,79.6800011550293,0|0,0:0|0:0,0:0:0:0:
423,27,383222,5,2,0:0:0:0:
331,57,383389,2,0,P|291:54|254:39,1,79.6800011550293,2|0,0:0|0:0,0:0:0:0:
358,177,383722,101,2,0:0:0:0:
278,115,383889,2,0,P|261:79|254:39,1,79.6800011550293,0|0,0:0|0:0,0:0:0:0:
184,195,384222,5,2,0:0:0:0:
202,99,384389,2,0,P|224:66|254:40,1,79.6800011550293
85,57,384722,101,2,0:0:0:0:
177,24,384889,2,0,P|216:27|254:40,1,79.6800011550293
328,154,385222,6,0,P|330:193|341:232,1,79.6800011550293,2|0,0:0|0:0,0:0:0:0:
170,232,385555,2,0,P|180:193|183:153,1,79.6800011550293,2|0,0:0|0:0,0:0:0:0:
300,316,385889,101,2,0:0:0:0:
378,324,386056,1,0,0:0:0:0:
306,301,386222,1,0,0:0:0:0:
194,314,386389,5,2,0:0:0:0:
151,378,386556,1,0,0:0:0:0:
205,323,386722,1,0,0:0:0:0:
248,228,386889,101,2,0:0:0:0:
213,159,387056,1,0,0:0:0:0:
234,234,387222,1,0,0:0:0:0:
265,331,387389,5,0,0:0:0:0:
268,340,387556,1,0,0:0:0:0:
270,349,387722,1,0,0:0:0:0:
271,357,387889,1,0,0:0:0:0:
464,343,388056,102,0,P|450:328|400:311,1,43.1999986816407,0|0,0:0|0:0,0:0:0:0:
441,239,388222,2,0,P|422:237|374:261,1,43.1999986816407,0|0,0:0|0:0,0:0:0:0:
348,181,388389,2,0,P|334:193|316:243,1,43.1999986816407
264,295,388556,6,0,P|205:284|163:240,1,89.2800027927247,2|0,0:0|0:0,0:0:0:0:
170,178,388889,1,0,0:0:0:0:
264,295,389056,102,0,P|188:323|88:273,1,178.560005585449,2|0,0:0|0:0,0:0:0:0:
264,295,389556,6,0,P|176:373|18:331,1,267.840008378174,2|0,0:0|0:0,0:0:0:0:
52,130,390222,102,0,L|68:33,1,89.2800027927247,0|0,0:0|0:0,0:0:0:0:
234,182,390556,2,0,B|255:288,1,89.2800027927247,0|0,0:0|0:0,0:0:0:0:
257,153,390889,2,0,B|113:138,1,133.920004189087
52,130,391222,53,2,0:0:0:0:
40,199,391389,1,0,0:0:0:0:
26,268,391556,1,0,0:0:0:0:
127,249,391722,69,2,0:0:0:0:
198,236,391889,1,0,0:0:0:0:
268,221,392056,1,0,0:0:0:0:
362,172,392222,37,2,0:0:0:0:
308,125,392389,1,0,0:0:0:0:
252,82,392556,1,0,0:0:0:0:
198,236,392722,69,2,0:0:0:0:
209,307,392889,1,0,0:0:0:0:
219,377,393056,1,0,0:0:0:0:
119,286,393222,37,2,0:0:0:0:
106,284,393389,1,0,0:0:0:0:
287,262,393556,69,2,0:0:0:0:
300,258,393722,1,0,0:0:0:0:
150,162,393889,37,2,0:0:0:0:
164,89,394056,1,0,0:0:0:0:
178,15,394222,1,0,0:0:0:0:
115,87,394389,69,2,0:0:0:0:
189,93,394556,1,0,0:0:0:0:
263,101,394722,1,0,0:0:0:0:
336,0,394889,37,2,0:0:0:0:
350,73,395056,1,0,0:0:0:0:
364,147,395222,1,0,0:0:0:0:
463,201,395389,69,2,0:0:0:0:
470,119,395556,1,0,0:0:0:0:
463,201,395722,1,0,0:0:0:0:
478,40,395889,37,2,0:0:0:0:
454,282,396222,69,0,0:0:0:0:
28,268,396556,38,0,P|49:300|69:349,1,78.7200012011719,2|0,0:0|0:0,0:0:0:0:
169,235,396889,6,0,P|176:273|184:340,1,84.4800025781251,2|0,0:0|0:0,0:0:0:0:
344,233,397222,102,0,P|335:273|328:340,1,90.2399986230469,2|0,0:0|0:0,0:0:0:0:
484,268,397556,6,0,P|463:300|442:353,1,96,2|0,0:0|0:0,0:0:0:0:
410,83,397889,102,0,L|432:192,1,101.760000155273,2|0,0:0|0:0,0:0:0:0:
256,42,398222,6,0,L|256:151,1,107.5200013125,2|0,0:0|0:0,0:0:0:0:
102,79,398556,102,0,L|80:192,1,113.279996024414,2|0,0:0|0:0,0:0:0:0:
71,329,398889,6,0,L|63:254,1,58.5599975874024,2|0,0:0|0:0,0:0:0:0:
172,232,399056,2,0,L|159:307,1,58.5599975874024,2|0,0:0|0:0,0:0:0:0:
265,296,399222,101,2,0:0:0:0:
276,105,399389,1,2,0:0:0:0:
212,156,399556,5,2,0:0:0:0:
413,174,399722,1,2,0:0:0:0:
352,110,399889,101,2,0:0:0:0:
344,300,400056,1,2,0:0:0:0:
410,251,400222,5,2,0:0:0:0:
206,232,400388,1,2,0:0:0:0:
318,13,400556,101,2,0:0:0:0:
375,11,400639,1,2,0:0:0:0:
424,41,400722,1,2,0:0:0:0:
448,94,400805,1,2,0:0:0:0:
439,151,400889,1,2,0:0:0:0:
400,193,400972,1,2,0:0:0:0:
344,207,401055,1,2,0:0:0:0:
290,187,401139,1,2,0:0:0:0:
256,140,401222,5,0,0:0:0:0:
352,110,401389,1,2,0:0:0:0:
208,2,401556,2,0,L|193:85,1,58.5599975874024,8|0,0:0|0:0,0:0:0:0:
180,149,401722,1,0,0:0:0:0:
45,111,401889,6,0,P|21:66|15:-25,1,109.439998664063,6|0,0:0|0:0,0:0:0:0:
38,203,402222,1,8,0:0:0:0:
166,234,402389,2,0,L|243:252,2,54.7199993320313,2|0|0,0:0|0:0|0:0,0:0:0:0:
65,299,402722,1,2,0:0:0:0:
197,147,402889,2,0,P|211:99|216:7,1,109.439998664063,8|0,0:0|0:0,0:0:0:0:
219,246,403222,37,2,0:0:0:0:
13,207,403389,2,0,B|149:174|104:273|233:243,1,218.879997328125,2|0,0:0|0:0,0:0:0:0:
319,362,403889,69,0,0:0:0:0:
311,352,403972,1,0,0:0:0:0:
303,343,404056,2,0,L|231:351,1,54.7199993320313,2|0,0:0|0:0,0:0:0:0:
171,357,404222,1,8,0:0:0:0:
219,246,404389,2,0,L|294:254,1,54.7199993320313,0|0,0:0|0:0,0:0:0:0:
348,260,404556,37,2,0:0:0:0:
143,287,404722,2,0,B|125:236|125:236|160:173,1,109.439998664063,0|8,0:0|0:0,0:0:0:0:
207,79,405056,2,0,B|398:99,1,164.159997996094,2|0,0:0|0:0,0:0:0:0:
453,214,405389,2,0,L|460:159,1,54.7199993320313,2|0,0:0|0:0,0:0:0:0:
470,60,405556,1,8,0:0:0:0:
364,172,405722,1,0,0:0:0:0:
281,43,405889,69,2,0:0:0:0:
460,160,406056,2,0,B|403:148|371:96|371:96|330:148|248:150,1,218.879997328125,2|0,0:0|0:0,0:0:0:0:
135,105,406556,1,0,0:0:0:0:
133,64,406639,1,2,0:0:0:0:
151,29,406722,1,2,0:0:0:0:
155,184,406889,1,8,0:0:0:0:
15,161,407056,2,0,L|102:174,1,54.7199993320313,0|0,0:0|0:0,0:0:0:0:
155,184,407222,37,2,0:0:0:0:
296,157,407389,2,0,L|223:172,2,54.7199993320313,0|0|8,0:0|0:0|0:0,0:0:0:0:
377,233,407722,2,0,P|402:168|404:103,1,109.439998664063,0|0,0:0|0:0,0:0:0:0:
389,50,407972,1,0,0:0:0:0:
389,50,408056,1,2,0:0:0:0:
258,277,408222,2,0,P|300:330|356:365,1,109.439998664063,8|0,0:0|0:0,0:0:0:0:
221,206,408556,69,2,0:0:0:0:
483,262,408722,2,0,P|453:215|299:183,1,218.879997328125,2|0,0:0|0:0,0:0:0:0:
426,349,409222,37,0,0:0:0:0:
434,360,409305,1,0,0:0:0:0:
440,371,409389,2,0,L|428:303,1,54.7199993320313,2|0,0:0|0:0,0:0:0:0:
301,150,409555,69,8,0:0:0:0:
309,139,409638,1,0,0:0:0:0:
316,128,409722,2,0,L|300:195,1,54.7199993320313,0|0,0:0|0:0,0:0:0:0:
365,285,409889,37,2,0:0:0:0:
256,272,410055,2,0,L|394:288,1,109.439998664063,0|8,0:0|0:0,0:0:0:0:
483,262,410389,2,0,P|453:215|299:183,1,218.879997328125,2|2,0:0|0:0,0:0:0:0:
256,272,410805,1,0,0:0:0:0:
256,272,410889,2,0,L|257:390,1,109.439998664063,8|0,0:0|0:0,0:0:0:0:
255,192,411222,69,2,0:0:0:0:
255,192,411389,1,0,0:0:0:0:
118,167,411555,38,0,L|207:148,1,54.7199993320313,8|0,0:0|0:0,0:0:0:0:
255,141,411722,1,0,0:0:0:0:
393,122,411889,70,0,L|304:103,1,54.7199993320313,2|2,0:0|0:0,0:0:0:0:
256,95,412056,1,2,0:0:0:0:
122,74,412222,38,0,L|211:55,1,54.7199993320313,8|0,0:0|0:0,0:0:0:0:
256,48,412389,1,2,0:0:0:0:
256,95,412472,1,2,0:0:0:0:
255,141,412555,21,6,0:0:0:0:
352,96,412722,1,2,0:0:0:0:
352,192,412889,1,10,0:0:0:0:
256,240,413055,1,2,0:0:0:0:
160,192,413222,101,2,0:0:0:0:
352,96,413389,1,6,0:0:0:0:
160,96,413555,1,10,0:0:0:0:
256,240,413722,1,2,0:0:0:0:
256,48,413889,5,6,0:0:0:0:
352,192,414055,1,6,0:0:0:0:
160,96,414222,1,10,0:0:0:0:
256,48,414389,1,2,0:0:0:0:
256,240,414555,101,2,0:0:0:0:
160,192,414722,1,6,0:0:0:0:
352,96,414889,1,10,0:0:0:0:
352,192,415055,1,2,0:0:0:0:
256,48,415222,5,6,0:0:0:0:
160,96,415389,1,2,0:0:0:0:
256,240,415555,1,10,0:0:0:0:
352,192,415722,1,2,0:0:0:0:
160,96,415889,101,2,0:0:0:0:
160,192,416056,1,6,0:0:0:0:
352,192,416222,1,10,0:0:0:0:
352,96,416389,1,2,0:0:0:0:
256,48,416555,5,6,0:0:0:0:
256,240,416722,1,6,0:0:0:0:
160,96,416889,1,10,0:0:0:0:
160,192,417055,1,2,0:0:0:0:
352,96,417222,101,2,0:0:0:0:
352,192,417389,1,6,0:0:0:0:
256,48,417555,1,10,0:0:0:0:
256,240,417722,1,2,0:0:0:0:
352,96,417889,5,6,0:0:0:0:
160,192,418055,1,2,0:0:0:0:
160,192,418222,1,10,0:0:0:0:
256,240,418389,101,2,0:0:0:0:
256,48,418555,1,2,0:0:0:0:
256,48,418722,1,6,0:0:0:0:
160,96,418889,5,10,0:0:0:0:
352,192,419055,1,2,0:0:0:0:
256,48,419222,101,6,0:0:0:0:
160,96,419389,1,6,0:0:0:0:
160,96,419555,1,10,0:0:0:0:
160,192,419722,5,2,0:0:0:0:
352,96,419889,1,2,0:0:0:0:
352,96,420055,1,6,0:0:0:0:
256,48,420222,1,10,0:0:0:0:
256,222,420389,101,2,0:0:0:0:
256,231,420472,1,2,0:0:0:0:
256,240,420555,5,6,0:0:0:0:
352,192,420722,1,2,0:0:0:0:
352,96,420889,1,10,0:0:0:0:
256,48,421055,1,2,0:0:0:0:
256,240,421222,101,2,0:0:0:0:
160,192,421389,1,6,0:0:0:0:
160,96,421555,1,10,0:0:0:0:
256,48,421722,1,2,0:0:0:0:
352,192,421889,5,6,0:0:0:0:
160,96,422055,1,6,0:0:0:0:
256,240,422222,1,10,0:0:0:0:
352,96,422388,1,2,0:0:0:0:
256,48,422555,101,2,0:0:0:0:
160,192,422721,1,6,0:0:0:0:
352,192,422889,1,10,0:0:0:0:
160,96,423055,1,2,0:0:0:0:
69,240,423222,102,0,P|4:277|56:223,1,215.040002625,4|0,0:0|0:0,0:0:0:0:
160,192,423722,1,0,0:0:0:0:
191,301,423889,6,0,P|170:367|169:296,1,198.239993042725,2|0,0:0|0:0,0:0:0:0:
55,222,424555,102,0,P|8:271|67:238,1,187.199991430664,2|0,0:0|0:0,0:0:0:0:
82,104,424889,6,0,P|17:85|73:125,1,187.199991430664
197,66,425222,102,0,P|174:0|173:69,1,187.199991430664,2|0,0:0|0:0,0:0:0:0:
272,147,425555,6,0,P|258:191|262:142,1,144,0|0,0:0|0:0,0:0:0:0:
312,255,425889,102,0,P|315:270|318:284,1,23.0400005625,2|0,0:0|0:0,0:0:0:0:
201,255,426222,2,0,P|198:270|194:284,1,23.0400005625,0|0,0:0|0:0,0:0:0:0:
79,103,426555,6,0,P|77:95|75:90,1,14.3999995605469,2|0,0:0|0:0,0:0:0:0:
195,56,426722,2,0,P|193:48|191:43,1,14.3999995605469,0|0,0:0|0:0,0:0:0:0:
316,56,426889,2,0,P|317:49|318:41,1,14.3999995605469,0|0,0:0|0:0,0:0:0:0:
432,103,427055,2,0,P|434:96|436:90,1,14.3999995605469,0|0,0:0|0:0,0:0:0:0:
389,229,427222,102,0,L|391:222,1,8.16000004980469,2|0,0:0|0:0,0:0:0:0:
300,196,427389,2,0,L|302:186,1,8.16000004980469,0|0,0:0|0:0,0:0:0:0:
211,196,427555,2,0,L|210:186,1,8.16000004980469,0|0,0:0|0:0,0:0:0:0:
122,229,427722,2,0,L|119:220,1,8.16000004980469,0|0,0:0|0:0,0:0:0:0:
191,349,427889,6,0,L|188:333,1,12.4799999238281,2|0,0:0|0:0,0:0:0:0:
319,350,428222,2,0,L|322:334,1,12.4799999238281,0|0,0:0|0:0,0:0:0:0:
508,140,428555,102,0,B|490:99|495:54|495:54|481:98|446:126,1,170.880000130371,2|0,0:0|0:0,0:0:0:0:
452,205,429055,1,0,0:0:0:0:
403,275,429222,6,0,B|378:317|379:370|379:370|367:317|331:282,1,198.239993042725,2|0,0:0|0:0,0:0:0:0:
349,142,429889,102,0,B|313:106|301:56|301:56|304:109|278:152,1,197.28000556897,2|0,0:0|0:0,0:0:0:0:
259,288,430222,6,0,B|236:332|240:384|240:384|226:332|188:299,1,197.28000556897
195,162,430555,102,0,B|161:125|152:73|152:73|151:127|123:169,1,197.28000556897,2|0,0:0|0:0,0:0:0:0:
73,268,430889,6,0,B|48:311|2:336|2:336|53:319|101:333,1,197.28000556897
153,275,431222,102,0,L|189:279,1,25.9200006328125,2|0,0:0|0:0,0:0:0:0:
256,288,431555,2,0,L|292:292,1,25.9200006328125,0|0,0:0|0:0,0:0:0:0:
378,302,431889,6,0,L|253:287,1,96.4799954362795,2|0,0:0|0:0,0:0:0:0:
256,288,432222,1,0,0:0:0:0:
256,288,432389,1,0,0:0:0:0:
177,219,432555,102,0,L|98:208,1,55.6800016992188,2|0,0:0|0:0,0:0:0:0:
316,115,432889,2,0,L|394:104,1,55.6800016992188,0|0,0:0|0:0,0:0:0:0:
193,113,433222,6,0,L|120:100,1,73.9199985336914,2|0,0:0|0:0,0:0:0:0:
331,219,433555,2,0,L|403:206,1,73.9199985336914,0|0,0:0|0:0,0:0:0:0:
176,316,433889,22,0,P|82:313|12:213,1,192,6|0,0:0|0:0,0:0:0:0:
251,237,434389,1,2,0:0:0:0:
259,248,434472,1,2,0:0:0:0:
264,258,434555,2,0,P|279:300|271:366,1,96,8|0,0:0|0:0,0:0:0:0:
131,211,434889,1,0,0:0:0:0:
128,185,434972,1,0,0:0:0:0:
125,162,435055,1,2,0:0:0:0:
124,137,435139,1,2,0:0:0:0:
121,111,435222,54,0,L|101:55,3,48,2|0|0|2,3:2|0:0|0:0|0:0,0:0:0:0:
208,76,435555,2,0,L|226:9,3,48,0|0|2|0,3:0|0:0|0:0|0:0,0:0:0:0:
308,110,435889,2,0,P|354:134|411:130,1,96,8|0,0:0|0:0,0:0:0:0:
376,29,436222,1,0,3:0:0:0:
208,76,436389,1,0,3:0:0:0:
208,76,436472,1,0,3:0:0:0:
208,76,436555,54,0,P|220:147|280:215,1,144,2|0,0:0|0:0,0:0:0:0:
335,235,436889,2,0,P|381:236|454:210,1,96,0|2,3:0|0:0,0:0:0:0:
381,336,437222,53,8,0:0:0:0:
290,360,437389,1,0,0:0:0:0:
219,302,437555,1,0,3:0:0:0:
344,143,437722,1,2,0:0:0:0:
344,143,437805,1,2,0:0:0:0:
344,143,437889,54,0,L|329:211,3,48,2|0|0|2,0:0|0:0|0:0|0:0,0:0:0:0:
311,280,438222,1,0,3:2:0:0:
228,212,438389,1,2,0:0:0:0:
404,254,438555,2,0,P|451:267|517:289,1,96,8|0,0:0|0:0,0:0:0:0:
207,204,438889,2,2,P|179:198|140:189,3,48,2|2|2|2,3:2|0:0|0:0|0:0,0:0:0:0:
311,280,439222,54,0,P|326:191|271:90,1,192,2|0,0:0|0:0,0:0:0:0:
70,276,439722,1,2,0:0:0:0:
75,284,439805,1,2,0:0:0:0:
82,291,439889,2,0,P|141:330|190:331,1,96,8|0,0:0|0:0,0:0:0:0:
284,102,440222,1,0,3:2:0:0:
251,108,440305,1,0,0:0:0:0:
218,116,440389,1,2,0:0:0:0:
185,122,440472,1,2,0:0:0:0:
152,127,440555,54,0,L|102:109,3,48,2|0|0|2,3:2|0:0|0:0|0:0,0:0:0:0:
207,31,440889,2,0,L|264:19,3,48,0|0|2|0,3:0|0:0|0:0|0:0,0:0:0:0:
359,90,441222,2,0,P|359:138|344:184,1,96,8|0,0:0|0:0,0:0:0:0:
152,127,441555,2,0,P|137:81|133:33,1,96,0|0,3:0|0:0,0:0:0:0:
282,256,441889,54,0,P|385:270|440:202,1,192,2|0,3:2|0:0,0:0:0:0:
510,322,442389,2,2,P|487:328|452:335,1,48
400,378,442555,2,0,P|352:364|270:350,1,96,8|0,0:0|0:0,0:0:0:0:
214,369,442889,1,0,3:0:0:0:
246,175,443055,1,2,3:2:0:0:
246,175,443139,1,0,0:0:0:0:
246,175,443222,54,0,L|225:253,1,48,2|0,0:0|0:0,0:0:0:0:
302,307,443389,2,0,L|323:229,1,48,8|0,0:0|0:0,0:0:0:0:
224,192,443555,54,0,L|203:270,1,48,2|0,3:2|0:0,0:0:0:0:
314,330,443722,2,0,L|335:252,1,48,8|0,0:0|0:0,0:0:0:0:
290,103,443889,53,8,0:0:0:0:
258,94,443972,1,2,0:0:0:0:
226,96,444055,1,2,0:0:0:0:
199,113,444139,1,2,0:0:0:0:
184,139,444222,1,2,0:0:0:0:
164,167,444305,1,2,0:0:0:0:
131,177,444389,1,2,0:0:0:0:
101,175,444472,1,2,0:0:0:0:
76,159,444555,6,0,L|267:177,1,169.919994036621,6|0,0:0|3:0,0:0:0:0:
324,188,444889,2,0,L|420:176,1,56.6399980122071,8|0,0:0|0:0,0:0:0:0:
464,169,445055,1,0,3:0:0:0:
302,88,445222,2,0,B|245:81|245:81|193:44,1,113.279996024414,0|2,0:0|0:0,0:0:0:0:
193,292,445555,2,0,B|244:269|244:269|301:274,1,113.279996024414,8|0,0:0|3:0,0:0:0:0:
477,293,445889,102,0,B|528:225|528:225|464:168,1,169.919994036621,2|0,0:0|3:0,0:0:0:0:
436,148,446222,1,8,0:0:0:0:
262,262,446389,1,0,3:0:0:0:
394,348,446555,6,0,P|384:323|378:273,1,56.6399980122071,2|2,0:0|0:0,0:0:0:0:
278,208,446722,2,0,P|272:235|262:262,1,56.6399980122071,0|0,3:0|0:0,0:0:0:0:
196,359,446889,38,0,L|139:350,1,56.6399980122071,8|0,0:0|0:0,0:0:0:0:
100,253,447056,2,0,L|175:264,1,56.6399980122071,0|0,3:0|0:0,0:0:0:0:
303,361,447222,54,0,L|436:342,1,113.279996024414,2|0,0:0|3:0,0:0:0:0:
262,262,447555,1,8,0:0:0:0:
424,244,447722,1,0,3:0:0:0:
336,151,447889,2,0,L|199:172,1,113.279996024414,2|2,0:0|0:0,0:0:0:0:
424,244,448222,1,8,0:0:0:0:
466,128,448389,1,0,3:0:0:0:
253,65,448555,6,0,P|223:113|224:169,1,113.279996024414,2|0,0:0|3:0,0:0:0:0:
303,201,448805,2,0,P|312:169|300:128,1,56.6399980122071,2|8,0:0|0:0,0:0:0:0:
256,45,449055,1,0,3:0:0:0:
250,272,449222,1,0,3:0:0:0:
288,295,449305,1,2,0:0:0:0:
332,291,449389,1,2,0:0:0:0:
141,165,449555,2,0,L|131:300,1,113.279996024414,8|0,0:0|3:0,0:0:0:0:
254,364,449889,38,0,P|239:279|214:178,1,169.919994036621,2|0,0:0|3:0,0:0:0:0:
141,165,450222,2,0,P|83:183|9:198,1,113.279996024414,8|0,0:0|3:0,0:0:0:0:
345,256,450555,2,0,P|353:177|385:69,1,169.919994036621,0|0,3:0|0:0,0:0:0:0:
415,78,450889,2,0,L|511:64,2,56.6399980122071,8|0|0,0:0|0:0|3:0,0:0:0:0:
250,300,451222,54,0,P|321:363|431:343,1,169.919994036621,2|0,0:0|3:0,0:0:0:0:
476,324,451555,1,8,0:0:0:0:
463,210,451722,1,0,3:0:0:0:
282,237,451889,2,0,P|251:295|253:365,1,113.279996024414,0|2,3:0|0:0,0:0:0:0:
168,368,452139,1,2,0:0:0:0:
168,368,452222,6,0,P|150:344|93:322,1,56.6399980122071,8|0,0:0|0:0,0:0:0:0:
198,182,452389,2,0,P|182:207|138:237,1,56.6399980122071,0|0,3:0|0:0,0:0:0:0:
72,239,452555,38,0,B|64:198|31:163|31:163|78:171|108:146,1,169.919994036621,2|0,0:0|3:0,0:0:0:0:
190,98,452889,2,0,P|172:75|109:49,1,56.6399980122071,8|0,0:0|0:0,0:0:0:0:
52,69,453055,1,0,3:0:0:0:
162,225,453222,2,0,L|270:259,1,97.9200005976563,2|2,0:0|0:0,0:0:0:0:
291,266,453472,1,0,3:0:0:0:
291,266,453555,1,8,3:2:0:0:
183,326,453722,1,0,3:0:0:0:
255,159,453889,53,2,0:0:0:0:
255,254,454055,1,2,0:0:0:0:
173,109,454222,6,0,B|168:49|168:49|214:-20,1,113.279996024414,8|2,0:0|3:2,0:0:0:0:
316,4,454472,2,0,B|345:48|345:48|340:108,1,113.279996024414,8|2,0:0|3:2,0:0:0:0:
256,69,454722,1,2,0:0:0:0:
314,263,454889,37,8,0:0:0:0:
352,295,454972,1,8,0:0:0:0:
401,305,455055,1,8,0:0:0:0:
452,299,455139,1,8,0:0:0:0:
494,263,455222,54,0,P|494:176|455:97,1,177.120002702637,6|0,0:0|3:0,0:0:0:0:
458,15,455555,2,0,P|426:21|383:59,1,59.0400009008789,8|0,0:0|0:0,0:0:0:0:
330,100,455722,1,0,3:0:0:0:
360,210,455889,1,0,0:0:0:0:
311,218,455972,1,0,0:0:0:0:
265,185,456055,1,2,3:2:0:0:
267,5,456222,1,8,0:0:0:0:
213,112,456389,1,0,3:0:0:0:
330,100,456555,6,0,L|182:115,1,118.080001801758,2|0,0:0|3:0,0:0:0:0:
343,299,456889,2,0,P|321:231|327:163,1,118.080001801758,8|0,0:0|0:0,0:0:0:0:
395,151,457139,1,0,3:0:0:0:
395,151,457222,2,0,L|525:170,1,118.080001801758,0|2,0:0|3:2,0:0:0:0:
342,0,457555,38,0,P|325:48|303:67,1,59.0400009008789,8|0,0:0|0:0,0:0:0:0:
268,140,457722,2,0,P|217:149|190:139,1,59.0400009008789,0|0,3:0|0:0,0:0:0:0:
148,34,457889,54,0,B|217:40|217:40|236:51|236:51|260:45|260:45|349:57,1,177.120002702637,2|0,0:0|3:0,0:0:0:0:
357,60,458222,2,0,B|338:106|338:106|356:200,1,118.080001801758,8|0,0:0|3:0,0:0:0:0:
395,183,458472,1,0,0:0:0:0:
440,192,458555,1,0,0:0:0:0:
512,115,458722,1,2,3:2:0:0:
512,278,458889,1,8,0:0:0:0:
440,192,459055,1,0,3:0:0:0:
335,220,459222,6,0,L|450:189,1,108.480000331055,2|0,0:0|3:0,0:0:0:0:
273,278,459555,2,0,L|252:398,1,108.480000331055,8|0,0:0|3:0,0:0:0:0:
251,195,459889,2,0,L|204:148,2,54.2400001655273,0|0|2,0:0|3:0|0:0,0:0:0:0:
422,299,460222,2,0,L|447:153,1,108.480000331055,8|0,0:0|3:0,0:0:0:0:
294,46,460555,37,2,0:0:0:0:
200,65,460722,1,0,3:0:0:0:
409,116,460889,53,8,0:0:0:0:
390,22,461056,1,0,3:0:0:0:
222,153,461222,5,0,0:0:0:0:
316,133,461389,1,2,3:2:0:0:
200,65,461555,38,0,L|183:164,1,59.0400009008789,8|0,0:0|0:0,0:0:0:0:
174,213,461722,1,0,3:0:0:0:
340,219,461889,54,0,L|361:345,1,118.080001801758,2|0,0:0|3:0,0:0:0:0:
366,370,462139,1,0,0:0:0:0:
366,370,462222,1,8,0:0:0:0:
249,261,462389,1,0,3:0:0:0:
433,131,462555,1,0,0:0:0:0:
481,206,462722,1,2,3:2:0:0:
451,220,462805,1,0,0:0:0:0:
416,220,462889,1,8,0:0:0:0:
295,121,463055,1,0,3:0:0:0:
340,219,463222,6,0,L|316:6,1,177.120002702637,2|2,0:0|0:0,0:0:0:0:
284,33,463555,2,0,B|235:58|235:58|169:50,1,118.080001801758,8|0,0:0|3:0,0:0:0:0:
95,32,463805,1,0,0:0:0:0:
95,32,463889,1,0,0:0:0:0:
73,214,464055,1,2,3:2:0:0:
73,214,464139,2,0,L|69:261,2,29.5200004504395,0|0|8,0:0|0:0|0:0,0:0:0:0:
82,122,464389,1,0,3:0:0:0:
163,254,464555,37,2,0:0:0:0:
190,134,464722,1,2,0:0:0:0:
184,244,464889,54,0,B|232:229|232:229|323:252,1,118.080001801758,8|0,0:0|3:0,0:0:0:0:
388,161,465139,2,0,B|340:178|340:178|249:156,1,118.080001801758,8|2,0:0|3:2,0:0:0:0:
190,134,465389,1,2,0:0:0:0:
173,22,465555,1,8,0:0:0:0:
171,10,465639,1,2,0:0:0:0:
169,0,465722,1,2,0:0:0:0:
250,80,465889,21,6,0:0:0:0:
347,98,466055,1,2,0:0:0:0:
411,31,466222,1,2,0:0:0:0:
374,188,466389,53,2,0:0:0:0:
347,98,466555,1,2,0:0:0:0:
474,211,466722,53,2,0:0:0:0:
374,188,466889,1,2,0:0:0:0:
299,258,467055,1,2,0:0:0:0:
474,211,467222,53,2,0:0:0:0:
444,115,467389,1,2,0:0:0:0:
404,287,467555,53,2,0:0:0:0:
502,309,467722,1,2,0:0:0:0:
271,164,467889,53,2,0:0:0:0:
374,188,468055,1,2,0:0:0:0:
474,211,468222,1,2,0:0:0:0:
347,98,468389,53,2,0:0:0:0:
374,188,468555,1,2,0:0:0:0:
444,115,468722,53,2,0:0:0:0:
374,188,468888,1,2,0:0:0:0:
299,258,469055,1,2,0:0:0:0:
474,211,469222,53,2,0:0:0:0:
374,188,469389,1,2,0:0:0:0:
323,8,469555,53,2,0:0:0:0:
347,98,469722,1,2,0:0:0:0:
267,293,469889,70,0,L|300:258,1,48,2|0,0:0|0:0,0:0:0:0:
374,188,470055,1,2,0:0:0:0:
444,115,470222,1,2,0:0:0:0:
228,157,470389,54,0,L|289:169,1,48,2|0,0:0|0:0,0:0:0:0:
374,188,470555,1,2,0:0:0:0:
424,328,470722,54,0,L|404:267,1,48,2|0,0:0|0:0,0:0:0:0:
374,188,470888,1,2,0:0:0:0:
444,115,471055,1,2,0:0:0:0:
275,166,471222,54,0,L|227:157,1,48,2|0,0:0|0:0,0:0:0:0:
374,188,471389,1,2,0:0:0:0:
322,50,471555,54,0,L|351:131,1,48,2|0,0:0|0:0,0:0:0:0:
374,188,471722,1,2,0:0:0:0:
474,77,471889,70,0,L|443:114,1,48,2|0,0:0|0:0,0:0:0:0:
374,188,472055,1,2,0:0:0:0:
409,282,472222,1,2,0:0:0:0:
338,95,472389,38,0,L|321:51,1,48,2|0,0:0|0:0,0:0:0:0:
275,166,472555,1,2,0:0:0:0:
465,208,472722,70,0,L|554:222,1,48,2|0,0:0|0:0,2:0:0:0:
374,188,472889,1,2,0:0:0:0:
338,95,473055,1,2,0:0:0:0:
318,263,473222,38,0,L|283:309,1,48,2|0,0:0|0:0,0:0:0:0:
409,282,473389,1,2,0:0:0:0:
135,196,473555,69,2,0:0:0:0:
128,143,473639,1,0,0:0:0:0:
153,96,473722,1,2,0:0:0:0:
201,74,473805,1,0,0:0:0:0:
253,78,473889,6,0,B|243:147|243:147|261:182|261:182|250:267,1,175.679992762207,2|0,2:3|0:0,0:0:0:0:
248,288,474222,1,8,0:0:0:0:
328,134,474389,2,0,L|387:107,2,58.5599975874024,0|0|0,3:0|0:0|0:0,0:0:0:0:
176,201,474722,1,2,3:2:0:0:
331,246,474889,1,8,0:0:0:0:
178,324,475055,1,0,3:0:0:0:
354,325,475222,38,0,L|492:343,1,117.119995174805,2|0,0:0|3:0,0:0:0:0:
276,370,475555,2,0,B|257:326|257:326|277:232,1,117.119995174805,8|0,0:0|3:0,0:0:0:0:
225,271,475805,1,0,0:0:0:0:
178,278,475889,1,0,0:0:0:0:
132,266,475972,1,0,0:0:0:0:
100,231,476055,1,2,3:2:0:0:
158,128,476222,54,0,P|174:155|185:210,1,58.5599975874024,8|0,0:0|0:0,0:0:0:0:
286,232,476389,2,0,P|295:204|310:179,1,58.5599975874024,0|0,3:3|0:0,0:0:0:0:
247,48,476555,6,0,P|171:94|64:98,1,175.679992762207,2|2,0:0|0:0,0:0:0:0:
50,70,476889,1,8,0:0:0:0:
115,8,477055,1,0,3:0:0:0:
265,146,477222,38,0,P|341:192|448:196,1,175.679992762207,2|2,0:0|0:0,0:0:0:0:
467,267,477555,2,0,P|488:247|502:172,1,58.5599975874024,8|0,0:0|0:0,0:0:0:0:
504,141,477722,1,0,3:0:0:0:
362,278,477889,54,2,P|316:313|253:365,1,117.119995174805
412,363,478222,1,8,0:0:0:0:
194,295,478389,1,2,3:0:0:0:
179,291,478472,1,2,3:0:0:0:
164,287,478555,1,2,3:0:0:0:
270,350,478722,5,2,3:2:0:0:
294,197,478889,1,8,0:0:0:0:
362,278,479055,1,0,3:0:0:0:
199,192,479222,38,0,P|223:132|363:129,1,175.679992762207,2|2,0:0|0:0,0:0:0:0:
401,148,479555,1,8,0:0:0:0:
484,116,479722,2,0,P|490:146|485:173,1,58.5599975874024,0|0,3:0|0:0,0:0:0:0:
391,238,479889,54,0,P|322:189|324:104,1,175.679992762207,2|2,2:2|0:0,0:0:0:0:
409,53,480222,1,8,0:0:0:0:
472,266,480389,1,0,3:0:0:0:
472,266,480472,1,0,0:0:0:0:
472,266,480555,5,2,0:0:0:0:
318,179,480722,1,2,0:0:0:0:
344,311,480889,1,8,0:0:0:0:
409,142,481055,1,2,0:0:0:0:
486,275,481222,37,2,0:0:0:0:
302,168,481389,1,2,0:0:0:0:
341,328,481556,1,8,0:0:0:0:
413,128,481722,1,0,3:0:0:0:
428,355,481889,54,0,P|330:338|239:324,1,181.439994462891,2|2,0:0|0:0,0:0:0:0:
211,318,482222,1,8,0:0:0:0:
296,50,482389,1,2,3:0:0:0:
296,50,482472,1,2,0:0:0:0:
296,50,482555,2,0,P|355:80|461:99,1,120.959996308594,2|2,0:0|0:2,0:0:0:0:
512,165,482805,2,0,P|482:169|386:222,1,120.959996308594,2|0,3:0|0:0,0:0:0:0:
344,294,483055,1,2,0:0:0:0:
422,346,483222,5,2,3:0:0:0:
339,384,483389,1,2,0:0:0:0:
278,248,483555,38,0,P|345:213|419:210,1,132.480000202148,8|2,0:0|0:0,0:0:0:0:
512,165,483805,2,0,P|448:123|408:61,1,132.480000202148,8|2,0:0|0:0,0:0:0:0:
326,26,484055,2,0,P|323:77|300:121,1,66.2400001010742,2|0,0:0|0:0,0:0:0:0:
208,213,484222,53,10,0:0:0:0:
146,244,484305,1,8,0:0:0:0:
79,230,484389,1,8,0:0:0:0:
39,174,484472,1,8,0:0:0:0:
31,105,484555,6,0,B|35:29|123:6|123:6|183:68|141:142,1,291.8399964375,6|8,0:0|0:0,0:0:0:0:
249,312,485055,1,2,0:0:0:0:
317,328,485139,1,2,0:0:0:0:
377,291,485222,2,0,B|374:234|308:217|308:217|263:263|294:318,1,218.879997328125,2|0,0:0|0:0,0:0:0:0:
453,349,485555,2,0,P|468:314|476:253,1,72.959999109375,10|0,0:0|0:0,0:0:0:0:
477,196,485722,1,2,0:0:0:0:
308,217,485889,86,0,P|233:227|137:245,1,145.91999821875,6|4,0:0|0:0,0:0:0:0:
85,255,486139,1,2,0:0:0:0:
85,255,486222,1,8,0:0:0:0:
60,120,486389,1,2,0:0:0:0:
25,328,486555,5,2,0:0:0:0:
78,354,486639,1,2,0:0:0:0:
135,347,486722,2,0,P|163:328|190:276,1,72.959999109375,2|0,0:0|0:0,0:0:0:0:
249,187,486889,2,0,L|266:331,1,145.91999821875,8|0,0:0|3:0,0:0:0:0:
113,142,487222,6,0,B|48:148|56:77|6:62|-69:106|-21:191|27:184|65:115|136:178,1,291.8399964375,6|8,0:0|0:0,0:0:0:0:
316,207,487722,1,2,0:0:0:0:
374,224,487805,1,2,0:0:0:0:
431,241,487889,2,0,B|479:245|473:192|511:181|568:214|531:278|495:272|466:221|413:268,1,218.879997328125,2|0,0:0|0:0,0:0:0:0:
296,358,488222,2,0,L|309:258,1,72.959999109375,10|0,0:0|0:0,0:0:0:0:
316,207,488389,1,2,0:0:0:0:
372,374,488555,86,0,L|453:386,1,72.959999109375,6|0,0:0|0:0,0:0:0:0:
454,304,488722,2,0,L|382:294,1,72.959999109375,4|2,0:0|0:0,0:0:0:0:
221,357,488889,2,0,B|199:286|199:286|266:185,1,145.91999821875,8|2,0:0|0:0,0:0:0:0:
316,207,489139,2,0,L|432:223,1,72.959999109375,8|2,0:0|0:0,0:0:0:0:
467,216,489305,1,2,0:0:0:0:
495,192,489389,5,2,0:0:0:0:
512,144,489472,1,0,0:0:0:0:
504,90,489555,1,10,3:3:0:0:
461,36,489639,1,0,0:0:0:0:
386,12,489722,1,2,0:0:0:0:
307,25,489805,1,0,0:0:0:0:
269,97,489889,6,0,B|239:161|312:238|450:163|393:23|295:-17,1,330.240005039063,6|8,0:0|0:0,0:0:0:0:
199,170,490389,1,2,0:0:0:0:
116,177,490472,1,2,0:0:0:0:
60,114,490555,2,0,B|38:62|101:3|198:59|168:162|80:200,1,247.680003779297,2|0,0:0|0:0,0:0:0:0:
71,239,490889,2,0,L|-13:254,2,72.959999109375,10|2|2,0:0|0:0|0:0,0:0:0:0:
230,307,491222,86,0,P|253:224|322:136,1,145.91999821875,6|0,0:0|0:0,0:0:0:0:
199,103,491472,2,0,P|115:124|4:108,1,145.91999821875,2|0,0:0|0:0,0:0:0:0:
71,239,491722,2,0,P|108:276|133:340,1,72.959999109375,2|0,0:0|0:0,0:0:0:0:
151,372,491889,5,2,0:0:0:0:
151,372,491972,1,2,0:0:0:0:
151,372,492055,1,2,0:0:0:0:
172,197,492222,1,8,0:0:0:0:
150,382,492389,1,0,3:2:0:0:
242,276,492555,6,0,B|322:285|356:372|356:372|453:373|492:244,1,291.8399964375,6|8,0:0|0:0,0:0:0:0:
469,126,493055,1,2,0:0:0:0:
457,128,493139,1,2,0:0:0:0:
446,132,493222,2,0,B|402:146|386:203|386:203|321:204|295:117,1,218.879997328125,2|0,0:0|0:0,0:0:0:0:
309,46,493555,1,10,0:0:0:0:
386,203,493722,1,2,0:0:0:0:
432,47,493889,85,6,0:0:0:0:
299,130,494055,1,4,0:0:0:0:
299,130,494139,1,2,0:0:0:0:
299,130,494222,2,0,P|222:119|129:108,1,145.91999821875,8|2,0:0|0:0,0:0:0:0:
143,183,494472,2,0,L|31:195,1,72.959999109375,8|2,0:0|0:0,0:0:0:0:
24,199,494639,1,2,0:0:0:0:
24,199,494722,1,2,0:0:0:0:
218,213,494889,1,10,0:0:0:0:
154,111,495055,2,0,L|139:207,1,72.959999109375,8|0,0:0|0:0,0:0:0:0:
128,266,495222,6,0,L|113:371,1,96,2|0,0:0|0:0,0:0:0:0:
24,199,495555,2,0,L|10:294,1,96
376,176,495889,70,0,L|391:281,1,96,2|0,0:0|0:0,0:0:0:0:
481,120,496222,2,0,L|495:215,1,96
245,0,496555,37,6,0:0:0:0:
203,31,496639,1,0,0:0:0:0:
185,79,496722,1,0,0:0:0:0:
199,128,496805,1,0,0:0:0:0:
243,155,496889,1,0,0:0:0:0:
279,190,496972,1,0,0:0:0:0:
293,239,497055,1,0,0:0:0:0:
283,290,497139,1,0,0:0:0:0:
245,319,497222,70,0,P|215:317|175:286,1,54.7199993320313,0|0,0:0|0:0,0:0:0:0:
145,348,497389,38,0,P|132:324|136:278,1,45.1199993115235,0|0,0:0|0:0,0:0:0:0:
90,283,497555,70,0,P|103:263|136:247,1,35.5200008671875,0|0,0:0|0:0,0:0:0:0:
128,215,497722,38,0,P|145:216|168:231,1,24,0|0,0:0|0:0,0:0:0:0:
175,225,497889,70,0,P|188:300|202:380,1,153.6
256,288,499222,5,0,0:0:0:0:
256,192,499889,101,0,0:0:0:0:
256,96,500555,102,0,L|256:-3,1,96,2|0,0:0|0:0,0:0:0:0:
256,192,501222,1,2,0:0:0:0:
256,288,501555,1,0,0:0:0:0:
340,114,501889,6,0,L|410:43,1,96,2|0,0:0|0:0,0:0:0:0:
256,0,502555,1,2,0:0:0:0:
256,96,502889,1,0,0:0:0:0:
384,192,503222,6,0,L|490:192,1,96,2|0,0:0|0:0,0:0:0:0:
172,114,503889,1,2,0:0:0:0:
128,192,504222,1,0,0:0:0:0:
340,270,504555,86,0,L|410:340,1,96,2|0,0:0|0:0,0:0:0:0:
384,192,505222,1,2,0:0:0:0:
340,114,505555,1,0,0:0:0:0:
256,288,505889,6,0,L|256:387,1,96,2|0,0:0|0:0,0:0:0:0:
256,192,506555,1,2,0:0:0:0:
256,96,506889,1,0,0:0:0:0:
172,270,507222,6,0,L|101:340,1,96,2|0,0:0|0:0,0:0:0:0:
340,270,507889,1,2,0:0:0:0:
384,192,508222,1,0,0:0:0:0:
128,192,508555,86,0,L|22:192,1,96,2|0,0:0|0:0,0:0:0:0:
256,384,509222,1,2,0:0:0:0:
256,288,509555,1,0,0:0:0:0:
172,114,509889,6,0,L|101:43,1,96,2|0,0:0|0:0,0:0:0:0:
32,192,510555,1,2,0:0:0:0:
128,192,510889,1,0,0:0:0:0:
255,192,511222,70,0,B|379:169|327:260|470:217,2,192,2|2|2,0:0|0:0|0:0,0:0:0:0:
197,281,512889,1,0,0:0:0:0:
99,242,513222,102,0,B|56:129|142:163|92:45,2,192,2|2|2,0:0|0:0|0:0,0:0:0:0:
99,243,515222,6,0,P|151:234|222:223,2,96,2|0|2,0:0|0:0|0:0,0:0:0:0:
255,111,516222,2,0,P|237:158|210:227,2,96,0|2|0,0:0|0:0|0:0,0:0:0:0:
264,301,517222,102,0,P|202:226|126:132,2,192,2|2|2,0:0|0:0|0:0,0:0:0:0:
326,96,519222,6,0,P|234:106|153:17,2,192,2|2|2,0:0|0:0|0:0,0:0:0:0:
356,193,520889,1,0,0:0:0:0:
434,128,521222,102,0,B|461:185|461:185|429:340,2,192,2|2|2,0:0|0:0|0:0,0:0:0:0:
347,294,523222,6,0,P|337:246|326:179,2,96,2|0|2,0:0|0:0|0:0,0:0:0:0:
218,150,524222,2,0,P|211:205|199:267,2,113.279996024414,0|2|0,0:0|0:0|0:0,0:0:0:0:
93,306,525222,102,0,P|71:181|39:47,2,249.599988574219,2|2|2,0:0|0:0|0:0,0:0:0:0:
255,192,527222,69,4,0:0:0:0:
349,303,528222,22,0,P|378:261|422:241,1,93.5999957153322,0|0,0:0|0:0,0:0:0:0:
456,263,528555,1,2,0:0:0:0:
357,379,528722,1,0,0:0:0:0:
335,381,528805,1,0,0:0:0:0:
314,373,528889,1,0,0:0:0:0:
131,282,529222,54,0,L|191:301,2,62.3999971435548,2|0|0,0:0|0:0|0:0,0:0:0:0:
390,160,529889,22,0,L|331:179,2,62.3999971435548,2|0|0,0:0|0:0|0:0,0:0:0:0:
133,36,530555,102,0,L|194:51,2,62.3999971435548,2|0|0,0:0|0:0|0:0,0:0:0:0:
428,113,531222,102,0,P|340:101|289:120,1,124.79999428711,2|0,0:0|0:0,0:0:0:0:
241,145,531722,1,2,0:0:0:0:
241,145,532222,1,0,0:0:0:0:
52,160,532555,21,2,0:0:0:0:
19,251,532722,1,0,0:0:0:0:
47,261,532805,1,0,0:0:0:0:
77,255,532889,1,0,0:0:0:0:
155,81,533222,102,0,L|24:65,1,124.79999428711,2|0,0:0|0:0,0:0:0:0:
31,66,533722,1,2,0:0:0:0:
31,66,534222,101,0,0:0:0:0:
51,173,534555,1,0,0:0:0:0:
148,230,534889,1,0,0:0:0:0:
255,193,535222,21,2,0:0:0:0:
441,97,536222,102,0,P|406:72|351:68,1,93.5999957153322,0|0,0:0|0:0,0:0:0:0:
328,82,536555,1,2,0:0:0:0:
427,177,536722,1,0,0:0:0:0:
454,181,536805,1,0,0:0:0:0:
480,171,536889,1,0,0:0:0:0:
196,152,537222,102,0,P|185:186|173:216,2,62.3999971435548,2|0|0,0:0|0:0|0:0,0:0:0:0:
401,297,537889,22,0,P|390:268|381:239,2,62.3999971435548,2|0|0,0:0|0:0|0:0,0:0:0:0:
136,298,538555,102,0,P|126:327|115:356,2,62.3999971435548,2|0|0,0:0|0:0|0:0,0:0:0:0:
429,354,539222,102,0,P|386:336|333:331,1,93.5999957153322,2|0,0:0|0:0,0:0:0:0:
301,342,539555,1,0,0:0:0:0:
305,247,539722,1,2,0:0:0:0:
301,342,539889,1,0,0:0:0:0:
301,342,540222,2,0,P|255:354|194:348,1,93.5999957153322,2|0,0:0|0:0,0:0:0:0:
165,330,540555,21,2,0:0:0:0:
239,209,540722,1,0,0:0:0:0:
250,233,540805,1,0,0:0:0:0:
249,260,540889,1,0,0:0:0:0:
91,127,541222,102,0,P|149:117|228:101,1,124.79999428711,2|0,0:0|0:0,0:0:0:0:
332,152,541722,102,0,B|351:173|436:217|400:167|461:116|501:169|519:204|496:253|465:275|388:253|429:179|324:196|248:261,1,436.799980004884,0|0,0:0|0:0,0:0:0:0:
249,260,543222,69,2,0:0:0:0:
214,186,543389,1,0,0:0:0:0:
263,120,543555,1,0,0:0:0:0:
296,194,543722,1,0,0:0:0:0:
248,276,543889,5,2,0:0:0:0:
171,252,544055,1,0,0:0:0:0:
91,266,544222,1,0,0:0:0:0:
33,323,544389,1,0,0:0:0:0:
91,266,544555,69,2,0:0:0:0:
171,252,544722,1,0,0:0:0:0:
248,276,544889,1,2,0:0:0:0:
302,337,545055,1,0,0:0:0:0:
248,276,545222,21,2,0:0:0:0:
171,252,545389,1,0,0:0:0:0:
91,266,545555,2,0,L|104:348,1,62.3999971435548,2|0,0:0|0:0,0:0:0:0:
302,337,545889,5,2,0:0:0:0:
310,342,546055,1,0,0:0:0:0:
313,334,546222,1,2,0:0:0:0:
305,327,546389,1,0,0:0:0:0:
435,361,546555,69,2,0:0:0:0:
408,257,546722,1,2,0:0:0:0:
322,192,546889,1,2,0:0:0:0:
216,179,547055,1,2,0:0:0:0:
118,223,547222,21,2,0:0:0:0:
110,228,547388,1,2,0:0:0:0:
107,220,547555,1,2,0:0:0:0:
115,213,547722,1,2,0:0:0:0:
2,181,547888,5,2,0:0:0:0:
71,108,548055,1,0,0:0:0:0:
171,97,548222,1,2,0:0:0:0:
257,148,548388,1,0,0:0:0:0:
299,256,548555,69,2,0:0:0:0:
353,314,548722,1,0,0:0:0:0:
432,331,548889,1,2,0:0:0:0:
512,311,549055,1,2,0:0:0:0:
431,179,549222,21,2,0:0:0:0:
353,196,549389,1,0,0:0:0:0:
299,256,549556,1,0,0:0:0:0:
276,335,549722,1,0,0:0:0:0:
432,331,549889,5,2,0:0:0:0:
456,254,550056,1,0,0:0:0:0:
431,179,550223,1,2,0:0:0:0:
375,118,550389,1,0,0:0:0:0:
431,179,550555,69,2,0:0:0:0:
456,254,550722,1,0,0:0:0:0:
432,331,550889,2,0,L|352:323,1,62.3999971435548,2|0,0:0|0:0,0:0:0:0:
165,382,551222,21,2,0:0:0:0:
133,373,551389,1,2,0:0:0:0:
95,346,551555,1,2,0:0:0:0:
64,286,551722,1,2,0:0:0:0:
63,191,551889,1,2,0:0:0:0:
124,88,552055,1,2,0:0:0:0:
233,28,552222,1,2,0:0:0:0:
368,32,552389,1,2,0:0:0:0:
483,139,552555,5,2,0:0:0:0:
472,161,552639,1,2,0:0:0:0:
449,186,552722,1,2,0:0:0:0:
406,205,552805,1,2,0:0:0:0:
355,202,552889,1,2,0:0:0:0:
302,175,552973,1,2,0:0:0:0:
242,136,553056,1,2,0:0:0:0:
166,138,553139,1,2,0:0:0:0:
106,191,553222,1,2,3:3:0:0:
253,25,553389,69,0,0:0:0:0:
218,261,553555,2,0,L|199:406,1,124.79999428711,8|0,0:0|0:0,0:0:0:0:
0,203,553889,102,0,P|42:142|186:153,1,207.3600050625,4|0,1:2|0:0,0:0:0:0:
234,198,554222,1,8,0:0:0:0:
155,70,554389,2,0,P|159:114|177:158,1,69.1200016875,0|0,3:0|0:0,0:0:0:0:
207,292,554555,2,0,P|268:289|330:201,1,138.240003375,2|0,0:0|1:0,0:0:0:0:
363,114,554889,1,8,0:0:0:0:
512,363,555055,1,0,3:0:0:0:
506,352,555139,1,0,0:0:0:0:
498,342,555222,54,0,P|440:307|372:301,1,138.240003375,2|0,1:2|1:2,0:0:0:0:
333,223,555472,1,0,0:0:0:0:
321,229,555555,2,0,P|293:264|285:310,1,69.1200016875,10|0,0:0|0:0,0:0:0:0:
316,371,555722,1,0,3:0:0:0:
167,354,555889,2,0,P|129:360|96:370,2,69.1200016875,2|0|0,0:0|1:0|1:2,0:0:0:0:
316,371,556222,1,10,0:0:0:0:
172,215,556389,2,0,P|200:255|201:295,1,69.1200016875,0|0,3:2|0:0,0:0:0:0:
100,369,556555,86,0,P|39:306|122:280,1,207.3600050625,2|0,1:2|0:0,0:0:0:0:
210,356,556889,2,0,B|298:378|264:311|364:343,1,138.240003375,10|0,0:0|3:3,0:0:0:0:
415,353,557139,1,0,0:0:0:0:
415,353,557222,1,2,0:2:0:0:
280,165,557389,1,2,1:2:0:0:
223,250,557555,1,10,0:0:0:0:
389,261,557722,2,0,L|318:256,1,69.1200016875,2|0,3:2|0:0,0:0:0:0:
182,156,557889,85,2,1:2:0:0:
373,172,558055,1,2,1:2:0:0:
238,71,558222,1,10,0:0:0:0:
151,264,558389,1,2,3:2:0:0:
148,278,558472,1,0,0:0:0:0:
145,292,558555,2,0,L|216:297,1,69.1200016875,2|0,0:0|1:0,0:0:0:0:
322,308,558722,1,0,1:0:0:0:
65,346,558889,2,0,P|49:281|101:206,1,138.240003375,10|0,0:0|3:0,0:0:0:0:
213,232,559139,1,0,0:0:0:0:
221,241,559222,54,0,P|229:347|132:376,1,207.3600050625,2|0,1:2|0:0,0:0:0:0:
65,346,559555,1,8,0:0:0:0:
188,131,559722,2,0,P|228:133|289:162,1,69.1200016875,0|0,3:0|0:0,0:0:0:0:
312,204,559889,2,0,P|237:229|197:115,1,207.3600050625,2|0,0:0|0:0,0:0:0:0:
211,43,560222,1,8,0:0:0:0:
424,260,560389,1,0,3:0:0:0:
427,273,560472,1,0,0:0:0:0:
430,284,560555,86,0,L|451:88,1,138.240003375,2|0,1:2|1:0,0:0:0:0:
340,44,560805,1,0,0:0:0:0:
335,32,560889,2,0,L|324:123,1,69.1200016875,10|0,0:0|1:0,0:0:0:0:
312,204,561055,1,0,1:0:0:0:
427,55,561222,2,0,B|460:46|460:46|505:72,2,69.1200016875,2|0|0,0:0|1:0|1:0,0:0:0:0:
326,233,561555,1,10,0:0:0:0:
111,120,561722,2,0,P|140:136|199:139,1,69.1200016875,0|0,3:0|0:0,0:0:0:0:
255,193,561889,86,0,P|238:72|139:53,1,207.3600050625,2|0,1:2|0:0,0:0:0:0:
169,47,562222,1,10,0:0:0:0:
188,256,562389,1,0,3:0:0:0:
226,285,562472,1,0,0:0:0:0:
278,284,562555,53,2,0:0:0:0:
352,154,562722,1,2,1:2:0:0:
447,194,562889,1,8,0:0:0:0:
348,350,563055,1,2,3:2:0:0:
278,284,563222,85,2,1:2:0:0:
365,255,563389,1,2,1:2:0:0:
190,312,563555,86,0,L|52:352,1,138.240003375,10|2,0:0|1:2,0:0:0:0:
0,290,563805,2,0,L|33:150,1,138.240003375,8|0,0:0|1:0,0:0:0:0:
114,137,564055,2,0,L|184:203,1,69.1200016875,0|0,1:0|0:0,0:0:0:0:
278,284,564222,53,10,0:0:0:0:
339,303,564305,1,0,1:0:0:0:
402,295,564389,1,0,1:0:0:0:
452,256,564472,1,0,1:0:0:0:
477,198,564555,86,0,B|490:128|401:62|289:142,1,236.160003603516,4|0,1:2|0:0,0:0:0:0:
229,179,564889,1,8,0:0:0:0:
159,80,565055,1,2,3:2:0:0:
156,58,565139,1,2,0:0:0:0:
153,36,565222,1,2,0:0:0:0:
117,177,565389,1,0,1:0:0:0:
246,43,565555,1,8,0:0:0:0:
70,9,565722,1,2,3:2:0:0:
229,179,565889,86,0,P|307:210|377:113,1,207.3600050625,2|0,1:2|3:0,0:0:0:0:
370,87,566222,2,0,L|351:5,1,69.1200016875,8|0,0:0|0:0,0:0:0:0:
229,179,566389,1,0,3:2:0:0:
226,190,566472,1,2,0:0:0:0:
223,201,566555,2,0,L|203:302,1,69.1200016875,2|0,0:0|0:0,0:0:0:0:
329,323,566722,2,0,L|317:254,1,69.1200016875,0|0,1:0|0:0,0:0:0:0:
292,125,566889,1,8,0:0:0:0:
142,191,567055,1,2,0:0:0:0:
398,217,567222,54,0,B|425:177|474:150|474:150|420:153|335:127,1,200.160006108399,2|0,1:2|1:0,0:0:0:0:
292,125,567555,1,8,0:0:0:0:
243,319,567722,1,2,3:2:0:0:
254,328,567805,1,2,0:0:0:0:
263,335,567889,2,0,L|341:320,1,66.7200020361329,2|0,0:0|0:0,0:0:0:0:
296,220,568055,2,0,L|218:235,1,66.7200020361329,0|0,1:0|0:0,0:0:0:0:
361,323,568222,2,0,L|506:340,1,133.440004072266,10|0,0:0|3:0,0:0:0:0:
398,217,568555,85,2,1:2:0:0:
398,217,568722,1,0,1:0:0:0:
173,317,568889,86,0,P|133:247|148:172,1,143.039992251709,10|2,0:0|3:2,0:0:0:0:
140,187,569139,2,0,P|81:226|11:223,1,143.039992251709,8|0,0:0|1:0,0:0:0:0:
61,323,569389,1,0,1:2:0:0:
55,139,569555,1,10,0:0:0:0:
53,118,569639,1,0,1:0:0:0:
50,94,569722,1,0,1:0:0:0:
230,238,569889,54,0,B|274:259|330:230|330:230|344:168|296:122,1,221.759995601074,4|0,1:2|1:0,0:0:0:0:
225,91,570222,1,8,0:0:0:0:
73,113,570389,1,2,3:2:0:0:
63,115,570472,1,2,0:0:0:0:
53,118,570555,2,0,B|27:124|14:111|14:111|21:92|44:85,1,78.7200012011719,2|0,0:0|1:0,0:0:0:0:
138,36,570722,1,0,1:0:0:0:
225,91,570889,86,0,P|220:139|193:170,1,59.519997638672,10|0,0:0|0:0,0:0:0:0:
132,237,571055,2,0,P|87:256|47:249,1,59.519997638672,2|0,3:2|0:0,0:0:0:0:
53,118,571222,86,0,P|163:136|322:182,1,247.680003779297,2|0,1:2|1:0,0:0:0:0:
326,187,571555,1,8,0:0:0:0:
384,87,571722,1,2,3:2:0:0:
370,58,571805,1,2,0:0:0:0:
344,37,571889,1,2,0:0:0:0:
234,9,572055,1,0,1:0:0:0:
152,139,572222,54,0,P|174:199|219:230,1,82.5600012597657,10|0,0:0|0:0,0:0:0:0:
281,273,572388,2,0,P|344:283|394:259,1,82.5600012597657,2|0,3:2|0:0,0:0:0:0:
495,223,572555,86,0,B|538:167|535:72|421:18|352:121,1,259.199992089844,2|0,1:2|1:0,0:0:0:0:
326,187,572889,1,8,0:0:0:0:
181,89,573055,1,2,3:2:0:0:
176,56,573139,1,2,0:0:0:0:
185,24,573222,2,0,P|221:1|278:9,1,73.9199985336914,2|0,0:0|0:0,0:0:0:0:
343,28,573389,2,0,P|374:56|381:113,1,73.9199985336914,0|0,1:0|0:0,0:0:0:0:
326,187,573555,2,0,P|250:173|81:154,1,221.759995601074,10|0,0:0|0:0,0:0:0:0:
91,182,573889,85,2,1:2:0:0:
91,182,574055,1,0,1:0:0:0:
194,316,574222,54,0,P|253:278|351:274,1,138.240003375,8|0,0:0|3:0,0:0:0:0:
326,187,574472,2,0,P|263:154|211:72,1,138.240003375,8|0,0:0|1:0,0:0:0:0:
91,182,574722,2,0,P|93:227|63:283,1,69.1200016875,0|0,1:0|0:0,0:0:0:0:
194,316,574889,85,8,0:0:0:0:
256,308,574972,1,0,1:0:0:0:
318,301,575055,1,0,1:0:0:0:
380,294,575139,1,0,1:0:0:0:
435,289,575222,53,4,0:0:0:0:
435,289,575722,22,0,L|429:337,2,36.0000013732911,0|0|2,0:0|0:0|0:0,0:0:0:0:
453,168,576222,1,0,0:0:0:0:
373,175,576389,1,0,0:0:0:0:
294,183,576555,2,0,B|279:142|279:142|303:56,2,108.000004119873,2|0|0,0:0|0:0|0:0,0:0:0:0:
232,237,577222,2,0,L|149:249,1,72.0000027465821
89,329,577555,2,0,P|140:333|211:359,1,108.000004119873,2|0,0:0|0:0,0:0:0:0:
229,368,577889,85,2,0:0:0:0:
383,260,578222,2,0,L|391:296,3,36.0000013732911,0|0|0|0,0:0|0:0|0:0|0:0,0:0:0:0:
410,372,578555,1,2,0:0:0:0:
447,196,578889,1,0,0:0:0:0:
175,293,579222,21,2,0:0:0:0:
346,200,579472,85,0,0:0:0:0:
199,89,579722,21,0,0:0:0:0:
303,16,579889,85,2,0:0:0:0:
199,89,580139,21,0,0:0:0:0:
346,200,580389,85,0,0:0:0:0:
175,293,580555,22,0,P|119:284|55:272,1,108.000004119873,2|0,0:0|0:0,0:0:0:0:
44,239,580889,1,0,0:0:0:0:
53,207,580972,1,0,0:0:0:0:
61,175,581055,1,0,0:0:0:0:
50,143,581139,1,0,0:0:0:0:
33,111,581222,85,2,0:0:0:0:
218,233,581472,21,2,0:0:0:0:
182,73,581722,85,0,0:0:0:0:
151,160,581889,22,0,L|247:149,1,72.0000027465821,2|0,0:0|0:0,0:0:0:0:
336,140,582222,1,0,0:0:0:0:
336,140,582389,1,0,0:0:0:0:
331,214,582472,1,0,0:0:0:0:
325,289,582555,85,2,0:0:0:0:
150,305,582805,21,0,0:0:0:0:
218,233,583055,85,0,0:0:0:0:
280,361,583222,22,0,B|332:377|332:377|388:352,1,108.000004119873,2|0,0:0|0:0,0:0:0:0:
411,327,583555,1,0,0:0:0:0:
331,214,583722,1,0,0:0:0:0:
406,204,583805,1,0,0:0:0:0:
481,194,583889,85,2,0:0:0:0:
351,101,584139,21,2,0:0:0:0:
256,260,584389,85,2,0:0:0:0:
169,137,584555,22,0,P|109:122|31:116,2,108.000004119873,2|2|2,0:0|0:0|0:0,0:0:0:0:
244,102,585222,2,0,P|254:57|252:7,1,72.0000027465821,2|0,0:0|0:0,0:0:0:0:
203,208,585555,2,0,P|204:243|213:278,1,72.0000027465821,2|0,0:0|0:0,0:0:0:0:
336,279,585889,69,2,0:0:0:0:
346,286,586055,1,0,0:0:0:0:
158,328,586222,85,2,0:0:0:0:
148,335,586388,1,0,0:0:0:0:
241,368,586555,85,2,0:0:0:0:
280,335,586639,1,0,0:0:0:0:
289,285,586722,1,0,0:0:0:0:
269,238,586805,1,0,0:0:0:0:
220,205,586889,1,2,0:0:0:0:
187,157,586972,1,0,0:0:0:0:
179,100,587055,1,0,0:0:0:0:
201,46,587139,1,0,0:0:0:0:
255,23,587222,38,0,L|410:52,1,137.280001885254,6|0,0:0|0:0,0:0:0:0:
428,58,587472,1,2,0:0:0:0:
428,58,587555,1,8,0:0:0:0:
265,135,587722,1,0,3:0:0:0:
214,132,587805,1,0,0:0:0:0:
179,100,587889,1,0,0:0:0:0:
255,23,588055,1,2,0:0:0:0:
321,212,588222,2,0,L|232:222,1,68.640000942627,8|0,0:0|0:0,0:0:0:0:
171,225,588389,1,0,3:0:0:0:
116,71,588555,54,0,P|188:74|246:136,1,137.280001885254,2|0,0:0|0:0,0:0:0:0:
321,212,588805,2,0,P|330:175|380:134,1,68.640000942627,2|8,0:0|0:0,0:0:0:0:
411,97,589055,1,0,3:0:0:0:
151,170,589222,2,0,L|77:160,2,68.640000942627,0|2|2,0:0|0:0|0:0,0:0:0:0:
279,244,589555,6,0,L|263:143,1,68.640000942627,8|0,0:0|0:0,0:0:0:0:
164,103,589722,2,0,L|146:194,1,68.640000942627,0|0,3:0|0:0,0:0:0:0:
98,293,589889,37,2,0:0:0:0:
279,244,590055,1,2,0:0:0:0:
187,271,590222,1,8,0:0:0:0:
362,306,590389,1,0,3:0:0:0:
401,312,590472,1,0,0:0:0:0:
445,320,590555,2,0,L|522:332,2,68.640000942627,0|2|2,0:0|0:0|0:0,0:0:0:0:
305,364,590889,2,0,B|283:336|272:304|272:304|278:276|313:226,1,137.280001885254,8|0,0:0|3:0,2:0:0:0:
362,170,591139,1,0,0:0:0:0:
362,170,591222,53,2,0:0:0:0:
362,306,591389,1,2,0:0:0:0:
432,121,591555,6,0,P|408:96|376:86,1,68.640000942627,8|0,0:0|0:0,0:0:0:0:
337,0,591722,1,0,3:0:0:0:
318,7,591805,2,0,P|288:43|291:138,1,137.280001885254,8|2,0:0|0:0,0:0:0:0:
362,170,592055,1,2,0:0:0:0:
451,27,592222,1,8,0:0:0:0:
318,7,592389,1,0,3:0:0:0:
303,214,592555,38,0,P|389:211|458:149,1,137.280001885254,6|0,0:0|0:0,0:0:0:0:
481,116,592805,1,2,0:0:0:0:
481,116,592889,1,8,0:0:0:0:
357,307,593055,2,0,L|276:290,2,68.640000942627,0|0|0,3:0|0:0|0:0,0:0:0:0:
445,329,593389,1,2,0:0:0:0:
187,268,593555,2,0,P|136:325|111:384,1,137.280001885254,8|0,0:0|3:0,0:0:0:0:
286,201,593889,54,0,P|282:117|245:40,1,137.280001885254,2|0,0:0|0:0,0:0:0:0:
179,116,594139,2,0,P|179:148|188:190,1,68.640000942627,2|8,0:0|0:0,0:0:0:0:
282,287,594389,1,0,3:0:0:0:
491,222,594555,1,0,0:0:0:0:
481,199,594639,1,2,0:0:0:0:
465,179,594722,2,0,L|351:160,1,68.640000942627,2|0,0:0|0:0,0:0:0:0:
285,149,594889,1,8,0:0:0:0:
315,4,595055,2,0,L|296:103,1,68.640000942627,0|0,3:0|0:0,0:0:0:0:
270,229,595222,6,0,P|196:239|107:251,1,137.280001885254,2|2,0:0|0:0,0:0:0:0:
102,252,595472,1,0,0:0:0:0:
102,252,595555,1,8,0:0:0:0:
259,317,595722,1,0,3:0:0:0:
311,316,595805,1,0,0:0:0:0:
346,277,595889,1,0,0:0:0:0:
192,239,596055,1,2,0:0:0:0:
391,206,596222,2,0,L|472:191,2,68.640000942627,8|0|0,0:0|0:0|3:0,0:0:0:0:
270,229,596555,38,0,L|275:145,1,68.640000942627,2|0,0:0|0:0,0:0:0:0:
178,93,596722,2,0,L|171:178,1,68.640000942627,2|0,0:0|0:0,0:0:0:0:
187,322,596889,2,0,L|103:339,1,68.640000942627,8|0,0:0|0:0,0:0:0:0:
58,273,597055,1,0,3:0:0:0:
61,254,597139,2,0,L|77:107,1,137.280001885254,8|2,0:0|0:0,0:0:0:0:
81,82,597388,1,2,0:0:0:0:
291,331,597555,2,0,L|276:244,1,68.640000942627,8|2,0:0|0:0,0:0:0:0:
262,180,597722,1,2,3:2:0:0:
162,363,597889,54,0,P|230:332|338:346,1,137.280001885254,6|0,0:0|0:0,0:0:0:0:
396,382,598222,1,8,0:0:0:0:
263,227,598389,1,2,0:0:0:0:
262,180,598472,1,2,0:0:0:0:
283,137,598555,1,2,0:0:0:0:
394,37,598722,1,4,0:0:0:0:
481,269,598889,1,10,0:0:0:0:
352,201,599055,2,0,L|432:213,1,68.640000942627,2|0,0:0|3:0,0:0:0:0:
511,140,599222,6,0,L|354:117,1,137.280001885254,6|4,0:0|0:0,0:0:0:0:
327,116,599472,1,2,0:0:0:0:
283,137,599556,1,8,0:0:0:0:
262,180,599639,1,0,0:0:0:0:
263,227,599722,1,2,0:0:0:0:
321,350,599889,1,2,0:0:0:0:
158,240,600055,1,2,0:0:0:0:
352,201,600222,2,0,L|447:216,2,68.640000942627,8|0|0,0:0|0:0|3:0,0:0:0:0:
233,67,600555,38,0,P|172:107|103:90,1,137.280001885254,6|0,0:0|0:0,0:0:0:0:
91,7,600805,2,0,P|125:5|157:19,1,68.640000942627,4|8,0:0|0:0,0:0:0:0:
38,147,601055,1,2,0:0:0:0:
22,104,601139,1,2,0:0:0:0:
29,59,601222,1,2,0:0:0:0:
26,283,601389,1,4,0:0:0:0:
191,217,601555,1,10,0:0:0:0:
92,199,601722,1,2,0:0:0:0:
241,354,601889,54,0,L|229:258,1,68.640000942627,6|0,0:0|0:0,0:0:0:0:
269,210,602055,2,0,L|281:114,1,68.640000942627,4|2,0:0|0:0,0:0:0:0:
220,0,602222,1,8,0:0:0:0:
220,0,602305,1,4,0:0:0:0:
220,0,602389,2,0,L|238:93,2,68.640000942627,6|8|2,0:0|0:0|0:0,0:0:0:0:
122,71,602722,1,2,3:2:0:0:
208,188,602889,6,0,P|237:208|291:203,1,68.640000942627,10|0,0:0|0:0,0:0:0:0:
340,60,603055,2,0,P|371:46|425:54,1,68.640000942627,6|0,0:0|0:0,0:0:0:0:
481,158,603222,38,0,P|405:148|294:139,1,137.280001885254,6|0,0:0|0:0,0:0:0:0:
264,132,603472,1,4,0:0:0:0:
264,132,603555,1,8,0:0:0:0:
268,329,603722,2,0,P|304:328|350:291,1,68.640000942627,2|2,0:0|0:0,0:0:0:0:
422,289,603889,1,2,0:0:0:0:
395,243,603972,1,4,0:0:0:0:
346,223,604055,1,4,0:0:0:0:
183,284,604222,1,10,0:0:0:0:
205,123,604389,2,0,L|195:210,1,68.640000942627,0|0,3:0|0:0,0:0:0:0:
171,375,604555,54,0,P|138:316|87:271,1,137.280001885254,6|4,0:0|0:0,0:0:0:0:
102,191,604805,2,0,P|56:194|18:225,1,68.640000942627,2|8,0:0|0:0,0:0:0:0:
249,301,605055,1,2,0:0:0:0:
297,298,605139,1,0,0:0:0:0:
340,276,605222,1,2,0:0:0:0:
367,236,605305,1,2,0:0:0:0:
368,187,605389,1,2,0:0:0:0:
349,86,605555,2,0,P|305:106|276:144,1,68.640000942627,8|0,0:0|0:0,0:0:0:0:
271,209,605722,1,0,3:0:0:0:
83,190,605889,6,0,P|128:154|220:158,1,137.280001885254,6|0,0:0|0:0,0:0:0:0:
271,209,606139,1,4,0:0:0:0:
271,209,606222,1,8,0:0:0:0:
287,5,606389,2,0,P|261:34|226:49,1,68.640000942627,2|2,0:0|0:0,0:0:0:0:
145,47,606555,2,0,P|120:37|82:2,2,68.640000942627,2|0|4,0:0|0:0|0:0,0:0:0:0:
291,120,606889,1,10,0:0:0:0:
257,248,607055,1,2,0:0:0:0:
64,185,607222,38,0,P|56:151|59:117,1,68.640000942627,6|0,0:0|0:0,0:0:0:0:
178,222,607389,2,0,P|181:256|169:298,1,68.640000942627,4|2,0:0|0:0,0:0:0:0:
108,352,607555,1,8,0:0:0:0:
328,291,607722,53,6,0:0:0:0:
341,247,607805,1,8,0:0:0:0:
329,208,607889,1,2,0:0:0:0:
284,179,607972,1,4,0:0:0:0:
227,180,608055,1,4,0:0:0:0:
178,222,608139,1,0,0:0:0:0:
173,289,608222,5,10,0:0:0:0:
209,350,608305,1,2,0:0:0:0:
280,368,608389,1,2,3:2:0:0:
357,356,608472,1,2,0:0:0:0:
403,284,608555,22,0,L|387:110,1,118.080001801758,6|0,0:0|0:0,0:0:0:0:
408,82,608805,1,0,0:0:0:0:
408,82,608889,6,0,P|377:81|334:108,1,59.0400009008789,8|0,0:0|0:0,0:0:0:0:
305,163,609056,2,0,L|227:152,1,59.0400009008789,2|0,3:2|0:0,0:0:0:0:
165,140,609223,2,0,P|137:118|124:79,1,59.0400009008789
219,10,609389,2,0,L|208:91,1,59.0400009008789,0|0,1:0|0:0,0:0:0:0:
187,213,609555,1,10,0:0:0:0:
178,222,609638,1,0,0:0:0:0:
171,232,609722,2,0,L|91:217,1,59.0400009008789,0|0,3:0|0:0,0:0:0:0:
72,301,609889,102,0,L|166:320,1,59.0400009008789,0|0,1:0|0:0,0:0:0:0:
259,258,610055,1,2,1:2:0:0:
304,239,610139,1,0,0:0:0:0:
348,247,610222,1,8,0:0:0:0:
389,283,610305,1,0,0:0:0:0:
439,299,610389,1,0,1:2:0:0:
485,276,610472,1,0,0:0:0:0:
498,223,610555,70,0,L|486:141,1,59.0400009008789,2|0,0:0|0:0,0:0:0:0:
315,321,610722,2,0,L|303:405,1,59.0400009008789,0|0,1:0|0:0,0:0:0:0:
263,212,610889,102,0,L|274:127,1,59.0400009008789,10|0,0:0|1:0,0:0:0:0:
473,318,611056,2,0,L|485:405,1,59.0400009008789,0|0,3:0|0:0,0:0:0:0:
469,146,611222,70,0,L|303:124,1,118.080001801758,2|0,1:2|0:0,0:0:0:0:
271,153,611472,1,0,0:0:0:0:
271,153,611555,2,0,L|260:234,1,59.0400009008789,8|0,0:0|0:0,0:0:0:0:
349,46,611722,2,0,P|323:50|286:79,1,59.0400009008789,2|0,3:2|0:0,0:0:0:0:
186,217,611889,2,0,P|157:230|123:231,1,59.0400009008789
72,166,612055,2,0,L|65:106,1,59.0400009008789,0|0,1:0|0:0,0:0:0:0:
57,9,612222,1,10,0:0:0:0:
77,15,612305,1,0,0:0:0:0:
98,21,612389,2,0,L|189:13,1,59.0400009008789,0|0,3:0|0:0,0:0:0:0:
254,48,612555,102,0,L|268:143,1,59.0400009008789,0|0,1:0|0:0,0:0:0:0:
368,101,612722,2,0,L|356:204,1,59.0400009008789,2|0,1:2|0:0,0:0:0:0:
242,198,612889,2,0,L|229:301,1,59.0400009008789,8|0,0:0|0:0,0:0:0:0:
130,245,613056,2,0,L|146:348,1,59.0400009008789,0|0,3:0|0:0,0:0:0:0:
397,336,613222,69,2,0:0:0:0:
399,284,613305,1,0,1:0:0:0:
370,247,613389,2,0,L|264:231,1,59.0400009008789,0|0,1:0|0:0,0:0:0:0:
242,198,613555,101,10,0:0:0:0:
240,146,613638,1,0,0:0:0:0:
269,109,613722,2,0,L|376:95,1,59.0400009008789,0|0,3:0|0:0,0:0:0:0:
423,43,613889,70,0,L|402:207,1,118.080001801758,2|0,1:2|0:0,0:0:0:0:
370,247,614139,1,0,1:0:0:0:
370,247,614222,2,0,P|333:243|289:211,1,59.0400009008789,8|0,0:0|0:0,0:0:0:0:
192,97,614389,2,0,P|159:101|115:133,1,59.0400009008789,2|0,3:2|0:0,0:0:0:0:
316,139,614555,2,0,P|283:142|239:174,1,59.0400009008789
134,205,614722,2,0,P|99:200|55:168,1,59.0400009008789,0|0,1:0|0:0,0:0:0:0:
40,49,614889,1,10,0:0:0:0:
86,40,614972,1,0,1:0:0:0:
130,53,615055,2,0,L|139:136,1,59.0400009008789,0|0,3:0|0:0,0:0:0:0:
260,153,615222,102,0,L|273:65,1,59.0400009008789,0|0,1:0|0:0,0:0:0:0:
359,11,615389,1,2,1:2:0:0:
413,8,615472,1,0,0:0:0:0:
462,32,615555,1,8,0:0:0:0:
484,82,615639,1,0,0:0:0:0:
484,136,615722,1,0,3:0:0:0:
451,180,615805,1,0,0:0:0:0:
396,197,615889,70,0,P|360:203|293:177,1,59.0400009008789,2|0,0:0|1:0,0:0:0:0:
276,120,616055,2,0,L|265:55,1,59.0400009008789,0|0,1:0|0:0,0:0:0:0:
275,263,616222,102,0,P|239:257|180:282,1,59.0400009008789,10|0,0:0|0:0,0:0:0:0:
138,314,616388,2,0,L|128:374,1,59.0400009008789,0|0,3:0|0:0,0:0:0:0:
28,308,616555,69,2,1:2:0:0:
5,257,616639,1,0,0:0:0:0:
0,202,616722,1,0,0:0:0:0:
13,149,616805,1,0,0:0:0:0:
48,106,616889,1,8,0:0:0:0:
97,83,616972,1,0,0:0:0:0:
150,74,617055,102,0,L|245:83,1,59.0400009008789,2|0,3:2|0:0,0:0:0:0:
205,179,617222,2,0,P|241:172|295:132,1,59.0400009008789
303,90,617389,2,0,L|405:102,1,59.0400009008789,0|0,1:0|0:0,0:0:0:0:
378,4,617555,2,0,P|411:15|447:41,1,59.0400009008789,10|0,0:2|0:0,0:0:0:0:
512,159,617722,1,0,3:0:0:0:
492,199,617805,1,0,0:0:0:0:
459,215,617889,6,0,L|354:203,1,59.0400009008789,0|0,1:0|0:0,0:0:0:0:
268,110,618055,2,0,L|256:29,1,59.0400009008789
380,308,618222,102,0,L|314:225,1,59.0400009008789,10|0,0:0|0:0,0:0:0:0:
268,110,618389,2,0,L|256:29,1,59.0400009008789,0|0,3:0|0:0,0:0:0:0:
259,351,618555,6,0,L|271:245,1,59.0400009008789,2|0,0:0|1:0,0:0:0:0:
268,110,618722,2,0,L|256:29,1,59.0400009008789,0|0,1:0|0:0,0:0:0:0:
146,289,618889,102,0,L|228:223,1,59.0400009008789,10|0,0:0|0:0,0:0:0:0:
268,110,619055,2,0,L|256:29,1,59.0400009008789,0|0,3:0|0:0,0:0:0:0:
366,141,619222,6,0,P|319:200|267:212,1,118.080001801758,4|0,1:2|0:0,0:0:0:0:
185,171,619472,1,0,1:0:0:0:
185,171,619555,2,0,P|170:145|164:116,1,59.0400009008789,8|0,0:0|0:0,0:0:0:0:
88,80,619722,2,0,P|110:48|153:22,1,59.0400009008789,2|0,3:2|0:0,0:0:0:0:
280,212,619889,2,0,P|257:243|214:269,1,59.0400009008789
248,344,620056,2,0,P|209:340|165:316,1,59.0400009008789,0|0,1:0|0:0,0:0:0:0:
268,110,620222,2,0,P|306:113|350:137,1,59.0400009008789,10|0,0:0|1:0,0:0:0:0:
397,72,620389,2,0,P|413:107|414:157,1,59.0400009008789,0|0,3:0|0:0,0:0:0:0:
503,225,620555,101,0,1:0:0:0:
461,261,620639,1,0,0:0:0:0:
407,269,620722,1,2,1:2:0:0:
357,246,620805,1,0,0:0:0:0:
323,202,620889,1,8,0:0:0:0:
272,181,620972,1,0,0:0:0:0:
217,187,621055,1,0,3:0:0:0:
167,211,621139,1,0,0:0:0:0:
147,262,621222,70,0,P|151:295|156:336,1,59.0400009008789,2|0,0:0|1:0,0:0:0:0:
267,349,621389,2,0,P|263:316|258:275,1,59.0400009008789,0|0,1:0|0:0,0:0:0:0:
384,148,621555,102,0,L|377:225,1,59.0400009008789,10|0,0:0|0:0,0:0:0:0:
266,239,621722,2,0,L|273:162,1,59.0400009008789,0|0,3:0|0:0,0:0:0:0:
150,94,621889,70,0,L|172:247,1,118.080001801758,2|0,1:2|0:0,0:0:0:0:
136,304,622139,1,0,1:0:0:0:
136,304,622222,2,0,P|100:327|68:336,1,59.0400009008789,8|0,0:0|0:0,0:0:0:0:
231,289,622389,2,0,L|314:301,1,59.0400009008789,2|0,3:2|0:0,0:0:0:0:
377,314,622555,2,0,P|409:325|437:344,1,59.0400009008789
338,227,622722,2,0,L|325:143,1,59.0400009008789,0|0,1:0|0:0,0:0:0:0:
231,289,622889,2,0,L|221:365,1,59.0400009008789,8|0,0:0|1:0,0:0:0:0:
166,210,623055,1,0,3:0:0:0:
160,195,623139,1,0,0:0:0:0:
154,185,623222,102,0,P|114:169|80:167,1,59.0400009008789,0|0,1:0|0:0,0:0:0:0:
19,126,623389,2,0,L|34:45,1,59.0400009008789,2|0,1:2|0:0,0:0:0:0:
137,7,623555,2,0,L|122:88,1,59.0400009008789,8|0,0:0|0:0,0:0:0:0:
211,112,623722,2,0,P|250:127|284:129,1,59.0400009008789,0|0,3:0|0:0,0:0:0:0:
370,73,623889,69,2,0:0:0:0:
380,59,623972,1,0,1:0:0:0:
388,48,624055,2,0,L|374:135,1,59.0400009008789,0|0,1:0|0:0,0:0:0:0:
446,314,624222,101,8,0:0:0:0:
456,328,624305,1,0,1:0:0:0:
464,339,624388,2,0,L|450:252,1,59.0400009008789,0|0,3:2|0:0,0:0:0:0:
473,185,624555,70,0,L|308:206,1,118.080001801758,2|0,1:2|0:0,0:0:0:0:
269,183,624805,1,0,1:0:0:0:
269,183,624889,2,0,L|254:99,1,59.0400009008789,8|0,0:0|0:0,0:0:0:0:
352,285,625055,2,0,P|314:277|286:252,1,59.0400009008789,2|0,3:2|0:0,0:0:0:0:
184,171,625222,2,0,P|149:177|125:198,1,59.0400009008789,0|0,0:0|0:0,0:0:0:0:
106,283,625389,2,0,L|92:356,1,59.0400009008789,0|0,1:0|0:0,0:0:0:0:
131,191,625555,2,0,P|125:161|107:137,1,59.0400009008789,10|0,0:0|1:0,0:0:0:0:
34,63,625722,1,0,3:0:0:0:
23,56,625805,1,0,0:0:0:0:
12,49,625889,102,0,L|97:40,1,59.0400009008789,0|0,1:0|0:0,0:0:0:0:
200,24,626055,1,2,1:2:0:0:
254,33,626139,1,0,0:0:0:0:
292,71,626222,1,8,0:0:0:0:
317,119,626305,1,0,0:0:0:0:
322,174,626389,1,0,3:0:0:0:
302,224,626472,1,0,0:0:0:0:
259,258,626555,70,0,L|184:251,1,59.0400009008789,2|0,0:0|1:0,0:0:0:0:
151,171,626722,2,0,P|143:138|144:103,1,59.0400009008789,0|0,1:0|0:0,0:0:0:0:
67,359,626889,102,0,P|67:328|74:300,1,59.0400009008789,10|0,0:0|0:0,0:0:0:0:
141,248,627055,2,0,L|215:254,1,59.0400009008789,0|0,3:0|0:0,0:0:0:0:
228,347,627222,70,0,L|388:329,1,118.080001801758,2|0,1:2|0:0,0:0:0:0:
438,340,627472,1,0,1:0:0:0:
438,340,627555,2,0,L|448:260,1,59.0400009008789,8|0,0:2|0:0,0:0:0:0:
497,213,627722,2,0,L|507:133,1,59.0400009008789,2|0,3:2|0:0,0:0:0:0:
297,50,627889,102,0,L|307:130,1,59.0400009008789,0|0,0:0|1:0,0:0:0:0:
356,177,628056,2,0,L|366:257,1,59.0400009008789,0|0,1:0|0:0,0:0:0:0:
458,77,628222,1,10,0:0:0:0:
458,77,628305,1,0,1:0:0:0:
458,77,628389,2,0,L|469:-3,1,59.0400009008789,0|0,3:0|0:0,0:0:0:0:
443,182,628555,69,2,1:2:0:0:
304,108,628722,2,0,L|311:169,1,59.0400009008789,0|0,1:0|3:0,0:0:0:0:
295,17,628889,69,10,0:0:0:0:
165,270,629056,2,0,L|175:202,1,59.0400009008789,0|0,3:0|0:0,0:0:0:0:
187,126,629222,37,2,0:2:0:0:
320,256,629389,2,0,L|221:268,1,59.0400009008789,0|0,1:0|3:0,0:0:0:0:
165,270,629555,69,8,0:2:0:0:
36,105,629722,2,0,L|135:117,1,59.0400009008789,0|0,3:0|0:0,0:0:0:0:
187,126,629889,21,4,1:2:0:0:
256,192,629972,12,0,632555,0:0:0:0:
