osu file format v14

[General]
AudioFilename: audio.mp3
AudioLeadIn: 0
PreviewTime: 93433
Countdown: 0
SampleSet: Soft
StackLeniency: 0.4
Mode: 0
LetterboxInBreaks: 0
WidescreenStoryboard: 0

[Editor]
Bookmarks: 2516,19596,36676,53757,156242,173290
DistanceSpacing: 1.6
BeatDivisor: 4
GridSize: 4
TimelineZoom: 1

[Metadata]
Title:Take On Me
TitleUnicode:Take On Me
Artist:a-ha
ArtistUnicode:a-ha
Creator:Alvieee
Version:Insane
Source:
Tags:HydroCannon13
BeatmapID:1315139
BeatmapSetID:601347

[Difficulty]
HPDrainRate:6
CircleSize:3.6
OverallDifficulty:8
ApproachRate:8.5
SliderMultiplier:1.2
SliderTickRate:1

[Events]
//Background and Video events
0,0,"bg.jpg",0,0
//Break Periods
2,116585,132042
//Storyboard Layer 0 (Background)
//Storyboard Layer 1 (Fail)
//Storyboard Layer 2 (Pass)
//Storyboard Layer 3 (Foreground)
//Storyboard Sound Samples

[TimingPoints]
2516,355.840779906293,4,2,1,30,1,0
13902,-100,4,2,1,65,0,0
19596,-76.9230769230769,4,2,1,75,0,0
53757,-71.4285714285714,4,2,1,75,0,1
65143,-100,4,2,1,75,0,0
70837,-66.6666666666667,4,2,1,75,0,1
76530,-76.9230769230769,4,2,1,75,0,0
93611,-71.4285714285714,4,2,1,75,0,1
104998,-100,4,2,1,75,0,0
110691,-66.6666666666667,4,2,1,75,0,1
116385,-66.6666666666667,4,2,1,75,0,0
133465,-100,4,2,1,75,0,0
139158,-76.9230769230769,4,2,1,75,0,0
156239,355.240779906292,4,2,1,75,1,0
156239,-76.9230769230769,4,2,1,75,0,0
173290,352.740779906291,4,2,1,75,1,0
173290,-71.4285714285714,4,2,1,75,0,1
184577,-100,4,2,1,75,0,0
190221,-66.6666666666667,4,2,1,75,0,1
212796,-100,4,2,1,75,0,0

[Colours]
Combo1 : 210,210,210
Combo2 : 128,128,128

[HitObjects]
192,132,2516,6,0,L|60:148,1,120,0|8,0:0|0:0,0:0:0:0:
148,256,3227,2,0,L|280:272,1,120,0|8,0:0|0:0,0:0:0:0:
311,117,3939,2,0,L|191:131,1,120,0|8,0:0|0:0,0:0:0:0:
267,270,4651,2,0,L|399:286,1,120,0|8,0:0|0:0,0:0:0:0:
430,102,5362,6,0,L|310:116,1,120,0|8,0:0|0:0,0:0:0:0:
386,284,6074,2,0,L|484:200,1,120,0|8,0:0|0:0,0:0:0:0:
310,116,6786,2,0,L|280:248,1,120,0|8,0:0|0:0,0:0:0:0:
156,156,7497,2,0,L|126:288,1,120,0|8,0:0|0:0,0:0:0:0:
200,348,8031,6,0,L|232:348,1,30
284,348,8209,2,0,P|332:296|332:228,1,120,0|8,0:0|0:0,0:0:0:0:
276,144,8921,2,0,P|228:196|228:264,1,120,0|8,0:0|0:0,0:0:0:0:
370,103,9632,2,0,P|334:35|278:15,1,120,0|8,0:0|0:0,0:0:0:0:
361,204,10344,2,0,P|418:226|480:212,1,120,0|8,0:0|0:0,0:0:0:0:
276,144,11056,6,0,B|220:114|220:114|87:133,2,180,0|0|8,0:0|0:0|0:0,0:0:0:0:
283,299,12479,6,0,L|163:283,1,120,0|8,0:0|0:0,0:0:0:0:
23,213,13191,2,0,L|143:197,1,120,0|8,0:0|0:0,0:0:0:0:
256,180,13724,1,0,0:0:0:0:
376,144,13902,6,0,P|408:84|392:20,1,120,2|8,0:0|0:0,0:0:0:0:
284,64,14436,1,0,0:0:0:0:
256,180,14614,2,0,P|300:252|356:268,1,120,0|8,0:0|0:0,0:0:0:0:
450,299,15148,1,0,0:0:0:0:
407,183,15326,5,2,0:0:0:0:
407,183,15504,2,0,P|343:227|328:280,1,120
450,299,16037,1,0,0:0:0:0:
307,146,16215,1,0,0:0:0:0:
251,345,16393,1,8,0:0:0:0:
373,274,16571,1,0,0:0:0:0:
307,146,16749,6,0,P|303:92|309:80,1,60,2|0,0:0|0:0,0:0:0:0:
184,23,17105,1,8,0:0:0:0:
108,120,17283,2,0,P|158:149|224:144,1,120
344,184,17817,1,8,0:0:0:0:
304,60,17995,1,0,0:0:0:0:
348,188,18172,5,2,0:0:0:0:
348,188,18350,2,0,P|408:148|467:152,1,120
491,267,18884,1,0,0:0:0:0:
348,188,19062,1,0,0:0:0:0:
352,336,19240,1,8,0:0:0:0:
347,159,19418,1,8,0:0:0:0:
256,260,19596,6,2,P|220:216|216:168,1,77.9999964294435
300,64,19952,1,8,0:0:0:0:
444,120,20130,2,0,B|432:208|432:208|456:288,1,155.999992858887,2|0,0:0|0:0,0:0:0:0:
308,336,20663,1,8,0:0:0:0:
164,276,20841,2,0,L|76:284,1,77.9999964294435,2|0,0:0|0:0,0:0:0:0:
208,160,21197,2,0,L|120:168,1,77.9999964294435,2|8,0:0|0:0,0:0:0:0:
12,64,21553,5,0,0:0:0:0:
164,20,21731,1,2,0:0:0:0:
164,20,21909,1,2,0:0:0:0:
300,96,22087,1,8,0:0:0:0:
300,96,22265,1,0,0:0:0:0:
320,252,22443,6,2,P|312:300|280:344,1,77.9999964294435
172,232,22798,1,8,0:0:0:0:
300,96,22976,2,0,P|404:112|448:168,1,155.999992858887,2|0,0:0|0:0,0:0:0:0:
320,252,23510,1,8,0:0:0:0:
460,236,23688,2,0,L|466:322,1,77.9999964294435,2|0,0:0|0:0,0:0:0:0:
340,266,24044,2,0,L|346:352,1,77.9999964294435,2|8,0:0|0:0,0:0:0:0:
214,306,24400,5,0,0:0:0:0:
212,140,24578,1,2,0:0:0:0:
212,140,24756,1,2,0:0:0:0:
80,220,24933,1,8,0:0:0:0:
80,220,25111,1,0,0:0:0:0:
212,140,25289,6,2,P|176:88|136:72,1,77.9999964294435
8,84,25645,1,8,0:0:0:0:
212,140,25823,2,0,P|272:176|360:160,1,155.999992858887,2|0,0:0|0:0,0:0:0:0:
456,44,26357,1,8,0:0:0:0:
436,200,26535,2,0,P|452:264|472:288,1,77.9999964294435,2|0,0:0|0:0,0:0:0:0:
312,332,26891,2,0,P|360:360|400:364,1,77.9999964294435,2|8,0:0|0:0,0:0:0:0:
324,220,27246,5,0,0:0:0:0:
196,312,27424,1,2,0:0:0:0:
200,316,27602,1,2,0:0:0:0:
180,160,27780,1,8,0:0:0:0:
180,160,27958,1,0,0:0:0:0:
60,260,28136,6,2,P|32:224|28:184,1,77.9999964294435
88,72,28492,1,8,0:0:0:0:
60,260,28670,2,0,P|140:256|200:312,1,155.999992858887,2|0,0:0|0:0,0:0:0:0:
216,148,29204,1,8,0:0:0:0:
288,284,29381,2,0,L|382:296,1,77.9999964294435,2|0,0:0|0:0,0:0:0:0:
475,189,29737,2,0,L|381:201,1,77.9999964294435,2|8,0:0|0:0,0:0:0:0:
288,284,30093,5,0,0:0:0:0:
180,172,30271,1,2,0:0:0:0:
180,172,30449,1,2,0:0:0:0:
336,140,30627,1,8,0:0:0:0:
336,140,30805,1,0,0:0:0:0:
496,96,30983,6,2,P|440:56|400:56,1,77.9999964294435
396,204,31339,1,8,0:0:0:0:
348,32,31517,2,0,P|260:56|184:24,1,155.999992858887
40,56,32050,1,8,0:0:0:0:
168,160,32228,6,0,L|176:256,1,77.9999964294435,2|0,0:0|0:0,0:0:0:0:
8,228,32584,2,0,L|0:324,1,77.9999964294435,2|8,0:0|0:0,0:0:0:0:
160,356,32940,5,0,0:0:0:0:
100,204,33118,1,2,0:0:0:0:
100,204,33296,1,2,0:0:0:0:
232,108,33474,1,8,0:0:0:0:
232,108,33652,1,0,0:0:0:0:
80,52,33829,6,2,P|40:88|8:96,1,77.9999964294435
192,188,34185,1,8,0:0:0:0:
0,188,34363,2,0,P|8:280|56:332,1,155.999992858887
192,188,34897,1,8,0:0:0:0:
177,362,35075,2,0,L|264:372,1,77.9999964294435,2|0,0:0|0:0,0:0:0:0:
372,276,35431,2,0,L|285:286,1,77.9999964294435,2|8,0:0|0:0,0:0:0:0:
192,188,35787,1,0,0:0:0:0:
372,276,35965,6,8,L|360:184,1,77.9999964294435
472,76,36320,2,2,L|460:168,1,77.9999964294435,10|2,0:0|0:0,0:0:0:0:
340,40,36676,5,2,0:0:0:0:
340,40,36854,1,2,0:0:0:0:
340,40,37032,2,0,P|304:96|204:108,1,155.999992858887,10|0,0:0|0:0,0:0:0:0:
100,40,37566,2,0,L|108:136,1,77.9999964294435,0|8,0:0|0:0,0:0:0:0:
48,244,37922,2,0,P|80:280|120:288,1,77.9999964294435,2|0,0:0|0:0,0:0:0:0:
244,256,38277,2,0,P|280:220|288:176,1,77.9999964294435,2|8,0:0|0:0,0:0:0:0:
172,116,38633,1,2,0:0:0:0:
172,116,38811,2,0,P|136:152|128:196,1,77.9999964294435,2|0,0:0|0:0,0:0:0:0:
164,312,39167,2,0,P|132:368|92:384,1,77.9999964294435,8|0,0:0|0:0,0:0:0:0:
52,252,39523,5,2,0:0:0:0:
52,252,39701,1,2,0:0:0:0:
52,252,39879,2,0,P|112:196|204:188,1,155.999992858887,10|0,0:0|0:0,0:0:0:0:
308,248,40413,2,0,L|400:240,1,77.9999964294435,0|8,0:0|0:0,0:0:0:0:
476,144,40768,2,0,P|512:232|488:312,1,155.999992858887,2|2,0:0|0:0,0:0:0:0:
392,380,41302,1,8,0:0:0:0:
316,256,41480,1,2,0:0:0:0:
316,256,41658,2,0,L|324:100,1,155.999992858887,2|8,0:0|0:0,0:0:0:0:
448,32,42192,1,2,0:0:0:0:
332,108,42370,5,2,0:0:0:0:
332,108,42548,1,2,0:0:0:0:
332,108,42726,2,0,P|248:132|164:96,1,155.999992858887,10|0,0:0|0:0,0:0:0:0:
68,36,43259,2,0,P|16:64|0:96,1,77.9999964294435,0|8,0:0|0:0,0:0:0:0:
24,220,43615,2,0,L|32:308,1,77.9999964294435,2|0,0:0|0:0,0:0:0:0:
164,256,43971,2,0,L|171:178,1,77.9999964294435,2|8,0:0|0:0,0:0:0:0:
304,224,44327,1,2,0:0:0:0:
304,224,44505,2,0,L|319:379,1,155.999992858887,2|8,0:0|0:0,0:0:0:0:
436,300,45038,1,0,0:0:0:0:
448,160,45216,5,2,0:0:0:0:
448,160,45394,1,2,0:0:0:0:
448,160,45572,2,0,P|428:96|468:8,1,155.999992858887,10|0,0:0|0:0,0:0:0:0:
320,40,46106,2,0,P|268:44|236:32,1,77.9999964294435,0|8,0:0|0:0,0:0:0:0:
104,16,46462,2,0,P|128:80|96:192,1,155.999992858887,2|2,0:0|0:0,0:0:0:0:
8,260,46996,1,8,0:0:0:0:
140,304,47174,1,2,0:0:0:0:
140,304,47351,2,0,P|212:272|248:200,1,155.999992858887,2|8,0:0|0:0,0:0:0:0:
113,164,47885,1,2,0:0:0:0:
204,60,48063,5,2,0:0:0:0:
204,60,48241,1,2,0:0:0:0:
204,60,48419,2,0,P|284:48|348:84,1,155.999992858887,10|0,0:0|0:0,0:0:0:0:
387,220,48953,2,0,P|425:211|456:184,1,77.9999964294435,0|8,0:0|0:0,0:0:0:0:
347,83,49309,2,0,P|309:91|278:119,1,77.9999964294435,2|0,0:0|0:0,0:0:0:0:
276,284,49664,2,0,P|256:228|228:208,1,77.9999964294435,2|8,0:0|0:0,0:0:0:0:
144,320,50020,1,2,0:0:0:0:
144,320,50198,2,0,P|96:264|96:184,1,155.999992858887,2|8,0:0|0:0,0:0:0:0:
152,56,50732,1,0,0:0:0:0:
292,48,50910,6,2,L|388:44,1,77.9999964294435
420,176,51266,1,10,0:0:0:0:
295,188,51444,1,0,0:0:0:0:
381,369,51622,1,0,0:0:0:0:
364,245,51799,1,0,0:0:0:0:
512,354,51977,1,8,0:0:0:0:
254,268,52155,6,0,P|289:317|325:327,1,77.9999964294435,6|0,0:0|0:0,0:0:0:0:
295,188,52511,1,2,0:0:0:0:
211,366,52689,1,0,0:0:0:0:
172,247,52867,1,2,0:0:0:0:
2,374,53045,1,2,0:0:0:0:
128,371,53223,1,8,0:0:0:0:
27,188,53401,1,8,0:0:0:0:
128,371,53579,1,8,0:0:0:0:
116,159,53757,6,2,P|144:179|172:225,1,83.9999974365235,6|2,0:0|0:0,0:0:0:0:
224,368,54112,2,0,L|244:272,1,83.9999974365235,10|0,0:0|0:0,0:0:0:0:
322,162,54468,2,0,L|339:244,1,83.9999974365235,2|0,0:0|0:0,0:0:0:0:
412,128,54824,2,0,L|432:32,1,83.9999974365235,10|0,0:0|0:0,0:0:0:0:
208,16,55180,6,2,L|173:211,1,167.999994873047,2|10,0:0|0:0,0:0:0:0:
74,169,55714,1,0,0:0:0:0:
257,185,55892,2,0,L|274:267,1,83.9999974365235,2|0,0:0|0:0,0:0:0:0:
112,268,56247,2,0,L|129:350,1,83.9999974365235,10|0,0:0|0:0,0:0:0:0:
292,344,56603,6,2,L|465:302,1,167.999994873047,2|10,0:0|0:0,0:0:0:0:
389,227,57137,1,0,0:0:0:0:
232,210,57315,2,0,L|248:124,1,83.9999974365235,2|0,0:0|0:0,0:0:0:0:
260,304,57671,1,10,0:0:0:0:
260,304,57849,1,0,0:0:0:0:
408,264,58027,6,0,P|464:240|492:136,1,167.999994873047,2|8,0:0|0:0,0:0:0:0:
400,24,58560,2,0,L|228:16,1,167.999994873047
96,88,59094,2,0,P|108:120|152:152,1,83.9999974365235,8|0,0:0|0:0,0:0:0:0:
296,168,59450,5,2,0:0:0:0:
296,168,59628,1,2,0:0:0:0:
296,168,59806,2,0,L|288:272,1,83.9999974365235,10|0,0:0|0:0,0:0:0:0:
168,344,60162,2,0,L|176:240,1,83.9999974365235,2|0,0:0|0:0,0:0:0:0:
188,108,60518,2,0,L|194:24,1,83.9999974365235,10|0,0:0|0:0,0:0:0:0:
76,144,60874,6,2,L|61:323,1,167.999994873047,2|10,0:0|0:0,0:0:0:0:
172,320,61407,1,0,0:0:0:0:
216,176,61585,2,0,L|299:179,1,83.9999974365235,2|0,0:0|0:0,0:0:0:0:
392,304,61941,2,0,L|304:300,1,83.9999974365235,10|0,0:0|0:0,0:0:0:0:
216,176,62297,6,2,L|225:-3,1,167.999994873047,2|10,0:0|0:0,0:0:0:0:
336,44,62831,1,0,0:0:0:0:
216,176,63008,2,0,L|220:272,1,83.9999974365235,2|0,0:0|0:0,0:0:0:0:
352,124,63364,2,0,L|356:220,1,83.9999974365235,10|0,0:0|0:0,0:0:0:0:
484,40,63720,6,0,L|496:248,1,167.999994873047,2|8,0:0|0:0,0:0:0:0:
400,292,64254,2,0,P|352:244|320:332,1,167.999994873047
200,336,64788,2,0,P|140:344|100:332,1,83.9999974365235,10|0,0:0|0:0,0:0:0:0:
60,248,65143,5,2,0:0:0:0:
60,248,65321,1,2,0:0:0:0:
60,248,65499,2,0,P|88:196|80:128,1,120,2|8,0:0|0:0,0:0:0:0:
220,44,66389,5,2,0:0:0:0:
312,104,66567,1,2,0:0:0:0:
312,104,66745,1,2,0:0:0:0:
312,104,66923,2,0,P|284:156|292:224,1,120,2|8,0:0|0:0,0:0:0:0:
288,215,67990,5,2,0:0:0:0:
296,223,68168,1,2,0:0:0:0:
296,223,68346,2,0,L|424:231,1,120,2|8,0:0|0:0,0:0:0:0:
468,136,68880,1,2,0:0:0:0:
412,44,69058,1,2,0:0:0:0:
304,56,69236,2,0,L|311:123,1,60,4|0,0:0|0:0,0:0:0:0:
256,220,69591,5,2,0:0:0:0:
256,220,69769,1,8,0:0:0:0:
200,68,69947,1,2,0:0:0:0:
396,176,70125,1,8,0:0:0:0:
168,160,70303,1,8,0:0:0:0:
414,183,70481,1,8,0:0:0:0:
200,68,70659,1,8,0:0:0:0:
256,220,70837,6,2,L|228:324,1,90.0000034332277
414,183,71193,1,2,0:0:0:0:
116,96,71549,2,0,L|137:195,1,90.0000034332277,2|0,0:0|0:0,0:0:0:0:
256,220,71904,2,0,P|324:208|348:176,1,90.0000034332277,10|0,0:0|0:0,0:0:0:0:
134,184,72260,6,0,P|66:196|42:228,1,90.0000034332277,2|0,0:0|0:0,0:0:0:0:
52,320,72616,2,0,P|103:359|144:354,1,90.0000034332277,10|0,0:0|0:0,0:0:0:0:
244,356,72972,2,0,P|284:324|324:320,1,90.0000034332277,2|0,0:0|0:0,0:0:0:0:
436,340,73328,2,0,L|440:236,1,90.0000034332277,10|0,0:0|0:0,0:0:0:0:
380,132,73684,6,2,L|384:28,2,90.0000034332277,2|2|10,0:0|0:0|0:0,0:0:0:0:
132,136,74395,2,2,L|128:32,2,90.0000034332277,2|2|10,0:0|0:0|0:0,0:0:0:0:
368,252,75107,6,2,L|372:356,2,90.0000034332277,2|2|10,0:0|0:0|0:0,0:0:0:0:
144,248,75819,2,2,L|140:352,2,90.0000034332277,2|2|10,0:0|0:0|0:0,0:0:0:0:
152,256,76530,5,2,0:0:0:0:
152,256,76708,1,2,0:0:0:0:
152,256,76886,2,0,P|188:200|288:188,1,155.999992858887,10|0,0:0|0:0,0:0:0:0:
405,266,77420,2,0,L|412:344,1,77.9999964294435,0|8,0:0|0:0,0:0:0:0:
508,192,77776,2,0,P|476:156|432:144,1,77.9999964294435,2|0,0:0|0:0,0:0:0:0:
320,164,78132,2,0,P|284:200|276:244,1,77.9999964294435,2|8,0:0|0:0,0:0:0:0:
180,112,78487,1,2,0:0:0:0:
180,112,78665,2,0,L|172:28,1,77.9999964294435,2|0,0:0|0:0,0:0:0:0:
340,32,79021,2,0,L|328:120,1,77.9999964294435,8|0,0:0|0:0,0:0:0:0:
444,172,79377,5,2,0:0:0:0:
444,172,79555,1,2,0:0:0:0:
444,172,79733,2,0,P|384:228|292:236,1,155.999992858887,10|0,0:0|0:0,0:0:0:0:
204,136,80267,2,0,L|112:144,1,77.9999964294435,0|8,0:0|0:0,0:0:0:0:
36,240,80622,2,0,P|0:152|16:72,1,155.999992858887,2|2,0:0|0:0,0:0:0:0:
108,8,81156,1,8,0:0:0:0:
208,140,81334,1,2,0:0:0:0:
208,140,81512,2,0,L|200:296,1,155.999992858887,2|8,0:0|0:0,0:0:0:0:
64,352,82046,1,2,0:0:0:0:
208,304,82224,5,2,0:0:0:0:
208,304,82402,1,2,0:0:0:0:
208,304,82580,2,0,P|292:280|376:316,1,155.999992858887,10|0,0:0|0:0,0:0:0:0:
476,352,83113,2,0,P|508:312|512:272,1,77.9999964294435,0|8,0:0|0:0,0:0:0:0:
488,164,83469,2,0,L|480:76,1,77.9999964294435,2|0,0:0|0:0,0:0:0:0:
348,128,83825,2,0,L|341:206,1,77.9999964294435,2|8,0:0|0:0,0:0:0:0:
208,160,84181,1,2,0:0:0:0:
208,160,84359,2,0,L|193:5,1,155.999992858887,2|8,0:0|0:0,0:0:0:0:
76,84,84892,1,0,0:0:0:0:
64,224,85070,5,2,0:0:0:0:
64,224,85248,1,2,0:0:0:0:
64,224,85426,2,0,P|84:288|44:376,1,155.999992858887,10|0,0:0|0:0,0:0:0:0:
192,344,85960,2,0,P|244:340|276:352,1,77.9999964294435,0|8,0:0|0:0,0:0:0:0:
408,368,86316,2,0,P|384:304|416:192,1,155.999992858887,2|2,0:0|0:0,0:0:0:0:
504,124,86850,1,8,0:0:0:0:
372,80,87028,1,2,0:0:0:0:
372,80,87205,2,0,P|300:112|264:184,1,155.999992858887,2|8,0:0|0:0,0:0:0:0:
399,220,87739,1,2,0:0:0:0:
308,324,87917,5,2,0:0:0:0:
308,324,88095,1,2,0:0:0:0:
308,324,88273,2,0,P|228:336|164:300,1,155.999992858887,10|0,0:0|0:0,0:0:0:0:
125,164,88807,2,0,P|87:173|56:200,1,77.9999964294435,0|8,0:0|0:0,0:0:0:0:
165,301,89163,2,0,P|203:293|234:265,1,77.9999964294435,2|0,0:0|0:0,0:0:0:0:
236,100,89518,2,0,P|256:156|284:176,1,77.9999964294435,2|8,0:0|0:0,0:0:0:0:
368,64,89874,1,2,0:0:0:0:
368,64,90052,2,0,P|416:120|416:200,1,155.999992858887,2|8,0:0|0:0,0:0:0:0:
360,328,90586,1,2,0:0:0:0:
224,348,90764,6,2,L|128:352,1,77.9999964294435
92,208,91120,1,8,0:0:0:0:
205,259,91298,1,0,0:0:0:0:
119,86,91476,1,0,0:0:0:0:
92,208,91654,1,0,0:0:0:0:
58,8,91831,1,8,0:0:0:0:
179,173,92009,6,0,P|227:169|263:141,1,77.9999964294435,6|0,0:0|0:0,0:0:0:0:
254,28,92365,1,2,0:0:0:0:
179,173,92543,1,8,0:0:0:0:
348,128,92721,1,2,0:0:0:0:
152,84,92899,1,2,0:0:0:0:
336,224,93077,1,2,0:0:0:0:
216,268,93255,1,10,0:0:0:0:
428,188,93433,1,10,0:0:0:0:
304,44,93611,6,2,P|276:24|216:16,1,83.9999974365235,6|2,0:0|0:0,0:0:0:0:
92,80,93967,2,0,L|72:176,1,83.9999974365235,10|0,0:0|0:0,0:0:0:0:
216,224,94322,2,0,L|199:142,1,83.9999974365235,2|0,0:0|0:0,0:0:0:0:
100,256,94678,2,0,L|80:352,1,83.9999974365235,10|0,0:0|0:0,0:0:0:0:
304,368,95034,6,2,L|260:187,1,167.999994873047,2|10,0:0|0:0,0:0:0:0:
375,241,95568,1,0,0:0:0:0:
264,204,95746,2,0,L|281:122,1,83.9999974365235,2|0,0:0|0:0,0:0:0:0:
427,114,96102,2,0,L|410:32,1,83.9999974365235,10|0,0:0|0:0,0:0:0:0:
220,40,96457,6,2,L|47:86,1,167.999994873047,2|10,0:0|0:0,0:0:0:0:
0,0,96991,1,0,0:0:0:0:
42,185,97169,2,0,L|124:207,1,83.9999974365235,2|0,0:0|0:0,0:0:0:0:
252,80,97525,1,10,0:0:0:0:
252,80,97703,1,0,0:0:0:0:
104,120,97881,6,0,L|56:296,1,167.999994873047,2|8,0:0|0:0,0:0:0:0:
152,384,98414,2,0,L|196:220,1,167.999994873047
328,176,98948,2,0,L|304:268,1,83.9999974365235,8|0,0:0|0:0,0:0:0:0:
204,132,99304,5,2,0:0:0:0:
204,132,99482,1,2,0:0:0:0:
204,132,99660,2,0,L|188:32,1,83.9999974365235,10|0,0:0|0:0,0:0:0:0:
352,52,100016,2,0,L|328:152,1,83.9999974365235,2|0,0:0|0:0,0:0:0:0:
336,276,100372,2,0,L|356:360,1,83.9999974365235,10|0,0:0|0:0,0:0:0:0:
480,240,100728,6,2,L|422:59,1,167.999994873047,2|10,0:0|0:0,0:0:0:0:
311,88,101261,1,0,0:0:0:0:
296,208,101439,2,0,L|213:205,1,83.9999974365235,2|0,0:0|0:0,0:0:0:0:
120,80,101795,2,0,L|208:84,1,83.9999974365235,10|0,0:0|0:0,0:0:0:0:
296,208,102151,6,2,L|286:391,1,167.999994873047,2|10,0:0|0:0,0:0:0:0:
396,343,102685,1,0,0:0:0:0:
296,208,102863,2,0,L|292:112,1,83.9999974365235,2|0,0:0|0:0,0:0:0:0:
156,198,103218,2,0,L|152:294,1,83.9999974365235,10|0,0:0|0:0,0:0:0:0:
28,344,103574,6,0,L|16:136,1,167.999994873047,2|8,0:0|0:0,0:0:0:0:
112,92,104108,2,0,P|160:140|192:52,1,167.999994873047
312,48,104642,2,0,P|372:40|412:52,1,83.9999974365235,8|0,0:0|0:0,0:0:0:0:
452,136,104997,5,2,0:0:0:0:
452,136,105175,1,2,0:0:0:0:
452,136,105353,2,0,P|424:188|432:256,1,120,2|8,0:0|0:0,0:0:0:0:
292,340,106243,5,2,0:0:0:0:
200,280,106421,1,2,0:0:0:0:
200,280,106599,1,2,0:0:0:0:
200,280,106777,2,0,P|228:228|220:160,1,120,2|8,0:0|0:0,0:0:0:0:
232,176,107844,5,2,0:0:0:0:
232,176,108022,1,2,0:0:0:0:
232,176,108200,2,0,L|104:168,1,120,2|8,0:0|0:0,0:0:0:0:
112,168,109090,5,2,0:0:0:0:
192,316,109268,1,2,0:0:0:0:
192,316,109445,1,2,0:0:0:0:
256,124,109623,1,2,0:0:0:0:
320,312,109801,1,2,0:0:0:0:
159,199,109979,1,10,0:0:0:0:
380,192,110157,1,2,0:0:0:0:
192,316,110335,1,10,0:0:0:0:
404,184,110513,1,2,0:0:0:0:
159,199,110691,6,2,L|79:143,1,90.0000034332277
255,61,111047,1,2,0:0:0:0:
320,312,111403,2,0,P|388:300|412:268,1,90.0000034332277,2|0,0:0|0:0,0:0:0:0:
240,175,111759,2,0,P|172:187|148:219,1,90.0000034332277,10|0,0:0|0:0,0:0:0:0:
328,196,112114,2,0,P|329:154|300:104,1,90.0000034332277,2|0,0:0|0:0,0:0:0:0:
424,40,112470,2,0,P|422:81|452:132,1,90.0000034332277,10|0,0:0|0:0,0:0:0:0:
404,244,112826,2,0,P|372:276|329:285,1,90.0000034332277,2|0,0:0|0:0,0:0:0:0:
228,184,113182,2,0,L|231:94,1,90.0000034332277,10|0,0:0|0:0,0:0:0:0:
132,252,113538,6,2,L|128:356,2,90.0000034332277,2|2|10,0:0|0:0|0:0,0:0:0:0:
380,248,114249,2,2,L|384:352,2,90.0000034332277,2|2|10,0:0|0:0|0:0,0:0:0:0:
144,132,114961,6,2,L|140:28,2,90.0000034332277,2|2|10,0:0|0:0|0:0,0:0:0:0:
368,136,115673,2,2,L|372:32,2,90.0000034332277,2|2|10,0:0|0:0|0:0,0:0:0:0:
256,284,116385,5,0,0:0:0:0:
256,112,133465,6,0,L|331:107,2,60
169,167,133999,2,0,P|149:243|166:286,1,120
362,243,134710,2,0,P|378:167|360:125,1,120
169,167,135422,5,0,0:0:0:0:
238,245,135600,2,0,L|251:330,1,60
352,302,135956,2,0,L|365:222,1,60
347,141,136312,6,0,L|335:72,2,60
246,157,136845,2,0,P|155:141|132:110,1,120
305,2,137557,2,0,P|375:9|420:58,2,120,0|0|2,0:0|0:0|0:0,0:0:0:0:
148,88,138447,5,8,0:0:0:0:
148,88,138625,1,8,0:0:0:0:
188,196,138803,1,2,0:0:0:0:
80,176,138980,1,2,0:0:0:0:
256,108,139158,6,2,P|296:152|300:200,2,77.9999964294435,2|2|8,0:0|0:0|0:0,0:0:0:0:
80,176,139692,2,0,B|92:264|92:264|68:344,1,155.999992858887,2|0,0:0|0:0,0:0:0:0:
216,336,140226,1,8,0:0:0:0:
348,276,140404,6,0,L|436:284,1,77.9999964294435,2|0,0:0|0:0,0:0:0:0:
304,160,140760,2,0,L|392:168,1,77.9999964294435,2|8,0:0|0:0,0:0:0:0:
500,64,141115,5,0,0:0:0:0:
348,20,141293,1,2,0:0:0:0:
348,20,141471,1,2,0:0:0:0:
212,96,141649,1,8,0:0:0:0:
212,96,141827,1,0,0:0:0:0:
192,252,142005,6,2,P|200:300|232:344,1,77.9999964294435
340,232,142361,1,8,0:0:0:0:
212,96,142539,2,0,P|108:112|64:168,1,155.999992858887,2|0,0:0|0:0,0:0:0:0:
192,252,143073,1,8,0:0:0:0:
52,236,143251,2,0,L|41:325,1,77.9999964294435,2|0,0:0|0:0,0:0:0:0:
192,252,143606,2,0,L|181:163,1,77.9999964294435,2|8,0:0|0:0,0:0:0:0:
298,295,143962,5,0,0:0:0:0:
300,140,144140,1,2,0:0:0:0:
300,140,144318,1,2,0:0:0:0:
432,220,144496,1,8,0:0:0:0:
432,220,144674,1,0,0:0:0:0:
300,140,144852,6,2,P|336:88|376:72,1,77.9999964294435
504,84,145208,1,8,0:0:0:0:
300,140,145386,2,0,P|240:176|152:160,1,155.999992858887,2|0,0:0|0:0,0:0:0:0:
56,44,145919,1,8,0:0:0:0:
76,200,146097,6,0,P|60:264|40:288,1,77.9999964294435,2|0,0:0|0:0,0:0:0:0:
200,332,146453,2,0,P|152:360|112:364,1,77.9999964294435,2|8,0:0|0:0,0:0:0:0:
188,220,146809,5,0,0:0:0:0:
312,316,146987,1,2,0:0:0:0:
312,316,147165,1,2,0:0:0:0:
332,160,147343,1,8,0:0:0:0:
332,160,147521,1,0,0:0:0:0:
452,260,147699,6,2,P|480:224|484:184,1,77.9999964294435
424,72,148054,1,8,0:0:0:0:
452,260,148232,2,0,P|372:256|312:312,1,155.999992858887,2|0,0:0|0:0,0:0:0:0:
296,148,148766,1,8,0:0:0:0:
224,284,148944,2,0,P|182:321|133:325,1,77.9999964294435,2|0,0:0|0:0,0:0:0:0:
134,210,149300,2,0,P|103:159|103:133,1,77.9999964294435,2|8,0:0|0:0,0:0:0:0:
224,284,149656,5,0,0:0:0:0:
332,172,149834,1,2,0:0:0:0:
332,172,150012,1,2,0:0:0:0:
184,140,150189,1,8,0:0:0:0:
184,140,150367,1,0,0:0:0:0:
16,96,150545,6,2,P|72:56|112:56,1,77.9999964294435
116,204,150901,1,8,0:0:0:0:
164,32,151079,2,0,P|252:56|328:24,1,155.999992858887
472,56,151613,1,8,0:0:0:0:
344,160,151791,6,0,L|336:256,1,77.9999964294435,2|0,0:0|0:0,0:0:0:0:
504,228,152147,2,0,L|512:324,1,77.9999964294435,2|8,0:0|0:0,0:0:0:0:
352,356,152502,5,0,0:0:0:0:
428,196,152680,1,2,0:0:0:0:
428,196,152858,1,2,0:0:0:0:
280,108,153036,1,8,0:0:0:0:
280,108,153214,1,0,0:0:0:0:
432,52,153392,6,2,P|472:88|504:96,1,77.9999964294435
320,188,153748,1,8,0:0:0:0:
512,188,153926,2,0,P|496:272|448:328,1,155.999992858887
320,188,154460,1,8,0:0:0:0:
379,364,154637,2,0,P|339:366|291:351,1,77.9999964294435,2|0,0:0|0:0,0:0:0:0:
196,256,154993,2,0,P|233:246|272:248,1,77.9999964294435,2|8,0:0|0:0,0:0:0:0:
281,122,155349,1,0,0:0:0:0:
125,157,155527,6,8,L|114:234,1,77.9999964294435
13,85,155883,2,2,L|25:177,1,77.9999964294435
172,40,156239,5,2,0:0:0:0:
172,40,156416,1,2,0:0:0:0:
172,40,156594,2,0,P|208:96|308:108,1,155.999992858887,10|0,0:0|0:0,0:0:0:0:
412,40,157127,2,0,L|404:136,1,77.9999964294435,0|8,0:0|0:0,0:0:0:0:
464,244,157482,2,0,P|432:280|392:288,1,77.9999964294435,2|0,0:0|0:0,0:0:0:0:
268,256,157837,2,0,P|232:220|224:176,1,77.9999964294435,2|8,0:0|0:0,0:0:0:0:
340,116,158192,1,2,0:0:0:0:
340,116,158370,2,0,P|376:152|384:196,1,77.9999964294435,2|0,0:0|0:0,0:0:0:0:
348,312,158725,2,0,P|380:368|420:384,1,77.9999964294435,8|0,0:0|0:0,0:0:0:0:
460,252,159080,5,2,0:0:0:0:
460,252,159258,1,2,0:0:0:0:
460,252,159436,2,0,P|400:196|308:188,1,155.999992858887,10|0,0:0|0:0,0:0:0:0:
204,248,159969,2,0,L|112:240,1,77.9999964294435,0|8,0:0|0:0,0:0:0:0:
36,144,160324,2,0,P|0:228|16:312,1,155.999992858887,2|2,0:0|0:0,0:0:0:0:
108,376,160857,1,8,0:0:0:0:
208,252,161034,1,2,0:0:0:0:
208,252,161212,2,0,L|200:96,1,155.999992858887,2|8,0:0|0:0,0:0:0:0:
64,32,161745,1,2,0:0:0:0:
208,104,161922,5,2,0:0:0:0:
208,104,162100,1,2,0:0:0:0:
208,104,162278,2,0,P|292:128|376:92,1,155.999992858887,10|0,0:0|0:0,0:0:0:0:
444,36,162810,2,0,P|496:64|512:96,1,77.9999964294435,0|8,0:0|0:0,0:0:0:0:
488,220,163166,2,0,L|480:308,1,77.9999964294435,2|0,0:0|0:0,0:0:0:0:
348,256,163521,2,0,L|341:178,1,77.9999964294435,2|8,0:0|0:0,0:0:0:0:
208,224,163876,1,2,0:0:0:0:
208,224,164054,2,0,L|193:379,1,155.999992858887,2|8,0:0|0:0,0:0:0:0:
76,300,164587,1,0,0:0:0:0:
64,160,164764,5,2,0:0:0:0:
64,160,164942,1,2,0:0:0:0:
64,160,165120,2,0,P|84:96|44:8,1,155.999992858887,10|0,0:0|0:0,0:0:0:0:
192,40,165652,2,0,P|244:44|276:32,1,77.9999964294435,0|8,0:0|0:0,0:0:0:0:
408,16,166008,2,0,P|384:80|416:192,1,155.999992858887,2|2,0:0|0:0,0:0:0:0:
504,260,166540,1,8,0:0:0:0:
372,304,166718,1,2,0:0:0:0:
372,304,166896,2,0,P|300:272|264:200,1,155.999992858887,2|8,0:0|0:0,0:0:0:0:
399,164,167429,1,2,0:0:0:0:
308,60,167606,5,2,0:0:0:0:
308,60,167784,1,2,0:0:0:0:
308,60,167961,2,0,P|228:48|164:84,1,155.999992858887,10|0,0:0|0:0,0:0:0:0:
125,220,168494,2,0,P|87:211|56:184,1,77.9999964294435,0|8,0:0|0:0,0:0:0:0:
165,83,168850,2,0,P|203:91|234:119,1,77.9999964294435,2|0,0:0|0:0,0:0:0:0:
236,284,169205,2,0,P|256:228|284:208,1,77.9999964294435,2|8,0:0|0:0,0:0:0:0:
368,320,169560,1,2,0:0:0:0:
368,320,169738,2,0,P|416:264|416:184,1,155.999992858887,2|8,0:0|0:0,0:0:0:0:
360,56,170271,1,0,0:0:0:0:
220,61,170448,6,2,L|124:65,1,77.9999964294435
280,208,170803,1,10,0:0:0:0:
161,166,170981,1,0,0:0:0:0:
185,346,171159,1,0,0:0:0:0:
280,208,171336,2,0,L|320:160,2,38.9999982147218,0|0|8,0:0|0:0|0:0,0:0:0:0:
104,233,171691,6,0,L|53:292,1,77.9999964294435,4|0,0:0|0:0,0:0:0:0:
66,149,172047,1,2,0:0:0:0:
228,274,172224,1,8,0:0:0:0:
247,150,172402,1,2,0:0:0:0:
440,276,172580,1,2,0:0:0:0:
351,157,172757,1,8,0:0:0:0:
367,342,172935,1,8,0:0:0:0:
351,157,173112,1,2,0:0:0:0:
272,356,173290,6,2,P|232:348|176:368,1,83.9999974365235
92,304,173642,2,0,L|72:208,1,83.9999974365235,10|0,0:0|0:0,0:0:0:0:
228,152,173995,2,0,L|211:234,1,83.9999974365235,2|0,0:0|0:0,0:0:0:0:
100,128,174348,2,0,L|80:32,1,83.9999974365235,10|0,0:0|0:0,0:0:0:0:
304,16,174700,6,2,L|346:208,1,167.999994873047,2|10,0:0|0:0,0:0:0:0:
241,184,175230,1,0,0:0:0:0:
442,178,175406,2,0,L|459:260,1,83.9999974365235,2|0,0:0|0:0,0:0:0:0:
328,359,175759,2,0,L|345:277,1,83.9999974365235,10|0,0:0|0:0,0:0:0:0:
220,344,176111,6,2,L|48:306,1,167.999994873047,2|10,0:0|0:0,0:0:0:0:
153,230,176641,1,0,0:0:0:0:
335,236,176817,2,0,L|418:254,1,83.9999974365235,2|0,0:0|0:0,0:0:0:0:
220,344,177170,1,10,0:0:0:0:
220,344,177346,1,0,0:0:0:0:
56,256,177522,6,0,P|21:219|17:105,1,167.999994873047,2|8,0:0|0:0,0:0:0:0:
136,156,178052,2,0,P|204:164|180:84,1,167.999994873047
300,24,178581,2,0,P|320:72|360:88,1,83.9999974365235,8|0,0:0|0:0,0:0:0:0:
467,182,178933,5,2,0:0:0:0:
467,182,179110,1,2,0:0:0:0:
467,182,179286,2,0,L|475:286,1,83.9999974365235,10|0,0:0|0:0,0:0:0:0:
344,344,179639,2,0,L|336:240,1,83.9999974365235,2|0,0:0|0:0,0:0:0:0:
324,108,179992,2,0,L|318:24,1,83.9999974365235,10|0,0:0|0:0,0:0:0:0:
436,144,180344,6,2,L|450:321,1,167.999994873047,2|10,0:0|0:0,0:0:0:0:
336,357,180873,1,0,0:0:0:0:
316,177,181050,2,0,L|233:180,1,83.9999974365235,2|0,0:0|0:0,0:0:0:0:
120,304,181403,1,10,0:0:0:0:
120,304,181579,1,8,0:0:0:0:
316,177,181755,6,2,L|308:-12,1,167.999994873047,2|10,0:0|0:0,0:0:0:0:
416,52,182284,1,0,0:0:0:0:
316,177,182461,2,0,L|220:173,1,83.9999974365235,2|0,0:0|0:0,0:0:0:0:
152,39,182814,2,0,L|248:35,1,83.9999974365235,10|0,0:0|0:0,0:0:0:0:
28,40,183166,6,0,L|16:248,1,167.999994873047,2|8,0:0|0:0,0:0:0:0:
112,292,183695,2,0,P|160:244|192:332,1,167.999994873047
352,316,184224,2,8,P|356:268|332:220,1,83.9999974365235
444,144,184577,5,2,0:0:0:0:
444,144,184754,1,2,0:0:0:0:
444,144,184930,2,0,P|416:92|424:24,1,120,2|8,0:0|0:0,0:0:0:0:
184,36,185812,5,2,0:0:0:0:
92,96,185988,1,2,0:0:0:0:
92,96,186165,1,2,0:0:0:0:
92,96,186341,2,0,P|120:148|112:216,1,120,2|8,0:0|0:0,0:0:0:0:
324,216,187399,5,2,0:0:0:0:
324,216,187576,1,2,0:0:0:0:
324,216,187752,1,2,0:0:0:0:
452,252,187928,1,0,0:0:0:0:
264,92,188105,1,8,0:0:0:0:
443,78,188281,1,2,0:0:0:0:
452,252,188457,1,2,0:0:0:0:
264,92,188634,2,0,L|315:140,1,60,12|0,0:0|0:0,0:0:0:0:
200,28,188986,5,2,0:0:0:0:
195,198,189163,1,8,0:0:0:0:
72,112,189339,1,2,0:0:0:0:
280,148,189516,1,8,0:0:0:0:
77,260,189692,1,8,0:0:0:0:
68,24,189868,1,8,0:0:0:0:
77,260,190045,1,8,0:0:0:0:
248,60,190221,6,2,P|298:45|349:55,1,90.0000034332277
474,98,190574,1,6,0:0:0:0:
264,200,190927,2,0,L|243:299,1,90.0000034332277,2|0,0:0|0:0,0:0:0:0:
128,348,191279,2,0,P|60:336|36:304,1,90.0000034332277,10|0,0:0|0:0,0:0:0:0:
40,208,191632,6,2,P|119:203|197:274,1,180.000006866455,2|10,0:0|0:0,0:0:0:0:
219,373,192161,1,0,0:0:0:0:
276,234,192338,2,0,P|319:241|353:270,1,90.0000034332277,2|0,0:0|0:0,0:0:0:0:
497,149,192690,2,0,L|407:160,1,90.0000034332277,10|0,0:0|0:0,0:0:0:0:
304,51,193043,6,2,P|225:12|117:34,1,180.000006866455,2|10,0:0|0:0,0:0:0:0:
57,103,193572,1,0,0:0:0:0:
93,255,193748,2,0,L|193:267,1,90.0000034332277,2|0,0:0|0:0,0:0:0:0:
300,224,194101,2,0,L|316:120,1,90.0000034332277,10|0,0:0|0:0,0:0:0:0:
404,60,194454,6,0,L|448:260,1,180.000006866455,2|8,0:0|0:0,0:0:0:0:
360,320,194983,2,0,L|184:232,1,180.000006866455
176,124,195512,2,0,L|259:89,1,90.0000034332277,8|0,0:0|0:0,0:0:0:0:
368,48,195865,5,2,0:0:0:0:
368,48,196041,1,2,0:0:0:0:
368,48,196218,2,0,P|380:88|368:136,1,90.0000034332277,10|0,0:0|0:0,0:0:0:0:
292,220,196570,2,0,P|280:259|292:307,1,90.0000034332277,2|0,0:0|0:0,0:0:0:0:
452,264,196923,2,0,P|412:252|364:264,1,90.0000034332277,10|0,0:0|0:0,0:0:0:0:
216,332,197276,6,2,P|172:342|61:263,1,180.000006866455,2|10,0:0|0:0,0:0:0:0:
142,198,197805,1,0,0:0:0:0:
116,56,197981,2,0,P|184:32|224:44,1,90.0000034332277,2|0,0:0|0:0,0:0:0:0:
308,84,198334,1,10,0:0:0:0:
308,84,198510,1,8,0:0:0:0:
284,200,198687,6,2,P|292:300|357:369,1,180.000006866455,2|10,0:0|0:0,0:0:0:0:
448,347,199216,1,0,0:0:0:0:
388,160,199392,2,0,L|404:60,1,90.0000034332277,2|0,0:0|0:0,0:0:0:0:
300,8,199745,2,0,L|224:80,1,90.0000034332277,10|0,0:0|0:0,0:0:0:0:
132,132,200098,6,0,P|48:136|0:52,1,180.000006866455,2|8,0:0|0:0,0:0:0:0:
112,56,200627,2,0,P|188:76|184:192,1,180.000006866455
128,256,201156,2,8,L|76:296,2,45.0000017166138
244,280,201509,6,2,L|332:352,1,90.0000034332277
432,336,201862,2,0,L|501:279,1,90.0000034332277,10|0,0:0|0:0,0:0:0:0:
504,164,202214,2,0,L|416:92,1,90.0000034332277,2|0,0:0|0:0,0:0:0:0:
316,108,202567,2,0,L|228:180,1,90.0000034332277,10|0,0:0|0:0,0:0:0:0:
104,272,202920,6,2,P|68:204|104:107,1,180.000006866455,2|10,0:0|0:0,0:0:0:0:
203,98,203449,1,0,0:0:0:0:
220,264,203625,2,0,P|253:293|297:298,1,90.0000034332277,2|0,0:0|0:0,0:0:0:0:
404,252,203978,2,0,P|440:184|436:164,1,90.0000034332277,10|0,0:0|0:0,0:0:0:0:
372,28,204331,6,2,P|322:82|341:196,1,180.000006866455,2|10,0:0|0:0,0:0:0:0:
438,174,204860,1,0,0:0:0:0:
414,308,205036,2,0,P|378:334|333:339,1,90.0000034332277,2|0,0:0|0:0,0:0:0:0:
262,219,205389,2,0,P|306:224|342:250,1,90.0000034332277,10|0,0:0|0:0,0:0:0:0:
132,188,205742,6,0,L|256:48,1,180.000006866455,2|8,0:0|0:0,0:0:0:0:
381,73,206271,2,0,L|405:261,1,180.000006866455
312,328,206800,2,0,L|212:288,1,90.0000034332277,8|0,0:0|0:0,0:0:0:0:
120,256,207153,1,2,0:0:0:0:
120,256,207329,1,2,0:0:0:0:
320,92,207505,6,0,L|360:192,1,90.0000034332277,10|0,0:0|0:0,0:0:0:0:
192,88,207858,2,0,L|152:188,1,90.0000034332277,2|0,0:0|0:0,0:0:0:0:
340,72,208211,2,0,L|356:176,1,90.0000034332277,10|0,0:0|0:0,0:0:0:0:
172,72,208564,6,0,L|156:176,1,90.0000034332277,2|0,0:0|0:0,0:0:0:0:
364,52,208916,2,0,L|352:152,1,90.0000034332277,10|0,0:0|0:0,0:0:0:0:
148,52,209269,2,0,L|160:152,1,90.0000034332277,2|0,0:0|0:0,0:0:0:0:
392,40,209622,2,0,L|360:136,1,90.0000034332277,10|0,0:0|0:0,0:0:0:0:
120,40,209975,6,0,L|152:136,1,90.0000034332277,2|0,0:0|0:0,0:0:0:0:
420,32,210327,2,0,L|364:120,1,90.0000034332277,10|0,0:0|0:0,0:0:0:0:
92,32,210680,2,0,L|148:120,1,90.0000034332277,2|0,0:0|0:0,0:0:0:0:
256,320,211033,2,0,L|256:228,1,90.0000034332277,10|0,0:0|0:0,0:0:0:0:
256,88,211386,5,0,0:0:0:0:
256,88,211562,1,2,0:0:0:0:
356,192,211738,2,2,L|388:252,2,45.0000017166138,10|2|2,0:0|0:0|0:0,0:0:0:0:
156,192,212091,5,8,0:0:0:0:
256,88,212267,1,2,0:0:0:0:
356,192,212444,1,8,0:0:0:0:
256,64,212620,1,8,0:0:0:0:
132,192,212796,1,4,0:0:0:0:
