osu file format v14

[General]
AudioFilename: audio.mp3
AudioLeadIn: 0
PreviewTime: 93433
Countdown: 0
SampleSet: Soft
StackLeniency: 0.4
Mode: 0
LetterboxInBreaks: 0
WidescreenStoryboard: 0

[Editor]
DistanceSpacing: 1.2
BeatDivisor: 4
GridSize: 4
TimelineZoom: 1.7

[Metadata]
Title:Take On Me
TitleUnicode:Take On Me
Artist:a-ha
ArtistUnicode:a-ha
Creator:Alvieee
Version:HC's Hard
Source:
Tags:HydroCannon13
BeatmapID:1738914
BeatmapSetID:601347

[Difficulty]
HPDrainRate:5.5
CircleSize:3.8
OverallDifficulty:6
ApproachRate:7.8
SliderMultiplier:1.5
SliderTickRate:1

[Events]
//Background and Video events
0,0,"bg.jpg",0,0
//Break Periods
2,116585,126281
2,133309,137490
//Storyboard Layer 0 (Background)
//Storyboard Layer 1 (Fail)
//Storyboard Layer 2 (Pass)
//Storyboard Layer 3 (Foreground)
//Storyboard Sound Samples

[TimingPoints]
2516,355.840779906293,4,2,1,30,1,0
2516,-125,4,2,1,30,0,0
8209,-111.111111111111,4,2,1,30,0,0
8565,-125,4,2,1,30,0,0
13902,-125,4,2,1,65,0,0
19596,-100,4,2,1,75,0,0
36676,-125,4,2,1,75,0,0
53757,-100,4,2,1,75,0,1
65143,-125,4,2,1,75,0,0
69236,-100,4,2,1,75,0,0
70837,-100,4,2,1,75,0,1
76530,-125,4,2,1,75,0,0
93611,-100,4,2,1,75,0,1
104998,-125,4,2,1,75,0,0
109268,-100,4,2,1,75,0,0
110691,-100,4,2,1,75,0,1
116385,-125,4,2,1,75,0,0
138447,-100,4,2,1,75,0,0
156239,355.240779906292,4,2,1,75,1,0
156239,-125,4,2,1,75,0,0
173290,352.740779906291,4,2,1,75,1,1
173290,-100,4,2,1,75,0,1
184577,-125,4,2,1,75,0,0
188634,-100,4,2,1,75,0,0
190221,-100,4,2,1,75,0,1
212796,-100,4,2,1,75,0,0

[Colours]
Combo1 : 210,210,210
Combo2 : 128,128,128

[HitObjects]
164,105,2516,6,0,L|223:97,1,60,0|0,0:0|0:0,0:0:0:0:
300,88,2871,1,8,0:0:0:0:
211,216,3227,2,0,L|91:201,1,120,0|8,0:0|0:0,0:0:0:0:
211,100,3939,6,0,L|270:92,1,60,0|0,0:0|0:0,0:0:0:0:
335,137,4295,2,0,L|394:144,1,60,8|0,0:0|0:0,0:0:0:0:
420,70,4651,2,0,L|412:10,2,60,0|0|8,0:0|0:0|0:0,0:0:0:0:
319,198,5362,6,0,L|326:138,1,60,0|0,0:0|0:0,0:0:0:0:
337,58,5718,1,8,0:0:0:0:
172,25,6074,2,0,L|186:145,1,120,0|8,0:0|0:0,0:0:0:0:
287,278,6786,6,0,L|294:218,1,60,0|0,0:0|0:0,0:0:0:0:
354,159,7141,2,0,L|347:99,1,60,8|0,0:0|0:0,0:0:0:0:
278,50,7497,2,0,L|218:57,2,60,0|0|8,0:0|0:0|0:0,0:0:0:0:
219,168,8031,1,0,0:0:0:0:
219,168,8120,1,0,0:0:0:0:
219,168,8209,6,0,P|146:184|83:137,1,134.999995880127,0|8,0:0|0:0,0:0:0:0:
51,84,8743,1,0,0:0:0:0:
11,158,8921,2,0,L|19:280,1,120,0|0,0:0|0:0,0:0:0:0:
159,369,9632,6,0,L|162:309,1,60,0|0,0:0|0:0,0:0:0:0:
217,244,9988,2,0,L|213:184,1,60,8|0,0:0|0:0,0:0:0:0:
146,131,10344,2,0,L|86:134,2,60,0|0|8,0:0|0:0|0:0,0:0:0:0:
213,184,10878,1,0,0:0:0:0:
260,67,11056,6,0,P|331:42|385:64,1,120,0|8,0:0|0:0,0:0:0:0:
433,110,11589,2,0,P|379:134|321:122,1,120,0|0,0:0|0:0,0:0:0:0:
260,67,12123,1,8,0:0:0:0:
156,199,12479,6,0,L|159:259,1,60,0|0,0:0|0:0,0:0:0:0:
220,316,12835,2,0,L|217:376,1,60,8|0,0:0|0:0,0:0:0:0:
140,339,13191,1,0,0:0:0:0:
140,339,13369,1,0,0:0:0:0:
65,377,13547,2,0,L|5:374,1,60,8|0,0:0|0:0,0:0:0:0:
49,255,13902,6,0,P|60:207|24:141,1,120,2|8,0:0|0:0,0:0:0:0:
89,85,14436,1,0,0:0:0:0:
137,153,14614,1,0,0:0:0:0:
137,153,14970,2,0,L|197:150,1,60,8|0,0:0|0:0,0:0:0:0:
309,87,15326,5,2,0:0:0:0:
309,87,15504,2,0,L|249:84,1,60,0|0,0:0|0:0,0:0:0:0:
196,150,15860,1,0,0:0:0:0:
253,210,16037,2,0,P|289:215|325:207,1,60,0|0,0:0|0:0,0:0:0:0:
369,149,16393,2,0,P|398:145|428:150,1,60,8|0,0:0|0:0,0:0:0:0:
466,269,16749,6,0,B|452:185|452:185|460:151,1,120,2|8,0:0|0:0,0:0:0:0:
486,70,17283,1,0,0:0:0:0:
403,87,17461,1,0,0:0:0:0:
403,87,17817,2,0,L|400:27,1,60,8|0,0:0|0:0,0:0:0:0:
329,132,18172,5,2,0:0:0:0:
329,132,18350,2,0,L|326:192,2,60,0|0|0,0:0|0:0|0:0,0:0:0:0:
259,84,18884,1,0,0:0:0:0:
259,84,19062,1,0,0:0:0:0:
196,140,19240,1,8,0:0:0:0:
245,208,19418,1,8,0:0:0:0:
126,272,19596,6,0,L|51:268,2,75,2|0|8,0:0|0:0|0:0,0:0:0:0:
179,344,20130,2,0,L|329:336,1,150,2|0,0:0|0:0,0:0:0:0:
458,210,20841,1,2,0:0:0:0:
458,210,21197,2,0,P|390:182|319:203,1,150,2|0,0:0|0:0,0:0:0:0:
247,256,21731,1,2,0:0:0:0:
172,205,21909,1,0,0:0:0:0:
245,152,22087,2,0,L|249:77,1,75,8|0,0:0|0:0,0:0:0:0:
114,95,22443,6,0,L|110:20,2,75,2|2|8,0:0|0:0|0:0,0:0:0:0:
65,171,22976,2,0,P|40:238|77:305,1,150,2|0,0:0|0:0,0:0:0:0:
247,244,23688,2,0,L|242:159,1,75,2|0,0:0|0:0,0:0:0:0:
216,255,24044,2,0,L|206:85,1,150,2|0,0:0|0:0,0:0:0:0:
246,23,24578,2,0,B|276:45|276:45|320:51,1,75,2|0,0:0|0:0,0:0:0:0:
158,29,24933,2,0,B|130:54|130:54|87:64,1,75,8|0,0:0|0:0,0:0:0:0:
209,134,25289,6,0,P|217:183|206:220,2,75,2|2|8,0:0|0:0|0:0,0:0:0:0:
127,173,25823,2,0,P|129:246|201:296,1,150,2|0,0:0|0:0,0:0:0:0:
308,161,26535,1,2,0:0:0:0:
308,161,26891,2,0,L|316:310,1,150,2|0,0:0|0:0,0:0:0:0:
262,383,27424,1,2,0:0:0:0:
199,317,27602,2,0,L|124:321,1,75,2|8,0:0|0:0,0:0:0:0:
124,321,27958,1,0,0:0:0:0:
207,222,28136,6,0,P|211:172|198:136,2,75,2|2|8,0:0|0:0|0:0,0:0:0:0:
122,188,28670,2,0,P|118:115|187:60,1,150,2|0,0:0|0:0,0:0:0:0:
303,187,29381,2,0,P|308:223|287:255,1,75,2|0,0:0|0:0,0:0:0:0:
332,173,29737,2,0,P|335:245|283:296,1,150,2|0,0:0|0:0,0:0:0:0:
193,286,30271,2,0,L|187:361,1,75,2|2,0:0|0:0,0:0:0:0:
97,346,30627,2,0,L|103:271,1,75,8|0,0:0|0:0,0:0:0:0:
199,180,30983,6,0,B|173:152|173:152|131:138,2,75,2|2|8,0:0|0:0|0:0,0:0:0:0:
221,267,31517,2,0,P|292:282|358:249,1,150,0|0,0:0|0:0,0:0:0:0:
401,170,32050,1,8,0:0:0:0:
475,220,32228,2,0,L|467:369,2,150,2|2|0,0:0|0:0|0:0,0:0:0:0:
483,133,33118,1,2,0:0:0:0:
401,170,33296,1,2,0:0:0:0:
325,121,33474,2,0,P|320:79|336:33,1,75,8|0,0:0|0:0,0:0:0:0:
401,170,33829,6,0,B|375:198|375:198|333:212,2,75,2|2|8,0:0|0:0|0:0,0:0:0:0:
325,121,34363,2,0,P|253:105|187:138,1,150,0|0,0:0|0:0,0:0:0:0:
153,222,34897,1,8,0:0:0:0:
207,293,35075,2,0,L|286:286,1,75,2|0,0:0|0:0,0:0:0:0:
199,323,35431,2,0,L|349:309,1,150,2|0,0:0|0:0,0:0:0:0:
340,188,35965,1,8,0:0:0:0:
340,188,36142,1,8,0:0:0:0:
340,188,36320,1,0,0:0:0:0:
178,327,36676,6,0,L|172:267,2,60,2|2|10,0:0|0:0|0:0,0:0:0:0:
161,159,37388,1,0,0:0:0:0:
281,276,37744,1,8,0:0:0:0:
281,276,37922,2,0,B|320:282|320:282|358:273|358:273|398:280,2,120,2|2|2,0:0|0:0|0:0,0:0:0:0:
199,254,38811,2,0,P|196:219|208:179,1,60,2|0,0:0|0:0,0:0:0:0:
281,168,39167,2,0,P|284:138|278:108,1,60,8|0,0:0|0:0,0:0:0:0:
205,66,39523,6,0,L|211:6,2,60,2|2|10,0:0|0:0|0:0,0:0:0:0:
189,233,40235,1,0,0:0:0:0:
342,163,40590,1,8,0:0:0:0:
342,163,40768,1,2,0:0:0:0:
300,384,41124,2,0,P|306:338|284:264,1,120,2|2,0:0|0:0,0:0:0:0:
222,324,41658,2,0,P|162:329|106:310,1,120,2|8,0:0|0:0,0:0:0:0:
110,141,42370,6,0,L|170:135,1,60,2|2,0:0|0:0,0:0:0:0:
245,171,42726,2,0,L|365:159,1,120,10|0,0:0|0:0,0:0:0:0:
364,159,43259,2,0,L|358:219,1,60,0|8,0:0|0:0,0:0:0:0:
351,302,43615,1,2,0:0:0:0:
351,302,43971,2,0,B|311:298|311:298|277:280|277:280|236:277,1,120,2|2,0:0|0:0,0:0:0:0:
151,286,44505,2,0,P|146:315|153:344,2,60,2|0|8,0:0|0:0|0:0,0:0:0:0:
186,210,45038,1,0,0:0:0:0:
71,256,45216,6,0,L|11:250,2,60,2|2|10,0:0|0:0|0:0,0:0:0:0:
179,127,45928,1,0,0:0:0:0:
265,271,46284,1,8,0:0:0:0:
265,271,46462,2,0,P|274:329|247:382,2,120,2|2|2,0:0|0:0|0:0,0:0:0:0:
185,298,47351,2,0,P|126:307|73:280,1,120,2|8,0:0|0:0,0:0:0:0:
36,204,47885,1,2,0:0:0:0:
97,89,48063,6,0,L|103:149,1,60,2|2,0:0|0:0,0:0:0:0:
186,137,48419,2,0,L|174:17,2,120,10|0|8,0:0|0:0|0:0,0:0:0:0:
158,216,49309,2,0,B|218:220|218:220|272:172,2,120,2|2|2,0:0|0:0|0:0,0:0:0:0:
74,228,50198,2,0,P|67:257|71:289,1,60,2|0,0:0|0:0,0:0:0:0:
105,362,50554,1,8,0:0:0:0:
266,177,50910,5,2,0:0:0:0:
266,177,51088,1,2,0:0:0:0:
266,177,51266,2,0,L|272:237,1,60,10|0,0:0|0:0,0:0:0:0:
356,228,51622,2,0,L|350:288,1,60,0|0,0:0|0:0,0:0:0:0:
341,370,51977,1,8,0:0:0:0:
227,311,52155,6,0,B|169:299|169:299|113:322,1,120,2|2,0:0|0:0,0:0:0:0:
92,239,52689,2,0,P|86:268|91:297,1,60,8|2,0:0|0:0,0:0:0:0:
114,158,53045,2,0,P|119:187|114:216,1,60,2|0,0:0|0:0,0:0:0:0:
68,86,53401,1,8,0:0:0:0:
122,21,53579,1,0,0:0:0:0:
204,134,53757,5,6,0:0:0:0:
204,134,53934,1,2,0:0:0:0:
204,134,54112,2,0,L|279:128,1,75,10|0,0:0|0:0,0:0:0:0:
277,37,54468,2,0,L|352:31,1,75,2|0,0:0|0:0,0:0:0:0:
368,121,54824,2,0,L|443:115,1,75,10|0,0:0|0:0,0:0:0:0:
331,206,55180,6,0,P|321:241|332:291,1,75,2|0,0:0|0:0,0:0:0:0:
407,319,55536,2,0,P|417:283|411:246,1,75,10|0,0:0|0:0,0:0:0:0:
331,206,55892,2,0,P|295:195|258:201,1,75,2|0,0:0|0:0,0:0:0:0:
218,282,56247,2,0,P|253:292|303:281,1,75,10|0,0:0|0:0,0:0:0:0:
404,164,56603,6,0,L|399:85,1,75,2|0,0:0|0:0,0:0:0:0:
254,125,56959,2,0,L|258:199,1,75,10|0,0:0|0:0,0:0:0:0:
404,164,57315,2,0,L|399:85,1,75,2|0,0:0|0:0,0:0:0:0:
254,125,57671,2,0,L|258:199,1,75,10|0,0:0|0:0,0:0:0:0:
319,331,58027,6,0,B|374:341|408:302|408:302|460:307,1,150,2|10,0:0|0:0,0:0:0:0:
480,220,58560,2,0,B|395:212|395:212|360:218|340:247,1,150,0|0,0:0|0:0,0:0:0:0:
319,331,59094,1,8,0:0:0:0:
266,33,59450,5,2,0:0:0:0:
266,33,59628,1,2,0:0:0:0:
266,33,59806,2,0,P|267:74|241:117,1,75,10|0,0:0|0:0,0:0:0:0:
226,190,60162,2,0,P|189:170|165:126,1,75,2|0,0:0|0:0,0:0:0:0:
110,77,60518,2,0,P|145:55|195:56,1,75,10|0,0:0|0:0,0:0:0:0:
170,143,60873,6,0,L|99:168,1,75,2|0,0:0|0:0,0:0:0:0:
252,104,61229,2,0,L|322:78,1,75,10|0,0:0|0:0,0:0:0:0:
235,212,61585,2,0,L|164:237,1,75,2|0,0:0|0:0,0:0:0:0:
317,173,61941,2,0,L|387:147,1,75,10|0,0:0|0:0,0:0:0:0:
316,331,62297,6,0,L|309:248,1,75,2|0,0:0|0:0,0:0:0:0:
235,106,62653,2,0,L|228:180,1,75,10|0,0:0|0:0,0:0:0:0:
154,331,63008,2,0,L|147:256,1,75,2|0,0:0|0:0,0:0:0:0:
73,106,63364,2,0,L|66:180,1,75,10|0,0:0|0:0,0:0:0:0:
154,331,63720,6,0,P|229:333|279:266,1,150,2|10,0:0|0:0,0:0:0:0:
239,197,64254,2,0,P|288:250|365:247,1,150,0|0,0:0|0:0,0:0:0:0:
438,201,64788,1,8,0:0:0:0:
143,199,65143,5,2,0:0:0:0:
143,199,65321,1,2,0:0:0:0:
143,199,65499,1,2,0:0:0:0:
262,57,65855,2,0,L|262:117,1,60,8|0,0:0|0:0,0:0:0:0:
385,203,66389,5,2,0:0:0:0:
385,203,66567,1,2,0:0:0:0:
385,203,66745,1,2,0:0:0:0:
385,203,66923,1,2,0:0:0:0:
262,57,67279,2,0,L|262:117,1,60,8|0,0:0|0:0,0:0:0:0:
273,324,67812,5,0,0:0:0:0:
273,324,67990,1,2,0:0:0:0:
273,324,68168,1,2,0:0:0:0:
273,324,68346,1,2,0:0:0:0:
262,57,68702,2,0,L|262:117,1,60,8|2,0:0|0:0,0:0:0:0:
262,202,69058,1,2,0:0:0:0:
354,91,69236,6,0,P|377:159|448:169,1,150,8|2,0:0|0:0,0:0:0:0:
337,270,69769,2,0,L|262:263,1,75,8|0,0:0|0:0,0:0:0:0:
205,192,70125,1,8,0:0:0:0:
205,192,70303,1,8,0:0:0:0:
139,253,70481,1,8,0:0:0:0:
139,253,70659,1,8,0:0:0:0:
91,101,70837,5,2,0:0:0:0:
91,101,71015,1,2,0:0:0:0:
91,101,71193,2,0,L|166:94,1,75,10|0,0:0|0:0,0:0:0:0:
330,78,71549,2,0,L|255:85,1,75,2|0,0:0|0:0,0:0:0:0:
227,238,71904,2,0,L|220:163,1,75,10|0,0:0|0:0,0:0:0:0:
325,46,72260,6,0,L|332:121,1,75,2|0,0:0|0:0,0:0:0:0:
285,279,72616,2,0,P|251:266|227:237,1,75,10|0,0:0|0:0,0:0:0:0:
201,83,72972,2,0,P|207:119|193:154,1,75,2|0,0:0|0:0,0:0:0:0:
73,253,73328,2,0,P|101:229|138:223,1,75,10|0,0:0|0:0,0:0:0:0:
293,287,73684,5,2,0:0:0:0:
293,287,73862,1,2,0:0:0:0:
293,287,74039,1,10,0:0:0:0:
368,123,74395,2,0,L|362:44,2,75,2|2|10,0:0|0:0|0:0,0:0:0:0:
118,287,75107,5,2,0:0:0:0:
118,287,75285,1,2,0:0:0:0:
118,287,75463,1,10,0:0:0:0:
44,123,75819,2,0,L|50:44,2,75,2|2|10,0:0|0:0|0:0,0:0:0:0:
224,247,76530,6,0,L|283:242,2,60,2|2|10,0:0|0:0|0:0,0:0:0:0:
138,101,77242,1,0,0:0:0:0:
73,255,77598,1,8,0:0:0:0:
73,255,77776,2,0,B|67:294|67:294|76:332|76:332|69:372,2,120,2|2|2,0:0|0:0|0:0,0:0:0:0:
120,185,78665,2,0,P|148:176|177:180,1,60,2|0,0:0|0:0,0:0:0:0:
199,262,79021,2,0,P|228:266|256:257,1,60,8|0,0:0|0:0,0:0:0:0:
312,193,79377,6,0,L|384:199,2,60,2|2|10,0:0|0:0|0:0,0:0:0:0:
250,134,79911,2,0,P|239:231|166:166,1,240,0|2,0:0|0:0,0:0:0:0:
268,378,80978,2,0,L|272:318,1,60,2|8,0:0|0:0,0:0:0:0:
361,78,81512,2,0,L|370:197,1,120,2|8,0:0|0:0,0:0:0:0:
123,238,82224,6,0,P|89:234|60:242,1,60,2|2,0:0|0:0,0:0:0:0:
97,317,82580,2,0,P|165:325|223:309,1,120,10|0,0:0|0:0,0:0:0:0:
287,271,83113,1,0,0:0:0:0:
326,352,83291,1,8,0:0:0:0:
326,352,83469,2,0,B|365:358|365:358|403:349|403:349|443:356,2,120,2|2|2,0:0|0:0|0:0,0:0:0:0:
287,277,84359,2,0,P|284:238|292:211,1,60,2|0,0:0|0:0,0:0:0:0:
360,173,84715,2,0,P|363:143|357:114,1,60,8|0,0:0|0:0,0:0:0:0:
286,68,85071,6,0,L|226:72,1,60,2|2,0:0|0:0,0:0:0:0:
142,79,85426,1,10,0:0:0:0:
151,162,85604,2,0,L|271:153,1,120,0|0,0:0|0:0,0:0:0:0:
270,153,86138,1,8,0:0:0:0:
390,77,86316,6,0,P|362:136|386:204,1,120,2|2,0:0|0:0,0:0:0:0:
402,266,86850,2,0,P|431:248|450:216,1,60,8|2,0:0|0:0,0:0:0:0:
450,142,87206,1,2,0:0:0:0:
450,142,87561,2,0,L|388:137,1,60,8|2,0:0|0:0,0:0:0:0:
315,238,87917,6,0,L|255:242,2,60,2|2|10,0:0|0:0|0:0,0:0:0:0:
450,142,88629,1,0,0:0:0:0:
300,65,88985,1,8,0:0:0:0:
300,65,89163,2,0,B|261:59|261:59|223:68|223:68|183:61,2,120,2|2|2,0:0|0:0|0:0,0:0:0:0:
361,122,90052,2,0,P|367:153|363:180,1,60,2|0,0:0|0:0,0:0:0:0:
312,247,90408,1,8,0:0:0:0:
171,155,90764,5,2,0:0:0:0:
171,155,90942,1,2,0:0:0:0:
171,155,91120,2,0,L|236:161,1,60,10|0,0:0|0:0,0:0:0:0:
289,221,91476,2,0,L|348:215,1,60,0|0,0:0|0:0,0:0:0:0:
413,161,91832,1,8,0:0:0:0:
328,70,92009,6,0,B|273:48|273:48|215:68,1,120,2|2,0:0|0:0,0:0:0:0:
195,148,92543,2,0,P|188:118|191:89,1,60,8|2,0:0|0:0,0:0:0:0:
220,221,92899,2,0,P|226:191|223:162,1,60,2|2,0:0|0:0,0:0:0:0:
172,294,93255,1,10,0:0:0:0:
234,352,93433,1,10,0:0:0:0:
312,250,93611,5,6,0:0:0:0:
312,250,93789,1,2,0:0:0:0:
312,250,93967,2,0,L|387:256,1,75,10|0,0:0|0:0,0:0:0:0:
400,344,94322,2,0,L|325:338,1,75,2|0,0:0|0:0,0:0:0:0:
238,311,94678,2,0,L|163:305,1,75,10|0,0:0|0:0,0:0:0:0:
42,373,95034,6,0,P|57:339|57:302,1,75,2|0,0:0|0:0,0:0:0:0:
113,230,95390,2,0,P|91:199|59:181,1,75,10|0,0:0|0:0,0:0:0:0:
3,254,95746,2,0,P|24:284|56:303,1,75,2|0,0:0|0:0,0:0:0:0:
108,376,96102,2,0,P|145:372|177:353,1,75,10|0,0:0|0:0,0:0:0:0:
216,196,96457,6,0,L|220:277,1,75,2|0,0:0|0:0,0:0:0:0:
311,366,96813,2,0,L|314:291,1,75,10|0,0:0|0:0,0:0:0:0:
216,196,97169,2,0,L|220:277,1,75,2|0,0:0|0:0,0:0:0:0:
311,366,97525,2,0,L|314:291,1,75,10|0,0:0|0:0,0:0:0:0:
275,122,97881,6,0,P|332:155|415:135,1,150,2|10,0:0|0:0,0:0:0:0:
476,75,98415,2,0,P|441:139|459:210,1,150,0|0,0:0|0:0,0:0:0:0:
509,286,98948,1,8,0:0:0:0:
357,383,99304,5,2,0:0:0:0:
357,383,99482,1,2,0:0:0:0:
357,383,99660,2,0,L|352:308,1,75,10|0,0:0|0:0,0:0:0:0:
261,309,100016,2,0,L|256:234,1,75,2|0,0:0|0:0,0:0:0:0:
346,221,100372,2,0,L|340:146,1,75,10|0,0:0|0:0,0:0:0:0:
243,51,100728,6,0,P|205:49|170:62,1,75,2|0,0:0|0:0,0:0:0:0:
334,45,101083,2,0,P|369:32|406:33,1,75,10|0,0:0|0:0,0:0:0:0:
256,135,101439,2,0,P|228:160|212:194,1,75,2|0,0:0|0:0,0:0:0:0:
343,130,101795,2,0,P|376:146|402:173,1,75,10|0,0:0|0:0,0:0:0:0:
319,305,102151,6,0,B|323:268|323:268|312:231,1,75,2|0,0:0|0:0,0:0:0:0:
254,92,102507,2,0,B|243:128|243:128|247:165,1,75,10|0,0:0|0:0,0:0:0:0:
226,320,102863,2,0,B|230:283|230:283|219:246,1,75,2|0,0:0|0:0,0:0:0:0:
161,77,103218,2,0,B|150:114|150:114|154:151,1,75,10|0,0:0|0:0,0:0:0:0:
312,231,103574,6,0,P|388:232|441:159,1,150,2|10,0:0|0:0,0:0:0:0:
351,148,104108,2,0,L|341:297,1,150,0|0,0:0|0:0,0:0:0:0:
335,384,104642,1,8,0:0:0:0:
263,86,104998,5,2,0:0:0:0:
263,86,105176,1,2,0:0:0:0:
263,86,105353,1,2,0:0:0:0:
165,222,105709,2,0,L|160:162,1,60,8|0,0:0|0:0,0:0:0:0:
267,90,106243,5,2,0:0:0:0:
267,90,106421,1,2,0:0:0:0:
267,90,106599,1,2,0:0:0:0:
267,90,106777,1,2,0:0:0:0:
371,222,107133,2,0,L|375:162,1,60,8|0,0:0|0:0,0:0:0:0:
267,90,107666,5,0,0:0:0:0:
267,90,107844,1,2,0:0:0:0:
267,90,108022,1,2,0:0:0:0:
267,90,108200,1,2,0:0:0:0:
256,257,108556,2,0,L|256:197,2,60,8|0|0,0:0|0:0|0:0,0:0:0:0:
173,364,109090,1,2,0:0:0:0:
101,306,109268,6,0,B|129:279|129:279|175:271,1,75,2|0,0:0|0:0,0:0:0:0:
320,289,109624,2,0,B|291:262|291:262|255:256,1,75,0|2,0:0|0:0,0:0:0:0:
150,184,109979,1,10,0:0:0:0:
150,184,110157,1,0,0:0:0:0:
242,165,110335,1,2,0:0:0:0:
242,165,110513,1,2,0:0:0:0:
251,331,110691,5,2,0:0:0:0:
251,331,110869,1,2,0:0:0:0:
251,331,111047,2,0,L|256:256,1,75,10|0,0:0|0:0,0:0:0:0:
236,90,111403,2,0,L|241:164,1,75,2|0,0:0|0:0,0:0:0:0:
401,202,111759,2,0,L|326:196,1,75,10|0,0:0|0:0,0:0:0:0:
182,262,112114,6,0,L|256:256,1,75,2|0,0:0|0:0,0:0:0:0:
152,180,112470,2,0,P|112:204|96:242,1,75,10|0,0:0|0:0,0:0:0:0:
241,164,112826,2,0,P|222:121|187:100,1,75,2|0,0:0|0:0,0:0:0:0:
181,261,113182,2,0,P|187:297|210:326,1,75,10|0,0:0|0:0,0:0:0:0:
330,212,113538,5,2,0:0:0:0:
330,212,113716,1,2,0:0:0:0:
330,212,113894,1,10,0:0:0:0:
207,74,114250,2,0,L|210:0,2,75,2|2|10,0:0|0:0|0:0,0:0:0:0:
197,356,114961,5,2,0:0:0:0:
197,356,115139,1,2,0:0:0:0:
197,356,115317,1,10,0:0:0:0:
338,242,115673,2,0,L|334:167,2,75,2|2|10,0:0|0:0|0:0,0:0:0:0:
256,41,116385,5,0,0:0:0:0:
257,221,127060,6,0,P|235:164|254:89,1,120,0|0,0:0|0:0,0:0:0:0:
360,151,127771,2,0,P|317:329|135:196,1,480,0|0,0:0|0:0,0:0:0:0:
237,135,129906,6,0,P|259:192|240:267,1,120,0|0,0:0|0:0,0:0:0:0:
133,204,130618,2,0,P|176:26|358:159,1,480,0|0,0:0|0:0,0:0:0:0:
249,248,132753,5,0,0:0:0:0:
237,135,133109,1,0,0:0:0:0:
241,88,138269,5,2,0:0:0:0:
231,192,138447,2,0,L|321:185,1,75,8|8,0:0|0:0,0:0:0:0:
395,179,138803,2,0,L|321:185,1,75,2|2,0:0|0:0,0:0:0:0:
165,133,139158,6,0,P|150:98|154:62,2,75,2|2|8,0:0|0:0|0:0,0:0:0:0:
231,192,139692,2,0,P|252:263|221:329,1,150,2|0,0:0|0:0,0:0:0:0:
45,286,140404,1,2,0:0:0:0:
45,286,140760,2,0,L|57:136,1,150,2|0,0:0|0:0,0:0:0:0:
66,46,141293,1,2,0:0:0:0:
139,98,141471,1,2,0:0:0:0:
220,63,141649,2,0,P|255:48|292:49,1,75,8|0,0:0|0:0,0:0:0:0:
208,160,142005,6,0,B|217:197|217:197|210:240,2,75,2|2|8,0:0|0:0|0:0,0:0:0:0:
127,201,142539,2,0,P|125:265|189:320,1,150,2|0,0:0|0:0,0:0:0:0:
359,273,143251,2,0,L|352:198,1,75,2|0,0:0|0:0,0:0:0:0:
330,285,143606,2,0,L|317:135,1,150,2|0,0:0|0:0,0:0:0:0:
349,50,144140,2,0,B|384:32|384:32|420:30,1,75,2|2,0:0|0:0,0:0:0:0:
262,60,144496,2,0,B|222:55|222:55|188:65,1,75,8|0,0:0|0:0,0:0:0:0:
317,135,144852,6,0,P|329:174|321:216,2,75,2|2|8,0:0|0:0|0:0,0:0:0:0:
238,180,145386,2,0,P|239:244|316:298,1,150,2|0,0:0|0:0,0:0:0:0:
419,159,146097,1,2,0:0:0:0:
419,159,146453,2,0,L|433:316,1,150,2|0,0:0|0:0,0:0:0:0:
368,372,146987,1,2,0:0:0:0:
291,324,147165,1,2,0:0:0:0:
213,370,147343,2,0,P|169:373|135:363,1,75,8|0,0:0|0:0,0:0:0:0:
92,238,147699,6,0,B|56:235|56:235|20:252,2,75,2|2|8,0:0|0:0|0:0,0:0:0:0:
169,283,148232,2,0,P|178:210|130:156,1,150,2|0,0:0|0:0,0:0:0:0:
246,19,148944,2,0,L|251:93,1,75,2|0,0:0|0:0,0:0:0:0:
276,7,149300,2,0,L|287:156,1,150,2|0,0:0|0:0,0:0:0:0:
245,239,149834,2,0,B|219:265|219:265|173:280,1,75,2|2,0:0|0:0,0:0:0:0:
338,233,150189,2,0,B|367:255|367:255|415:263,1,75,8|0,0:0|0:0,0:0:0:0:
287,156,150545,6,0,L|281:81,2,75,2|2|8,0:0|0:0|0:0,0:0:0:0:
337,233,151079,2,0,P|266:246|207:203,1,150,0|0,0:0|0:0,0:0:0:0:
163,124,151613,1,8,0:0:0:0:
116,200,151791,2,0,B|104:302|104:302|121:352,2,150,2|2|0,0:0|0:0|0:0,0:0:0:0:
163,124,152680,1,2,0:0:0:0:
231,182,152858,1,2,0:0:0:0:
292,115,153036,2,0,P|327:100|370:103,1,75,8|0,0:0|0:0,0:0:0:0:
383,237,153392,6,0,L|463:246,2,75,2|2|8,0:0|0:0|0:0,0:0:0:0:
293,244,153926,2,0,P|243:269|158:233,1,150,0|0,0:0|0:0,0:0:0:0:
103,165,154460,1,8,0:0:0:0:
191,147,154637,2,0,B|203:45|203:45|187:0,2,150,2|2|0,0:0|0:0|0:0,0:0:0:0:
183,285,155527,1,8,0:0:0:0:
183,285,155705,1,8,0:0:0:0:
183,285,155883,1,2,0:0:0:0:
338,144,156239,6,0,L|333:84,2,60,2|2|10,0:0|0:0|0:0,0:0:0:0:
351,312,156949,1,0,0:0:0:0:
198,239,157304,1,8,0:0:0:0:
198,239,157482,2,0,P|140:230|85:252,2,120,2|2|2,0:0|0:0|0:0,0:0:0:0:
275,276,158370,1,2,0:0:0:0:
309,199,158548,2,0,B|296:115|296:115|309:72,1,120,0|0,0:0|0:0,0:0:0:0:
413,142,159080,6,0,L|486:149,2,60,2|2|10,0:0|0:0|0:0,0:0:0:0:
329,124,159613,2,0,P|277:150|211:142,1,120,0|0,0:0|0:0,0:0:0:0:
152,86,160146,1,8,0:0:0:0:
152,86,160324,1,2,0:0:0:0:
106,321,160679,2,0,P|99:263|126:201,1,120,2|2,0:0|0:0,0:0:0:0:
185,266,161212,2,0,P|239:290|297:282,1,120,2|8,0:0|0:0,0:0:0:0:
428,176,161922,6,0,L|423:111,2,60,2|2|10,0:0|0:0|0:0,0:0:0:0:
297,282,162633,1,0,0:0:0:0:
162,178,162988,1,8,0:0:0:0:
162,178,163166,2,0,P|154:119|171:62,2,120,2|2|2,0:0|0:0|0:0,0:0:0:0:
213,245,164054,2,0,L|207:304,2,60,2|0|8,0:0|0:0|0:0,0:0:0:0:
310,107,164764,6,0,P|308:63|299:42,2,60,2|2|10,0:0|0:0|0:0,0:0:0:0:
259,175,165297,2,0,P|312:149|369:162,1,120,0|0,0:0|0:0,0:0:0:0:
499,268,166008,1,2,0:0:0:0:
499,268,166363,2,0,L|380:278,1,120,2|2,0:0|0:0,0:0:0:0:
312,329,166896,2,0,L|193:319,1,120,2|8,0:0|0:0,0:0:0:0:
174,236,167429,1,2,0:0:0:0:
297,238,167606,6,0,P|294:196|286:174,1,60,2|2,0:0|0:0,0:0:0:0:
257,101,167961,2,0,P|303:137|362:137,2,120,10|0|8,0:0|0:0|0:0,0:0:0:0:
206,33,168850,2,0,B|147:28|147:28|93:59,2,120,2|2|2,0:0|0:0|0:0,0:0:0:0:
257,101,169738,2,0,L|316:96,2,60,2|0|8,0:0|0:0|0:0,0:0:0:0:
116,267,170448,5,2,0:0:0:0:
116,267,170626,1,2,0:0:0:0:
116,267,170803,2,0,L|112:200,1,60,10|0,0:0|0:0,0:0:0:0:
196,204,171159,2,0,L|199:263,1,60,0|0,0:0|0:0,0:0:0:0:
205,348,171514,1,10,0:0:0:0:
287,255,171691,2,0,B|345:240|345:240|400:265,1,120,4|2,0:0|0:0,0:0:0:0:
416,179,172224,2,0,P|422:208|417:237,1,60,8|2,0:0|0:0,0:0:0:0:
390,105,172580,2,0,P|383:134|388:163,1,60,2|8,0:0|0:0,0:0:0:0:
457,57,172935,1,8,0:0:0:0:
379,24,173112,1,8,0:0:0:0:
294,136,173290,5,2,0:0:0:0:
294,136,173466,1,2,0:0:0:0:
294,136,173642,2,0,L|288:61,1,75,10|0,0:0|0:0,0:0:0:0:
202,32,173995,2,0,L|207:106,1,75,2|0,0:0|0:0,0:0:0:0:
126,151,174348,2,0,L|121:77,1,75,10|0,0:0|0:0,0:0:0:0:
169,224,174700,6,0,P|122:236|84:225,1,75,2|0,0:0|0:0,0:0:0:0:
126,151,175053,2,0,P|161:139|198:144,1,75,10|0,0:0|0:0,0:0:0:0:
241,216,175406,2,0,P|205:228|168:223,1,75,2|0,0:0|0:0,0:0:0:0:
198,144,175759,2,0,P|245:132|283:143,1,75,10|0,0:0|0:0,0:0:0:0:
235,291,176111,6,0,L|241:217,1,75,2|0,0:0|0:0,0:0:0:0:
193,70,176464,2,0,L|198:144,1,75,10|0,0:0|0:0,0:0:0:0:
235,291,176817,2,0,L|240:216,1,75,2|0,0:0|0:0,0:0:0:0:
193,70,177170,2,0,L|198:144,1,75,10|0,0:0|0:0,0:0:0:0:
323,196,177522,6,0,B|360:209|389:179|389:179|423:204|462:186,1,150,2|10,0:0|0:0,0:0:0:0:
436,99,178052,2,0,P|414:170|428:243,1,150,0|0,0:0|0:0,0:0:0:0:
473,321,178581,1,8,0:0:0:0:
297,359,178933,5,2,0:0:0:0:
297,359,179110,1,2,0:0:0:0:
297,359,179286,2,0,L|291:284,1,75,10|0,0:0|0:0,0:0:0:0:
201,273,179639,2,0,L|206:198,1,75,2|0,0:0|0:0,0:0:0:0:
294,175,179992,2,0,L|288:100,1,75,10|0,0:0|0:0,0:0:0:0:
209,56,180344,6,0,P|159:60|130:51,1,75,2|0,0:0|0:0,0:0:0:0:
288,100,180697,2,0,P|324:105|361:97,1,75,10|0,0:0|0:0,0:0:0:0:
212,145,181050,2,0,P|176:156|139:155,1,75,2|0,0:0|0:0,0:0:0:0:
300,196,181403,1,10,0:0:0:0:
300,196,181579,1,8,0:0:0:0:
294,26,181755,6,0,L|288:100,1,75,2|0,0:0|0:0,0:0:0:0:
207,220,182108,2,0,L|212:145,1,75,10|0,0:0|0:0,0:0:0:0:
147,15,182461,2,0,L|142:89,1,75,2|0,0:0|0:0,0:0:0:0:
60,209,182814,2,0,L|65:134,1,75,10|0,0:0|0:0,0:0:0:0:
130,267,183166,6,0,P|201:252|265:290,1,150,2|10,0:0|0:0,0:0:0:0:
205,358,183695,2,0,P|268:320|340:334,1,150,0|0,0:0|0:0,0:0:0:0:
419,378,184224,1,8,0:0:0:0:
419,378,184401,1,0,0:0:0:0:
464,275,184577,5,2,0:0:0:0:
464,275,184754,1,2,0:0:0:0:
464,275,184930,1,2,0:0:0:0:
318,192,185283,2,0,L|321:128,1,60,8|0,0:0|0:0,0:0:0:0:
172,275,185812,5,2,0:0:0:0:
172,275,185988,1,2,0:0:0:0:
172,275,186165,1,2,0:0:0:0:
172,275,186341,1,2,0:0:0:0:
318,192,186694,2,0,L|315:128,1,60,8|0,0:0|0:0,0:0:0:0:
329,350,187223,5,0,0:0:0:0:
329,350,187399,1,2,0:0:0:0:
329,350,187576,1,2,0:0:0:0:
329,350,187752,1,2,0:0:0:0:
318,192,188105,2,0,L|321:128,2,60,8|2|2,0:0|0:0|0:0,0:0:0:0:
227,337,188634,6,0,L|219:187,1,150,12|2,0:0|0:0,0:0:0:0:
290,120,189163,2,0,B|326:111|326:111|375:115,1,75,8|2,0:0|0:0,0:0:0:0:
228,61,189516,1,8,0:0:0:0:
228,61,189692,1,8,0:0:0:0:
154,127,189868,1,8,0:0:0:0:
154,127,190045,1,8,0:0:0:0:
309,203,190221,5,2,0:0:0:0:
309,203,190397,1,2,0:0:0:0:
309,203,190574,2,0,L|383:208,1,75,14|0,0:0|0:0,0:0:0:0:
238,256,190927,2,0,L|164:261,1,75,2|0,0:0|0:0,0:0:0:0:
317,290,191279,2,0,L|391:295,1,75,10|0,0:0|0:0,0:0:0:0:
238,256,191632,6,0,P|232:302|250:340,1,75,2|0,0:0|0:0,0:0:0:0:
317,290,191985,2,0,P|324:253|313:217,1,75,10|0,0:0|0:0,0:0:0:0:
165,259,192338,2,0,P|202:266|238:256,1,75,2|0,0:0|0:0,0:0:0:0:
199,180,192690,2,0,P|162:172|126:183,1,75,10|0,0:0|0:0,0:0:0:0:
94,310,193043,6,0,L|101:395,1,75,2|0,0:0|0:0,0:0:0:0:
165,259,193396,2,0,L|158:184,1,75,10|0,0:0|0:0,0:0:0:0:
243,299,193748,2,0,L|250:384,1,75,2|0,0:0|0:0,0:0:0:0:
314,248,194101,2,0,L|307:173,1,75,10|0,0:0|0:0,0:0:0:0:
374,308,194454,6,0,P|447:315|509:276,1,150,2|10,0:0|0:0,0:0:0:0:
442,215,194983,2,0,P|449:141|410:79,1,150,0|0,0:0|0:0,0:0:0:0:
327,43,195512,1,8,0:0:0:0:
280,217,195865,5,2,0:0:0:0:
280,217,196041,1,2,0:0:0:0:
280,217,196218,2,0,L|130:209,2,150,10|2|10,0:0|0:0|0:0,0:0:0:0:
405,87,197276,6,0,L|255:94,1,150,2|10,0:0|0:0,0:0:0:0:
209,268,197981,2,0,L|358:260,1,150,2|10,0:0|0:0,0:0:0:0:
408,127,198510,1,8,0:0:0:0:
408,127,198687,6,0,P|351:80|277:78,1,150,2|10,0:0|0:0,0:0:0:0:
131,184,199392,2,0,P|187:230|261:232,1,150,2|10,0:0|0:0,0:0:0:0:
419,76,200098,6,0,B|352:101|352:101|277:78,1,150,2|10,0:0|0:0,0:0:0:0:
209,18,200627,2,0,P|245:81|224:151,1,150,0|0,0:0|0:0,0:0:0:0:
156,91,201156,1,8,0:0:0:0:
156,91,201244,1,8,0:0:0:0:
156,91,201332,1,8,0:0:0:0:
116,242,201509,5,2,0:0:0:0:
116,242,201685,1,2,0:0:0:0:
116,242,201862,2,0,L|110:161,1,75,10|0,0:0|0:0,0:0:0:0:
200,172,202214,2,0,L|205:246,1,75,2|0,0:0|0:0,0:0:0:0:
294,250,202567,2,0,L|289:176,1,75,10|0,0:0|0:0,0:0:0:0:
388,54,202920,5,2,0:0:0:0:
388,54,203096,1,0,0:0:0:0:
388,54,203272,2,0,P|359:84|313:95,1,75,10|0,0:0|0:0,0:0:0:0:
176,70,203625,2,0,P|216:80|249:114,1,75,2|0,0:0|0:0,0:0:0:0:
294,250,203978,2,0,P|282:214|288:177,1,75,10|0,0:0|0:0,0:0:0:0:
248,344,204331,6,0,B|215:325|215:325|195:286,1,75,2|0,0:0|0:0,0:0:0:0:
238,125,204683,2,0,B|270:143|270:143|288:176,1,75,10|0,0:0|0:0,0:0:0:0:
131,238,205036,2,0,B|149:205|149:205|188:185,1,75,2|0,0:0|0:0,0:0:0:0:
350,228,205389,2,0,B|331:260|331:260|298:278,1,75,10|0,0:0|0:0,0:0:0:0:
131,238,205742,6,0,B|92:162|154:161|121:93,1,150,2|10,0:0|0:0,0:0:0:0:
39,131,206271,1,0,0:0:0:0:
124,180,206447,1,0,0:0:0:0:
124,180,206624,2,0,L|274:169,1,150,0|0,0:0|0:0,0:0:0:0:
259,38,207153,5,2,0:0:0:0:
259,38,207329,1,2,0:0:0:0:
259,38,207505,1,10,0:0:0:0:
256,192,207682,12,4,212796,0:0:0:0:
