osu file format v14

[General]
AudioFilename: audio.mp3
AudioLeadIn: 0
PreviewTime: 93433
Countdown: 0
SampleSet: Soft
StackLeniency: 0.4
Mode: 0
LetterboxInBreaks: 0
WidescreenStoryboard: 0

[Editor]
Bookmarks: 2516,19596,36676,53757,156242,173290
DistanceSpacing: 1
BeatDivisor: 4
GridSize: 32
TimelineZoom: 1.1

[Metadata]
Title:Take On Me
TitleUnicode:Take On Me
Artist:a-ha
ArtistUnicode:a-ha
Creator:Alvieee
Version:Extra
Source:
Tags:HydroCannon13
BeatmapID:1270410
BeatmapSetID:601347

[Difficulty]
HPDrainRate:6
CircleSize:3.7
OverallDifficulty:9.2
ApproachRate:9.1
SliderMultiplier:2
SliderTickRate:1

[Events]
//Background and Video events
0,0,"bg.jpg",0,0
//Break Periods
2,116585,132042
//Storyboard Layer 0 (Background)
//Storyboard Layer 1 (Fail)
//Storyboard Layer 2 (Pass)
//Storyboard Layer 3 (Foreground)
//Storyboard Sound Samples

[TimingPoints]
2516,355.840779906293,4,2,1,20,1,0
2516,-133.333333333333,4,2,1,20,0,0
13902,-100,4,2,1,40,0,0
19596,-100,4,2,1,45,0,0
53757,-100,4,2,1,45,0,1
65143,-133.333333333333,4,2,1,45,0,0
67990,-100,4,2,1,45,0,0
70837,-100,4,2,1,45,0,1
75463,-100,4,2,1,45,0,0
93611,-100,4,2,1,45,0,1
104998,-133.333333333333,4,2,1,45,0,0
107844,-100,4,2,1,45,0,0
110691,-100,4,2,1,45,0,1
116385,-100,4,2,1,45,0,0
156239,355.240779906292,4,2,1,45,1,0
173290,352.740779906291,4,2,1,45,1,0
173290,-100,4,2,1,45,0,1
184577,-133.333333333333,4,2,1,45,0,0
187399,-100,4,2,1,45,0,0
190221,-100,4,2,1,45,0,1
212796,-100,4,2,1,45,0,0

[Colours]
Combo1 : 210,210,210
Combo2 : 128,128,128

[HitObjects]
372,148,2516,6,0,L|364:248,2,75.0000028610231,0|0|8,0:0|0:0|0:0,0:0:0:0:
300,92,3227,1,0,0:0:0:0:
208,92,3583,1,8,0:0:0:0:
140,148,3939,6,0,L|148:252,2,75.0000028610231,0|0|8,0:0|0:0|0:0,0:0:0:0:
228,184,4651,1,0,0:0:0:0:
228,276,5006,1,8,0:0:0:0:
304,332,5362,6,0,L|403:320,2,75.0000028610231,0|0|8,0:0|0:0|0:0,0:0:0:0:
228,276,6074,1,0,0:0:0:0:
148,332,6430,1,8,0:0:0:0:
80,270,6786,6,0,L|72:160,2,75.0000028610231,0|0|8,0:0|0:0|0:0,0:0:0:0:
148,332,7497,1,0,0:0:0:0:
234,299,7853,2,0,P|248:248|231:198,1,75.0000028610231,8|0,0:0|0:0,0:0:0:0:
234,206,8120,1,0,0:0:0:0:
223,187,8209,6,0,P|286:194|258:123,1,150.000005722046,0|8,0:0|0:0,0:0:0:0:
199,80,8921,1,0,0:0:0:0:
120,128,9276,1,8,0:0:0:0:
156,216,9632,6,0,L|148:316,2,75.0000028610231,0|0|8,0:0|0:0|0:0,0:0:0:0:
212,140,10344,2,0,L|205:47,2,75.0000028610231,0|0|8,0:0|0:0|0:0,0:0:0:0:
248,228,11056,6,0,L|241:326,1,75.0000028610231
355,250,11412,1,0,0:0:0:0:
439,232,11589,2,0,L|512:218,2,75.0000028610231
431,122,12123,1,8,0:0:0:0:
431,122,12479,6,0,L|329:106,2,75.0000028610231,0|0|8,0:0|0:0|0:0,0:0:0:0:
248,174,13191,2,0,L|175:187,1,75.0000028610231
34,283,13547,2,0,L|109:295,1,75.0000028610231,8|0,0:0|0:0,0:0:0:0:
5,136,13902,6,0,P|81:112|9:56,1,200,2|8,0:0|0:0,0:0:0:0:
180,88,14436,1,0,0:0:0:0:
180,88,14614,2,0,B|188:148|152:192|152:192|116:232|124:288,1,200,0|8,0:0|0:0,0:0:0:0:
232,264,15148,1,0,0:0:0:0:
54,196,15326,5,2,0:0:0:0:
4,332,15504,2,0,P|57:350|126:333,1,100,0|8,0:0|0:0,0:0:0:0:
316,324,15860,1,0,0:0:0:0:
316,324,16037,2,0,P|292:268|244:236,1,100
187,352,16393,1,8,0:0:0:0:
168,222,16571,1,0,0:0:0:0:
400,236,16749,6,0,P|400:164|308:80,1,200,2|8,0:0|0:0,0:0:0:0:
272,280,17283,1,0,0:0:0:0:
272,280,17461,2,0,P|184:240|96:280,1,200,0|8,0:0|0:0,0:0:0:0:
92,64,17995,1,0,0:0:0:0:
95,280,18172,5,2,0:0:0:0:
180,136,18350,2,0,P|205:80|198:24,1,100,0|8,0:0|0:0,0:0:0:0:
348,8,18706,1,0,0:0:0:0:
348,8,18884,1,0,0:0:0:0:
424,92,19062,1,0,0:0:0:0:
300,116,19240,1,8,0:0:0:0:
180,136,19418,1,8,0:0:0:0:
424,92,19596,5,2,0:0:0:0:
384,260,19774,1,0,0:0:0:0:
300,116,19952,1,8,0:0:0:0:
272,288,20130,2,0,B|212:300|164:288|164:288|132:320|80:340,1,200,2|0,0:0|0:0,0:0:0:0:
160,184,20663,1,8,0:0:0:0:
384,260,20841,1,2,0:0:0:0:
384,260,21197,1,2,0:0:0:0:
384,260,21553,5,0,0:0:0:0:
253,139,21731,1,2,0:0:0:0:
449,191,21909,1,0,0:0:0:0:
184,205,22087,1,8,0:0:0:0:
390,5,22265,1,0,0:0:0:0:
277,237,22443,5,2,0:0:0:0:
434,86,22621,1,2,0:0:0:0:
368,265,22798,1,8,0:0:0:0:
232,108,22976,2,0,B|172:108|136:144|136:144|92:124|28:140,1,200,2|0,0:0|0:0,0:0:0:0:
136,240,23510,1,8,0:0:0:0:
324,104,23688,1,2,0:0:0:0:
324,104,24044,1,2,0:0:0:0:
324,104,24400,5,0,0:0:0:0:
134,208,24578,1,2,0:0:0:0:
308,200,24756,1,0,0:0:0:0:
92,44,24933,1,8,0:0:0:0:
245,273,25111,1,0,0:0:0:0:
52,165,25289,5,2,0:0:0:0:
308,200,25467,1,2,0:0:0:0:
79,250,25645,1,8,0:0:0:0:
245,273,25823,2,0,B|197:297|177:337|177:337|129:325|69:341,1,200,2|0,0:0|0:0,0:0:0:0:
0,221,26357,1,8,0:0:0:0:
245,273,26535,1,2,0:0:0:0:
245,273,26891,1,2,0:0:0:0:
245,273,27246,5,0,0:0:0:0:
451,249,27424,1,2,0:0:0:0:
257,181,27602,1,2,0:0:0:0:
512,136,27780,1,8,0:0:0:0:
233,371,27958,1,0,0:0:0:0:
348,139,28136,5,2,0:0:0:0:
325,345,28314,1,2,0:0:0:0:
257,181,28492,1,8,0:0:0:0:
419,323,28670,2,0,B|438:244|473:198|473:198|446:173|429:117,1,200,2|0,0:0|0:0,0:0:0:0:
512,84,29204,1,8,0:0:0:0:
280,24,29381,1,2,0:0:0:0:
280,24,29737,1,2,0:0:0:0:
280,24,30093,5,0,0:0:0:0:
216,215,30271,1,2,0:0:0:0:
188,55,30449,1,2,0:0:0:0:
319,242,30627,1,8,0:0:0:0:
96,88,30805,1,0,0:0:0:0:
323,143,30983,5,2,0:0:0:0:
60,176,31161,1,2,0:0:0:0:
277,229,31339,1,8,0:0:0:0:
85,266,31517,2,0,B|145:270|181:302|181:302|225:270|281:266,1,200
264,96,32050,1,8,0:0:0:0:
60,176,32228,1,2,0:0:0:0:
60,176,32584,1,2,0:0:0:0:
60,176,32940,5,0,0:0:0:0:
92,324,33118,1,2,0:0:0:0:
148,132,33296,1,2,0:0:0:0:
188,348,33474,1,8,0:0:0:0:
18,100,33652,1,0,0:0:0:0:
301,160,33829,5,2,0:0:0:0:
0,197,34007,1,2,0:0:0:0:
253,81,34185,1,8,0:0:0:0:
80,160,34363,2,0,B|110:117|98:71|98:71|151:50|175:2,1,200
256,36,34897,1,8,0:0:0:0:
264,240,35075,6,0,L|244:344,1,100,2|0,0:0|0:0,0:0:0:0:
392,112,35431,1,2,0:0:0:0:
264,240,35609,1,8,0:0:0:0:
264,240,35787,1,0,0:0:0:0:
256,36,35965,1,8,0:0:0:0:
176,284,36142,1,8,0:0:0:0:
168,116,36320,1,0,0:0:0:0:
264,192,36498,1,0,0:0:0:0:
88,204,36676,5,2,0:0:0:0:
88,204,36854,1,2,0:0:0:0:
88,204,37032,2,0,P|144:224|60:264,1,200,10|0,0:0|0:0,0:0:0:0:
24,144,37566,1,0,0:0:0:0:
192,98,37744,1,8,0:0:0:0:
220,228,37922,6,0,P|280:248|320:244,1,100,2|0,0:0|0:0,0:0:0:0:
488,140,38277,2,0,P|428:120|388:124,1,100,2|8,0:0|0:0,0:0:0:0:
422,273,38633,1,2,0:0:0:0:
304,132,38811,2,0,P|316:76|352:44,1,100,2|0,0:0|0:0,0:0:0:0:
488,140,39167,1,8,0:0:0:0:
315,244,39345,1,0,0:0:0:0:
404,112,39523,5,2,0:0:0:0:
404,112,39701,1,2,0:0:0:0:
404,112,39879,1,10,0:0:0:0:
220,188,40057,2,0,P|196:248|208:304,1,100
104,156,40413,1,0,0:0:0:0:
304,108,40590,1,8,0:0:0:0:
108,56,40768,6,0,P|44:76|12:120,1,100,2|0,0:0|0:0,0:0:0:0:
148,320,41124,2,0,P|160:260|136:208,1,100,2|8,0:0|0:0,0:0:0:0:
28,276,41480,1,2,0:0:0:0:
268,256,41658,2,0,P|328:280|296:192,1,200,2|8,0:0|0:0,0:0:0:0:
236,352,42192,1,2,0:0:0:0:
220,152,42370,5,2,0:0:0:0:
220,152,42548,1,2,0:0:0:0:
220,152,42726,2,0,P|276:116|184:88,1,200,10|0,0:0|0:0,0:0:0:0:
112,196,43259,2,0,P|88:260|56:288,1,100,0|8,0:0|0:0,0:0:0:0:
184,344,43615,6,0,B|224:336|256:312|256:312|320:336|400:312,1,200,2|2,0:0|0:0,0:0:0:0:
320,180,44149,1,8,0:0:0:0:
480,88,44327,1,2,0:0:0:0:
480,88,44505,2,0,L|496:208,1,100,2|0,0:0|0:0,0:0:0:0:
306,279,44861,2,0,L|324:160,1,100,8|0,0:0|0:0,0:0:0:0:
192,40,45216,5,2,0:0:0:0:
192,40,45394,1,2,0:0:0:0:
192,40,45572,2,0,P|192:128|128:72,1,200,10|0,0:0|0:0,0:0:0:0:
48,208,46106,1,0,0:0:0:0:
247,299,46284,1,8,0:0:0:0:
100,336,46462,6,0,L|120:224,1,100,2|0,0:0|0:0,0:0:0:0:
248,96,46818,2,0,L|268:208,1,100,2|8,0:0|0:0,0:0:0:0:
416,288,47174,1,2,0:0:0:0:
416,288,47351,2,0,B|452:244|428:188|428:188|404:124|440:84,1,200,2|8,0:0|0:0,0:0:0:0:
297,57,47885,1,2,0:0:0:0:
348,236,48063,5,2,0:0:0:0:
348,236,48241,1,2,0:0:0:0:
348,236,48419,2,0,P|276:272|284:180,1,200,10|0,0:0|0:0,0:0:0:0:
270,352,48953,1,0,0:0:0:0:
179,174,49131,1,8,0:0:0:0:
60,309,49309,6,0,L|160:296,1,100,2|0,0:0|0:0,0:0:0:0:
99,157,49664,2,0,L|0:144,1,100,2|8,0:0|0:0,0:0:0:0:
240,52,50020,1,2,0:0:0:0:
240,52,50198,2,0,P|276:104|272:160,1,100,2|0,0:0|0:0,0:0:0:0:
136,244,50554,2,0,P|100:192|104:136,1,100,8|0,0:0|0:0,0:0:0:0:
244,236,50910,5,2,0:0:0:0:
192,124,51088,1,2,0:0:0:0:
155,325,51266,2,0,P|89:312|58:271,1,100,10|0,0:0|0:0,0:0:0:0:
192,124,51622,2,0,P|207:174|190:242,1,100
42,183,51977,1,8,0:0:0:0:
321,195,52155,6,0,P|305:248|271:277,1,100,2|0,0:0|0:0,0:0:0:0:
248,84,52511,1,2,0:0:0:0:
228,356,52689,1,8,0:0:0:0:
243,183,52867,1,2,0:0:0:0:
340,321,53045,1,2,0:0:0:0:
81,146,53223,1,8,0:0:0:0:
458,209,53401,1,8,0:0:0:0:
58,140,53579,1,8,0:0:0:0:
348,328,53757,5,6,0:0:0:0:
348,328,53934,1,2,0:0:0:0:
348,328,54112,2,0,L|376:216,1,100,10|0,0:0|0:0,0:0:0:0:
139,230,54468,2,0,L|164:328,1,100,2|0,0:0|0:0,0:0:0:0:
336,148,54824,2,0,L|310:40,1,100,10|0,0:0|0:0,0:0:0:0:
75,136,55180,6,2,P|41:174|75:312,1,200,2|10,0:0|0:0,0:0:0:0:
184,317,55714,1,0,0:0:0:0:
168,100,55892,2,0,L|270:112,1,100,2|0,0:0|0:0,0:0:0:0:
372,246,56247,2,0,L|259:261,1,100,10|0,0:0|0:0,0:0:0:0:
431,150,56603,6,2,P|487:215|460:323,1,200,2|10,0:0|0:0,0:0:0:0:
372,246,57137,1,0,0:0:0:0:
117,253,57315,2,0,L|224:242,1,100,2|0,0:0|0:0,0:0:0:0:
406,239,57671,1,10,0:0:0:0:
256,84,57849,1,0,0:0:0:0:
304,308,58027,6,0,P|256:378|210:307,1,200,2|10,0:0|0:0,0:0:0:0:
256,204,58560,2,0,P|279:111|256:4,1,200
72,158,59094,2,0,P|92:207|129:237,1,100,8|0,0:0|0:0,0:0:0:0:
104,60,59450,5,2,0:0:0:0:
104,60,59628,1,2,0:0:0:0:
104,60,59806,2,0,L|188:120,1,100,10|0,0:0|0:0,0:0:0:0:
408,60,60162,2,0,L|324:120,1,100,2|0,0:0|0:0,0:0:0:0:
144,248,60518,2,0,L|192:356,1,100,10|0,0:0|0:0,0:0:0:0:
408,332,60873,6,2,P|479:240|445:148,1,200,2|10,0:0|0:0,0:0:0:0:
362,122,61407,1,0,0:0:0:0:
300,332,61585,2,0,L|186:347,1,100,2|0,0:0|0:0,0:0:0:0:
170,136,61941,2,0,L|279:156,1,100,10|0,0:0|0:0,0:0:0:0:
106,327,62297,6,2,P|58:283|79:133,1,200,2|10,0:0|0:0,0:0:0:0:
148,86,62831,1,0,0:0:0:0:
200,345,63008,2,0,L|302:332,1,100,2|0,0:0|0:0,0:0:0:0:
512,238,63364,2,0,L|400:225,1,100,10|0,0:0|0:0,0:0:0:0:
256,48,63720,6,0,B|280:112|256:152|256:152|232:192|256:252,1,200,2|10,0:0|0:0,0:0:0:0:
312,369,64254,2,0,P|371:320|363:192,1,200
256,48,64788,2,0,P|256:120|280:156,1,100,8|0,0:0|0:0,0:0:0:0:
432,72,65143,5,2,0:0:0:0:
432,72,65321,1,2,0:0:0:0:
432,72,65499,2,0,P|396:98|381:147,1,75.0000028610231,2|0,0:0|0:0,0:0:0:0:
418,220,65855,2,0,P|406:283|314:336,1,150.000005722046,8|0,0:0|0:0,0:0:0:0:
340,333,66389,1,2,0:0:0:0:
289,202,66567,5,2,0:0:0:0:
289,202,66745,1,2,0:0:0:0:
289,202,66923,2,0,P|264:157|225:134,1,75.0000028610231,2|0,0:0|0:0,0:0:0:0:
138,134,67279,2,0,B|166:193|128:249|128:249|90:298|127:369,1,225.000008583069,8|0,0:0|0:0,0:0:0:0:
295,304,67990,5,2,0:0:0:0:
295,304,68168,1,2,0:0:0:0:
295,304,68346,2,0,P|218:316|182:293,1,100,2|0,0:0|0:0,0:0:0:0:
26,239,68702,5,8,0:0:0:0:
184,196,68880,1,2,0:0:0:0:
100,340,69058,1,2,0:0:0:0:
251,136,69236,6,0,P|271:212|254:254,1,100,12|0,0:0|0:0,0:0:0:0:
136,96,69591,5,2,0:0:0:0:
240,352,69768,1,8,0:0:0:0:
40,132,69947,1,2,0:0:0:0:
232,56,70125,5,8,0:0:0:0:
384,316,70303,1,8,0:0:0:0:
328,20,70481,1,8,0:0:0:0:
240,352,70659,1,8,0:0:0:0:
232,56,70837,5,2,0:0:0:0:
240,376,71015,1,2,0:0:0:0:
136,96,71193,2,0,L|112:200,1,100,10|0,0:0|0:0,0:0:0:0:
376,96,71549,2,0,L|400:200,1,100,2|0,0:0|0:0,0:0:0:0:
156,303,71904,2,0,L|133:196,1,100,10|0,0:0|0:0,0:0:0:0:
397,191,72260,6,2,L|348:384,1,200,2|10,0:0|0:0,0:0:0:0:
490,251,72794,1,0,0:0:0:0:
318,35,72972,2,0,L|224:69,1,100,2|0,0:0|0:0,0:0:0:0:
256,348,73328,2,0,L|256:244,1,100,10|0,0:0|0:0,0:0:0:0:
112,192,73684,5,2,0:0:0:0:
256,40,73862,1,2,0:0:0:0:
400,192,74039,1,10,0:0:0:0:
426,67,74395,5,2,0:0:0:0:
256,248,74573,1,2,0:0:0:0:
85,67,74750,1,10,0:0:0:0:
74,311,75107,5,2,0:0:0:0:
256,120,75285,1,2,0:0:0:0:
437,311,75462,1,10,0:0:0:0:
362,182,75819,5,2,0:0:0:0:
255,347,75997,1,2,0:0:0:0:
149,182,76174,1,10,0:0:0:0:
371,190,76530,5,2,0:0:0:0:
371,190,76708,1,2,0:0:0:0:
371,190,76886,2,0,P|315:170|399:130,1,200,10|0,0:0|0:0,0:0:0:0:
488,240,77420,1,0,0:0:0:0:
388,113,77598,1,8,0:0:0:0:
336,304,77776,6,0,P|276:284|236:288,1,100,2|0,0:0|0:0,0:0:0:0:
24,244,78132,2,0,P|84:264|124:260,1,100,2|8,0:0|0:0,0:0:0:0:
92,96,78487,1,2,0:0:0:0:
208,252,78665,2,0,P|196:308|160:340,1,100,2|0,0:0|0:0,0:0:0:0:
84,184,79021,1,8,0:0:0:0:
232,132,79199,1,0,0:0:0:0:
108,272,79377,5,2,0:0:0:0:
108,272,79555,1,2,0:0:0:0:
108,272,79733,1,10,0:0:0:0:
264,355,79911,2,0,P|312:313|323:265,1,100
197,239,80267,1,0,0:0:0:0:
375,177,80444,1,8,0:0:0:0:
404,328,80622,6,0,P|468:308|500:264,1,100,2|0,0:0|0:0,0:0:0:0:
364,64,80978,2,0,P|352:124|376:176,1,100,2|8,0:0|0:0,0:0:0:0:
484,108,81334,1,2,0:0:0:0:
244,128,81512,2,0,P|188:168|56:152,1,200,2|8,0:0|0:0,0:0:0:0:
206,45,82046,1,2,0:0:0:0:
292,232,82224,5,2,0:0:0:0:
292,232,82402,1,2,0:0:0:0:
292,232,82580,2,0,P|236:268|328:296,1,200,10|0,0:0|0:0,0:0:0:0:
400,188,83113,2,0,P|424:124|456:96,1,100,0|8,0:0|0:0,0:0:0:0:
328,40,83469,6,0,B|288:48|256:72|256:72|192:48|112:72,1,200,2|2,0:0|0:0,0:0:0:0:
192,204,84003,1,8,0:0:0:0:
32,296,84181,1,2,0:0:0:0:
32,296,84359,2,0,L|16:176,1,100,2|0,0:0|0:0,0:0:0:0:
206,105,84715,2,0,L|188:224,1,100,8|0,0:0|0:0,0:0:0:0:
320,344,85070,5,2,0:0:0:0:
320,344,85248,1,2,0:0:0:0:
320,344,85426,2,0,P|320:256|384:312,1,200,10|0,0:0|0:0,0:0:0:0:
464,176,85960,1,0,0:0:0:0:
256,88,86138,1,8,0:0:0:0:
412,48,86316,6,0,L|392:160,1,100,2|0,0:0|0:0,0:0:0:0:
264,288,86672,2,0,L|244:176,1,100,2|8,0:0|0:0,0:0:0:0:
96,96,87028,1,2,0:0:0:0:
96,96,87205,2,0,B|60:140|84:196|84:196|108:260|72:300,1,200,2|8,0:0|0:0,0:0:0:0:
204,352,87739,1,2,0:0:0:0:
168,160,87917,5,2,0:0:0:0:
168,160,88095,1,2,0:0:0:0:
168,160,88273,2,0,P|240:124|232:216,1,200,10|0,0:0|0:0,0:0:0:0:
136,272,88807,1,0,0:0:0:0:
168,36,88985,1,8,0:0:0:0:
352,88,89163,6,0,L|468:72,1,100,2|0,0:0|0:0,0:0:0:0:
512,240,89518,2,0,L|396:224,1,100,2|8,0:0|0:0,0:0:0:0:
272,332,89874,1,2,0:0:0:0:
272,332,90052,2,0,P|236:280|240:224,1,100,2|0,0:0|0:0,0:0:0:0:
104,108,90408,2,0,P|140:160|136:216,1,100,8|0,0:0|0:0,0:0:0:0:
0,158,90764,5,2,0:0:0:0:
19,332,90942,1,2,0:0:0:0:
221,180,91120,2,0,P|214:228|183:267,1,100,10|0,0:0|0:0,0:0:0:0:
45,47,91476,2,0,P|110:27|151:36,1,100
116,204,91832,1,8,0:0:0:0:
352,52,92009,6,0,P|373:108|357:164,1,100,6|0,0:0|0:0,0:0:0:0:
97,225,92365,1,2,0:0:0:0:
352,52,92543,1,8,0:0:0:0:
148,310,92721,1,2,0:0:0:0:
196,120,92899,1,2,0:0:0:0:
356,352,93077,1,2,0:0:0:0:
76,152,93255,1,10,0:0:0:0:
391,259,93433,1,10,0:0:0:0:
52,252,93611,5,6,0:0:0:0:
52,252,93789,1,2,0:0:0:0:
52,252,93967,2,0,L|93:151,1,100,10|0,0:0|0:0,0:0:0:0:
338,162,94323,2,0,L|366:274,1,100,2|0,0:0|0:0,0:0:0:0:
89,159,94679,2,0,L|127:62,1,100,10|0,0:0|0:0,0:0:0:0:
263,272,95035,6,2,P|314:342|432:336,1,200,2|10,0:0|0:0,0:0:0:0:
490,263,95568,1,0,0:0:0:0:
263,272,95747,2,0,L|227:172,1,100,2|0,0:0|0:0,0:0:0:0:
408,21,96102,2,0,L|372:121,1,100,10|0,0:0|0:0,0:0:0:0:
51,152,96458,6,2,P|74:65|182:17,1,200,2|10,0:0|0:0,0:0:0:0:
277,49,96991,1,0,0:0:0:0:
101,286,97170,2,0,L|-3:250,1,100,2|0,0:0|0:0,0:0:0:0:
226,149,97525,2,0,L|330:113,1,100,10|0,0:0|0:0,0:0:0:0:
304,304,97882,6,0,P|257:232|210:302,1,200,2|10,0:0|0:0,0:0:0:0:
347,183,98415,2,0,P|257:147|166:181,1,200
304,72,98948,2,0,P|254:63|205:71,1,100,8|0,0:0|0:0,0:0:0:0:
326,265,99305,5,2,0:0:0:0:
326,265,99483,1,2,0:0:0:0:
326,265,99661,2,0,L|408:324,1,100,10|0,0:0|0:0,0:0:0:0:
185,265,100017,2,0,L|104:324,1,100,2|0,0:0|0:0,0:0:0:0:
408,192,100373,2,0,L|360:84,1,100,10|0,0:0|0:0,0:0:0:0:
26,171,100728,6,2,P|19:251|112:324,1,200,2|10,0:0|0:0,0:0:0:0:
255,311,101261,1,0,0:0:0:0:
213,105,101440,2,0,L|329:89,1,100,2|0,0:0|0:0,0:0:0:0:
283,330,101796,2,0,L|167:346,1,100,10|0,0:0|0:0,0:0:0:0:
403,69,102152,6,2,P|466:103|492:234,1,200,2|10,0:0|0:0,0:0:0:0:
436,341,102685,1,0,0:0:0:0:
291,98,102863,2,0,L|309:0,1,100,2|0,0:0|0:0,0:0:0:0:
418,243,103219,2,0,L|438:351,1,100,10|0,0:0|0:0,0:0:0:0:
219,342,103575,6,0,B|195:278|219:238|219:238|243:198|219:138,1,200,2|10,0:0|0:0,0:0:0:0:
112,188,104108,2,0,P|48:208|88:124,1,200
222,148,104642,2,0,P|227:218|203:262,1,100,8|0,0:0|0:0,0:0:0:0:
80,312,104998,5,2,0:0:0:0:
80,312,105176,1,2,0:0:0:0:
80,312,105353,2,0,P|123:337|172:329,1,75.0000028610231,2|0,0:0|0:0,0:0:0:0:
249,310,105709,2,0,B|291:293|327:304|327:304|366:317|419:285,1,150.000005722046,8|0,0:0|0:0,0:0:0:0:
395,298,106243,1,2,0:0:0:0:
420,148,106421,5,2,0:0:0:0:
420,148,106600,1,2,0:0:0:0:
420,148,106777,2,0,P|386:132|327:136,1,75.0000028610231,2|0,0:0|0:0,0:0:0:0:
244,154,107133,2,0,B|179:161|158:92|158:92|137:23|62:13,1,225.000008583069,8|0,0:0|0:0,0:0:0:0:
44,136,107844,5,2,0:0:0:0:
44,136,108022,1,2,0:0:0:0:
44,136,108200,2,0,P|58:211|76:229,1,100,2|0,0:0|0:0,0:0:0:0:
300,136,108556,2,0,P|231:152|200:186,1,100,8|0,0:0|0:0,0:0:0:0:
300,264,108912,1,0,0:0:0:0:
180,84,109090,5,2,0:0:0:0:
196,328,109268,1,2,0:0:0:0:
404,208,109446,1,2,0:0:0:0:
128,176,109624,1,2,0:0:0:0:
384,104,109801,1,2,0:0:0:0:
72,304,109979,5,10,0:0:0:0:
432,308,110157,1,2,0:0:0:0:
48,128,110335,1,10,0:0:0:0:
328,344,110513,1,2,0:0:0:0:
152,64,110691,1,2,0:0:0:0:
340,364,110869,1,2,0:0:0:0:
248,0,111047,6,0,L|280:104,1,100,10|0,0:0|0:0,0:0:0:0:
188,332,111403,2,0,L|156:228,1,100,2|0,0:0|0:0,0:0:0:0:
372,92,111759,2,0,L|340:200,1,100,10|0,0:0|0:0,0:0:0:0:
64,236,112114,6,2,L|130:15,1,200,2|10,0:0|0:0,0:0:0:0:
0,20,112648,1,0,0:0:0:0:
167,232,112826,2,0,L|279:264,1,100,2|0,0:0|0:0,0:0:0:0:
324,0,113182,2,0,L|209:32,1,100,10|0,0:0|0:0,0:0:0:0:
440,156,113538,5,2,0:0:0:0:
256,264,113716,1,2,0:0:0:0:
72,156,113894,1,10,0:0:0:0:
408,288,114250,5,2,0:0:0:0:
256,136,114427,1,2,0:0:0:0:
104,288,114605,1,10,0:0:0:0:
440,88,114961,5,2,0:0:0:0:
256,288,115139,1,2,0:0:0:0:
72,88,115317,1,10,0:0:0:0:
370,252,115673,5,2,0:0:0:0:
256,72,115851,1,2,0:0:0:0:
147,252,116029,1,10,0:0:0:0:
256,192,116385,5,0,0:0:0:0:
173,68,133465,5,0,0:0:0:0:
93,128,133643,1,0,0:0:0:0:
79,227,133821,1,0,0:0:0:0:
137,308,133999,1,0,0:0:0:0:
137,308,134355,1,0,0:0:0:0:
307,204,134710,5,0,0:0:0:0:
307,204,135066,1,0,0:0:0:0:
448,345,135422,5,0,0:0:0:0:
451,218,135600,1,0,0:0:0:0:
335,367,135778,1,0,0:0:0:0:
401,130,135956,1,0,0:0:0:0:
456,370,136134,1,0,0:0:0:0:
307,170,136312,5,0,0:0:0:0:
256,256,136490,1,0,0:0:0:0:
158,276,136667,1,0,0:0:0:0:
63,242,136845,1,0,0:0:0:0:
63,242,137201,1,0,0:0:0:0:
169,72,137557,5,0,0:0:0:0:
169,72,137913,1,0,0:0:0:0:
204,344,138269,5,2,0:0:0:0:
205,142,138447,1,8,0:0:0:0:
304,320,138625,1,8,0:0:0:0:
104,160,138803,1,2,0:0:0:0:
404,296,138980,1,2,0:0:0:0:
252,52,139158,5,2,0:0:0:0:
228,256,139336,1,2,0:0:0:0:
352,96,139514,1,8,0:0:0:0:
152,180,139692,2,0,B|120:224|72:244|72:244|80:296|60:348,1,200,2|0,0:0|0:0,0:0:0:0:
180,316,140226,1,8,0:0:0:0:
120,96,140404,1,2,0:0:0:0:
120,96,140760,1,2,0:0:0:0:
120,96,141116,5,0,0:0:0:0:
272,248,141294,1,2,0:0:0:0:
104,192,141472,1,2,0:0:0:0:
320,160,141650,1,8,0:0:0:0:
88,288,141828,1,0,0:0:0:0:
300,64,142006,5,2,0:0:0:0:
180,252,142184,1,2,0:0:0:0:
221,8,142361,1,8,0:0:0:0:
272,248,142539,2,0,B|328:252|368:216|368:216|412:236|476:216,1,200,2|0,0:0|0:0,0:0:0:0:
308,104,143073,1,8,0:0:0:0:
188,280,143251,1,2,0:0:0:0:
188,280,143607,1,2,0:0:0:0:
188,280,143963,5,0,0:0:0:0:
380,176,144141,1,2,0:0:0:0:
204,184,144319,1,2,0:0:0:0:
396,269,144496,1,8,0:0:0:0:
180,170,144674,1,0,0:0:0:0:
346,350,144852,5,2,0:0:0:0:
286,104,145030,1,2,0:0:0:0:
346,350,145208,1,8,0:0:0:0:
292,130,145386,2,0,B|244:114|208:82|208:82|152:98|96:90,1,200,2|0,0:0|0:0,0:0:0:0:
32,176,145919,1,8,0:0:0:0:
292,130,146097,1,2,0:0:0:0:
292,130,146454,1,2,0:0:0:0:
292,130,146809,5,0,0:0:0:0:
132,153,146987,1,2,0:0:0:0:
303,224,147165,1,2,0:0:0:0:
40,163,147343,1,8,0:0:0:0:
320,318,147521,1,0,0:0:0:0:
292,130,147699,5,2,0:0:0:0:
232,334,147877,1,2,0:0:0:0:
303,106,148055,1,8,0:0:0:0:
140,346,148233,2,0,B|104:306|60:290|60:290|72:242|48:166,1,200,2|0,0:0|0:0,0:0:0:0:
204,146,148766,1,8,0:0:0:0:
232,360,148944,1,2,0:0:0:0:
232,360,149300,1,2,0:0:0:0:
232,360,149656,5,0,0:0:0:0:
296,168,149834,1,2,0:0:0:0:
324,328,150012,1,2,0:0:0:0:
199,158,150190,1,8,0:0:0:0:
416,296,150368,1,0,0:0:0:0:
164,292,150546,5,2,0:0:0:0:
452,208,150724,1,2,0:0:0:0:
188,276,150902,1,8,0:0:0:0:
406,125,151080,2,0,B|342:113|310:89|310:89|274:121|210:125,1,200
252,288,151613,1,8,0:0:0:0:
452,208,151791,1,2,0:0:0:0:
452,208,152147,1,2,0:0:0:0:
452,208,152503,5,0,0:0:0:0:
420,60,152681,1,2,0:0:0:0:
367,257,152859,1,2,0:0:0:0:
434,17,153037,1,8,0:0:0:0:
273,232,153215,1,0,0:0:0:0:
281,20,153392,5,2,0:0:0:0:
367,257,153570,1,2,0:0:0:0:
176,207,153748,1,8,0:0:0:0:
452,208,153926,2,0,B|450:270|469:312|469:312|429:336|401:378,1,200
256,348,154460,1,8,0:0:0:0:
248,144,154637,6,0,L|268:40,1,100,2|0,0:0|0:0,0:0:0:0:
120,272,154993,2,0,L|92:168,1,100,2|8,0:0|0:0,0:0:0:0:
248,144,155349,1,0,0:0:0:0:
256,348,155528,1,8,0:0:0:0:
336,100,155705,1,8,0:0:0:0:
344,268,155883,1,2,0:0:0:0:
248,192,156061,1,2,0:0:0:0:
424,180,156239,5,2,0:0:0:0:
424,180,156416,1,2,0:0:0:0:
424,180,156594,2,0,P|368:160|452:120,1,200,10|0,0:0|0:0,0:0:0:0:
421,273,157127,1,0,0:0:0:0:
262,117,157304,1,8,0:0:0:0:
328,240,157482,6,0,P|268:260|228:256,1,100,2|0,0:0|0:0,0:0:0:0:
24,140,157837,2,0,P|84:120|124:124,1,100,2|8,0:0|0:0,0:0:0:0:
114,264,158192,1,2,0:0:0:0:
208,132,158370,2,0,P|196:76|160:44,1,100,2|0,0:0|0:0,0:0:0:0:
16,240,158725,1,8,0:0:0:0:
210,239,158903,1,0,0:0:0:0:
108,112,159080,5,2,0:0:0:0:
108,112,159258,1,2,0:0:0:0:
108,112,159436,1,10,0:0:0:0:
292,188,159613,2,0,P|316:248|304:304,1,100
408,156,159969,1,0,0:0:0:0:
208,108,160146,1,8,0:0:0:0:
404,56,160324,6,0,P|468:76|500:120,1,100,2|0,0:0|0:0,0:0:0:0:
364,320,160679,2,0,P|352:260|376:208,1,100,2|8,0:0|0:0,0:0:0:0:
484,276,161034,1,2,0:0:0:0:
244,256,161212,2,0,P|184:280|216:192,1,200,2|8,0:0|0:0,0:0:0:0:
276,352,161745,1,2,0:0:0:0:
295,139,161922,5,2,0:0:0:0:
295,139,162100,1,2,0:0:0:0:
295,139,162278,2,0,P|239:103|331:75,1,200,10|0,0:0|0:0,0:0:0:0:
400,196,162810,6,0,P|424:260|456:288,1,100,0|8,0:0|0:0,0:0:0:0:
328,344,163166,2,0,B|288:336|256:312|256:312|192:336|112:312,1,200,2|2,0:0|0:0,0:0:0:0:
192,180,163699,1,8,0:0:0:0:
32,88,163876,1,2,0:0:0:0:
32,88,164054,2,0,L|16:208,1,100,2|0,0:0|0:0,0:0:0:0:
206,279,164409,2,0,L|188:160,1,100,8|0,0:0|0:0,0:0:0:0:
320,40,164764,5,2,0:0:0:0:
320,40,164942,1,2,0:0:0:0:
320,40,165120,2,0,P|320:128|384:72,1,200,10|0,0:0|0:0,0:0:0:0:
464,208,165652,1,0,0:0:0:0:
256,296,165830,1,8,0:0:0:0:
412,336,166008,6,0,L|392:224,1,100,2|0,0:0|0:0,0:0:0:0:
264,96,166363,2,0,L|244:208,1,100,2|8,0:0|0:0,0:0:0:0:
96,288,166718,1,2,0:0:0:0:
96,288,166896,2,0,B|60:244|84:188|84:188|108:124|72:84,1,200,2|8,0:0|0:0,0:0:0:0:
204,32,167429,1,2,0:0:0:0:
164,236,167606,5,2,0:0:0:0:
164,236,167784,1,2,0:0:0:0:
164,236,167961,2,0,P|236:272|228:180,1,200,10|0,0:0|0:0,0:0:0:0:
136,112,168494,1,0,0:0:0:0:
168,348,168672,1,8,0:0:0:0:
352,296,168850,6,0,L|468:312,1,100,2|0,0:0|0:0,0:0:0:0:
512,144,169205,2,0,L|396:160,1,100,2|8,0:0|0:0,0:0:0:0:
272,52,169560,1,2,0:0:0:0:
272,52,169738,2,0,P|236:104|240:160,1,100,2|0,0:0|0:0,0:0:0:0:
364,256,170093,2,0,P|357:304|326:343,1,100,8|0,0:0|0:0,0:0:0:0:
343,144,170448,5,2,0:0:0:0:
211,255,170626,1,2,0:0:0:0:
498,260,170803,2,0,P|477:305|425:331,1,100,10|0,0:0|0:0,0:0:0:0:
280,312,171159,1,0,0:0:0:0:
308,128,171336,2,0,L|317:74,2,50,0|0|10,0:0|0:0|0:0,0:0:0:0:
157,219,171691,6,0,L|135:113,1,100,6|0,0:0|0:0,0:0:0:0:
180,320,172047,1,2,0:0:0:0:
408,120,172224,1,8,0:0:0:0:
192,224,172402,1,2,0:0:0:0:
420,216,172580,1,2,0:0:0:0:
100,264,172757,1,8,0:0:0:0:
500,156,172935,1,8,0:0:0:0:
112,168,173112,1,8,0:0:0:0:
508,252,173290,5,2,0:0:0:0:
508,252,173466,1,2,0:0:0:0:
508,252,173642,2,0,L|396:284,1,100,10|0,0:0|0:0,0:0:0:0:
272,100,173995,2,0,L|384:132,1,100,2|0,0:0|0:0,0:0:0:0:
228,256,174348,2,0,L|116:288,1,100,10|0,0:0|0:0,0:0:0:0:
25,39,174700,6,2,P|78:53|136:198,1,200,2|10,0:0|0:0,0:0:0:0:
16,165,175230,1,0,0:0:0:0:
262,262,175406,2,0,L|157:292,1,100,2|0,0:0|0:0,0:0:0:0:
203,34,175759,2,0,L|299:95,1,100,10|0,0:0|0:0,0:0:0:0:
411,266,176111,6,2,P|486:224|501:110,1,200,2|10,0:0|0:0,0:0:0:0:
404,83,176641,1,0,0:0:0:0:
245,272,176817,2,0,L|313:368,1,100,2|0,0:0|0:0,0:0:0:0:
301,112,177170,2,0,L|242:31,1,100,10|0,0:0|0:0,0:0:0:0:
45,191,177522,6,0,P|90:266|120:188,1,200,2|10,0:0|0:0,0:0:0:0:
256,120,178052,2,0,B|332:140|376:88|376:88|416:92|444:120,1,200
400,228,178581,2,0,P|444:268|456:308,1,100,8|0,0:0|0:0,0:0:0:0:
320,332,178933,5,2,0:0:0:0:
320,332,179110,1,2,0:0:0:0:
320,332,179286,2,0,L|436:312,1,100,10|0,0:0|0:0,0:0:0:0:
192,332,179639,2,0,L|76:312,1,100,2|0,0:0|0:0,0:0:0:0:
364,204,179992,2,0,L|468:248,1,100,10|0,0:0|0:0,0:0:0:0:
99,203,180344,6,2,P|18:257|11:353,1,200,2|10,0:0|0:0,0:0:0:0:
148,333,180873,1,0,0:0:0:0:
99,77,181050,2,0,L|0:63,1,100,2|0,0:0|0:0,0:0:0:0:
297,102,181403,1,10,0:0:0:0:
243,313,181579,1,8,0:0:0:0:
440,224,181755,6,2,P|490:144|449:31,1,200,2|10,0:0|0:0,0:0:0:0:
328,5,182284,1,0,0:0:0:0:
329,265,182461,2,0,L|397:337,1,100,2|0,0:0|0:0,0:0:0:0:
261,71,182814,2,0,L|192:143,1,100,10|0,0:0|0:0,0:0:0:0:
3,278,183166,6,2,B|51:303|104:277|104:277|162:249|234:296,1,200,2|10,0:0|0:0,0:0:0:0:
318,225,183695,2,0,P|342:286|246:387,1,200
196,276,184224,1,8,0:0:0:0:
417,138,184401,1,0,0:0:0:0:
140,167,184577,5,2,0:0:0:0:
140,167,184754,1,2,0:0:0:0:
140,167,184930,2,0,P|194:151|229:165,1,75.0000028610231,2|0,0:0|0:0,0:0:0:0:
318,187,185283,2,0,B|295:153|311:113|311:113|329:71|314:35,1,150.000005722046,8|0,0:0|0:0,0:0:0:0:
316,42,185812,1,2,0:0:0:0:
412,157,185988,5,2,0:0:0:0:
412,157,186165,1,2,0:0:0:0:
412,157,186341,2,0,P|430:218|461:238,1,75.0000028610231,2|0,0:0|0:0,0:0:0:0:
506,297,186694,2,0,B|451:332|400:313|400:313|337:294|265:329,1,225.000008583069,8|0,0:0|0:0,0:0:0:0:
116,328,187399,5,2,0:0:0:0:
116,328,187576,1,2,0:0:0:0:
116,328,187752,1,2,0:0:0:0:
104,168,187928,1,0,0:0:0:0:
436,201,188105,5,8,0:0:0:0:
199,289,188281,1,2,0:0:0:0:
460,190,188457,1,2,0:0:0:0:
104,168,188634,2,0,L|211:199,1,100,12|0,0:0|0:0,0:0:0:0:
35,305,188986,1,2,0:0:0:0:
233,103,189163,1,8,0:0:0:0:
135,357,189339,1,2,0:0:0:0:
161,19,189516,5,8,0:0:0:0:
244,347,189692,1,8,0:0:0:0:
65,64,189868,1,8,0:0:0:0:
257,370,190045,1,8,0:0:0:0:
428,24,190221,1,2,0:0:0:0:
0,191,190397,1,2,0:0:0:0:
508,284,190574,6,0,L|432:364,1,100,14|0,0:0|0:0,0:0:0:0:
0,280,190927,2,0,L|72:364,1,100,2|0,0:0|0:0,0:0:0:0:
428,184,191279,2,0,L|392:292,1,100,10|0,0:0|0:0,0:0:0:0:
166,73,191632,6,2,P|255:34|345:72,1,200,2|10,0:0|0:0,0:0:0:0:
256,174,192161,1,0,0:0:0:0:
512,98,192338,2,0,L|492:0,1,100,2|0,0:0|0:0,0:0:0:0:
336,218,192690,2,0,L|360:340,1,100,10|0,0:0|0:0,0:0:0:0:
94,278,193043,6,2,P|64:186|122:109,1,200,2|10,0:0|0:0,0:0:0:0:
256,69,193572,1,0,0:0:0:0:
213,300,193748,2,0,L|173:204,1,100,2|0,0:0|0:0,0:0:0:0:
47,13,194101,2,0,L|7:109,1,100,10|0,0:0|0:0,0:0:0:0:
93,287,194454,6,0,P|61:243|109:117,1,200,2|10,0:0|0:0,0:0:0:0:
164,208,194983,2,0,P|256:240|348:206,1,200
480,96,195512,2,0,P|499:146|500:200,1,100,8|0,0:0|0:0,0:0:0:0:
316,93,195865,5,2,0:0:0:0:
118,216,196041,1,2,0:0:0:0:
328,308,196218,2,0,L|236:352,1,100,10|0,0:0|0:0,0:0:0:0:
184,76,196570,2,0,L|276:32,1,100,2|0,0:0|0:0,0:0:0:0:
152,248,196923,2,0,L|120:352,1,100,10|0,0:0|0:0,0:0:0:0:
360,136,197276,6,2,P|427:179|431:313,1,200,2|10,0:0|0:0,0:0:0:0:
312,365,197805,1,0,0:0:0:0:
250,152,197981,2,0,L|283:56,1,100,2|0,0:0|0:0,0:0:0:0:
122,231,198334,5,10,0:0:0:0:
360,136,198510,1,8,0:0:0:0:
53,141,198687,2,2,P|12:184|46:325,1,200,2|10,0:0|0:0,0:0:0:0:
167,380,199216,1,0,0:0:0:0:
167,142,199392,2,0,L|143:38,1,100,2|0,0:0|0:0,0:0:0:0:
370,212,199745,2,0,L|346:316,1,100,10|0,0:0|0:0,0:0:0:0:
256,60,200098,6,0,L|256:264,1,200,2|10,0:0|0:0,0:0:0:0:
167,142,200627,2,0,P|255:102|345:140,1,200
256,260,201156,2,8,L|256:320,2,50
392,200,201509,5,2,0:0:0:0:
120,200,201685,1,2,0:0:0:0:
256,60,201862,2,0,L|380:112,1,100,10|0,0:0|0:0,0:0:0:0:
256,324,202214,2,0,L|132:272,1,100,2|0,0:0|0:0,0:0:0:0:
392,200,202567,2,0,L|480:132,1,100,10|0,0:0|0:0,0:0:0:0:
120,200,202920,6,2,P|78:125|124:25,1,200,2|10,0:0|0:0,0:0:0:0:
210,114,203449,1,0,0:0:0:0:
116,297,203625,2,0,L|28:365,1,100,2|0,0:0|0:0,0:0:0:0:
210,114,203978,2,0,L|273:193,1,100,10|0,0:0|0:0,0:0:0:0:
412,369,204331,6,2,P|489:305|466:184,1,200,2|10,0:0|0:0,0:0:0:0:
383,106,204860,1,0,0:0:0:0:
152,204,205036,2,0,L|128:104,1,100,2|0,0:0|0:0,0:0:0:0:
360,204,205389,2,0,L|384:104,1,100,10|0,0:0|0:0,0:0:0:0:
204,284,205742,6,0,P|256:352|304:281,1,200,2|10,0:0|0:0,0:0:0:0:
152,204,206271,2,0,P|65:155|45:54,1,200
332,148,206800,2,0,P|291:186|238:200,1,100,8|0,0:0|0:0,0:0:0:0:
308,36,207153,5,2,0:0:0:0:
487,193,207329,1,2,0:0:0:0:
197,111,207505,2,0,P|159:144|146:191,1,100,10|0,0:0|0:0,0:0:0:0:
355,212,207858,2,0,P|355:162|329:121,1,100,2|0,0:0|0:0,0:0:0:0:
195,291,208211,2,0,P|240:312|289:304,1,100,10|0,0:0|0:0,0:0:0:0:
186,93,208564,6,0,P|147:123|127:169,1,100,2|0,0:0|0:0,0:0:0:0:
377,213,208917,2,0,P|380:163|358:119,1,100,10|0,0:0|0:0,0:0:0:0:
185,309,209270,2,0,P|229:332|278:331,1,100,2|0,0:0|0:0,0:0:0:0:
173,70,209622,2,0,P|133:99|108:142,1,100,10|0,0:0|0:0,0:0:0:0:
402,214,209975,6,0,P|407:165|391:118,1,100,2|0,0:0|0:0,0:0:0:0:
172,330,210328,2,0,P|215:355|264:360,1,100,10|0,0:0|0:0,0:0:0:0:
163,52,210680,2,0,P|117:85|88:133,1,100,2|0,0:0|0:0,0:0:0:0:
423,216,211033,2,0,P|429:160|411:106,1,100,10|0,0:0|0:0,0:0:0:0:
256,288,211386,1,0,0:0:0:0:
256,288,211562,1,2,0:0:0:0:
256,192,211738,2,2,L|256:136,2,50,10|2|2,0:0|0:0|0:0,0:0:0:0:
400,128,212091,5,8,0:0:0:0:
112,192,212267,1,2,0:0:0:0:
436,224,212444,1,8,0:0:0:0:
85,192,212620,1,8,0:0:0:0:
432,29,212796,1,4,0:0:0:0:
