osu file format v14

[General]
AudioFilename: audio.mp3
AudioLeadIn: 0
PreviewTime: 51356
Countdown: 0
SampleSet: Soft
StackLeniency: 0.7
Mode: 0
LetterboxInBreaks: 0
WidescreenStoryboard: 1

[Editor]
Bookmarks: 17322,34383,51445,74188,91243,113975,131030,136715,153744,170747,187764,196979,210448
DistanceSpacing: 1.4
BeatDivisor: 4
GridSize: 4
TimelineZoom: 1.760002

[Metadata]
Title:Take On Me
TitleUnicode:Take On Me
Artist:a-ha
ArtistUnicode:a-ha
Creator:Kuroame
Version:Normal
Source:
Tags:english pop 80s classic synthpop old school hunting high and low norwegian aha a ha
BeatmapID:3889126
BeatmapSetID:754470

[Difficulty]
HPDrainRate:4
CircleSize:3
OverallDifficulty:4.5
ApproachRate:5.5
SliderMultiplier:1.1
SliderTickRate:1

[Events]
//Background and Video events
0,0,"bg.jpg",0,0
//Break Periods
2,114175,129830
//Storyboard Layer 0 (Background)
//Storyboard Layer 1 (Fail)
//Storyboard Layer 2 (Pass)
//Storyboard Layer 3 (Foreground)
//Storyboard Layer 4 (Overlay)
//Storyboard Sound Samples

[TimingPoints]
256,355.54502088827,4,2,1,50,1,0
5944,-100,4,2,1,55,0,0
11633,-100,4,2,1,60,0,0
17322,355.450236966825,4,2,1,80,1,0
17322,-100,4,2,1,80,0,0
34383,-111.111111111111,4,2,1,70,0,0
51445,355.124145482525,4,2,1,75,1,0
51445,-100,4,2,1,75,0,0
62808,355.650395661065,4,2,1,70,1,0
68498,-100,4,2,1,80,0,1
74188,355.313416042401,4,2,1,70,1,0
74188,-111.111111111111,4,2,1,70,0,0
91243,355.187213260323,4,2,1,75,1,0
91243,-100,4,2,1,75,0,0
108291,-100,4,2,1,80,0,1
113975,355.323936989222,4,2,1,60,1,0
113975,-100,4,2,1,60,0,0
131030,-100,4,2,1,50,0,0
136715,354.756696032638,4,2,1,70,1,0
136715,-100,4,2,1,70,0,0
153744,354.222628922278,4,2,1,70,1,0
170747,354.400472533963,4,2,1,75,1,0
170747,-100,4,2,1,75,0,0
182086,354.830125077619,4,2,1,70,1,0
187764,354.442344045369,4,2,1,80,1,0
187764,-100,4,2,1,80,0,1
193435,-100,4,2,1,70,0,0
205131,-100,4,2,1,75,0,1
206195,-105.263157894737,4,2,1,65,0,1
207612,-111.111111111111,4,2,1,50,0,1
209030,-117.647058823529,4,2,1,25,0,1
210448,-125,4,2,1,20,0,0

[Colours]
Combo1 : 43,186,255
Combo2 : 127,127,127
Combo3 : 212,212,212
Combo4 : 255,43,43
Combo5 : 255,255,43
Combo6 : 149,255,43

[HitObjects]
410,57,17322,38,0,L|424:0,2,55,6|2|10,1:2|1:2|0:2,0:0:0:0:
396,110,17855,1,2,0:2:0:0:
308,43,18210,2,0,L|245:37,1,55,2|8,1:2|0:2,0:0:0:0:
206,66,18566,2,0,B|186:112|186:112|201:170,1,110,2|2,1:2|1:2,0:0:0:0:
301,213,19276,1,2,0:2:0:0:
340,174,19454,2,0,P|369:173|403:180,1,55,2|2,1:2|1:2,0:0:0:0:
439,209,19810,1,10,0:2:0:0:
406,314,20165,6,0,P|419:336|426:366,2,55,2|2|10,1:2|1:2|0:2,0:0:0:0:
350,312,20698,1,2,1:2:0:0:
261,246,21054,2,0,L|267:183,1,55,2|8,1:2|0:2,0:0:0:0:
275,137,21409,2,0,P|224:115|163:123,1,110,2|2,1:2|1:2,0:0:0:0:
113,25,22120,1,2,0:2:0:0:
71,61,22298,2,0,L|82:122,1,55,2|2,1:2|1:2,0:0:0:0:
29,134,22653,2,0,L|18:195,1,55,10|2,0:2|0:2,0:0:0:0:
11,242,23009,6,0,L|121:232,1,110,2|10,1:2|0:2,0:0:0:0:
153,187,23542,1,2,0:2:0:0:
201,285,23897,2,0,L|261:278,1,55,2|8,1:2|0:2,0:0:0:0:
310,272,24253,2,0,P|336:326|332:378,2,110,2|2|2,1:2|1:2|0:2,0:0:0:0:
273,230,25141,1,2,1:2:0:0:
296,122,25497,2,0,P|324:114|350:116,1,55,10|2,0:2|0:2,0:0:0:0:
371,166,25852,6,0,P|434:165|473:140,1,110,2|10,1:2|0:2,0:0:0:0:
485,87,26385,1,2,1:2:0:0:
386,37,26741,2,0,L|312:32,1,55,2|8,1:2|0:2,0:0:0:0:
278,50,27096,2,0,B|260:81|260:81|271:162,2,110,2|2|2,1:2|1:2|0:2,0:0:0:0:
247,3,27985,1,2,1:2:0:0:
163,74,28340,2,0,L|173:156,1,55,10|2,0:2|0:2,0:0:0:0:
148,179,28696,38,0,L|89:175,2,55,6|2|10,1:2|1:2|0:2,0:0:0:0:
184,220,29229,1,2,0:2:0:0:
263,144,29585,2,0,L|331:134,1,55,2|8,1:2|0:2,0:0:0:0:
370,121,29940,2,0,P|357:176|370:229,1,110,2|2,1:2|1:2,0:0:0:0:
468,179,30651,1,2,0:2:0:0:
498,225,30829,2,0,L|493:290,1,55,2|2,1:2|1:2,0:0:0:0:
477,332,31184,1,10,0:2:0:0:
368,328,31540,6,0,P|373:356|369:385,2,55,2|2|10,1:2|1:2|0:2,0:0:0:0:
342,279,32073,1,2,0:2:0:0:
269,361,32428,2,0,L|197:357,1,55,2|8,1:2|0:2,0:0:0:0:
159,351,32784,2,0,B|178:320|178:320|168:245,1,110,2|2,1:2|1:2,0:0:0:0:
65,285,33494,1,2,3:2:0:0:
31,241,33672,2,0,L|40:185,1,55,10|10,0:2|0:2,0:0:0:0:
80,149,34028,2,0,L|72:91,1,55,2|0,1:2|1:2,0:0:0:0:
42,48,34383,38,0,P|92:31|150:42,1,98.9999969787599,6|8,1:2|0:2,0:0:0:0:
169,73,34916,1,2,0:0:0:0:
174,172,35272,2,0,L|236:168,1,49.4999984893799,2|10,0:0|0:0,0:0:0:0:
322,168,35805,1,2,0:0:0:0:
319,69,36160,1,8,0:0:0:0:
355,35,36338,2,0,L|461:30,1,98.9999969787599,2|0,1:2|0:0,0:0:0:0:
489,65,36871,1,10,0:0:0:0:
495,163,37227,6,0,L|498:223,1,49.4999984893799,2|2,1:2|1:2,0:0:0:0:
501,311,37760,1,2,0:2:0:0:
412,266,38115,2,0,B|361:256|361:256|301:267,1,98.9999969787599,2|0,1:2|1:2,0:0:0:0:
269,352,38826,2,0,B|224:359|224:359|165:349,1,98.9999969787599,2|0,1:2|1:2,0:0:0:0:
128,324,39359,1,2,1:2:0:0:
138,225,39715,1,10,0:2:0:0:
94,136,40070,70,0,P|147:126|200:141,1,98.9999969787599,2|8,1:2|0:2,0:0:0:0:
238,222,40781,2,0,L|302:220,1,49.4999984893799,2|2,0:2|0:2,0:2:0:0:
370,166,41314,2,0,L|365:54,1,98.9999969787599,2|0,1:2|1:2,0:0:0:0:
364,17,41848,1,8,0:2:0:0:
265,13,42203,2,0,L|206:13,1,49.4999984893799,0|0,1:2|0:2,0:0:0:0:
165,14,42558,1,8,0:2:0:0:
83,70,42914,6,0,B|70:103|70:103|75:172,1,98.9999969787599,2|8,1:2|0:2,0:0:0:0:
81,215,43447,1,2,0:2:0:0:
96,312,43803,1,2,0:2:0:0:
179,365,44158,2,0,P|225:380|273:372,1,98.9999969787599,2|0,1:2|1:2,0:0:0:0:
331,291,44869,2,0,L|333:229,1,49.4999984893799,2|2,1:2|0:2,0:2:0:0:
292,150,45402,2,0,P|340:141|386:157,1,98.9999969787599,10|0,0:2|1:2,0:0:0:0:
479,122,46113,70,0,L|472:220,1,98.9999969787599,10|2,0:2|0:2,0:0:0:0:
512,309,46824,1,10,0:2:0:0:
476,344,47002,2,0,P|420:358|367:337,1,98.9999969787599,2|0,1:2|1:2,0:0:0:0:
347,311,47535,1,8,0:2:0:0:
273,245,47890,2,0,L|281:190,2,49.4999984893799,0|0|8,1:2|0:2|0:2,0:0:0:0:
259,343,48601,5,0,1:2:0:0:
178,292,48957,2,0,L|114:285,1,49.4999984893799,10|2,0:2|0:2,0:0:0:0:
79,280,49312,1,2,0:2:0:0:
60,182,49667,2,0,L|51:119,1,49.4999984893799,10|6,0:2|1:2,0:0:0:0:
48,83,50023,2,0,L|-12:88,2,49.4999984893799,2|2|8,0:2|1:2|0:0,0:0:0:0:
145,65,50734,2,0,P|137:35|143:-3,2,49.4999984893799,2|0|8,1:2|1:2|1:2,0:0:0:0:
179,100,51267,1,0,3:2:0:0:
219,137,51445,6,0,L|291:132,1,55,6|0,1:2|1:2,0:0:0:0:
328,124,51800,2,0,L|322:238,1,110,8|0,0:2|1:2,0:0:0:0:
221,277,52510,1,8,0:2:0:0:
132,212,52865,2,0,P|81:193|25:199,1,110,2|8,1:2|0:2,0:0:0:0:
11,308,53575,2,0,P|62:325|115:313,1,110,0|8,1:2|0:2,0:0:0:0:
169,303,54108,1,0,0:2:0:0:
218,326,54285,6,0,L|213:388,2,55,2|0|8,1:2|0:2|0:2,0:0:0:0:
278,237,54996,2,0,P|308:232|341:240,1,55,0|0,1:2|0:2,0:0:0:0:
363,281,55351,1,8,0:2:0:0:
441,358,55706,2,0,L|453:246,1,110,2|8,1:2|0:2,0:0:0:0:
504,229,56239,1,2,0:2:0:0:
504,119,56594,1,0,1:2:0:0:
453,98,56771,2,0,L|449:43,1,55,10|0,0:2|0:2,0:0:0:0:
395,28,57126,6,0,P|370:18|339:21,1,55,2|0,1:2|1:2,0:0:0:0:
305,61,57482,2,0,P|252:76|198:60,1,110,8|0,0:2|1:2,0:0:0:0:
96,25,58192,1,8,0:2:0:0:
69,131,58547,2,0,L|3:122,2,55,2|0|8,1:2|0:0|0:2,0:0:0:0:
174,161,59257,2,0,P|177:193|170:220,1,55,0|0,1:2|0:2,0:0:0:0:
149,265,59612,1,8,0:2:0:0:
105,366,59967,6,0,L|218:354,1,110,2|8,1:2|0:2,0:0:0:0:
290,275,60678,2,0,L|279:166,1,110,0|8,1:2|0:2,0:0:0:0:
244,122,61210,1,0,0:2:0:0:
244,66,61388,2,0,P|292:38|345:42,1,110,2|8,1:2|0:2,0:0:0:0:
389,74,61921,1,2,0:2:0:0:
409,181,62276,1,0,1:2:0:0:
389,232,62453,2,0,P|425:238|455:232,1,55,10|8,0:2|0:2,0:0:0:0:
497,246,62808,6,0,L|506:183,2,55,6|0|0,1:2|1:2|1:2,0:0:0:0:
475,354,63519,2,0,L|360:341,1,110,8|0,0:2|0:2,0:0:0:0:
327,302,64052,1,0,1:2:0:0:
272,305,64230,2,0,L|262:236,2,55,2|0|0,1:2|1:2|1:2,0:0:0:0:
169,344,64941,2,0,P|118:363|60:346,1,110,8|0,0:2|0:2,0:0:0:0:
53,239,65653,6,0,L|-6:232,2,55,0|0|0,1:2|1:2|1:2,0:0:0:0:
123,154,66364,1,8,0:2:0:0:
76,123,66542,2,0,L|66:64,1,55,0|0,1:2|1:2,0:0:0:0:
99,24,66897,2,0,L|227:34,1,110,12|0,0:2|1:2,0:0:0:0:
264,32,67431,1,10,0:2:0:0:
342,109,67787,2,0,L|396:103,1,55,8|10,0:2|0:2,0:0:0:0:
446,80,68142,1,10,0:2:0:0:
487,115,68320,2,0,P|494:172|476:222,1,110,10|0,0:2|1:2,0:0:0:0:
437,259,68854,5,14,0:2:0:0:
327,252,69209,2,0,L|315:379,1,110,2|8,1:2|0:2,0:0:0:0:
206,361,69921,2,0,L|196:251,1,110,2|8,1:2|0:2,0:0:0:0:
143,154,70632,2,0,P|195:138|260:146,1,110,0|8,1:2|0:2,0:0:0:0:
318,229,71343,6,0,L|374:224,1,55,2|0,1:2|1:2,0:0:0:0:
429,220,71699,1,8,0:2:0:0:
445,111,72054,2,0,L|508:117,2,55,0|0|8,1:2|1:0|0:2,0:0:0:0:
378,22,72766,2,0,P|343:19|317:24,1,55,2|0,1:2|1:0,0:0:0:0:
275,48,73121,1,8,0:2:0:0:
165,58,73477,2,0,P|153:28|135:9,2,55,0|0|8,1:2|1:2|0:2,0:0:0:0:
132,102,74010,1,0,1:2:0:0:
145,149,74188,38,0,B|177:158|177:158|252:144,1,98.9999969787599,6|8,1:2|0:2,0:0:0:0:
290,145,74720,1,2,0:2:0:0:
293,48,75076,2,0,L|354:37,1,49.4999984893799,2|10,0:2|0:2,0:2:0:0:
439,22,75609,1,2,0:0:0:0:
458,118,75964,1,8,0:0:0:0:
496,149,76142,2,0,L|483:262,1,98.9999969787599,2|0,1:2|0:0,0:0:0:0:
477,296,76675,1,10,0:0:0:0:
378,283,77030,5,2,1:2:0:0:
393,185,77385,1,10,0:2:0:0:
359,148,77563,2,0,P|316:132|257:141,1,98.9999969787599,2|0,0:0|0:0,0:0:0:0:
227,171,78096,2,0,L|232:222,1,49.4999984893799,10|0,0:0|1:0,0:0:0:0:
193,311,78629,2,0,B|148:318|148:318|89:308,1,98.9999969787599,2|0,1:2|1:2,0:0:0:0:
47,296,79162,1,2,1:2:0:0:
50,197,79517,1,10,0:2:0:0:
6,107,79873,70,0,P|59:97|112:112,1,98.9999969787599,2|8,1:2|0:2,0:0:0:0:
159,187,80583,2,0,L|153:254,1,49.4999984893799,2|2,0:2|0:2,0:2:0:0:
207,320,81116,2,0,P|260:328|317:311,1,98.9999969787599,2|0,1:2|1:2,0:0:0:0:
352,301,81649,1,8,0:2:0:0:
447,325,82004,2,0,L|441:267,1,49.4999984893799,0|0,1:2|0:2,0:0:0:0:
436,226,82360,1,8,0:2:0:0:
490,143,82715,6,0,B|457:130|457:130|388:135,1,98.9999969787599,2|8,1:2|0:2,0:0:0:0:
345,145,83248,1,2,0:2:0:0:
337,46,83603,2,0,P|309:42|279:48,1,49.4999984893799,2|8,0:2|0:2,0:2:0:0:
256,83,83959,2,0,P|207:90|159:74,1,98.9999969787599,2|0,1:2|1:2,0:0:0:0:
114,56,84492,1,10,0:0:0:0:
16,61,84847,2,0,L|21:122,1,49.4999984893799,2|0,1:2|0:0,0:0:0:0:
23,159,85202,1,8,0:0:0:0:
32,257,85558,70,0,B|81:264|81:264|140:244,1,98.9999969787599,2|8,1:2|0:0,0:0:0:0:
173,229,86090,1,2,0:2:0:0:
264,266,86446,2,0,L|272:332,1,49.4999984893799,2|10,0:0|0:0,0:0:0:0:
356,363,86979,2,0,L|473:348,1,98.9999969787599,2|8,1:2|0:0,0:0:0:0:
503,348,87512,1,2,0:0:0:0:
493,249,87867,2,0,L|488:200,1,49.4999984893799,0|10,1:2|0:2,0:0:0:0:
478,100,88400,5,0,1:2:0:0:
381,78,88755,2,0,L|387:147,1,49.4999984893799,10|2,0:2|0:2,0:0:0:0:
389,176,89111,1,2,0:2:0:0:
341,262,89466,2,0,L|287:266,1,49.4999984893799,10|6,0:2|1:2,0:0:0:0:
242,265,89821,1,2,0:2:0:0:
150,302,90177,1,10,0:2:0:0:
110,271,90354,2,0,L|39:275,2,49.4999984893799,2|0|2,1:2|1:2|1:2,0:2:0:0:
142,233,90887,1,8,0:2:0:0:
114,126,91243,6,0,P|145:119|176:119,1,55,6|0,1:2|1:2,0:0:0:0:
211,151,91598,2,0,P|260:167|319:146,1,110,8|0,0:2|1:2,0:0:0:0:
382,63,92308,1,8,0:2:0:0:
456,143,92663,2,0,L|444:259,1,110,2|8,1:2|0:2,0:0:0:0:
345,301,93374,2,0,L|235:289,1,110,0|8,1:2|0:2,0:0:0:0:
193,253,93906,1,0,0:2:0:0:
147,283,94083,6,0,L|142:345,2,55,2|0|8,1:2|0:2|0:2,0:0:0:0:
38,261,94794,2,0,L|47:197,1,55,0|0,1:2|0:2,0:0:0:0:
56,152,95149,1,8,0:2:0:0:
110,56,95504,2,0,B|150:43|150:43|232:56,1,110,2|8,1:2|0:2,0:0:0:0:
263,83,96037,1,2,0:2:0:0:
372,91,96392,1,0,1:2:0:0:
406,48,96569,2,0,L|467:53,1,55,10|0,0:2|0:2,0:0:0:0:
495,95,96925,6,0,P|500:132|497:157,1,55,2|0,1:2|1:2,0:0:0:0:
485,203,97281,2,0,P|432:218|378:202,1,110,8|0,0:2|1:2,0:0:0:0:
296,133,97990,1,8,0:2:0:0:
290,23,98345,2,0,L|356:32,2,55,2|0|8,1:2|0:0|0:2,0:0:0:0:
204,92,99057,2,0,P|172:95|145:88,1,55,0|0,1:2|0:2,0:0:0:0:
99,66,99412,1,8,0:2:0:0:
17,136,99767,6,0,P|11:191|33:250,1,110,2|8,1:2|0:2,0:0:0:0:
96,329,100477,2,0,P|151:335|210:313,1,110,0|8,1:2|0:2,0:0:0:0:
186,265,101010,1,0,0:2:0:0:
217,219,101188,2,0,P|271:215|317:243,1,110,2|8,1:2|0:2,0:0:0:0:
340,293,101721,1,2,0:2:0:0:
408,379,102076,1,0,1:2:0:0:
456,354,102253,2,0,P|462:318|456:288,1,55,10|8,0:2|0:2,0:0:0:0:
455,244,102608,6,0,L|509:236,2,55,6|0|0,1:2|1:2|1:2,0:0:0:0:
345,252,103319,2,0,L|358:137,1,110,8|0,0:2|0:2,0:0:0:0:
396,103,103852,1,0,1:2:0:0:
447,122,104029,2,0,L|501:114,2,55,2|0|0,1:2|1:2|1:2,0:0:0:0:
406,19,104740,2,0,P|355:0|297:17,1,110,8|0,0:2|0:2,0:0:0:0:
237,102,105450,6,0,L|230:161,2,55,0|0|0,1:2|1:2|1:2,0:0:0:0:
162,20,106160,2,0,B|129:1|129:1|45:7,1,110,8|0,0:2|0:2,0:2:0:0:
28,53,106693,2,0,P|16:104|37:164,1,110,2|0,1:2|1:2,0:0:0:0:
67,200,107226,1,2,1:2:0:0:
140,123,107581,2,0,P|165:133|192:136,1,55,8|10,0:2|0:2,0:0:0:0:
237,104,107936,1,10,0:2:0:0:
282,135,108114,2,0,P|309:187|296:246,1,110,2|0,1:2|1:2,0:0:0:0:
263,276,108647,5,14,0:2:0:0:
181,349,109002,2,0,L|54:337,1,110,0|8,1:2|0:2,0:0:0:0:
4,251,109712,2,0,L|14:141,1,110,2|8,1:2|0:2,0:0:0:0:
100,72,110423,2,0,L|210:82,1,110,0|8,1:2|0:2,0:0:0:0:
281,164,111133,6,0,P|282:193|276:220,1,55,2|0,1:2|1:0,0:0:0:0:
252,269,111488,1,8,0:2:0:0:
350,318,111843,2,0,P|343:353|344:381,2,55,0|0|8,1:2|1:0|0:2,0:0:0:0:
439,253,112554,2,0,P|436:218|441:192,1,55,2|2,1:2|1:2,0:0:0:0:
467,151,112909,1,8,0:2:0:0:
488,42,113264,2,0,L|426:32,1,55,0|0,1:2|1:2,0:0:0:0:
385,59,113619,2,0,L|323:49,1,55,8|0,0:2|3:2,0:0:0:0:
282,77,113975,5,6,1:2:0:0:
484,367,131030,22,0,L|472:246,1,110,2|2,0:2|0:2,0:0:0:0:
419,245,131563,2,0,L|431:124,1,110,2|2,0:2|0:0,0:0:0:0:
360,49,132274,2,0,B|307:35|307:35|253:43,2,110,2|2|2,0:0|0:0|0:0,0:0:0:0:
383,98,133162,2,0,L|375:159,1,55,2|2,0:0|0:0,0:0:0:0:
368,207,133517,1,2,0:0:0:0:
408,309,133873,6,0,P|353:291|284:310,1,110,2|2,0:2|0:2,0:0:0:0:
270,344,134406,2,0,P|216:352|164:334,1,110,2|2,0:0|0:0,0:0:0:0:
139,227,135116,2,0,L|156:107,2,110,2|2|2,0:0|0:0|0:0,0:0:0:0:
92,257,136005,2,0,L|97:315,1,55,10|10,0:2|0:2,0:0:0:0:
105,366,136360,1,2,3:2:0:0:
209,330,136715,6,0,L|219:390,2,55,6|2|10,1:2|1:2|0:2,0:0:0:0:
199,275,137247,1,2,0:2:0:0:
296,325,137601,2,0,L|358:316,1,55,2|8,1:2|0:2,0:0:0:0:
380,363,137956,2,0,L|496:348,1,110,2|2,1:2|1:2,0:0:0:0:
511,240,138666,1,2,0:2:0:0:
464,210,138843,2,0,P|435:209|401:216,1,55,2|2,1:2|1:2,0:0:0:0:
369,252,139198,1,10,0:2:0:0:
262,225,139553,6,0,P|256:249|259:280,2,55,2|2|10,1:2|1:2|0:2,0:0:0:0:
287,175,140085,1,2,0:2:0:0:
392,143,140439,2,0,L|386:80,1,55,2|8,1:2|0:2,0:0:0:0:
370,35,140794,2,0,P|316:24|263:38,1,110,2|2,1:2|1:2,0:0:0:0:
156,12,141504,1,2,0:2:0:0:
112,45,141681,2,0,L|101:106,1,55,2|2,1:2|1:2,0:0:0:0:
54,126,142036,2,0,L|65:187,1,55,10|2,0:2|0:2,0:0:0:0:
43,231,142391,6,0,L|153:221,1,110,2|10,1:2|0:2,0:0:0:0:
206,208,142923,1,2,0:2:0:0:
315,198,143277,2,0,L|322:258,1,55,2|8,1:2|0:2,0:0:0:0:
333,306,143632,2,0,B|385:286|385:286|439:294,2,110,2|2|2,1:2|1:2|0:2,0:0:0:0:
301,351,144519,1,2,1:2:0:0:
224,271,144874,2,0,P|196:263|170:265,1,55,10|2,0:2|0:2,0:0:0:0:
148,315,145229,6,0,P|88:336|43:327,1,110,2|10,1:2|0:2,0:0:0:0:
8,284,145761,1,2,1:2:0:0:
93,213,146116,2,0,L|98:139,1,55,2|8,1:2|0:2,0:0:0:0:
104,103,146470,2,0,B|73:85|73:85|-8:96,2,110,2|2|2,1:2|1:2|0:2,0:0:0:0:
153,75,147357,1,2,1:2:0:0:
225,158,147712,2,0,L|307:148,1,55,10|2,0:2|0:2,0:0:0:0:
332,137,148067,38,0,P|328:105|336:78,2,55,6|2|10,1:2|1:2|0:2,0:0:0:0:
367,179,148599,1,2,0:2:0:0:
466,226,148954,2,0,L|476:294,1,55,2|8,1:2|0:2,0:0:0:0:
481,334,149308,2,0,L|371:328,1,110,2|2,1:2|1:2,0:0:0:0:
260,323,150018,1,2,0:2:0:0:
283,273,150195,2,0,L|278:218,1,55,2|2,1:2|1:2,0:0:0:0:
254,168,150550,1,10,0:2:0:0:
302,69,150905,6,0,P|297:41|301:12,2,55,2|2|10,1:2|1:2|0:2,0:0:0:0:
334,113,151437,1,2,0:2:0:0:
367,217,151792,2,0,L|439:213,1,55,2|8,1:2|0:2,0:0:0:0:
476,211,152146,2,0,B|457:180|457:180|467:105,1,110,2|2,1:2|1:2,0:0:0:0:
391,25,152856,1,2,0:2:0:0:
365,73,153033,2,0,L|310:81,1,55,10|10,0:2|0:2,0:0:0:0:
282,34,153388,2,0,L|227:26,1,55,2|0,1:2|1:2,0:0:0:0:
178,52,153743,38,0,P|161:102|169:158,1,110,6|8,1:2|0:2,0:0:0:0:
202,201,154276,1,2,0:2:0:0:
275,119,154629,2,0,L|353:112,1,55,2|10,0:2|0:2,0:2:0:0:
439,106,155160,1,0,1:0:0:0:
453,215,155515,1,8,0:0:0:0:
420,259,155692,2,0,P|367:272|302:253,1,110,0|2,1:0|1:2,0:0:0:0:
267,289,156223,1,10,0:0:0:0:
157,279,156577,6,0,L|152:344,2,55,2|2|10,1:2|1:2|0:2,0:0:0:0:
164,224,157109,1,2,0:2:0:0:
55,240,157463,2,0,L|44:122,1,110,2|0,1:2|1:2,0:0:0:0:
86,28,158171,2,0,P|131:9|191:14,1,110,2|2,1:2|1:2,0:0:0:0:
230,52,158703,1,2,1:2:0:0:
248,160,159057,1,10,0:2:0:0:
332,89,159411,70,0,B|360:70|360:70|452:78,1,110,2|8,1:2|0:2,0:0:0:0:
490,83,159942,1,2,0:2:0:0:
490,193,160297,2,0,L|420:189,1,55,2|10,0:2|0:2,0:0:0:0:
325,183,160828,1,0,1:0:0:0:
317,292,161182,1,8,0:2:0:0:
279,332,161359,2,0,L|167:322,1,110,0|0,1:2|0:2,0:0:0:0:
122,351,161891,1,8,0:2:0:0:
19,311,162245,6,0,B|10:246|10:246|34:201,1,110,2|8,1:2|0:2,0:0:0:0:
64,163,162776,1,2,0:0:0:0:
172,178,163130,2,0,L|242:186,1,55,2|8,0:2|0:2,0:2:0:0:
261,140,163485,2,0,P|274:87|251:27,1,110,2|2,1:2|1:2,0:0:0:0:
163,92,164193,2,0,L|93:85,1,55,2|2,1:2|1:2,0:2:0:0:
0,69,164724,1,10,0:2:0:0:
2,179,165079,70,0,L|122:187,1,110,0|8,1:2|0:2,0:0:0:0:
166,189,165610,1,2,0:2:0:0:
262,136,165964,2,0,L|265:74,1,55,2|10,0:0|0:2,0:0:0:0:
270,26,166318,2,0,B|325:14|325:14|381:31,1,110,2|0,1:2|1:2,0:0:0:0:
422,61,166850,1,8,0:2:0:0:
439,169,167204,2,0,L|500:161,2,55,0|0|8,1:2|0:2|0:2,0:0:0:0:
329,183,167912,5,0,1:2:0:0:
402,265,168267,2,0,P|411:295|410:328,1,55,10|2,0:2|0:2,0:0:0:0:
399,372,168621,1,2,0:2:0:0:
307,310,168975,1,10,0:0:0:0:
278,356,169152,2,0,P|226:340|173:354,1,110,14|2,0:0|1:2,0:0:0:0:
122,374,169684,1,10,0:0:0:0:
87,331,169861,2,0,L|17:320,2,55,10|8|8,0:0|0:2|0:2,0:0:0:0:
110,281,170392,1,8,1:2:0:0:
50,195,170746,6,0,P|43:164|47:133,1,55,6|0,1:2|1:2,0:0:0:0:
60,87,171101,2,0,B|114:94|114:94|178:83,1,110,8|0,0:2|1:2,0:0:0:0:
255,15,171810,1,8,0:2:0:0:
343,84,172164,2,0,B|398:94|398:94|452:87,1,110,2|8,1:2|0:2,0:0:0:0:
506,184,172873,2,0,L|494:300,1,110,0|8,1:2|0:2,0:0:0:0:
439,287,173405,1,0,0:2:0:0:
402,328,173582,6,0,L|397:390,2,55,2|0|8,1:2|0:2|0:2,0:0:0:0:
311,264,174291,2,0,L|320:200,1,55,0|0,1:2|0:2,0:0:0:0:
329,155,174645,1,8,0:2:0:0:
337,45,174999,2,0,P|289:22|227:29,1,110,2|8,1:2|0:2,0:0:0:0:
186,56,175531,1,2,0:2:0:0:
166,164,175885,1,0,1:2:0:0:
117,137,176063,2,0,L|56:132,1,55,10|8,0:2|0:2,0:0:0:0:
17,165,176417,6,0,P|12:202|15:227,1,55,2|0,1:2|1:2,0:0:0:0:
24,273,176771,2,0,L|147:264,1,110,8|0,0:2|1:2,0:0:0:0:
160,371,177480,1,8,0:2:0:0:
272,351,177835,2,0,L|343:339,2,55,2|0|8,1:2|0:0|0:2,0:0:0:0:
255,241,178543,2,0,L|246:181,1,55,0|0,1:2|0:2,0:0:0:0:
241,131,178898,1,8,0:0:0:0:
206,88,179075,1,8,0:0:0:0:
236,42,179252,6,0,B|288:26|288:26|357:33,1,110,2|8,1:2|0:2,0:0:0:0:
420,110,179961,2,0,B|436:162|436:162|430:217,1,110,0|8,1:2|0:2,0:0:0:0:
388,254,180493,1,0,0:2:0:0:
344,220,180670,2,0,L|222:202,1,110,2|8,1:2|0:2,0:0:0:0:
195,165,181201,1,2,0:2:0:0:
86,148,181556,1,0,1:2:0:0:
45,184,181733,2,0,P|39:220|45:250,1,55,10|8,0:2|0:2,0:0:0:0:
55,291,182086,6,0,L|1:283,2,55,6|0|0,1:2|1:2|1:2,0:0:0:0:
119,381,182795,2,0,L|228:368,1,110,8|0,0:2|0:2,0:0:0:0:
260,323,183327,1,0,1:2:0:0:
314,330,183505,2,0,L|322:384,2,55,2|0|0,1:2|1:2|1:2,0:0:0:0:
257,235,184214,2,0,P|244:182|257:127,1,110,8|0,0:2|0:2,0:0:0:0:
300,17,184924,6,0,L|241:10,2,55,0|0|0,1:2|1:2|1:2,0:0:0:0:
409,33,185634,1,8,0:2:0:0:
374,75,185811,2,0,P|368:101|372:129,1,55,0|0,1:2|1:2,0:0:0:0:
408,169,186166,2,0,P|420:220|399:280,1,110,12|0,0:2|1:2,0:0:0:0:
377,322,186698,1,8,0:2:0:0:
277,369,187053,2,0,L|216:362,1,55,10|10,0:2|0:2,0:0:0:0:
180,326,187408,1,8,0:2:0:0:
131,351,187585,2,0,P|77:357|29:331,1,110,8|0,0:2|1:2,0:0:0:0:
6,281,188118,5,14,0:2:0:0:
110,246,188472,2,0,L|122:119,1,110,0|8,1:2|0:2,0:0:0:0:
78,34,189181,2,0,L|188:44,1,110,2|10,1:2|0:2,0:0:0:0:
288,0,189890,2,0,L|278:110,1,110,0|8,1:2|0:2,0:0:0:0:
215,200,190599,6,0,B|266:216|266:216|327:209,1,110,2|8,1:2|0:2,0:0:0:0:
412,273,191308,2,0,B|428:221|428:221|421:160,1,110,0|8,1:2|0:2,0:0:0:0:
485,75,192017,2,0,P|434:58|372:65,1,110,2|8,1:2|0:2,0:0:0:0:
337,102,192548,2,0,P|282:109|229:91,1,110,2|0,0:0|0:0,0:0:0:0:
188,55,193080,1,10,0:2:0:0:
80,80,193435,6,0,L|84:140,1,55,6|0,1:2|1:0,0:0:0:0:
121,174,193789,2,0,L|109:294,1,110,8|0,0:2|1:2,0:0:0:0:
183,366,194498,1,8,0:2:0:0:
243,274,194852,2,0,L|252:208,2,55,2|0|8,1:2|0:2|0:2,0:0:0:0:
300,367,195561,2,0,P|332:370|359:363,1,55,0|0,1:2|0:2,0:0:0:0:
399,334,195916,1,8,0:2:0:0:
448,358,196093,1,8,0:2:0:0:
490,322,196270,6,0,P|502:270|482:208,1,110,2|8,1:2|0:0,0:0:0:0:
377,204,196979,2,0,P|363:150|378:98,1,110,0|8,1:0|0:0,0:0:0:0:
421,65,197511,1,0,0:0:0:0:
396,17,197688,2,0,B|339:3|339:3|268:10,1,110,2|8,1:2|0:0,0:0:0:0:
242,39,198220,1,2,0:2:0:0:
232,147,198574,1,0,1:2:0:0:
192,185,198751,2,0,P|156:191|126:185,1,55,10|8,0:2|0:2,0:0:0:0:
89,162,199106,38,0,L|84:102,1,55,6|0,1:2|1:0,0:0:0:0:
80,52,199460,2,0,L|197:41,1,110,8|0,0:2|1:2,0:0:0:0:
298,27,200169,1,8,0:2:0:0:
310,136,200523,2,0,L|374:133,1,55,2|0,1:2|0:0,0:0:0:0:
420,135,200878,2,0,B|435:192|435:192|426:250,1,110,8|0,0:0|1:2,0:0:0:0:
374,339,201587,2,0,L|312:334,1,55,8|2,0:0|0:0,0:0:0:0:
292,286,201941,6,0,L|237:290,1,55,2|0,1:2|0:0,0:0:0:0:
195,326,202296,2,0,P|173:276|182:219,1,110,8|0,0:2|1:0,0:0:0:0:
238,130,203005,1,8,0:2:0:0:
171,42,203359,2,0,P|119:30|60:52,1,110,2|8,1:2|0:0,0:0:0:0:
28,87,203891,2,0,L|40:206,1,110,2|2,0:0|0:2,0:0:0:0:
86,224,204422,2,0,L|79:285,1,55,10|2,0:2|0:2,0:0:0:0:
106,326,204777,1,0,1:0:0:0:
204,375,205131,6,0,L|331:365,1,110,14|0,0:2|1:0,0:0:0:0:
423,357,205840,1,8,0:0:0:0:
476,266,206195,2,0,B|487:210|487:210|472:146,1,104.499997209549,2|8,1:2|0:0,0:0:0:0:
418,76,206903,2,0,B|362:65|362:65|310:77,1,104.499997209549,0|8,1:0|0:0,0:0:0:0:
247,147,207612,6,0,L|255:261,1,98.9999969787599,2|8,1:2|0:0,0:0:0:0:
209,334,208321,2,0,L|99:342,1,98.9999969787599,0|8,1:0|0:0,0:0:0:0:
32,288,209030,2,0,P|20:222|32:176,1,93.500001783371,2|8,1:2|0:0,0:0:0:0:
37,151,209562,2,0,P|90:163|143:153,1,93.500001783371,2|0,0:2|0:0,0:0:0:0:
162,125,210093,1,10,0:0:0:0:
126,44,210448,5,6,1:2:0:0:
