osu file format v14

[General]
AudioFilename: audio.mp3
AudioLeadIn: 0
PreviewTime: 51356
Countdown: 0
SampleSet: Soft
StackLeniency: 0.4
Mode: 0
LetterboxInBreaks: 0
WidescreenStoryboard: 1

[Editor]
Bookmarks: 17322,34383,51445,74188,91243,113975,131030,136715,153744,170747,187764,210448
DistanceSpacing: 1.4
BeatDivisor: 4
GridSize: 4
TimelineZoom: 2.060002

[Metadata]
Title:Take On Me
TitleUnicode:Take On Me
Artist:a-ha
ArtistUnicode:a-ha
Creator:Kuroame
Version:Insane
Source:
Tags:english pop 80s classic synthpop old school hunting high and low norwegian aha a ha
BeatmapID:3882484
BeatmapSetID:754470

[Difficulty]
HPDrainRate:5
CircleSize:4
OverallDifficulty:8
ApproachRate:8.5
SliderMultiplier:1.6
SliderTickRate:1

[Events]
//Background and Video events
0,0,"bg.jpg",0,0
//Break Periods
2,114175,127512
//Storyboard Layer 0 (Background)
//Storyboard Layer 1 (Fail)
//Storyboard Layer 2 (Pass)
//Storyboard Layer 3 (Foreground)
//Storyboard Layer 4 (Overlay)
//Storyboard Sound Samples

[TimingPoints]
256,355.54502088827,4,2,1,50,1,0
256,-111.111111111111,4,2,1,50,0,0
5944,-111.111111111111,4,2,1,55,0,0
11633,-111.111111111111,4,2,1,60,0,0
17322,355.450236966825,4,2,1,70,1,0
17322,-100,4,2,1,80,0,0
28696,-90.9090909090909,4,2,1,80,0,0
34383,-105.263157894737,4,2,1,70,0,0
51445,355.124145482525,4,2,1,75,1,0
51445,-100,4,2,1,75,0,0
62808,355.650395661065,4,2,1,70,1,0
68498,-90.9090909090909,4,2,1,80,0,1
74188,355.313416042401,4,2,1,70,1,0
74188,-100,4,2,1,70,0,0
91243,355.187213260323,4,2,1,75,1,0
91243,-100,4,2,1,75,0,0
108291,-90.9090909090909,4,2,1,80,0,1
113975,355.323936989222,4,2,1,70,1,0
113975,-100,4,2,1,60,0,0
131030,-111.111111111111,4,2,1,50,0,0
136715,354.756696032638,4,2,1,70,1,0
136715,-100,4,2,1,70,0,0
148067,-90.9090909090909,4,2,1,70,0,0
153744,354.222628922278,4,2,1,70,1,0
170747,354.400472533963,4,2,1,75,1,0
170747,-100,4,2,1,75,0,0
182086,354.830125077619,4,2,1,70,1,0
187764,354.442344045369,4,2,1,70,1,0
187764,-90.9090909090909,4,2,1,80,0,1
193435,-100,4,2,1,70,0,0
205131,-83.3333333333333,4,2,1,75,0,1
206195,-100,4,2,1,65,0,1
207612,-111.111111111111,4,2,1,50,0,1
209030,-125,4,2,1,25,0,1
210448,-100,4,2,1,20,0,0

[Colours]
Combo1 : 43,186,255
Combo2 : 127,127,127
Combo3 : 212,212,212
Combo4 : 255,43,43
Combo5 : 255,255,43
Combo6 : 149,255,43

[HitObjects]
338,59,256,6,0,L|329:142,1,71.9999978027344,0|0,1:2|0:2,0:2:0:0:
409,149,611,2,0,L|418:72,1,71.9999978027344,8|0,0:2|0:2,0:2:0:0:
285,199,967,2,0,P|325:213|372:205,1,71.9999978027344,0|0,1:2|0:2,0:2:0:0:
500,239,1322,2,0,P|460:225|413:233,1,71.9999978027344,8|0,0:2|0:2,0:2:0:0:
409,363,1678,6,0,P|441:335|457:290,1,71.9999978027344,0|0,1:2|0:2,0:2:0:0:
347,222,2033,2,0,P|354:263|385:300,1,71.9999978027344,8|0,0:2|0:2,0:2:0:0:
325,376,2389,1,0,1:2:0:0:
325,376,2567,1,0,1:2:0:0:
276,291,2744,2,0,L|197:281,1,71.9999978027344,8|0,0:2|0:2,0:2:0:0:
232,149,3100,70,0,P|251:182|255:220,1,71.9999978027344,0|0,1:2|0:2,0:2:0:0:
129,261,3455,2,0,P|146:229|175:208,1,71.9999978027344,8|0,0:2|0:2,0:2:0:0:
300,164,3811,2,0,P|263:163|231:148,1,71.9999978027344,0|0,1:2|0:2,0:2:0:0:
133,64,4166,2,0,P|149:95|154:130,1,71.9999978027344,8|0,0:2|0:2,0:2:0:0:
60,195,4522,6,0,L|73:124,1,71.9999978027344,0|0,1:2|0:2,0:2:0:0:
100,273,4878,2,0,L|31:296,1,71.9999978027344,8|0,0:2|0:2,0:2:0:0:
146,207,5233,1,0,1:0:0:0:
146,207,5411,1,0,1:0:0:0:
150,340,5589,2,0,P|185:351|234:342,1,71.9999978027344,8|2,0:2|0:2,0:2:0:0:
237,334,5855,69,2,0:2:0:0:
251,320,5944,2,0,L|245:228,1,71.9999978027344,2|0,1:2|0:2,0:2:0:0:
349,200,6300,2,0,L|344:271,1,71.9999978027344,10|0,0:2|0:2,0:2:0:0:
379,364,6655,1,0,1:2:0:0:
379,364,6833,1,0,0:2:0:0:
454,228,7011,2,0,L|458:299,1,71.9999978027344,10|0,0:2|0:2,0:2:0:0:
356,186,7366,5,0,1:2:0:0:
356,186,7544,1,0,0:2:0:0:
507,150,7722,2,0,P|472:136|428:137,1,71.9999978027344,8|0,0:2|0:2,0:2:0:0:
366,277,8077,1,0,1:2:0:0:
454,228,8255,1,0,1:2:0:0:
347,114,8433,2,0,L|355:192,1,71.9999978027344,8|0,0:2|0:2,0:2:0:0:
248,324,8789,70,0,P|240:283|248:242,1,71.9999978027344,2|0,1:2|0:2,0:2:0:0:
262,167,9144,1,8,0:2:0:0:
135,379,9322,2,0,B|159:338|159:338|147:225,1,143.999995605469,2|0,0:2|1:2,0:2:0:0:
51,215,9855,2,0,L|62:313,1,71.9999978027344,8|0,0:2|0:2,0:2:0:0:
178,151,10211,5,0,1:2:0:0:
178,151,10389,1,0,0:2:0:0:
2,133,10566,2,0,L|81:125,1,71.9999978027344,8|0,0:2|0:2,0:2:0:0:
123,211,10922,1,0,1:2:0:0:
35,217,11100,1,0,1:2:0:0:
36,50,11277,2,0,P|71:41|111:49,1,71.9999978027344,8|0,0:2|0:2,0:2:0:0:
206,163,11633,70,0,L|209:80,1,71.9999978027344,2|0,1:2|0:2,0:2:0:0:
73,125,11988,1,8,0:2:0:0:
160,241,12166,2,0,P|204:251|256:237,1,71.9999978027344,2|0,0:2|1:2,0:2:0:0:
208,91,12522,1,0,0:2:0:0:
90,202,12700,2,0,P|80:243|90:287,1,71.9999978027344,8|2,0:2|0:2,0:2:0:0:
230,247,13055,5,2,1:2:0:0:
150,144,13233,1,2,0:2:0:0:
164,305,13411,1,8,0:2:0:0:
225,163,13588,1,2,0:2:0:0:
241,334,13766,2,0,B|320:353|298:299|392:314,1,143.999995605469,0|8,1:2|0:2,0:2:0:0:
394,173,14300,1,2,0:2:0:0:
470,345,14477,70,0,L|463:273,1,71.9999978027344,2|0,1:2|0:2,0:2:0:0:
335,240,14833,1,8,0:2:0:0:
492,191,15011,2,0,P|455:184|420:192,1,71.9999978027344,2|0,0:2|1:2,0:2:0:0:
379,312,15366,1,0,0:2:0:0:
328,168,15544,2,0,L|335:247,1,71.9999978027344,8|2,0:2|0:2,0:2:0:0:
385,83,15899,5,2,1:2:0:0:
385,83,16077,2,0,P|347:67|298:73,1,71.9999978027344,2|8,0:2|0:2,0:2:0:0:
172,159,16433,1,2,0:2:0:0:
328,168,16611,1,0,1:2:0:0:
198,60,16788,1,0,1:2:0:0:
238,243,16966,1,8,0:2:0:0:
316,67,17144,1,8,0:2:0:0:
339,285,17322,6,0,L|421:276,1,80,6|2,1:2|1:2,0:2:0:0:
251,136,17677,1,10,0:2:0:0:
257,345,17855,2,0,L|175:336,1,80,2|0,0:2|1:2,0:2:0:0:
321,195,18210,2,0,L|403:186,1,80,2|8,1:2|0:2,0:2:0:0:
176,249,18566,1,2,1:2:0:0:
176,249,18921,5,2,1:2:0:0:
227,78,19099,2,0,L|234:157,1,80,8|2,0:2|0:2,0:2:0:0:
253,312,19454,1,2,1:2:0:0:
325,116,19632,1,2,1:2:0:0:
354,306,19810,1,10,0:2:0:0:
237,167,19987,1,2,0:2:0:0:
420,150,20165,6,0,P|457:137|510:144,1,80,2|2,1:2|1:2,0:2:0:0:
320,194,20521,1,10,0:2:0:0:
467,315,20698,2,0,L|471:234,1,80,2|0,1:2|1:2,0:2:0:0:
306,355,21054,2,0,P|344:366|383:360,1,80,2|8,1:2|0:2,0:2:0:0:
420,150,21409,1,2,1:2:0:0:
420,150,21765,5,2,1:2:0:0:
495,62,21942,2,0,L|411:51,1,80,8|2,0:2|0:2,0:2:0:0:
248,129,22298,1,2,1:2:0:0:
420,150,22476,1,2,1:2:0:0:
236,35,22653,1,10,0:2:0:0:
330,195,22831,1,2,0:2:0:0:
341,0,23009,38,0,P|324:38|333:89,1,80,2|2,1:2|1:2,0:2:0:0:
332,212,23364,1,10,0:2:0:0:
214,91,23542,2,0,L|127:86,1,80,2|0,0:2|1:2,0:2:0:0:
123,238,23897,2,0,P|155:210|170:175,1,80,2|8,1:2|0:2,0:2:0:0:
66,20,24253,1,2,1:2:0:0:
66,20,24608,5,2,1:2:0:0:
19,202,24786,2,0,L|26:285,1,80,8|2,0:2|0:2,0:2:0:0:
204,144,25141,1,2,1:2:0:0:
6,92,25319,1,2,1:2:0:0:
108,231,25497,1,10,0:2:0:0:
150,52,25675,1,2,0:2:0:0:
205,242,25852,6,0,P|249:249|293:238,1,80,2|2,1:2|1:2,0:2:0:0:
389,110,26208,1,10,0:2:0:0:
234,74,26385,2,0,L|242:164,1,80,2|0,1:2|1:2,0:2:0:0:
378,282,26741,2,0,L|385:202,1,80,2|8,1:2|0:2,0:2:0:0:
327,39,27096,1,2,1:2:0:0:
327,39,27452,5,2,1:2:0:0:
512,120,27630,2,0,L|425:110,1,80,8|2,0:2|0:2,0:2:0:0:
252,94,27985,1,2,1:2:0:0:
422,19,28163,1,2,1:2:0:0:
335,182,28340,1,10,0:2:0:0:
317,3,28518,1,2,0:2:0:0:
512,208,28696,38,0,L|411:196,1,88.000002685547,6|2,1:2|1:2,0:2:0:0:
252,279,29051,1,10,0:2:0:0:
445,378,29229,2,0,P|464:335|458:285,1,88.000002685547,2|0,0:2|1:2,0:2:0:0:
331,139,29585,2,0,L|328:227,1,88.000002685547,2|8,1:2|0:2,0:2:0:0:
233,380,29940,1,2,1:2:0:0:
233,380,30295,5,2,1:2:0:0:
144,196,30473,2,0,L|233:186,1,88.000002685547,8|2,0:2|0:2,0:2:0:0:
371,309,30829,1,2,1:2:0:0:
321,120,31006,1,2,1:2:0:0:
249,301,31184,1,10,0:2:0:0:
418,190,31362,1,2,0:2:0:0:
232,61,31540,6,0,P|216:101|220:145,1,88.000002685547,2|2,1:2|1:2,0:2:0:0:
112,302,31895,1,10,0:2:0:0:
127,115,32073,2,0,B|86:107|86:107|40:115,1,88.000002685547,2|0,0:2|1:2,0:2:0:0:
185,235,32428,2,0,B|229:239|229:239|273:228,1,88.000002685547,2|8,1:2|0:2,0:2:0:0:
330,29,32784,1,2,1:2:0:0:
330,29,33139,5,2,1:2:0:0:
495,122,33317,2,0,L|504:34,1,88.000002685547,8|2,0:2|3:2,0:2:0:0:
444,263,33672,1,10,0:2:0:0:
412,72,33850,1,10,0:2:0:0:
316,253,34028,1,2,1:2:0:0:
427,171,34205,1,0,1:2:0:0:
512,344,34383,6,0,B|467:367|467:367|352:353,1,151.999995941162,6|8,1:2|0:2,0:2:0:0:
282,236,34916,2,0,L|374:229,1,75.9999979705811,2|0,0:2|0:2,0:2:0:0:
266,339,35272,1,2,0:2:0:0:
186,165,35449,1,10,0:2:0:0:
186,165,35627,6,0,B|171:333,1,151.999995941162,0|0,1:2|1:2,0:2:0:0:
86,206,36160,2,0,L|78:293,1,75.9999979705811,8|0,0:2|1:2,0:2:0:0:
15,131,36516,1,0,1:2:0:0:
15,131,36694,1,0,0:2:0:0:
146,77,36871,2,0,P|185:67|235:78,1,75.9999979705811,10|0,0:2|0:2,0:2:0:0:
184,238,37227,70,0,P|177:192|189:158,1,75.9999979705811,2|2,1:2|1:2,0:2:0:0:
316,78,37582,1,8,0:2:0:0:
344,214,37760,2,0,L|265:207,1,75.9999979705811,2|0,0:2|0:2,0:2:0:0:
161,326,38115,2,0,B|220:329|220:329|260:307|260:307|324:312,1,151.999995941162,2|0,1:2|1:2,0:2:0:0:
475,331,38649,5,0,0:2:0:0:
475,331,38826,2,0,L|395:324,1,75.9999979705811,2|8,1:2|0:2,0:2:0:0:
345,219,39182,1,0,1:2:0:0:
512,238,39359,2,0,L|432:231,1,75.9999979705811,2|0,1:2|0:2,0:2:0:0:
315,127,39715,2,0,L|394:134,1,75.9999979705811,10|0,0:2|1:2,0:2:0:0:
510,49,40070,70,0,L|331:32,1,151.999995941162,2|8,1:2|0:2,0:2:0:0:
315,127,40603,1,0,0:2:0:0:
395,213,40781,1,2,0:2:0:0:
395,213,40959,2,0,L|405:129,1,75.9999979705811,2|8,0:2|0:2,0:2:0:0:
452,291,41314,6,0,P|389:250|304:277,1,151.999995941162,2|0,1:2|1:2,0:2:0:0:
172,326,41848,2,0,P|214:327|252:311,1,75.9999979705811,8|0,0:2|1:2,0:2:0:0:
322,175,42203,1,0,1:2:0:0:
322,175,42381,1,0,0:2:0:0:
202,158,42558,2,0,P|189:195|196:234,1,75.9999979705811,8|2,0:2|0:2,0:2:0:0:
269,88,42914,70,0,B|227:63|227:63|101:75,1,151.999995941162,2|8,1:2|0:2,0:2:0:0:
78,179,43447,2,0,L|167:171,1,75.9999979705811,2|0,0:2|0:2,0:2:0:0:
270,251,43803,1,2,0:2:0:0:
57,311,43980,1,10,0:2:0:0:
57,311,44158,6,0,B|87:271|87:271|212:257,1,151.999995941162,2|0,1:2|1:2,0:2:0:0:
306,330,44691,1,8,0:2:0:0:
306,330,44869,1,2,1:2:0:0:
138,349,45047,2,0,L|217:338,1,75.9999979705811,2|0,1:2|0:2,0:2:0:0:
354,238,45402,2,0,L|274:246,1,75.9999979705811,10|2,0:2|1:2,0:2:0:0:
306,86,45758,69,0,1:2:0:0:
306,86,45935,1,0,1:2:0:0:
181,183,46113,2,0,L|190:283,1,75.9999979705811,10|0,0:2|0:2,0:2:0:0:
208,92,46468,2,0,P|169:90|131:102,1,75.9999979705811,2|0,0:2|0:2,0:2:0:0:
91,199,46824,1,10,0:2:0:0:
286,317,47002,6,0,L|271:148,1,151.999995941162,2|0,1:2|1:2,0:2:0:0:
394,76,47535,2,0,P|354:71|316:83,1,75.9999979705811,8|0,0:2|1:2,0:2:0:0:
365,167,47890,1,0,1:2:0:0:
365,167,48068,1,0,0:2:0:0:
476,34,48246,2,0,L|483:114,1,75.9999979705811,8|0,0:2|0:2,0:2:0:0:
427,282,48601,69,0,1:2:0:0:
427,282,48779,1,0,1:2:0:0:
466,194,48957,2,0,P|428:190|388:202,1,75.9999979705811,10|2,0:2|0:2,0:2:0:0:
481,353,49312,2,0,P|503:322|512:275,1,75.9999979705811,2|2,0:2|0:2,0:2:0:0:
344,298,49667,2,0,P|359:332|391:361,1,75.9999979705811,10|6,0:2|1:2,0:2:0:0:
392,200,50023,5,2,0:2:0:0:
254,372,50201,2,0,L|245:220,1,151.999995941162,2|0,1:2|1:2,0:2:0:0:
242,117,50734,1,2,1:2:0:0:
139,201,50912,1,0,1:2:0:0:
104,60,51089,1,8,1:2:0:0:
245,220,51267,1,0,3:2:0:0:
221,10,51445,5,6,1:2:0:0:
221,10,51622,1,0,1:2:0:0:
78,185,51800,2,0,L|158:196,1,80,8|0,0:2|0:2,0:2:0:0:
45,359,52155,2,0,L|15:286,1,80,0|0,1:2|0:2,0:2:0:0:
214,300,52510,2,0,L|165:364,1,80,8|0,0:2|0:2,0:2:0:0:
185,201,52865,6,0,B|278:180|258:233|342:219,1,160,2|8,1:2|0:2,0:2:0:0:
487,93,53397,1,0,0:2:0:0:
339,36,53575,2,0,L|329:124,1,80,0|0,1:2|0:2,0:2:0:0:
445,253,53930,2,0,P|452:212|443:173,1,80,8|0,0:2|0:2,0:2:0:0:
369,369,54285,5,2,1:2:0:0:
275,211,54463,1,0,1:2:0:0:
275,211,54641,2,0,L|355:221,1,80,8|0,0:2|0:2,0:2:0:0:
228,126,54996,1,0,1:2:0:0:
238,308,55173,1,0,1:2:0:0:
238,308,55351,2,0,L|329:299,1,80,8|0,0:2|0:2,0:2:0:0:
167,384,55706,6,0,P|137:315|167:237,1,160,2|8,1:2|0:2,0:2:0:0:
230,98,56239,2,0,P|237:147|219:192,1,80,2|0,0:2|1:2,0:2:0:0:
50,241,56594,1,0,1:2:0:0:
111,50,56771,1,10,0:2:0:0:
142,155,56949,1,0,0:2:0:0:
12,85,57126,37,2,1:2:0:0:
12,85,57304,1,0,1:2:0:0:
203,9,57482,2,0,P|247:4|291:23,1,80,8|0,0:2|0:2,0:2:0:0:
290,207,57837,2,0,P|264:171|259:123,1,80,0|0,1:2|0:2,0:2:0:0:
411,49,58192,2,0,P|394:89|355:118,1,80,8|0,0:2|0:2,0:2:0:0:
283,224,58547,6,0,L|448:210,1,160,2|8,1:2|0:2,0:2:0:0:
347,114,59080,1,0,0:2:0:0:
198,196,59257,2,0,P|191:235|207:278,1,80,0|0,1:2|0:2,0:2:0:0:
367,381,59612,2,0,L|360:291,1,80,8|0,0:2|0:2,0:2:0:0:
422,118,59967,5,2,1:2:0:0:
470,339,60145,1,0,1:2:0:0:
470,339,60323,2,0,L|463:249,1,80,8|0,0:2|0:2,0:2:0:0:
312,119,60678,1,0,1:2:0:0:
512,162,60855,1,0,1:2:0:0:
512,162,61033,2,0,L|427:147,1,80,8|0,0:2|0:2,0:2:0:0:
322,8,61388,6,0,L|336:189,1,160,2|8,1:2|0:2,0:2:0:0:
217,34,61921,2,0,P|169:25|130:38,1,80,2|0,0:2|1:2,0:2:0:0:
230,222,62276,1,0,1:2:0:0:
332,76,62453,1,10,0:2:0:0:
355,264,62631,1,8,0:2:0:0:
224,132,62808,5,6,1:2:0:0:
224,132,62985,1,0,1:2:0:0:
189,222,63163,2,0,L|275:215,1,80,0|0,1:2|0:2,0:2:0:0:
152,316,63519,2,0,L|326:302,1,160,8|0,0:2|0:2,0:2:0:0:
269,216,64052,1,0,1:2:0:0:
381,208,64230,5,2,1:2:0:0:
381,208,64408,1,0,1:2:0:0:
404,379,64586,2,0,L|392:299,1,80,0|0,1:2|0:2,0:2:0:0:
501,384,64941,2,0,L|478:225,1,160,8|0,0:2|0:2,0:2:0:0:
466,131,65475,1,2,1:2:0:0:
363,149,65653,69,0,1:2:0:0:
363,149,65831,1,0,1:2:0:0:
495,40,66008,2,0,P|453:35|412:50,1,80,0|0,1:2|0:2,0:2:0:0:
377,251,66364,2,0,L|474:238,1,80,8|0,0:2|1:2,0:2:0:0:
509,154,66720,1,0,1:2:0:0:
290,188,66897,1,12,0:2:0:0:
290,188,67253,5,0,1:2:0:0:
258,27,67431,2,0,P|219:14|178:16,1,80,10|2,0:2|1:2,0:2:0:0:
15,161,67787,1,8,0:2:0:0:
206,116,67964,1,10,0:2:0:0:
43,6,68142,1,10,0:2:0:0:
141,204,68320,2,0,P|203:221|294:183,1,160,10|0,0:2|1:2,0:2:0:0:
430,66,68854,6,0,P|374:63|315:87,1,88.000002685547,14|0,0:2|0:2,0:2:0:0:
471,251,69209,2,0,P|501:203|509:140,1,88.000002685547,2|0,1:2|0:2,0:2:0:0:
290,194,69565,2,0,P|315:243|366:281,1,88.000002685547,8|0,0:2|0:2,0:2:0:0:
217,16,69921,6,0,L|125:9,1,88.000002685547,2|0,1:2|0:2,0:2:0:0:
290,194,70276,2,0,L|298:94,1,88.000002685547,8|0,0:2|0:2,0:2:0:0:
112,267,70632,2,0,L|211:275,1,88.000002685547,0|0,1:2|0:2,0:2:0:0:
39,89,70987,2,0,L|31:188,1,88.000002685547,8|0,0:2|0:2,0:2:0:0:
15,356,71343,5,2,1:2:0:0:
159,187,71521,1,0,1:2:0:0:
217,375,71699,2,0,L|122:367,1,88.000002685547,8|0,0:2|0:2,0:2:0:0:
247,196,72054,1,0,1:2:0:0:
301,380,72232,1,0,1:0:0:0:
104,275,72410,2,0,L|203:283,1,88.000002685547,8|0,0:2|0:2,0:2:0:0:
358,256,72766,5,2,1:2:0:0:
224,369,72944,1,0,1:0:0:0:
265,134,73121,2,0,L|275:228,1,88.000002685547,8|0,0:2|0:2,0:2:0:0:
304,372,73477,1,0,1:2:0:0:
205,280,73655,1,0,1:2:0:0:
367,169,73833,2,0,L|358:266,1,88.000002685547,8|0,0:2|1:2,0:2:0:0:
452,332,74188,6,0,B|464:162,1,160,6|8,1:2|0:2,0:2:0:0:
342,75,74720,2,0,P|386:70|431:89,1,80,2|0,0:2|1:2,0:2:0:0:
272,136,75076,1,2,0:2:0:0:
277,6,75253,1,10,0:2:0:0:
277,6,75431,6,0,B|191:-4|207:45|123:29,1,160,0|0,1:2|1:2,0:2:0:0:
23,162,75964,2,0,L|14:82,1,80,8|0,0:2|1:2,0:2:0:0:
183,188,76319,1,0,1:2:0:0:
183,188,76497,1,0,0:2:0:0:
122,28,76675,2,0,L|116:113,1,80,10|2,0:2|0:2,0:2:0:0:
92,232,77030,70,0,P|50:238|7:225,1,80,2|0,1:2|1:2,0:2:0:0:
191,150,77385,1,10,0:2:0:0:
139,305,77563,2,0,B|197:324|197:324|297:303,1,160,2|0,0:2|0:2,0:2:0:0:
347,187,78096,2,0,L|267:180,1,80,10|0,0:2|1:2,0:2:0:0:
387,286,78451,5,0,0:2:0:0:
483,142,78629,1,2,1:2:0:0:
466,346,78807,2,0,P|481:309|484:269,1,80,10|0,0:2|1:2,0:2:0:0:
304,331,79162,2,0,P|327:363|361:384,1,80,2|0,1:2|0:2,0:2:0:0:
398,198,79517,2,0,P|358:201|323:220,1,80,10|0,0:2|1:2,0:2:0:0:
196,335,79873,70,0,P|234:266|225:186,1,160,2|8,1:2|0:2,0:2:0:0:
86,128,80405,1,0,0:2:0:0:
142,249,80583,1,2,0:2:0:0:
265,97,80761,2,0,L|179:91,1,80,2|8,0:2|0:2,0:2:0:0:
324,196,81116,6,0,P|397:205|465:151,1,160,2|0,1:2|1:2,0:2:0:0:
382,19,81649,2,0,L|374:104,1,80,8|0,0:2|1:2,0:2:0:0:
225,139,82004,1,0,1:2:0:0:
225,139,82182,1,0,0:2:0:0:
400,211,82360,2,0,P|360:195|316:196,1,80,8|2,0:2|0:2,0:2:0:0:
480,352,82715,70,0,B|463:263|517:275|497:183,1,160,2|8,1:2|0:2,0:2:0:0:
391,101,83248,2,0,L|395:189,1,80,2|0,0:2|0:2,0:2:0:0:
300,254,83603,1,2,0:2:0:0:
294,151,83781,1,8,0:2:0:0:
395,309,83959,6,0,B|355:341|355:341|244:346,1,160,2|0,1:2|1:2,0:2:0:0:
149,211,84492,1,10,0:2:0:0:
300,254,84669,1,0,1:2:0:0:
156,383,84847,2,0,L|154:300,1,80,2|0,1:2|0:2,0:2:0:0:
56,171,85202,2,0,L|57:255,1,80,8|0,0:2|1:2,0:2:0:0:
173,68,85558,69,2,1:2:0:0:
173,68,85735,1,0,1:2:0:0:
228,218,85913,2,0,L|128:209,1,80,8|2,0:2|0:2,0:2:0:0:
253,122,86268,2,0,P|290:137|318:175,1,80,0|2,0:2|0:2,0:2:0:0:
309,262,86623,1,10,0:2:0:0:
160,119,86801,6,0,P|183:57|285:31,1,160,0|0,1:2|1:2,0:2:0:0:
332,127,87334,2,0,L|249:121,1,80,8|0,0:2|1:2,0:2:0:0:
386,44,87689,1,0,1:2:0:0:
386,44,87867,1,0,0:2:0:0:
333,204,88045,2,0,P|297:209|253:197,1,80,10|0,0:2|0:2,0:2:0:0:
413,132,88400,69,0,1:2:0:0:
413,132,88578,1,0,1:2:0:0:
332,282,88755,2,0,P|325:239|336:197,1,80,10|2,0:2|0:2,0:2:0:0:
501,200,89111,2,0,P|468:226|426:238,1,80,2|2,0:2|0:2,0:2:0:0:
346,94,89466,2,0,P|387:108|417:138,1,80,10|6,0:2|1:2,0:2:0:0:
440,316,89821,6,0,L|431:236,1,80,2|0,0:2|1:2,0:2:0:0:
482,93,90176,1,10,0:2:0:0:
512,244,90354,1,2,1:2:0:0:
402,65,90532,1,0,1:2:0:0:
345,229,90710,1,2,1:2:0:0:
482,103,90887,1,8,1:2:0:0:
411,294,91065,1,8,0:2:0:0:
281,159,91243,5,6,1:2:0:0:
281,159,91420,1,0,1:2:0:0:
474,94,91598,2,0,P|476:133|460:170,1,80,8|0,0:2|0:2,0:2:0:0:
306,35,91953,2,0,P|339:14|379:10,1,80,0|0,1:2|0:2,0:2:0:0:
340,210,92308,2,0,P|305:192|282:160,1,80,8|0,0:2|0:2,0:2:0:0:
171,13,92663,6,0,B|215:41|215:41|188:167,1,160,2|8,1:2|0:2,0:2:0:0:
35,260,93196,1,0,0:2:0:0:
26,98,93374,2,0,L|118:91,1,80,0|0,1:2|0:2,0:2:0:0:
224,248,93729,2,0,L|132:241,1,80,8|0,0:2|0:2,0:2:0:0:
316,298,94084,5,2,1:2:0:0:
192,146,94262,1,0,1:2:0:0:
192,146,94439,2,0,B|184:108|184:108|196:58,1,80,8|0,0:2|0:2,0:2:0:0:
144,241,94794,1,0,1:2:0:0:
292,106,94972,1,0,1:2:0:0:
292,106,95150,2,0,L|382:97,1,80,8|0,0:2|0:2,0:2:0:0:
508,212,95505,6,0,L|319:199,1,160,2|8,1:2|0:2,0:2:0:0:
415,384,96038,2,0,P|422:335|404:290,1,80,2|0,0:2|1:2,0:2:0:0:
218,206,96393,1,0,1:2:0:0:
398,145,96570,1,10,0:2:0:0:
288,316,96748,1,8,0:2:0:0:
216,117,96925,37,2,1:2:0:0:
216,117,97103,1,0,1:2:0:0:
198,312,97281,2,0,P|162:285|143:241,1,80,8|0,0:2|0:2,0:2:0:0:
2,180,97636,2,0,P|42:162|90:167,1,80,0|0,1:2|0:2,0:2:0:0:
213,76,97991,2,0,P|207:119|179:158,1,80,8|0,0:2|0:2,0:2:0:0:
52,270,98346,6,0,B|142:238|127:303|225:266,1,160,2|8,1:2|0:2,0:2:0:0:
341,139,98879,1,0,0:2:0:0:
170,101,99057,2,0,P|163:140|172:185,1,80,0|0,1:2|0:2,0:2:0:0:
299,330,99412,2,0,L|309:240,1,80,8|0,0:2|0:2,0:2:0:0:
466,124,99767,5,2,1:2:0:0:
261,145,99945,1,0,1:2:0:0:
261,145,100122,2,0,L|340:138,1,80,8|0,0:2|0:2,0:2:0:0:
435,308,100477,1,0,1:2:0:0:
466,124,100655,1,0,1:2:0:0:
466,124,100833,2,0,L|451:209,1,80,8|0,0:2|0:2,0:2:0:0:
358,345,101188,6,0,B|309:365|309:365|194:338,1,160,2|8,1:2|0:2,0:2:0:0:
115,177,101721,2,0,L|103:271,1,80,2|0,0:2|1:2,0:2:0:0:
294,271,102076,1,0,1:2:0:0:
199,137,102253,1,10,0:2:0:0:
189,331,102431,1,8,0:2:0:0:
342,192,102608,5,6,1:2:0:0:
342,192,102786,1,0,1:2:0:0:
274,104,102964,2,0,L|360:108,1,80,0|0,1:2|0:2,0:2:0:0:
203,14,103319,2,0,L|365:24,1,160,8|0,0:2|0:2,0:2:0:0:
188,100,103852,1,0,1:2:0:0:
172,190,104029,5,2,1:2:0:0:
172,190,104207,1,0,1:2:0:0:
85,227,104384,2,0,P|94:189|93:149,1,80,0|0,1:2|0:2,0:2:0:0:
8,261,104740,2,0,P|-8:183|16:108,1,160,8|0,0:2|0:2,0:2:0:0:
84,311,105272,1,2,1:2:0:0:
173,274,105450,69,0,1:2:0:0:
173,274,105628,1,0,1:2:0:0:
191,369,105805,2,0,P|237:379|283:372,1,80,0|0,1:2|0:2,0:2:0:0:
327,290,106160,2,0,P|251:265|172:273,1,160,8|0,0:2|0:2,0:2:0:0:
182,180,106693,2,0,P|223:170|268:172,1,80,2|0,1:2|1:2,0:2:0:0:
402,256,107048,5,0,1:2:0:0:
402,256,107226,1,2,1:2:0:0:
232,264,107404,1,2,1:2:0:0:
411,126,107581,1,8,0:2:0:0:
318,324,107759,1,10,0:2:0:0:
222,128,107936,1,10,0:2:0:0:
153,331,108114,2,0,B|104:351|104:351|-5:326,1,160,2|0,1:2|1:2,0:2:0:0:
222,128,108647,6,0,L|230:230,1,88.000002685547,14|0,0:2|0:2,0:2:0:0:
439,210,109002,2,0,L|346:165,1,88.000002685547,0|0,1:2|0:2,0:2:0:0:
263,353,109357,2,0,L|347:295,1,88.000002685547,8|0,0:2|0:2,0:2:0:0:
273,57,109712,6,0,P|228:46|182:60,1,88.000002685547,2|0,1:2|0:0,0:0:0:0:
225,247,110067,2,0,P|236:202|222:156,1,88.000002685547,8|0,0:2|0:0,0:0:0:0:
35,201,110423,2,0,P|80:212|126:198,1,88.000002685547,0|0,1:2|0:0,0:0:0:0:
82,10,110778,2,0,P|71:55|85:101,1,88.000002685547,8|0,0:2|0:0,0:0:0:0:
225,247,111133,5,2,1:2:0:0:
188,56,111311,1,0,1:0:0:0:
341,211,111488,2,0,L|333:298,1,88.000002685547,8|0,0:2|0:2,0:2:0:0:
201,146,111843,1,0,1:2:0:0:
406,103,112021,1,0,1:0:0:0:
230,237,112199,2,0,L|135:224,1,88.000002685547,8|0,0:2|0:2,0:2:0:0:
305,124,112554,5,2,1:2:0:0:
264,321,112731,1,2,1:2:0:0:
113,134,112909,2,0,L|216:148,1,88.000002685547,8|0,0:2|0:2,0:2:0:0:
415,259,113264,1,0,1:2:0:0:
230,237,113442,1,0,1:2:0:0:
397,163,113619,1,8,0:2:0:0:
200,145,113797,1,0,3:2:0:0:
267,333,113975,37,6,1:2:0:0:
256,192,128187,12,0,130852,0:2:0:0:
321,214,131030,54,0,L|312:118,1,71.9999978027344,2|2,0:2|0:2,0:2:0:0:
226,89,131385,1,2,0:2:0:0:
165,175,131563,2,0,L|261:184,1,71.9999978027344,2|0,0:2|0:2,0:2:0:0:
320,297,131918,2,0,P|279:286|252:259,1,71.9999978027344,2|0,0:0|0:0,0:0:0:0:
314,142,132274,6,0,B|398:128|370:179|457:163,2,143.999995605469,2|2|2,0:0|0:0|0:0,0:0:0:0:
226,89,133162,1,2,0:0:0:0:
226,89,133340,1,2,0:0:0:0:
307,49,133517,1,2,0:0:0:0:
307,49,133695,1,2,0:0:0:0:
236,181,133873,70,0,P|234:236|249:268,1,71.9999978027344,2|2,0:2|0:2,0:2:0:0:
315,287,134228,1,2,0:2:0:0:
321,140,134406,2,0,L|311:229,1,71.9999978027344,2|0,0:0|0:0,0:0:0:0:
400,327,134761,2,0,L|391:255,1,71.9999978027344,2|0,0:0|0:0,0:0:0:0:
295,364,135116,2,0,B|241:378|241:378|152:352,2,143.999995605469,2|2|2,0:0|0:0|0:0,0:0:0:0:
417,216,136005,5,10,0:2:0:0:
232,274,136182,1,10,0:2:0:0:
403,317,136360,1,2,3:2:0:0:
302,348,136538,1,2,3:2:0:0:
205,160,136715,6,0,P|167:148|123:151,1,80,6|2,1:2|1:2,0:2:0:0:
50,291,137069,1,10,0:2:0:0:
39,96,137247,2,0,L|30:178,1,80,2|0,0:2|1:2,0:2:0:0:
163,328,137601,2,0,L|154:246,1,80,2|8,1:2|0:2,0:2:0:0:
175,95,137956,1,2,1:2:0:0:
175,95,138311,5,2,1:2:0:0:
244,247,138488,2,0,L|323:240,1,80,8|2,0:2|0:2,0:2:0:0:
474,138,138843,1,2,1:2:0:0:
266,134,139020,1,2,1:2:0:0:
427,260,139198,1,10,0:2:0:0:
369,77,139375,1,2,0:2:0:0:
315,258,139553,6,0,P|312:297|325:335,1,80,2|2,1:2|1:2,0:2:0:0:
494,223,139907,1,10,0:2:0:0:
354,153,140085,2,0,L|273:149,1,80,2|0,0:2|1:2,0:2:0:0:
129,234,140439,2,0,P|167:245|206:239,1,80,2|8,1:2|0:2,0:2:0:0:
234,37,140794,1,2,1:2:0:0:
234,37,141149,5,2,1:2:0:0:
62,74,141326,2,0,L|51:158,1,80,8|2,0:2|0:2,0:2:0:0:
199,292,141681,1,2,1:2:0:0:
143,127,141858,1,2,1:2:0:0:
97,294,142036,1,10,0:2:0:0:
237,188,142213,1,2,0:2:0:0:
17,246,142391,38,0,P|0:284|9:335,1,80,2|2,1:2|1:2,0:2:0:0:
144,216,142745,1,10,0:2:0:0:
160,381,142923,2,0,L|73:376,1,80,2|0,0:2|1:2,0:2:0:0:
242,249,143277,2,0,L|332:238,1,80,2|8,1:2|0:2,0:2:0:0:
446,365,143632,1,2,1:2:0:0:
446,365,143987,5,2,1:2:0:0:
410,196,144164,2,0,L|403:279,1,80,8|2,0:2|0:2,0:2:0:0:
512,156,144519,1,2,1:2:0:0:
307,121,144697,1,2,1:2:0:0:
512,44,144874,1,10,0:2:0:0:
410,196,145051,1,2,0:2:0:0:
339,15,145229,6,0,P|377:0|424:1,1,80,2|2,1:2|1:2,0:2:0:0:
324,139,145583,1,10,0:2:0:0:
235,0,145761,2,0,L|243:90,1,80,2|0,1:2|1:2,0:2:0:0:
317,218,146116,2,0,L|324:138,1,80,2|8,1:2|0:2,0:2:0:0:
149,34,146470,1,2,1:2:0:0:
149,34,146825,5,2,1:2:0:0:
149,180,147002,2,0,L|236:170,1,80,8|2,0:2|0:2,0:2:0:0:
24,268,147357,1,2,1:2:0:0:
95,101,147535,1,2,1:2:0:0:
137,267,147712,1,10,0:2:0:0:
6,168,147889,1,2,0:2:0:0:
112,365,148067,38,0,P|155:372|211:348,1,88.000002685547,6|2,1:2|1:2,0:2:0:0:
278,197,148421,1,10,0:2:0:0:
378,378,148599,2,0,P|335:385|279:361,1,88.000002685547,2|2,0:2|1:2,0:2:0:0:
461,235,148954,2,0,L|458:323,1,88.000002685547,2|8,1:2|0:2,0:2:0:0:
278,197,149308,1,2,1:2:0:0:
278,197,149663,5,2,1:2:0:0:
512,159,149840,2,0,P|473:143|423:147,1,88.000002685547,8|2,0:2|0:2,0:2:0:0:
341,285,150195,1,2,1:2:0:0:
307,96,150373,1,2,1:2:0:0:
461,235,150550,1,10,0:2:0:0:
412,43,150727,1,2,0:2:0:0:
274,203,150905,6,0,P|320:206|365:190,1,88.000002685547,2|2,1:2|1:2,0:2:0:0:
308,0,151260,1,10,0:2:0:0:
173,174,151437,2,0,P|165:215|181:257,1,88.000002685547,2|0,0:2|1:2,0:2:0:0:
235,77,151792,2,0,L|146:68,1,88.000002685547,2|8,1:2|0:2,0:2:0:0:
280,214,152146,1,2,1:2:0:0:
280,214,152501,5,2,1:2:0:0:
331,31,152679,2,0,L|341:124,1,88.000002685547,8|2,0:2|0:2,0:2:0:0:
406,327,153033,1,10,0:2:0:0:
435,122,153211,1,10,0:2:0:0:
295,294,153388,1,2,1:2:0:0:
489,241,153565,1,0,1:2:0:0:
276,195,153744,6,0,B|189:177|208:237|123:223,1,160,6|8,1:2|0:2,0:2:0:0:
64,78,154275,2,0,L|58:172,1,80,2|0,0:2|0:2,0:2:0:0:
54,250,154629,1,2,0:2:0:0:
156,132,154806,1,10,0:2:0:0:
131,320,154983,6,0,B|184:340|184:340|290:321,1,160,0|0,1:2|1:2,0:2:0:0:
307,216,155515,2,0,L|220:228,1,80,8|0,0:2|1:2,0:2:0:0:
377,302,155869,1,0,1:2:0:0:
377,302,156046,1,2,0:2:0:0:
390,125,156223,2,0,L|401:208,1,80,10|0,0:2|0:2,0:2:0:0:
420,29,156577,70,0,L|338:39,1,80,2|2,1:2|1:2,0:2:0:0:
298,145,156932,1,10,0:2:0:0:
256,0,157109,2,0,P|246:40|255:78,1,80,2|0,0:2|0:2,0:2:0:0:
411,185,157463,2,0,B|422:161|438:145|438:145|417:23,1,160,2|0,1:2|1:2,0:2:0:0:
340,41,157994,1,0,0:0:0:0:
326,162,158171,6,0,L|334:241,1,80,2|8,1:2|0:2,0:2:0:0:
411,185,158526,1,2,1:2:0:0:
241,226,158703,2,0,P|245:269|264:305,1,80,2|0,1:2|0:2,0:2:0:0:
414,354,159057,2,0,L|421:275,1,80,10|0,0:2|1:2,0:2:0:0:
283,130,159411,70,0,B|221:125|221:125|179:149|179:149|129:144,1,160,2|8,1:2|0:2,0:2:0:0:
75,47,159942,2,0,L|154:55,1,80,2|0,0:2|0:2,0:2:0:0:
67,218,160297,1,2,0:2:0:0:
37,133,160474,1,10,0:2:0:0:
243,57,160651,6,0,L|229:225,1,160,0|0,1:2|1:2,0:2:0:0:
134,297,161182,2,0,L|142:212,1,80,8|0,0:2|1:2,0:2:0:0:
152,134,161536,1,0,1:2:0:0:
152,134,161714,1,0,0:2:0:0:
313,145,161891,2,0,L|308:226,1,80,8|2,0:2|0:2,0:2:0:0:
198,367,162245,70,0,P|129:388|53:351,1,160,2|8,1:2|0:2,0:2:0:0:
135,218,162776,2,0,P|141:257|133:296,1,80,2|0,0:2|0:2,0:2:0:0:
42,254,163130,1,2,0:2:0:0:
60,162,163308,1,8,0:2:0:0:
224,281,163485,6,0,B|311:307|293:247|383:273,1,160,2|2,1:2|1:2,0:2:0:0:
438,375,164016,1,8,0:2:0:0:
350,354,164193,1,2,1:2:0:0:
458,219,164370,2,0,P|472:257|468:297,1,80,2|0,1:2|0:2,0:2:0:0:
314,220,164724,2,0,P|313:180|327:143,1,80,10|0,0:2|1:2,0:2:0:0:
512,127,165079,69,0,1:2:0:0:
512,127,165256,2,0,L|432:119,1,80,2|8,1:2|0:2,0:2:0:0:
451,299,165610,2,0,L|458:219,1,80,2|0,0:2|0:2,0:2:0:0:
343,111,165964,1,2,0:0:0:0:
372,200,166141,1,10,0:2:0:0:
478,42,166318,6,0,L|311:25,1,160,2|0,1:2|1:2,0:2:0:0:
301,197,166850,2,0,L|309:115,1,80,8|0,0:2|1:2,0:2:0:0:
226,11,167204,1,0,1:2:0:0:
226,11,167381,1,0,0:2:0:0:
203,189,167558,2,0,L|212:98,1,80,8|0,0:2|0:2,0:2:0:0:
113,102,167912,69,0,1:2:0:0:
113,102,168090,1,0,1:2:0:0:
150,279,168267,2,0,P|190:293|233:289,1,80,10|2,0:2|0:2,0:2:0:0:
99,189,168621,2,0,P|66:217|48:258,1,80,2|2,0:2|1:2,0:2:0:0:
50,249,168887,1,0,1:0:0:0:
50,249,168975,1,10,0:0:0:0:
203,189,169152,2,0,L|184:111,1,80,14|0,0:0|0:0,0:0:0:0:
150,279,169506,5,2,1:2:0:0:
307,215,169684,1,10,0:0:0:0:
99,189,169861,1,10,0:0:0:0:
247,317,170038,1,8,0:2:0:0:
271,120,170215,1,8,0:2:0:0:
141,299,170392,1,8,1:2:0:0:
183,82,170569,1,0,1:2:0:0:
346,234,170747,5,6,1:2:0:0:
346,234,170924,1,0,1:2:0:0:
321,40,171101,2,0,P|283:26|243:28,1,80,8|0,0:2|0:2,0:2:0:0:
417,85,171455,2,0,L|421:-1,1,80,0|0,1:2|0:2,0:2:0:0:
271,120,171810,2,0,L|265:207,1,80,8|0,0:2|0:2,0:2:0:0:
512,183,172164,6,0,L|353:173,1,160,2|8,1:2|0:2,0:2:0:0:
421,362,172696,1,0,0:2:0:0:
465,277,172873,2,0,L|385:271,1,80,0|0,1:2|0:2,0:2:0:0:
219,345,173227,2,0,L|301:350,1,80,8|0,0:2|0:2,0:2:0:0:
435,179,173582,5,2,1:2:0:0:
263,255,173759,1,0,1:2:0:0:
263,255,173936,2,0,L|269:172,1,80,8|0,0:2|0:2,0:2:0:0:
362,43,174291,1,0,1:2:0:0:
351,231,174468,1,0,1:2:0:0:
351,231,174645,2,0,L|354:150,1,80,8|0,0:2|0:2,0:2:0:0:
258,20,174999,6,0,P|185:-9|113:19,1,160,2|8,1:2|0:2,0:2:0:0:
181,170,175531,2,0,P|192:121|178:75,1,80,2|0,0:2|1:2,0:2:0:0:
105,224,175885,1,0,1:2:0:0:
280,207,176063,1,10,0:2:0:0:
93,129,176240,1,8,0:2:0:0:
205,277,176417,37,2,1:2:0:0:
205,277,176594,1,0,1:2:0:0:
21,182,176771,2,0,P|9:224|21:271,1,80,8|0,0:2|0:2,0:2:0:0:
79,84,177126,2,0,L|-33:73,1,80,0|0,1:2|0:2,0:2:0:0:
187,131,177480,2,0,P|195:87|184:42,1,80,8|0,0:2|0:2,0:2:0:0:
114,231,177835,6,0,B|151:268|151:268|270:247,1,160,2|8,1:2|0:2,0:2:0:0:
252,134,178366,1,0,0:2:0:0:
362,258,178543,2,0,P|361:216|343:179,1,80,0|0,1:2|0:2,0:2:0:0:
232,374,178898,1,8,0:2:0:0:
367,342,179075,1,8,0:2:0:0:
257,249,179252,5,2,1:2:0:0:
470,292,179429,1,0,1:2:0:0:
470,292,179607,2,0,L|463:371,1,80,8|0,0:2|0:2,0:2:0:0:
300,360,179961,1,0,1:2:0:0:
419,192,180138,1,0,1:2:0:0:
419,192,180315,2,0,P|461:181|512:189,1,80,8|0,0:2|0:2,0:2:0:0:
352,278,180670,6,0,P|321:201|339:119,1,160,2|8,1:2|0:2,0:2:0:0:
215,16,181201,2,0,P|229:62|221:102,1,80,2|0,0:2|1:2,0:2:0:0:
162,234,181556,1,0,1:2:0:0:
128,61,181733,1,10,0:2:0:0:
55,249,181910,1,8,0:2:0:0:
225,92,182086,5,6,1:2:0:0:
225,92,182263,1,0,1:2:0:0:
183,173,182440,2,0,L|262:179,1,80,0|0,1:2|0:2,0:2:0:0:
295,270,182795,2,0,L|136:258,1,160,8|0,0:2|0:2,0:2:0:0:
113,348,183327,1,0,1:2:0:0:
18,337,183505,5,2,1:2:0:0:
18,337,183682,1,0,1:2:0:0:
37,247,183860,2,0,P|45:208|39:168,1,80,0|0,1:2|0:2,0:2:0:0:
147,101,184214,2,0,P|126:177|135:257,1,160,8|0,0:2|0:2,0:2:0:0:
51,82,184747,1,2,1:2:0:0:
138,14,184924,69,0,1:2:0:0:
138,14,185102,1,0,1:2:0:0:
225,107,185279,2,0,P|179:97|133:104,1,80,0|0,1:2|0:2,0:2:0:0:
276,227,185634,1,8,0:2:0:0:
304,35,185811,1,0,1:2:0:0:
304,35,185989,1,0,1:2:0:0:
176,198,186166,1,12,0:2:0:0:
176,198,186521,5,0,1:2:0:0:
370,235,186698,2,0,L|360:156,1,80,8|0,0:2|1:2,0:2:0:0:
279,273,187053,1,10,0:2:0:0:
471,194,187231,1,10,0:2:0:0:
271,124,187408,1,8,0:2:0:0:
357,334,187585,2,0,B|441:347|428:298|513:317,1,160,8|0,0:2|1:2,0:2:0:0:
229,284,188118,6,0,L|235:371,1,88.000002685547,14|0,0:2|0:2,0:2:0:0:
338,198,188472,2,0,L|258:160,1,88.000002685547,0|0,1:2|0:2,0:2:0:0:
357,335,188827,2,0,L|429:285,1,88.000002685547,8|0,0:2|0:2,0:2:0:0:
292,63,189181,6,0,P|250:57|203:72,1,88.000002685547,2|0,1:2|0:2,0:2:0:0:
265,245,189536,2,0,P|270:203|255:156,1,88.000002685547,10|0,0:2|0:2,0:2:0:0:
83,218,189890,2,0,P|124:223|171:208,1,88.000002685547,0|0,1:2|0:2,0:2:0:0:
109,36,190245,2,0,P|103:77|118:124,1,88.000002685547,8|0,0:2|0:2,0:2:0:0:
294,76,190599,6,0,L|196:69,1,88.000002685547,2|0,1:2|0:0,0:0:0:0:
380,170,190953,2,0,L|478:163,1,88.000002685547,8|0,0:2|0:0,0:0:0:0:
293,172,191308,2,0,L|195:165,1,88.000002685547,0|0,1:2|0:0,0:0:0:0:
383,262,191662,2,0,L|481:255,1,88.000002685547,8|0,0:2|0:0,0:0:0:0:
390,57,192017,6,0,P|313:87|293:172,1,176.000005371094,2|8,1:2|0:2,0:2:0:0:
376,347,192548,2,0,P|388:304|379:253,1,88.000002685547,2|0,0:0|1:0,0:0:0:0:
204,142,192903,1,0,1:0:0:0:
294,301,193080,1,10,0:2:0:0:
380,156,193257,1,8,0:2:0:0:
185,253,193435,37,6,1:2:0:0:
185,253,193612,1,0,1:0:0:0:
285,73,193789,2,0,L|296:160,1,80,8|0,0:2|0:2,0:2:0:0:
129,79,194143,2,0,L|139:0,1,80,0|0,1:2|0:2,0:2:0:0:
181,195,194498,2,0,P|144:205|98:201,1,80,8|0,0:2|0:2,0:2:0:0:
246,276,194852,6,0,P|283:287|325:279,1,80,2|0,1:2|0:2,0:2:0:0:
429,118,195207,2,0,P|400:144|386:184,1,80,8|0,0:2|0:2,0:2:0:0:
474,355,195561,2,0,P|465:317|437:285,1,80,0|0,1:2|0:2,0:2:0:0:
294,181,195916,1,8,0:2:0:0:
366,359,196093,1,8,0:2:0:0:
480,203,196270,5,2,1:2:0:0:
323,279,196447,1,0,0:0:0:0:
426,106,196625,2,0,L|510:90,1,80,8|0,0:0|0:0,0:0:0:0:
333,77,196979,1,0,1:0:0:0:
458,12,197156,1,0,0:0:0:0:
386,184,197333,2,0,L|307:169,1,80,8|0,0:0|0:0,0:0:0:0:
187,18,197688,6,0,B|234:43|234:43|216:153,1,160,2|8,1:2|0:0,0:0:0:0:
46,100,198220,2,0,P|87:88|125:92,1,80,2|0,0:2|1:0,0:0:0:0:
195,261,198574,1,0,1:2:0:0:
0,241,198751,1,10,0:2:0:0:
0,241,198840,1,8,0:2:0:0:
0,241,198928,1,8,0:2:0:0:
123,91,199106,37,6,1:2:0:0:
123,91,199283,1,0,1:0:0:0:
296,185,199460,2,0,P|257:156|221:148,1,80,8|0,0:2|0:2,0:2:0:0:
328,315,199815,2,0,P|373:297|398:270,1,80,0|0,1:2|0:2,0:2:0:0:
207,273,200169,2,0,P|200:322|211:356,1,80,8|0,0:2|0:2,0:2:0:0:
296,185,200523,6,0,B|251:148|251:148|134:164,1,160,2|8,1:2|0:0,0:0:0:0:
207,273,201055,1,0,0:0:0:0:
49,127,201232,2,0,P|40:166|49:207,1,80,0|0,1:2|0:2,0:2:0:0:
177,65,201587,1,8,0:0:0:0:
11,2,201764,1,2,0:0:0:0:
157,175,201941,6,0,L|315:153,1,160,2|8,1:2|0:2,0:0:0:0:
374,58,202473,1,0,0:0:0:0:
500,205,202650,2,0,L|407:191,1,80,0|0,1:0|0:0,0:0:0:0:
298,43,203005,2,0,P|340:44|396:77,1,80,8|0,0:2|0:2,0:2:0:0:
323,232,203359,6,0,L|313:131,1,80,2|0,1:2|0:0,0:0:0:0:
207,12,203713,1,8,0:0:0:0:
225,204,203891,1,2,0:0:0:0:
300,49,204068,1,2,1:2:0:0:
115,83,204245,2,0,L|127:174,1,80,2|10,0:0|0:0,0:0:0:0:
312,150,204600,1,2,0:2:0:0:
227,221,204777,2,0,L|215:130,1,80,0|0,1:0|0:0,0:0:0:0:
19,201,205131,38,0,P|59:182|110:178,1,95.9999970703126,14|0,0:2|0:0,0:0:0:0:
292,288,205486,2,0,P|253:260|226:220,1,95.9999970703126,0|0,1:0|0:0,0:0:0:0:
222,12,205840,2,0,P|217:57|196:103,1,95.9999970703126,8|0,0:0|0:3,0:3:0:0:
129,277,206195,6,0,L|30:288,1,80,2|0,1:2|0:2,0:2:0:0:
226,220,206549,2,0,L|237:319,1,80,8|0,0:0|0:0,0:0:0:0:
169,123,206903,2,0,L|265:113,1,80,0|0,1:0|0:0,0:0:0:0:
72,180,207258,2,0,L|62:85,1,80,8|0,0:0|0:0,0:0:0:0:
123,25,207612,6,0,P|168:24|202:34,1,71.9999978027344,2|0,1:2|0:2,0:2:0:0:
239,127,207967,2,0,P|193:129|159:119,1,71.9999978027344,8|0,0:0|0:0,0:0:0:0:
130,19,208321,2,0,P|175:18|209:28,1,71.9999978027344,0|0,1:0|0:0,0:0:0:0:
248,123,208676,2,0,P|202:125|168:115,1,71.9999978027344,8|0,0:0|0:0,0:0:0:0:
318,36,209030,6,0,L|327:100,1,64,2|0,1:2|0:0,0:0:0:0:
239,186,209384,2,0,L|248:122,1,64,8|2,0:0|0:2,0:0:0:0:
326,47,209739,2,0,L|335:111,1,64,0|0,1:0|0:0,0:0:0:0:
248,193,210093,2,0,L|257:129,1,64,10|0,0:0|0:0,0:0:0:0:
342,209,210448,5,6,1:2:0:0:
256,192,210536,12,0,216119,0:0:0:0:
