osu file format v14

[General]
AudioFilename: audio.mp3
AudioLeadIn: 0
PreviewTime: 83285
Countdown: 0
SampleSet: Normal
StackLeniency: 0.7
Mode: 1
LetterboxInBreaks: 0
WidescreenStoryboard: 0

[Editor]
DistanceSpacing: 0.1
BeatDivisor: 4
GridSize: 16
TimelineZoom: 3.9

[Metadata]
Title:M1917
TitleUnicode:M1917
Artist:a crowd of rebellion
ArtistUnicode:a crowd of rebellion
Creator:Eltigant
Version:Inner Oni
Source:
Tags:rock japanese j-rock jrock metal jmetal j-metal hardcore post-hardcore metalcore xanthium warner music japan 2016 acor E_S_I_A [-E_S_I_A-] ESIA [-ESIA-] skolodojko
BeatmapID:4290271
BeatmapSetID:2053849

[Difficulty]
HPDrainRate:5.5
CircleSize:2
OverallDifficulty:7.2
ApproachRate:10
SliderMultiplier:1.4
SliderTickRate:1

[Events]
//Background and Video events
0,0,"m1917.jpg",0,-75
//Break Periods
2,193676,201142
//Storyboard Layer 0 (Background)
//Storyboard Layer 1 (Fail)
//Storyboard Layer 2 (Pass)
//Storyboard Layer 3 (Foreground)
//Storyboard Layer 4 (Overlay)
//Storyboard Sound Samples

[TimingPoints]
3332,289.855072463768,4,1,0,100,1,0
3332,-100,4,1,0,90,0,0
3616,-99.2483726627895,4,1,0,90,0,0
3906,-97.1589346945612,4,1,0,90,0,0
4196,-94.1885339664582,4,1,0,90,0,0
4486,-90.9090909090909,4,1,0,90,0,0
4776,-91.228078034654,4,1,0,90,0,0
4921,-91.6270561911805,4,1,0,90,0,0
5066,-92.1860399381445,4,1,0,90,0,0
5211,-92.905348783966,4,1,0,90,0,0
5355,-93.7786363929823,4,1,0,90,0,0
5645,-96.0181978606814,4,1,0,90,0,0
5790,-97.3781453607946,4,1,0,90,0,0
5935,-98.8966806138963,4,1,0,90,0,0
6080,-100.571580337839,4,1,0,90,0,0
6225,-102.39942587668,4,1,0,90,0,0
6805,-111.111111111111,4,1,0,90,0,0
13761,-110.389319474934,4,1,0,90,0,0
14051,-109.676845010238,4,1,0,90,0,0
14341,-108.973508469329,4,1,0,90,0,0
14631,-108.279135173141,4,1,0,90,0,0
14776,-107.935256368136,4,1,0,90,0,0
14921,-107.5935548666,4,1,0,90,0,0
15211,-106.91660157945,4,1,0,90,0,0
15500,-106.250404260365,4,1,0,90,0,0
15790,-105.59019519616,4,1,0,90,0,0
15935,-105.263157894737,4,1,0,90,0,0
16080,-104.938140158855,4,1,0,90,0,0
16370,-104.294089013989,4,1,0,90,0,0
16660,-103.657895290381,4,1,0,90,0,0
16950,-103.029416069077,4,1,0,90,0,0
17095,-102.718025679506,4,1,0,90,0,0
17240,-102.408511876312,4,1,0,90,0,0
17529,-101.797149349308,4,1,0,90,0,0
17819,-101.190965092402,4,1,0,90,0,0
18109,-100.591957542356,4,1,0,90,0,0
18399,-100,4,1,0,90,0,0
18544,-99.9685399852252,4,1,0,90,0,0
18689,-99.8746737451607,4,1,0,90,0,0
18834,-99.7199292291965,4,1,0,90,0,0
18979,-99.5068088021414,4,1,0,90,0,0
19124,-99.2387251768345,4,1,0,90,0,0
19269,-98.9199160537956,4,1,0,90,0,0
19413,-98.5580000671914,4,1,0,90,0,0
19558,-98.1534835182429,4,1,0,90,0,0
19703,-97.7147746952833,4,1,0,90,0,0
19848,-97.2482774064651,4,1,0,90,0,0
19993,-96.7606266572302,4,1,0,90,0,0
20138,-96.2585678666975,4,1,0,90,0,0
20283,-95.7488443146086,4,1,0,90,0,0
20428,-95.2380952380952,4,1,0,100,0,0
23042,-90.9090909090909,4,1,0,90,0,0
23331,-100,4,1,0,90,0,0
31587,-100,4,1,0,100,0,0
31660,-99.8275825461679,4,1,0,100,0,0
31732,-99.3345844578509,4,1,0,100,0,0
31805,-98.5504652529384,4,1,0,100,0,0
31877,-97.5609756097561,4,1,0,100,0,0
31950,-96.418415655926,4,1,0,100,0,0
32022,-95.2380952380952,4,1,0,100,0,0
32317,-95.2380952380952,4,1,0,100,0,1
41303,-95.2380952380952,4,1,0,100,0,0
41587,-95.2162434558514,4,1,0,100,0,0
41732,-95.150958521324,4,1,0,100,0,0
41877,-95.0430463615718,4,1,0,100,0,0
42022,-94.8938326847628,4,1,0,100,0,0
42167,-94.7051373952858,4,1,0,100,0,0
42312,-94.4792400748509,4,1,0,100,0,0
42457,-94.2188377372919,4,1,0,100,0,0
42602,-93.9269962869171,4,1,0,100,0,0
42747,-93.6070972545407,4,1,0,100,0,0
42892,-93.2627814483433,4,1,0,100,0,0
43037,-92.8978911408891,4,1,0,100,0,0
43182,-92.516412326487,4,1,0,100,0,0
43326,-92.1251691505012,4,1,0,100,0,0
43471,-91.7228113489295,4,1,0,100,0,0
43761,-90.9090909090909,4,1,0,100,0,0
43911,-111.111111111111,4,1,0,90,0,0
52607,-100,4,1,0,90,0,0
57679,-90.9090909090909,4,1,0,90,0,0
57820,-100,4,1,0,90,0,0
58114,-90.9090909090909,4,1,0,90,0,0
58404,-100,4,1,0,90,0,0
58694,-90.9090909090909,4,1,0,90,0,0
58984,-100,4,1,0,90,0,0
59274,-90.9090909090909,4,1,0,90,0,0
59563,-100,4,1,0,90,0,0
59998,-90.9090909090909,4,1,0,90,0,0
60143,-100,4,1,0,90,0,0
61950,-99.9026957866837,4,1,0,100,0,0
62022,-99.6208407515188,4,1,0,100,0,0
62095,-99.1606867589617,4,1,0,100,0,0
62167,-98.5566709702,4,1,0,100,0,0
62240,-97.8207675369643,4,1,0,100,0,0
62312,-97.0058345584897,4,1,0,100,0,0
62384,-96.1372913963335,4,1,0,100,0,0
62457,-95.2380952380952,4,1,0,100,0,0
67389,-111.111111111111,4,1,0,90,0,0
69413,-111.111111111111,4,1,0,100,0,0
69486,-111.032466510002,4,1,0,100,0,0
69558,-110.802439057498,4,1,0,100,0,0
69631,-110.419486153901,4,1,0,100,0,0
69703,-109.901811026057,4,1,0,100,0,0
69776,-109.245588099558,4,1,0,100,0,0
69848,-108.48141885214,4,1,0,100,0,0
70138,-104.535631046967,4,1,0,100,0,0
70283,-102.275851806516,4,1,0,100,0,0
70355,-101.140187400258,4,1,0,100,0,0
70428,-100,4,1,0,100,0,0
71737,-111.111111111111,4,1,0,90,0,0
78694,-111.111111111111,4,1,0,50,0,0
82027,-111.111111111111,4,1,0,100,0,0
82240,-111.020623998206,4,1,0,100,0,0
82312,-110.755810449414,4,1,0,100,0,0
82384,-110.321634688427,4,1,0,100,0,0
82457,-109.716790212741,4,1,0,100,0,0
82529,-108.96880309228,4,1,0,100,0,0
82602,-108.070496233694,4,1,0,100,0,0
82674,-107.061753448526,4,1,0,100,0,0
82747,-105.93154322845,4,1,0,100,0,0
82819,-104.728400399326,4,1,0,100,0,0
82892,-103.437203674316,4,1,0,100,0,0
82964,-102.111240912943,4,1,0,100,0,0
83037,-100.731473666857,4,1,0,100,0,0
83109,-99.3524113874979,4,1,0,100,0,0
83182,-97.9517373148488,4,1,0,100,0,0
83254,-96.582342537182,4,1,0,100,0,0
83331,-95.2380952380952,4,1,0,100,0,1
83621,-100,4,1,0,100,0,1
85650,-95.2380952380952,4,1,0,100,0,1
85940,-100,4,1,0,100,0,1
87969,-95.2380952380952,4,1,0,100,0,1
88114,-100,4,1,0,100,0,1
90355,-99.9762190092418,4,1,0,100,0,1
90428,-99.9038536078182,4,1,0,100,0,1
90500,-99.7857758790516,4,1,0,100,0,1
90573,-99.6201970844428,4,1,0,100,0,1
90645,-99.4136633181313,4,1,0,100,0,1
90718,-99.1630005268801,4,1,0,100,0,1
90790,-98.8780514541734,4,1,0,100,0,1
90863,-98.5543430379505,4,1,0,100,0,1
90935,-98.2044678243788,4,1,0,100,0,1
91008,-97.8227862503187,4,1,0,100,0,1
91080,-97.4239766278403,4,1,0,100,0,1
91153,-97.0014152906385,4,1,0,100,0,1
91225,-96.5711419259525,4,1,0,100,0,1
91298,-96.1257805750442,4,1,0,100,0,1
91370,-95.6820006406551,4,1,0,100,0,1
91442,-95.2380952380952,4,1,0,100,0,1
91587,-90.9090909090909,4,1,0,100,0,1
91732,-95.2380952380952,4,1,0,100,0,1
91877,-90.9090909090909,4,1,0,100,0,1
92167,-100,4,1,0,100,0,1
92607,-100,4,1,0,100,0,0
93042,-111.111111111111,4,1,0,90,0,0
97095,-111.064079955459,4,1,0,90,0,0
97240,-110.923582499362,4,1,0,90,0,0
97384,-110.693301369856,4,1,0,90,0,0
97529,-110.372924870226,4,1,0,90,0,0
97674,-109.967702189943,4,1,0,90,0,0
97819,-109.482567283901,4,1,0,90,0,0
97964,-108.923311447764,4,1,0,90,0,0
98109,-108.296455642694,4,1,0,90,0,0
98254,-107.609113378759,4,1,0,90,0,0
98399,-106.868849339646,4,1,0,90,0,0
98544,-106.083538664526,4,1,0,90,0,0
98689,-105.261231294213,4,1,0,90,0,0
98834,-104.410025100701,4,1,0,90,0,0
98979,-103.537950720348,4,1,0,90,0,0
99124,-102.652870168472,4,1,0,90,0,0
99196,-102.210913438061,4,1,0,90,0,0
99269,-101.762390486254,4,1,0,90,0,0
99558,-100,4,1,0,90,0,0
99848,-100,4,1,0,100,0,0
99921,-99.9755966285103,4,1,0,100,0,0
99993,-99.9040186147863,4,1,0,100,0,0
100066,-99.7841846406562,4,1,0,100,0,0
100138,-99.6208407515188,4,1,0,100,0,0
100211,-99.4114933778104,4,1,0,100,0,0
100283,-99.164389350846,4,1,0,100,0,0
100355,-98.8798876593612,4,1,0,100,0,0
100428,-98.5566709702,4,1,0,100,0,0
100500,-98.207306729383,4,1,0,100,0,0
100573,-97.8261571878214,4,1,0,100,0,0
100645,-97.4278736829728,4,1,0,100,0,0
100718,-97.0058345584897,4,1,0,100,0,0
100790,-96.5760530885489,4,1,0,100,0,0
100863,-96.1311551434629,4,1,0,100,0,0
100935,-95.6877864834518,4,1,0,100,0,0
101008,-95.2380952380952,4,1,0,100,0,0
101882,-90.9090909090909,4,1,0,90,0,0
102172,-100,4,1,0,90,0,0
110428,-100,4,1,0,100,0,0
110500,-99.8322396721629,4,1,0,100,0,0
110573,-99.3345844578509,4,1,0,100,0,0
110645,-98.5628662725439,4,1,0,100,0,0
110718,-97.5609756097561,4,1,0,100,0,0
110790,-96.4346314112339,4,1,0,100,0,0
110863,-95.2380952380952,4,1,0,100,0,0
111592,-111.111111111111,4,1,0,90,0,0
113471,-111.111111111111,4,1,0,50,0,0
114926,-111.111111111111,4,1,0,90,0,0
116370,-111.111111111111,4,1,0,100,0,0
116442,-111.052409677368,4,1,0,100,0,0
116515,-110.87399125679,4,1,0,100,0,0
116587,-110.583543990579,4,1,0,100,0,0
116660,-110.177659251223,4,1,0,100,0,0
116732,-109.67366742381,4,1,0,100,0,0
116805,-109.065373626675,4,1,0,100,0,0
116877,-108.378341450762,4,1,0,100,0,0
116950,-107.603563107037,4,1,0,100,0,0
117022,-106.772902035987,4,1,0,100,0,0
117095,-105.874619770387,4,1,0,100,0,0
117167,-104.944707139668,4,1,0,100,0,0
117240,-103.968953804711,4,1,0,100,0,0
117312,-102.985332178571,4,1,0,100,0,0
117384,-101.99144910242,4,1,0,100,0,0
117457,-100.983855746724,4,1,0,100,0,0
117529,-100,4,1,0,100,0,0
118471,-99.9393229777949,4,1,0,100,0,0
118544,-99.7558799856729,4,1,0,100,0,0
118616,-99.4604163638572,4,1,0,100,0,0
118689,-99.0541173474722,4,1,0,100,0,0
118761,-98.5603894029508,4,1,0,100,0,0
118834,-97.9805486430432,4,1,0,100,0,0
118906,-97.3470754387977,4,1,0,100,0,0
118979,-96.6604631329637,4,1,0,100,0,0
119051,-95.9577985748306,4,1,0,100,0,0
119124,-95.2380952380952,4,1,0,100,0,0
119418,-90.9090909090909,4,1,0,100,0,0
119708,-86.9565217391304,4,1,0,100,0,0
119998,-95.2380952380952,4,1,0,100,0,0
120143,-86.9565217391304,4,1,0,100,0,0
120433,-95.2380952380952,4,1,0,100,0,0
124848,-94.8987758661741,4,1,0,100,0,0
124921,-93.9280528694376,4,1,0,100,0,0
124993,-92.5291250693355,4,1,0,100,0,0
125066,-90.9090909090909,4,1,0,100,0,0
126085,-95.2380952380952,4,1,0,100,0,0
128544,-95.2380952380952,4,1,0,50,0,0
129563,-100,4,1,0,100,0,0
130211,-99.8275825461679,4,1,0,100,0,0
130283,-99.3345844578509,4,1,0,100,0,0
130355,-98.5628662725439,4,1,0,100,0,0
130428,-97.5609756097561,4,1,0,100,0,0
130500,-96.4346314112339,4,1,0,100,0,0
130573,-95.2380952380952,4,1,0,100,0,0
130868,-95.2380952380952,4,1,0,100,0,1
131158,-100,4,1,0,100,0,1
133187,-95.2380952380952,4,1,0,100,0,1
133476,-100,4,1,0,100,0,1
135505,-95.2380952380952,4,1,0,100,0,1
135650,-100,4,1,0,100,0,1
137892,-99.9755966285103,4,1,0,100,0,1
137964,-99.9040186147863,4,1,0,100,0,1
138037,-99.7841846406562,4,1,0,100,0,1
138109,-99.6208407515188,4,1,0,100,0,1
138182,-99.4114933778104,4,1,0,100,0,1
138254,-99.164389350846,4,1,0,100,0,1
138326,-98.8798876593612,4,1,0,100,0,1
138399,-98.5566709702,4,1,0,100,0,1
138471,-98.207306729383,4,1,0,100,0,1
138544,-97.8261571878214,4,1,0,100,0,1
138616,-97.4278736829728,4,1,0,100,0,1
138689,-97.0058345584897,4,1,0,100,0,1
138761,-96.5760530885489,4,1,0,100,0,1
138834,-96.1311551434629,4,1,0,100,0,1
138906,-95.6877864834518,4,1,0,100,0,1
138979,-95.2380952380952,4,1,0,100,0,1
139124,-90.9090909090909,4,1,0,100,0,1
139269,-95.2380952380952,4,1,0,100,0,1
139413,-90.9090909090909,4,1,0,100,0,1
139703,-100,4,1,0,100,0,1
140143,-100,4,1,0,100,0,0
140578,-111.111111111111,4,1,0,90,0,0
144631,-111.064115963431,4,1,0,90,0,0
144776,-110.923725619885,4,1,0,90,0,0
144921,-110.691710677264,4,1,0,90,0,0
145066,-110.370973815117,4,1,0,90,0,0
145211,-109.965479688201,4,1,0,90,0,0
145355,-109.483768984151,4,1,0,90,0,0
145500,-108.924903875879,4,1,0,90,0,0
145645,-108.29847225223,4,1,0,90,0,0
145790,-107.611577961921,4,1,0,90,0,0
145935,-106.871775769736,4,1,0,90,0,0
146080,-106.086930897554,4,1,0,90,0,0
146225,-105.265083604114,4,1,0,90,0,0
146370,-104.414322515379,4,1,0,90,0,0
146515,-103.542669621309,4,1,0,90,0,0
146660,-102.657979014927,4,1,0,90,0,0
146732,-102.216201961125,4,1,0,90,0,0
146805,-101.767850625043,4,1,0,90,0,0
147095,-100,4,1,0,90,0,0
147457,-99.9755966285103,4,1,0,100,0,0
147529,-99.9040186147863,4,1,0,100,0,0
147602,-99.7841846406562,4,1,0,100,0,0
147674,-99.6208407515188,4,1,0,100,0,0
147747,-99.4114933778104,4,1,0,100,0,0
147819,-99.164389350846,4,1,0,100,0,0
147892,-98.8756882528272,4,1,0,100,0,0
147964,-98.5566709702,4,1,0,100,0,0
148037,-98.2022591575787,4,1,0,100,0,0
148109,-97.8261571878214,4,1,0,100,0,0
148182,-97.4222060351383,4,1,0,100,0,0
148254,-97.0058345584897,4,1,0,100,0,0
148326,-96.5760530885489,4,1,0,100,0,0
148399,-96.1311551434629,4,1,0,100,0,0
148471,-95.6877864834518,4,1,0,100,0,0
148544,-95.2380952380952,4,1,0,100,0,0
149558,-95.2380952380952,4,1,0,50,0,0
150578,-111.111111111111,4,1,0,50,0,0
153621,-111.111111111111,4,1,0,90,0,0
157674,-110.179233911898,4,1,0,100,0,0
157747,-109.05977589473,4,1,0,100,0,0
157819,-107.609113378759,4,1,0,100,0,0
157892,-105.869890459276,4,1,0,100,0,0
157964,-103.979108202104,4,1,0,100,0,0
158037,-101.975905833268,4,1,0,100,0,0
158109,-100,4,1,0,100,0,0
158621,-100,4,1,0,90,0,0
165645,-90.9090909090909,4,1,0,100,0,0
165718,-90.9449454411431,4,1,0,100,0,0
165790,-91.0501116964702,4,1,0,100,0,0
165863,-91.2261694958939,4,1,0,100,0,0
165935,-91.4660969731542,4,1,0,100,0,0
166008,-91.7734152122785,4,1,0,100,0,0
166080,-92.1357240354754,4,1,0,100,0,0
166153,-92.5581190805213,4,1,0,100,0,0
166225,-93.0232558139535,4,1,0,100,0,0
166298,-93.5372791058464,4,1,0,100,0,0
166370,-94.0786031320375,4,1,0,100,0,0
166442,-94.6457876022964,4,1,0,100,0,0
166515,-95.2380952380952,4,1,0,100,0,0
167969,-90.9090909090909,4,1,0,100,0,1
168259,-100,4,1,0,100,0,1
168839,-95.2380952380952,4,1,0,100,0,1
169129,-100,4,1,0,100,0,1
170288,-95.2380952380952,4,1,0,100,0,1
170578,-100,4,1,0,100,0,1
171158,-95.2380952380952,4,1,0,100,0,1
171447,-100,4,1,0,100,0,1
172607,-95.2380952380952,4,1,0,100,0,1
172897,-100,4,1,0,100,0,1
173476,-95.2380952380952,4,1,0,100,0,1
173621,-100,4,1,0,100,0,1
174926,-95.2380952380952,4,1,0,100,0,1
175216,-100,4,1,0,100,0,1
175795,-95.2380952380952,4,1,0,100,0,1
176085,-100,4,1,0,100,0,1
177336,-99.8316639415992,4,1,0,100,0,1
177433,-99.3345844578509,4,1,0,100,0,1
177529,-98.5613264463025,4,1,0,100,0,1
177626,-97.5609756097561,4,1,0,100,0,1
177723,-96.4204326786697,4,1,0,100,0,1
177819,-95.2380952380952,4,1,0,100,0,1
178404,-100,4,1,0,100,0,1
179563,-95.2380952380952,4,1,0,100,0,1
179853,-100,4,1,0,100,0,1
180433,-95.2380952380952,4,1,0,100,0,1
180723,-100,4,1,0,100,0,1
181442,-99.624695190383,4,1,0,100,0,1
181515,-99.1653154673178,4,1,0,100,0,1
181587,-98.5613264463025,4,1,0,100,0,1
181732,-97.008782470664,4,1,0,100,0,1
181877,-90.9090909090909,4,1,0,100,0,1
182167,-95.2380952380952,4,1,0,100,0,1
182747,-90.9090909090909,4,1,0,100,0,1
182892,-95.2380952380952,4,1,0,100,0,1
184201,-90.9090909090909,4,1,0,100,0,1
184558,-90.944051093589,4,1,0,100,0,1
184631,-91.0504350828055,4,1,0,100,0,1
184703,-91.2240112398654,4,1,0,100,0,1
184776,-91.4673578470928,4,1,0,100,0,1
184848,-91.7707134963495,4,1,0,100,0,1
184921,-92.1384379124901,4,1,0,100,0,1
184993,-92.5555621523167,4,1,0,100,0,1
185066,-93.0277729647063,4,1,0,100,0,1
185138,-93.5354564332714,4,1,0,100,0,1
185211,-94.0850438096406,4,1,0,100,0,1
185283,-94.6531413670723,4,1,0,100,0,1
185355,-95.2380952380952,4,1,0,100,0,1
186877,-95.2310522412047,4,1,0,100,0,1
186950,-95.2095596498113,4,1,0,100,0,1
187022,-95.174291834691,4,1,0,100,0,1
187095,-95.1244138461202,4,1,0,100,0,1
187167,-95.0614899128573,4,1,0,100,0,1
187240,-94.9840289088493,4,1,0,100,0,1
187312,-94.8944579185464,4,1,0,100,0,1
187384,-94.7921597835233,4,1,0,100,0,1
187457,-94.6758571839744,4,1,0,100,0,1
187529,-94.5491867992395,4,1,0,100,0,1
187602,-94.4091329921951,4,1,0,100,0,1
187674,-94.2600672696856,4,1,0,100,0,1
187747,-94.0984314436664,4,1,0,100,0,1
187819,-93.9292600576546,4,1,0,100,0,1
187892,-93.7485027840557,4,1,0,100,0,1
187964,-93.5617763803021,4,1,0,100,0,1
188037,-93.3645952360269,4,1,0,100,0,1
188109,-93.1630704746097,4,1,0,100,0,1
188182,-92.9523434962486,4,1,0,100,0,1
188254,-92.73892695883,4,1,0,100,0,1
188326,-92.5207168437089,4,1,0,100,0,1
188399,-92.2953487651962,4,1,0,100,0,1
188471,-92.0697568880486,4,1,0,100,0,1
188544,-91.8384490751607,4,1,0,100,0,1
188616,-91.6085202837362,4,1,0,100,0,1
188689,-91.3743501034087,4,1,0,100,0,1
188761,-91.1430988487704,4,1,0,100,0,1
188834,-90.9090909090909,4,1,0,100,0,1
189027,-91.034531617441,4,1,0,100,0,1
189220,-91.4090999235049,4,1,0,100,0,1
189413,-92.0274220410303,4,1,0,100,0,1
189607,-92.8851815461558,4,1,0,100,0,1
189800,-93.959666682552,4,1,0,100,0,1
189993,-95.2357303938964,4,1,0,100,0,1
190186,-96.6884995611027,4,1,0,100,0,1
190380,-98.2950671865774,4,1,0,100,0,1
190573,-100,4,1,0,100,0,1
190766,-98.902348859694,4,1,0,100,0,1
190863,-98.3597285067873,4,1,0,100,0,1
190959,-97.8285328532853,4,1,0,100,0,1
191153,-96.7723984418475,4,1,0,100,0,1
191249,-96.2581645079154,4,1,0,100,0,1
191346,-95.7440951384683,4,1,0,100,0,1
191442,-95.2407032148529,4,1,0,100,0,1
191539,-94.7374155589453,4,1,0,100,0,1
191636,-94.2394190646507,4,1,0,100,0,1
191732,-93.7516847269395,4,1,0,100,0,1
191829,-93.2639708248418,4,1,0,100,0,1
191926,-92.781305020541,4,1,0,100,0,1
192022,-92.3085089442115,4,1,0,100,0,1
192119,-91.8356569497254,4,1,0,100,0,1
192317,-90.9090909090909,4,1,0,100,0,0
192602,-89.8151860648128,4,1,0,100,0,0
192892,-86.9565217391304,4,1,0,100,0,0
193182,-83.3333333333333,4,1,0,100,0,0
193471,-90.9090909090909,4,1,0,90,0,0
193766,-111.111111111111,4,1,0,30,0,0
202742,-100,4,1,0,100,0,0
203037,-99.3786158131562,4,1,0,100,0,0
203182,-99.0708106376162,4,1,0,100,0,0
203326,-98.7670095189421,4,1,0,100,0,0
203471,-98.4629755434783,4,1,0,100,0,0
203761,-97.8604886694518,4,1,0,100,0,0
203906,-97.5620017248995,4,1,0,100,0,0
204051,-97.2653300897576,4,1,0,100,0,0
204196,-96.9704572539673,4,1,0,100,0,0
204341,-96.6773669070747,4,1,0,100,0,0
204486,-96.3860429352231,4,1,0,100,0,0
204776,-95.8086306265364,4,1,0,100,0,0
204921,-95.5225110186596,4,1,0,100,0,0
205066,-95.2380952380952,4,1,0,90,0,0
205355,-90.9090909090909,4,1,0,100,0,0
205428,-90.9449454411431,4,1,0,100,0,0
205500,-91.0501116964702,4,1,0,100,0,0
205573,-91.2261694958939,4,1,0,100,0,0
205645,-91.4660969731542,4,1,0,100,0,0
205718,-91.7734152122785,4,1,0,100,0,0
205790,-92.1357240354754,4,1,0,100,0,0
205863,-92.5581190805213,4,1,0,100,0,0
205935,-93.0232558139535,4,1,0,100,0,0
206008,-93.5372791058464,4,1,0,100,0,0
206080,-94.0786031320375,4,1,0,100,0,0
206153,-94.6538058322334,4,1,0,100,0,0
206225,-95.2380952380952,4,1,0,100,0,0
206298,-95.1987764390123,4,1,0,100,0,0
206370,-95.0838141713727,4,1,0,100,0,0
206442,-94.8956783086254,4,1,0,100,0,0
206515,-94.6343524212496,4,1,0,100,0,0
206587,-94.312497033998,4,1,0,100,0,0
206660,-93.9280528694376,4,1,0,100,0,0
206732,-93.4993518422487,4,1,0,100,0,0
206805,-93.0232558139535,4,1,0,100,0,0
206877,-92.5219902379691,4,1,0,100,0,0
206950,-91.9913230173209,4,1,0,100,0,0
207022,-91.4554171878232,4,1,0,100,0,0
207100,-90.9090909090909,4,1,0,100,0,0
207389,-100,4,1,0,90,0,0
209848,-99.8747965165457,4,1,0,90,0,0
209993,-99.5072840504265,4,1,0,90,0,0
210138,-98.9209283850672,4,1,0,90,0,0
210283,-98.1522341437269,4,1,0,90,0,0
210428,-97.2473351132454,4,1,0,90,0,0
210573,-96.2580683461532,4,1,0,90,0,0
210718,-95.2380952380952,4,1,0,90,0,0
210863,-90.9090909090909,4,1,0,100,0,0
210935,-90.9877405095491,4,1,0,100,0,0
211008,-91.2258112928358,4,1,0,100,0,0
211080,-91.6100830674311,4,1,0,100,0,0
211153,-92.1397981755381,4,1,0,100,0,0
211225,-92.7846558230328,4,1,0,100,0,0
211298,-93.5418570279195,4,1,0,100,0,0
211370,-94.3659186204047,4,1,0,100,0,0
211442,-95.2380952380952,4,1,0,100,0,0
212317,-86.9565217391304,4,1,0,100,0,1
212462,-100,4,1,0,100,0,1
214346,-95.2380952380952,4,1,0,100,0,1
214636,-100,4,1,0,100,0,1
216665,-95.2380952380952,4,1,0,100,0,1
216810,-100,4,1,0,100,0,1
219051,-99.9762190092418,4,1,0,100,0,1
219124,-99.9038536078182,4,1,0,100,0,1
219196,-99.7857758790516,4,1,0,100,0,1
219269,-99.6201970844428,4,1,0,100,0,1
219341,-99.4136633181313,4,1,0,100,0,1
219413,-99.1667017969577,4,1,0,100,0,1
219486,-98.8780514541734,4,1,0,100,0,1
219558,-98.5589974353229,4,1,0,100,0,1
219631,-98.2044678243788,4,1,0,100,0,1
219703,-97.8281789463839,4,1,0,100,0,1
219776,-97.4239766278403,4,1,0,100,0,1
219848,-97.0073073240536,4,1,0,100,0,1
219921,-96.5711419259525,4,1,0,100,0,1
219993,-96.1319228847006,4,1,0,100,0,1
220066,-95.6820006406551,4,1,0,100,0,1
220138,-95.2380952380952,4,1,0,100,0,1
220288,-90.9090909090909,4,1,0,100,0,1
220433,-95.2380952380952,4,1,0,100,0,1
220578,-90.9090909090909,4,1,0,100,0,1
220868,-95.2380952380952,4,1,0,100,0,1
225790,-95.2132348773296,4,1,0,100,0,1
225935,-95.1390037357856,4,1,0,100,0,1
226080,-95.0164438238936,4,1,0,100,0,1
226225,-94.8472661120879,4,1,0,100,0,1
226370,-94.6338130785356,4,1,0,100,0,1
226515,-94.3790084345789,4,1,0,100,0,1
226660,-94.0862960129782,4,1,0,100,0,1
226805,-93.7595701420985,4,1,0,100,0,1
226950,-93.4031000256336,4,1,0,100,0,1
227095,-93.0214506995695,4,1,0,100,0,1
227240,-92.619403054466,4,1,0,100,0,1
227384,-92.2047964045663,4,1,0,100,0,1
227529,-91.776823769713,4,1,0,100,0,1
227674,-91.3432886092419,4,1,0,100,0,1
227819,-90.9090909090909,4,1,0,100,0,1
229998,-90.9090909090909,4,1,0,100,0,0
230578,-95.2380952380952,4,1,0,100,0,0
230868,-100,4,1,0,90,0,0
235505,-111.111111111111,4,1,0,90,0,0
239418,-105.263157894737,4,1,0,90,0,0
239563,-100,4,1,0,90,0,0
239708,-95.2380952380952,4,1,0,90,0,0

[HitObjects]
256,192,3332,5,8,0:0:0:0:
256,192,3621,1,8,0:0:0:0:
256,192,3911,1,8,0:0:0:0:
256,192,4201,1,8,0:0:0:0:
256,192,4491,1,4,0:0:0:0:
256,192,4781,1,8,0:0:0:0:
256,192,4926,1,0,0:0:0:0:
256,192,5071,1,8,0:0:0:0:
256,192,5216,1,8,0:0:0:0:
256,192,5360,1,0,0:0:0:0:
256,192,5650,1,0,0:0:0:0:
256,192,5795,1,0,0:0:0:0:
256,192,5940,1,8,0:0:0:0:
256,192,6085,1,0,0:0:0:0:
256,192,6230,1,8,0:0:0:0:
256,192,6810,5,0,0:0:0:0:
256,192,6955,1,0,0:0:0:0:
256,192,7100,1,8,0:0:0:0:
256,192,7245,1,0,0:0:0:0:
256,192,7389,1,8,0:0:0:0:
256,192,7534,1,8,0:0:0:0:
256,192,7679,1,0,0:0:0:0:
256,192,7824,1,0,0:0:0:0:
256,192,7969,1,8,0:0:0:0:
256,192,8114,1,8,0:0:0:0:
256,192,8259,1,8,0:0:0:0:
256,192,8404,1,0,0:0:0:0:
256,192,8549,1,8,0:0:0:0:
256,192,9129,1,0,0:0:0:0:
256,192,9274,1,0,0:0:0:0:
256,192,9418,1,8,0:0:0:0:
256,192,9563,1,0,0:0:0:0:
256,192,9708,1,8,0:0:0:0:
256,192,9853,1,8,0:0:0:0:
256,192,9998,1,0,0:0:0:0:
256,192,10143,1,0,0:0:0:0:
256,192,10288,1,8,0:0:0:0:
256,192,10433,1,0,0:0:0:0:
256,192,10578,1,8,0:0:0:0:
256,192,10723,1,8,0:0:0:0:
256,192,10868,1,0,0:0:0:0:
256,192,11447,1,0,0:0:0:0:
256,192,11592,1,0,0:0:0:0:
256,192,11737,1,8,0:0:0:0:
256,192,11882,1,0,0:0:0:0:
256,192,12027,1,8,0:0:0:0:
256,192,12172,1,8,0:0:0:0:
256,192,12317,1,0,0:0:0:0:
256,192,12462,1,0,0:0:0:0:
256,192,12607,1,8,0:0:0:0:
256,192,12752,1,8,0:0:0:0:
256,192,12897,1,8,0:0:0:0:
256,192,13042,1,0,0:0:0:0:
256,192,13187,1,8,0:0:0:0:
256,192,13476,1,8,0:0:0:0:
256,192,13766,1,12,0:0:0:0:
256,192,14056,1,0,0:0:0:0:
256,192,14346,1,0,0:0:0:0:
256,192,14636,1,0,0:0:0:0:
256,192,14781,1,8,0:0:0:0:
256,192,14926,1,0,0:0:0:0:
256,192,15216,1,0,0:0:0:0:
256,192,15505,1,0,0:0:0:0:
256,192,15795,1,8,0:0:0:0:
256,192,15940,1,8,0:0:0:0:
256,192,16085,1,0,0:0:0:0:
256,192,16375,1,0,0:0:0:0:
256,192,16665,1,0,0:0:0:0:
256,192,16955,1,0,0:0:0:0:
256,192,17100,1,8,0:0:0:0:
256,192,17245,1,0,0:0:0:0:
256,192,17534,1,0,0:0:0:0:
256,192,17824,1,8,0:0:0:0:
256,192,18114,1,8,0:0:0:0:
256,192,18404,1,12,0:0:0:0:
256,192,18549,1,8,0:0:0:0:
256,192,18694,1,0,0:0:0:0:
256,192,18839,1,12,0:0:0:0:
256,192,18984,1,0,0:0:0:0:
256,192,19129,1,0,0:0:0:0:
256,192,19274,1,12,0:0:0:0:
256,192,19418,1,0,0:0:0:0:
256,192,19563,1,12,0:0:0:0:
256,192,19708,1,8,0:0:0:0:
256,192,19853,1,0,0:0:0:0:
256,192,19998,1,12,0:0:0:0:
256,192,20143,1,0,0:0:0:0:
256,192,20288,1,0,0:0:0:0:
256,192,20433,1,8,0:0:0:0:
256,192,20723,1,4,0:0:0:0:
256,192,21013,1,8,0:0:0:0:
256,192,21085,1,8,0:0:0:0:
256,192,21158,1,0,0:0:0:0:
256,192,21230,1,0,0:0:0:0:
256,192,21303,1,8,0:0:0:0:
256,192,21375,1,8,0:0:0:0:
256,192,21447,1,8,0:0:0:0:
256,192,21520,1,8,0:0:0:0:
256,192,21592,1,0,0:0:0:0:
256,192,21665,1,0,0:0:0:0:
256,192,21737,1,0,0:0:0:0:
256,192,21810,1,0,0:0:0:0:
256,192,21882,1,8,0:0:0:0:
256,192,21955,1,8,0:0:0:0:
256,192,22027,1,0,0:0:0:0:
256,192,22100,1,0,0:0:0:0:
256,192,22172,1,0,0:0:0:0:
256,192,22245,1,0,0:0:0:0:
256,192,22317,1,8,0:0:0:0:
256,192,23042,5,12,0:0:0:0:
256,192,23331,1,8,0:0:0:0:
256,192,23621,1,8,0:0:0:0:
256,192,23766,1,0,0:0:0:0:
256,192,23911,1,8,0:0:0:0:
256,192,24056,1,8,0:0:0:0:
256,192,24201,1,0,0:0:0:0:
256,192,24491,1,8,0:0:0:0:
256,192,24636,1,8,0:0:0:0:
256,192,24781,1,0,0:0:0:0:
256,192,24926,1,8,0:0:0:0:
256,192,25071,1,8,0:0:0:0:
256,192,25216,1,8,0:0:0:0:
256,192,25360,1,0,0:0:0:0:
256,192,25650,1,8,0:0:0:0:
256,192,25940,1,8,0:0:0:0:
256,192,26085,1,8,0:0:0:0:
256,192,26230,1,0,0:0:0:0:
256,192,26375,1,8,0:0:0:0:
256,192,26520,1,0,0:0:0:0:
256,192,26810,1,8,0:0:0:0:
256,192,26955,1,8,0:0:0:0:
256,192,27100,1,0,0:0:0:0:
256,192,27245,1,8,0:0:0:0:
256,192,27317,1,8,0:0:0:0:
256,192,27389,1,8,0:0:0:0:
256,192,27534,1,8,0:0:0:0:
256,192,27679,1,4,0:0:0:0:
256,192,27969,1,8,0:0:0:0:
256,192,28259,1,0,0:0:0:0:
256,192,28404,1,8,0:0:0:0:
256,192,28549,1,8,0:0:0:0:
256,192,28694,1,8,0:0:0:0:
256,192,28839,1,0,0:0:0:0:
256,192,29129,1,8,0:0:0:0:
256,192,29274,1,0,0:0:0:0:
256,192,29418,1,0,0:0:0:0:
256,192,29563,1,8,0:0:0:0:
256,192,29708,1,8,0:0:0:0:
256,192,29853,1,8,0:0:0:0:
256,192,29998,1,0,0:0:0:0:
256,192,30288,1,8,0:0:0:0:
256,192,30578,1,8,0:0:0:0:
256,192,30723,1,0,0:0:0:0:
256,192,30868,1,0,0:0:0:0:
256,192,31013,1,0,0:0:0:0:
256,192,31158,1,8,0:0:0:0:
256,192,31303,1,8,0:0:0:0:
256,192,31375,1,8,0:0:0:0:
256,192,31447,1,0,0:0:0:0:
256,192,31592,1,8,0:0:0:0:
256,192,31665,1,8,0:0:0:0:
256,192,31737,1,0,0:0:0:0:
256,192,31810,1,0,0:0:0:0:
256,192,31882,1,0,0:0:0:0:
256,192,31955,1,0,0:0:0:0:
256,192,32027,1,8,0:0:0:0:
256,192,32172,1,0,0:0:0:0:
256,192,32245,1,0,0:0:0:0:
256,192,32317,1,8,0:0:0:0:
256,192,32389,1,8,0:0:0:0:
256,192,32462,1,0,0:0:0:0:
256,192,32534,1,8,0:0:0:0:
256,192,32607,1,0,0:0:0:0:
256,192,32679,1,0,0:0:0:0:
256,192,32752,1,8,0:0:0:0:
256,192,32824,1,0,0:0:0:0:
256,192,32897,1,8,0:0:0:0:
256,192,32969,1,8,0:0:0:0:
256,192,33042,1,8,0:0:0:0:
256,192,33114,1,0,0:0:0:0:
256,192,33187,1,8,0:0:0:0:
256,192,33259,1,8,0:0:0:0:
256,192,33331,1,0,0:0:0:0:
256,192,33404,1,0,0:0:0:0:
256,192,33476,1,8,0:0:0:0:
256,192,33549,1,0,0:0:0:0:
256,192,33621,1,0,0:0:0:0:
256,192,33694,1,0,0:0:0:0:
256,192,33766,1,8,0:0:0:0:
256,192,33839,1,0,0:0:0:0:
256,192,33911,1,8,0:0:0:0:
256,192,33984,1,8,0:0:0:0:
256,192,34056,1,0,0:0:0:0:
256,192,34129,1,0,0:0:0:0:
256,192,34201,1,8,0:0:0:0:
256,192,34274,1,0,0:0:0:0:
256,192,34346,1,8,0:0:0:0:
256,192,34418,1,8,0:0:0:0:
256,192,34491,1,8,0:0:0:0:
256,192,34563,1,0,0:0:0:0:
256,192,34636,1,8,0:0:0:0:
256,192,34708,1,8,0:0:0:0:
256,192,34781,1,0,0:0:0:0:
256,192,34853,1,0,0:0:0:0:
256,192,34926,1,0,0:0:0:0:
256,192,34998,1,0,0:0:0:0:
256,192,35071,1,8,0:0:0:0:
256,192,35143,1,0,0:0:0:0:
256,192,35216,1,8,0:0:0:0:
256,192,35288,1,8,0:0:0:0:
256,192,35360,1,8,0:0:0:0:
256,192,35433,1,8,0:0:0:0:
256,192,35505,1,0,0:0:0:0:
256,192,35578,1,0,0:0:0:0:
256,192,35650,1,8,0:0:0:0:
256,192,35723,1,0,0:0:0:0:
256,192,35795,1,8,0:0:0:0:
256,192,35868,1,8,0:0:0:0:
256,192,35940,1,0,0:0:0:0:
256,192,36013,1,0,0:0:0:0:
256,192,36085,1,8,0:0:0:0:
256,192,36158,1,8,0:0:0:0:
256,192,36230,1,8,0:0:0:0:
256,192,36303,1,0,0:0:0:0:
256,192,36375,1,8,0:0:0:0:
256,192,36447,1,0,0:0:0:0:
256,192,36520,1,0,0:0:0:0:
256,192,36592,1,0,0:0:0:0:
256,192,36665,1,8,0:0:0:0:
256,192,36737,1,8,0:0:0:0:
256,192,36810,1,0,0:0:0:0:
256,192,36882,1,0,0:0:0:0:
256,192,36955,1,8,0:0:0:0:
256,192,37027,1,8,0:0:0:0:
256,192,37100,1,8,0:0:0:0:
256,192,37172,1,8,0:0:0:0:
256,192,37245,1,0,0:0:0:0:
256,192,37317,1,0,0:0:0:0:
256,192,37389,1,8,0:0:0:0:
256,192,37462,1,0,0:0:0:0:
256,192,37534,1,8,0:0:0:0:
256,192,37607,1,8,0:0:0:0:
256,192,37679,1,8,0:0:0:0:
256,192,37752,1,0,0:0:0:0:
256,192,37824,1,8,0:0:0:0:
256,192,37897,1,8,0:0:0:0:
256,192,37969,1,0,0:0:0:0:
256,192,38042,1,0,0:0:0:0:
256,192,38114,1,8,0:0:0:0:
256,192,38187,1,0,0:0:0:0:
256,192,38259,1,0,0:0:0:0:
256,192,38331,1,0,0:0:0:0:
256,192,38404,1,8,0:0:0:0:
256,192,38476,1,0,0:0:0:0:
256,192,38549,1,8,0:0:0:0:
256,192,38621,1,8,0:0:0:0:
256,192,38694,1,0,0:0:0:0:
256,192,38766,1,0,0:0:0:0:
256,192,38839,1,8,0:0:0:0:
256,192,38911,1,0,0:0:0:0:
256,192,38984,1,8,0:0:0:0:
256,192,39056,1,8,0:0:0:0:
256,192,39129,1,8,0:0:0:0:
256,192,39201,1,0,0:0:0:0:
256,192,39274,1,8,0:0:0:0:
256,192,39346,1,8,0:0:0:0:
256,192,39418,1,0,0:0:0:0:
256,192,39491,1,0,0:0:0:0:
256,192,39563,1,8,0:0:0:0:
256,192,39636,1,0,0:0:0:0:
256,192,39708,1,0,0:0:0:0:
256,192,39781,1,0,0:0:0:0:
256,192,39853,1,8,0:0:0:0:
256,192,39926,1,0,0:0:0:0:
256,192,39998,1,8,0:0:0:0:
256,192,40071,1,8,0:0:0:0:
256,192,40143,1,0,0:0:0:0:
256,192,40216,1,0,0:0:0:0:
256,192,40288,1,8,0:0:0:0:
256,192,40433,1,8,0:0:0:0:
256,192,40505,1,8,0:0:0:0:
256,192,40578,1,0,0:0:0:0:
256,192,40650,1,0,0:0:0:0:
256,192,40723,1,0,0:0:0:0:
256,192,40795,1,0,0:0:0:0:
256,192,40868,1,8,0:0:0:0:
256,192,40940,1,0,0:0:0:0:
256,192,41013,1,8,0:0:0:0:
256,192,41085,1,8,0:0:0:0:
256,192,41158,1,0,0:0:0:0:
256,192,41230,1,0,0:0:0:0:
256,192,41303,1,8,0:0:0:0:
256,192,41447,1,0,0:0:0:0:
256,192,41592,1,12,0:0:0:0:
256,192,41737,1,8,0:0:0:0:
256,192,41882,1,0,0:0:0:0:
256,192,42027,1,12,0:0:0:0:
256,192,42172,1,0,0:0:0:0:
256,192,42317,1,0,0:0:0:0:
256,192,42462,1,12,0:0:0:0:
256,192,42607,1,0,0:0:0:0:
256,192,42752,1,0,0:0:0:0:
256,192,42897,1,12,0:0:0:0:
256,192,43042,1,8,0:0:0:0:
256,192,43187,1,0,0:0:0:0:
256,192,43331,1,12,0:0:0:0:
256,192,43476,1,0,0:0:0:0:
256,192,43766,1,12,0:0:0:0:
256,192,44056,1,0,0:0:0:0:
256,192,44201,1,8,0:0:0:0:
256,192,44491,1,0,0:0:0:0:
256,192,44636,1,0,0:0:0:0:
256,192,44926,1,8,0:0:0:0:
256,192,45216,1,0,0:0:0:0:
256,192,45360,1,8,0:0:0:0:
256,192,45650,1,0,0:0:0:0:
256,192,45795,1,0,0:0:0:0:
256,192,45940,1,8,0:0:0:0:
256,192,46085,1,0,0:0:0:0:
256,192,46375,1,0,0:0:0:0:
256,192,46520,1,8,0:0:0:0:
256,192,46810,1,0,0:0:0:0:
256,192,46955,1,0,0:0:0:0:
256,192,47100,1,0,0:0:0:0:
256,192,47245,1,8,0:0:0:0:
256,192,47534,1,0,0:0:0:0:
256,192,47679,1,8,0:0:0:0:
256,192,47824,1,8,0:0:0:0:
256,192,47897,1,8,0:0:0:0:
256,192,47969,1,0,0:0:0:0:
256,192,48114,1,0,0:0:0:0:
256,192,48259,1,8,0:0:0:0:
256,192,48404,1,4,0:0:0:0:
256,192,48694,1,0,0:0:0:0:
256,192,48839,1,8,0:0:0:0:
256,192,49129,1,0,0:0:0:0:
256,192,49274,1,0,0:0:0:0:
256,192,49418,1,0,0:0:0:0:
256,192,49563,1,8,0:0:0:0:
256,192,49853,1,0,0:0:0:0:
256,192,49998,1,8,0:0:0:0:
256,192,50288,1,0,0:0:0:0:
256,192,50433,1,0,0:0:0:0:
256,192,50578,1,8,0:0:0:0:
256,192,50723,1,0,0:0:0:0:
256,192,51013,1,0,0:0:0:0:
256,192,51158,1,8,0:0:0:0:
256,192,51303,1,8,0:0:0:0:
256,192,51447,1,0,0:0:0:0:
256,192,51592,1,0,0:0:0:0:
256,192,51737,1,0,0:0:0:0:
256,192,51882,1,12,0:0:0:0:
256,192,52607,1,0,0:0:0:0:
256,192,52752,1,0,0:0:0:0:
256,192,52897,1,0,0:0:0:0:
256,192,53042,1,12,0:0:0:0:
256,192,53331,1,0,0:0:0:0:
256,192,53476,1,8,0:0:0:0:
256,192,53766,1,0,0:0:0:0:
256,192,53911,1,0,0:0:0:0:
256,192,53984,1,0,0:0:0:0:
256,192,54056,1,8,0:0:0:0:
256,192,54201,1,0,0:0:0:0:
256,192,54491,1,0,0:0:0:0:
256,192,54636,1,8,0:0:0:0:
256,192,54781,1,8,0:0:0:0:
256,192,54926,1,0,0:0:0:0:
256,192,55071,1,0,0:0:0:0:
256,192,55143,1,0,0:0:0:0:
256,192,55216,1,8,0:0:0:0:
256,192,55360,1,0,0:0:0:0:
256,192,55650,1,0,0:0:0:0:
256,192,55795,1,8,0:0:0:0:
256,192,56085,1,0,0:0:0:0:
256,192,56230,1,0,0:0:0:0:
256,192,56375,1,8,0:0:0:0:
256,192,56447,1,8,0:0:0:0:
256,192,56520,1,0,0:0:0:0:
256,192,56810,1,0,0:0:0:0:
256,192,56882,1,0,0:0:0:0:
256,192,56955,1,8,0:0:0:0:
256,192,57100,1,8,0:0:0:0:
256,192,57245,1,0,0:0:0:0:
256,192,57389,1,0,0:0:0:0:
256,192,57534,1,8,0:0:0:0:
256,192,57679,1,4,0:0:0:0:
256,192,57969,1,0,0:0:0:0:
256,192,58114,1,12,0:0:0:0:
256,192,58404,1,0,0:0:0:0:
256,192,58549,1,0,0:0:0:0:
256,192,58694,1,12,0:0:0:0:
256,192,58984,1,0,0:0:0:0:
256,192,59129,1,0,0:0:0:0:
256,192,59274,1,12,0:0:0:0:
256,192,59563,1,0,0:0:0:0:
256,192,59708,1,0,0:0:0:0:
256,192,59853,1,8,0:0:0:0:
256,192,59998,1,4,0:0:0:0:
256,192,60288,1,0,0:0:0:0:
256,192,60360,1,0,0:0:0:0:
256,192,60433,1,8,0:0:0:0:
256,192,60723,1,8,0:0:0:0:
256,192,60795,1,8,0:0:0:0:
256,192,60868,1,0,0:0:0:0:
256,192,61013,1,0,0:0:0:0:
256,192,61158,1,12,0:0:0:0:
256,192,61447,1,8,0:0:0:0:
256,192,61592,1,8,0:0:0:0:
256,192,61737,1,0,0:0:0:0:
256,192,61882,1,8,0:0:0:0:
256,192,61955,1,0,0:0:0:0:
256,192,62027,1,8,0:0:0:0:
256,192,62100,1,8,0:0:0:0:
256,192,62172,1,0,0:0:0:0:
256,192,62245,1,0,0:0:0:0:
256,192,62317,1,0,0:0:0:0:
256,192,62389,1,0,0:0:0:0:
256,192,62462,1,12,0:0:0:0:
256,192,62607,1,8,0:0:0:0:
256,192,62752,1,0,0:0:0:0:
256,192,62824,1,0,0:0:0:0:
256,192,62897,1,8,0:0:0:0:
256,192,62969,1,8,0:0:0:0:
256,192,63042,1,0,0:0:0:0:
256,192,63187,1,8,0:0:0:0:
256,192,63259,1,8,0:0:0:0:
256,192,63331,1,0,0:0:0:0:
256,192,63476,1,8,0:0:0:0:
256,192,63621,1,8,0:0:0:0:
256,192,63694,1,0,0:0:0:0:
256,192,63766,1,8,0:0:0:0:
256,192,63839,1,8,0:0:0:0:
256,192,63911,1,0,0:0:0:0:
256,192,63984,1,0,0:0:0:0:
256,192,64056,1,8,0:0:0:0:
256,192,64201,1,0,0:0:0:0:
256,192,64346,1,8,0:0:0:0:
256,192,64418,1,8,0:0:0:0:
256,192,64491,1,0,0:0:0:0:
256,192,64636,1,8,0:0:0:0:
256,192,64781,1,0,0:0:0:0:
256,192,64926,1,8,0:0:0:0:
256,192,65071,1,0,0:0:0:0:
256,192,65143,1,0,0:0:0:0:
256,192,65216,1,8,0:0:0:0:
256,192,65288,1,8,0:0:0:0:
256,192,65360,1,0,0:0:0:0:
256,192,65505,1,8,0:0:0:0:
256,192,65650,1,0,0:0:0:0:
256,192,65795,1,8,0:0:0:0:
256,192,65868,1,0,0:0:0:0:
256,192,65940,1,8,0:0:0:0:
256,192,66013,1,8,0:0:0:0:
256,192,66085,1,0,0:0:0:0:
256,192,66158,1,0,0:0:0:0:
256,192,66230,1,8,0:0:0:0:
256,192,66303,1,0,0:0:0:0:
256,192,66375,1,8,0:0:0:0:
256,192,66447,1,8,0:0:0:0:
256,192,66520,1,0,0:0:0:0:
256,192,66665,1,8,0:0:0:0:
256,192,66810,1,8,0:0:0:0:
256,192,66955,1,8,0:0:0:0:
256,192,67027,1,8,0:0:0:0:
256,192,67100,1,4,0:0:0:0:
256,192,67389,1,0,0:0:0:0:
256,192,67534,1,0,0:0:0:0:
256,192,67679,1,8,0:0:0:0:
256,192,67824,1,0,0:0:0:0:
256,192,68114,1,0,0:0:0:0:
256,192,68187,1,0,0:0:0:0:
256,192,68259,1,0,0:0:0:0:
256,192,68404,1,0,0:0:0:0:
256,192,68549,1,8,0:0:0:0:
256,192,68694,1,0,0:0:0:0:
256,192,68839,1,8,0:0:0:0:
256,192,68984,1,8,0:0:0:0:
256,192,69056,1,8,0:0:0:0:
256,192,69129,1,0,0:0:0:0:
256,192,69274,1,0,0:0:0:0:
256,192,69418,1,8,0:0:0:0:
256,192,69491,1,8,0:0:0:0:
256,192,69563,1,0,0:0:0:0:
256,192,69636,1,0,0:0:0:0:
256,192,69708,1,0,0:0:0:0:
256,192,69781,1,0,0:0:0:0:
256,192,69853,1,12,0:0:0:0:
256,192,70143,1,8,0:0:0:0:
256,192,70288,1,0,0:0:0:0:
256,192,70360,1,0,0:0:0:0:
256,192,70433,1,12,0:0:0:0:
256,192,70723,1,0,0:0:0:0:
256,192,70868,1,8,0:0:0:0:
256,192,71013,1,0,0:0:0:0:
256,192,71158,1,8,0:0:0:0:
256,192,71303,1,8,0:0:0:0:
256,192,71592,1,12,0:0:0:0:
256,192,71882,1,8,0:0:0:0:
256,192,72027,1,0,0:0:0:0:
256,192,72172,1,8,0:0:0:0:
256,192,72317,1,8,0:0:0:0:
256,192,72462,1,0,0:0:0:0:
256,192,72607,1,0,0:0:0:0:
256,192,72897,1,0,0:0:0:0:
256,192,73042,1,8,0:0:0:0:
256,192,73187,1,0,0:0:0:0:
256,192,73331,1,0,0:0:0:0:
256,192,73476,1,8,0:0:0:0:
256,192,73766,1,8,0:0:0:0:
256,192,73911,1,0,0:0:0:0:
256,192,74056,1,8,0:0:0:0:
256,192,74201,1,8,0:0:0:0:
256,192,74346,1,0,0:0:0:0:
256,192,74491,1,0,0:0:0:0:
256,192,74636,1,8,0:0:0:0:
256,192,74926,1,8,0:0:0:0:
256,192,75071,1,8,0:0:0:0:
256,192,75216,1,0,0:0:0:0:
256,192,75360,1,8,0:0:0:0:
256,192,75505,1,0,0:0:0:0:
256,192,75650,1,8,0:0:0:0:
256,192,75795,1,0,0:0:0:0:
256,192,75940,1,0,0:0:0:0:
256,192,76085,1,8,0:0:0:0:
256,192,76230,1,12,0:0:0:0:
256,192,76520,1,0,0:0:0:0:
256,192,76665,1,0,0:0:0:0:
256,192,76810,1,8,0:0:0:0:
256,192,76955,1,8,0:0:0:0:
256,192,77100,1,0,0:0:0:0:
256,192,77245,1,8,0:0:0:0:
256,192,77389,1,0,0:0:0:0:
256,192,77534,1,0,0:0:0:0:
256,192,77679,1,8,0:0:0:0:
256,192,77824,1,8,0:0:0:0:
256,192,77969,1,0,0:0:0:0:
256,192,78114,1,8,0:0:0:0:
256,192,78259,1,8,0:0:0:0:
256,192,78404,1,0,0:0:0:0:
256,192,78549,1,8,0:0:0:0:
256,192,78984,12,8,81013,0:0:0:0:
256,192,82172,5,8,0:0:0:0:
256,192,82245,1,0,0:0:0:0:
256,192,82317,1,0,0:0:0:0:
256,192,82389,1,0,0:0:0:0:
256,192,82462,1,8,0:0:0:0:
256,192,82534,1,8,0:0:0:0:
256,192,82607,1,0,0:0:0:0:
256,192,82679,1,0,0:0:0:0:
256,192,82752,1,8,0:0:0:0:
256,192,82824,1,8,0:0:0:0:
256,192,82897,1,8,0:0:0:0:
256,192,82969,1,0,0:0:0:0:
256,192,83042,1,8,0:0:0:0:
256,192,83114,1,8,0:0:0:0:
256,192,83187,1,8,0:0:0:0:
256,192,83259,1,8,0:0:0:0:
256,192,83331,1,4,0:0:0:0:
256,192,83621,1,8,0:0:0:0:
256,192,83694,1,0,0:0:0:0:
256,192,83766,1,8,0:0:0:0:
256,192,83839,1,8,0:0:0:0:
256,192,83911,1,0,0:0:0:0:
256,192,84056,1,8,0:0:0:0:
256,192,84129,1,8,0:0:0:0:
256,192,84201,1,0,0:0:0:0:
256,192,84274,1,0,0:0:0:0:
256,192,84346,1,8,0:0:0:0:
256,192,84491,1,8,0:0:0:0:
256,192,84636,1,0,0:0:0:0:
256,192,84708,1,0,0:0:0:0:
256,192,84781,1,8,0:0:0:0:
256,192,84926,1,8,0:0:0:0:
256,192,85071,1,0,0:0:0:0:
256,192,85216,1,0,0:0:0:0:
256,192,85360,1,8,0:0:0:0:
256,192,85650,1,12,0:0:0:0:
256,192,85940,1,8,0:0:0:0:
256,192,86013,1,0,0:0:0:0:
256,192,86085,1,8,0:0:0:0:
256,192,86158,1,8,0:0:0:0:
256,192,86230,1,0,0:0:0:0:
256,192,86375,1,0,0:0:0:0:
256,192,86447,1,0,0:0:0:0:
256,192,86520,1,8,0:0:0:0:
256,192,86592,1,0,0:0:0:0:
256,192,86665,1,8,0:0:0:0:
256,192,86810,1,8,0:0:0:0:
256,192,86955,1,8,0:0:0:0:
256,192,87027,1,8,0:0:0:0:
256,192,87100,1,0,0:0:0:0:
256,192,87172,1,0,0:0:0:0:
256,192,87245,1,8,0:0:0:0:
256,192,87389,1,0,0:0:0:0:
256,192,87534,1,0,0:0:0:0:
256,192,87607,1,0,0:0:0:0:
256,192,87679,1,8,0:0:0:0:
256,192,87969,1,4,0:0:0:0:
256,192,88114,1,0,0:0:0:0:
256,192,88259,1,8,0:0:0:0:
256,192,88404,1,8,0:0:0:0:
256,192,88476,1,0,0:0:0:0:
256,192,88549,1,8,0:0:0:0:
256,192,88621,1,8,0:0:0:0:
256,192,88694,1,0,0:0:0:0:
256,192,88766,1,0,0:0:0:0:
256,192,88839,1,8,0:0:0:0:
256,192,88984,1,0,0:0:0:0:
256,192,89129,1,8,0:0:0:0:
256,192,89201,1,8,0:0:0:0:
256,192,89274,1,0,0:0:0:0:
256,192,89418,1,0,0:0:0:0:
256,192,89563,1,8,0:0:0:0:
256,192,89636,1,0,0:0:0:0:
256,192,89708,1,8,0:0:0:0:
256,192,89781,1,8,0:0:0:0:
256,192,89853,1,0,0:0:0:0:
256,192,89998,1,8,0:0:0:0:
256,192,90143,1,0,0:0:0:0:
256,192,90288,1,8,0:0:0:0:
256,192,90360,1,8,0:0:0:0:
256,192,90433,1,0,0:0:0:0:
256,192,90505,1,0,0:0:0:0:
256,192,90578,1,8,0:0:0:0:
256,192,90650,1,0,0:0:0:0:
256,192,90723,1,8,0:0:0:0:
256,192,90795,1,8,0:0:0:0:
256,192,90868,1,0,0:0:0:0:
256,192,90940,1,0,0:0:0:0:
256,192,91013,1,0,0:0:0:0:
256,192,91085,1,0,0:0:0:0:
256,192,91158,1,8,0:0:0:0:
256,192,91230,1,8,0:0:0:0:
256,192,91303,1,8,0:0:0:0:
256,192,91375,1,8,0:0:0:0:
256,192,91447,1,0,0:0:0:0:
256,192,91592,1,12,0:0:0:0:
256,192,91737,1,0,0:0:0:0:
256,192,91882,1,12,0:0:0:0:
256,192,92172,1,0,0:0:0:0:
256,192,92317,1,8,0:0:0:0:
256,192,92389,1,8,0:0:0:0:
256,192,92462,1,8,0:0:0:0:
256,192,92534,1,8,0:0:0:0:
256,192,92607,1,4,0:0:0:0:
256,192,93042,1,0,0:0:0:0:
256,192,93187,1,8,0:0:0:0:
256,192,93476,1,0,0:0:0:0:
256,192,93621,1,0,0:0:0:0:
256,192,93766,1,8,0:0:0:0:
256,192,93911,1,0,0:0:0:0:
256,192,94201,1,0,0:0:0:0:
256,192,94346,1,8,0:0:0:0:
256,192,94636,1,0,0:0:0:0:
256,192,94781,1,8,0:0:0:0:
256,192,94926,1,12,0:0:0:0:
256,192,95360,1,0,0:0:0:0:
256,192,95433,1,0,0:0:0:0:
256,192,95505,1,8,0:0:0:0:
256,192,95795,1,0,0:0:0:0:
256,192,95940,1,0,0:0:0:0:
256,192,96085,1,8,0:0:0:0:
256,192,96230,1,0,0:0:0:0:
256,192,96520,1,0,0:0:0:0:
256,192,96665,1,8,0:0:0:0:
256,192,96810,1,8,0:0:0:0:
256,192,96955,1,0,0:0:0:0:
256,192,97100,1,0,0:0:0:0:
256,192,97245,1,12,0:0:0:0:
256,192,97389,1,8,0:0:0:0:
256,192,97534,1,0,0:0:0:0:
256,192,97679,1,12,0:0:0:0:
256,192,97824,1,0,0:0:0:0:
256,192,97969,1,0,0:0:0:0:
256,192,98114,1,12,0:0:0:0:
256,192,98259,1,0,0:0:0:0:
256,192,98404,1,12,0:0:0:0:
256,192,98549,1,8,0:0:0:0:
256,192,98694,1,0,0:0:0:0:
256,192,98839,1,12,0:0:0:0:
256,192,98984,1,8,0:0:0:0:
256,192,99129,1,0,0:0:0:0:
256,192,99201,1,0,0:0:0:0:
256,192,99274,1,8,0:0:0:0:
256,192,99563,1,4,0:0:0:0:
256,192,99853,1,8,0:0:0:0:
256,192,99926,1,8,0:0:0:0:
256,192,99998,1,0,0:0:0:0:
256,192,100071,1,0,0:0:0:0:
256,192,100143,1,8,0:0:0:0:
256,192,100216,1,8,0:0:0:0:
256,192,100288,1,8,0:0:0:0:
256,192,100360,1,8,0:0:0:0:
256,192,100433,1,0,0:0:0:0:
256,192,100505,1,0,0:0:0:0:
256,192,100578,1,8,0:0:0:0:
256,192,100650,1,0,0:0:0:0:
256,192,100723,1,8,0:0:0:0:
256,192,100795,1,8,0:0:0:0:
256,192,100868,1,0,0:0:0:0:
256,192,100940,1,0,0:0:0:0:
256,192,101013,1,8,0:0:0:0:
256,192,101158,1,0,0:0:0:0:
256,192,101303,1,8,0:0:0:0:
256,192,101882,1,4,0:0:0:0:
256,192,102172,1,0,0:0:0:0:
256,192,102462,1,8,0:0:0:0:
256,192,102607,1,0,0:0:0:0:
256,192,102752,1,8,0:0:0:0:
256,192,102897,1,8,0:0:0:0:
256,192,103042,1,0,0:0:0:0:
256,192,103331,1,8,0:0:0:0:
256,192,103476,1,8,0:0:0:0:
256,192,103621,1,0,0:0:0:0:
256,192,103766,1,8,0:0:0:0:
256,192,103911,1,8,0:0:0:0:
256,192,104056,1,8,0:0:0:0:
256,192,104201,1,0,0:0:0:0:
256,192,104491,1,8,0:0:0:0:
256,192,104781,1,8,0:0:0:0:
256,192,104926,1,8,0:0:0:0:
256,192,105071,1,0,0:0:0:0:
256,192,105216,1,8,0:0:0:0:
256,192,105360,1,0,0:0:0:0:
256,192,105650,1,8,0:0:0:0:
256,192,105795,1,8,0:0:0:0:
256,192,105940,1,0,0:0:0:0:
256,192,106085,1,8,0:0:0:0:
256,192,106158,1,8,0:0:0:0:
256,192,106230,1,8,0:0:0:0:
256,192,106375,1,8,0:0:0:0:
256,192,106520,1,4,0:0:0:0:
256,192,106810,1,8,0:0:0:0:
256,192,107100,1,0,0:0:0:0:
256,192,107245,1,8,0:0:0:0:
256,192,107389,1,8,0:0:0:0:
256,192,107534,1,8,0:0:0:0:
256,192,107679,1,0,0:0:0:0:
256,192,107824,1,0,0:0:0:0:
256,192,107969,1,8,0:0:0:0:
256,192,108114,1,0,0:0:0:0:
256,192,108404,1,8,0:0:0:0:
256,192,108549,1,8,0:0:0:0:
256,192,108694,1,8,0:0:0:0:
256,192,108839,1,0,0:0:0:0:
256,192,109129,1,8,0:0:0:0:
256,192,109418,1,8,0:0:0:0:
256,192,109563,1,0,0:0:0:0:
256,192,109708,1,8,0:0:0:0:
256,192,109853,1,8,0:0:0:0:
256,192,109998,1,0,0:0:0:0:
256,192,110143,1,8,0:0:0:0:
256,192,110288,1,0,0:0:0:0:
256,192,110433,1,8,0:0:0:0:
256,192,110505,1,8,0:0:0:0:
256,192,110578,1,0,0:0:0:0:
256,192,110650,1,0,0:0:0:0:
256,192,110723,1,0,0:0:0:0:
256,192,110795,1,0,0:0:0:0:
256,192,110868,1,8,0:0:0:0:
256,192,111013,1,4,0:0:0:0:
256,192,111303,1,0,0:0:0:0:
256,192,111375,1,0,0:0:0:0:
256,192,111447,1,8,0:0:0:0:
256,192,113187,1,8,0:0:0:0:
256,192,113331,1,4,0:0:0:0:
256,192,113476,12,8,114926,0:0:0:0:
256,192,115167,5,8,0:0:0:0:
256,192,115216,1,8,0:0:0:0:
256,192,115360,1,0,0:0:0:0:
256,192,115409,1,0,0:0:0:0:
256,192,115554,1,8,0:0:0:0:
256,192,115602,1,8,0:0:0:0:
256,192,115940,1,0,0:0:0:0:
256,192,116085,1,12,0:0:0:0:
256,192,116375,1,8,0:0:0:0:
256,192,116447,1,8,0:0:0:0:
256,192,116520,1,8,0:0:0:0:
256,192,116592,1,8,0:0:0:0:
256,192,116665,1,0,0:0:0:0:
256,192,116737,1,0,0:0:0:0:
256,192,116810,1,8,0:0:0:0:
256,192,116882,1,8,0:0:0:0:
256,192,116955,1,0,0:0:0:0:
256,192,117027,1,0,0:0:0:0:
256,192,117100,1,0,0:0:0:0:
256,192,117172,1,0,0:0:0:0:
256,192,117245,1,8,0:0:0:0:
256,192,117317,1,0,0:0:0:0:
256,192,117389,1,0,0:0:0:0:
256,192,117462,1,0,0:0:0:0:
256,192,117534,1,8,0:0:0:0:
256,192,117679,1,0,0:0:0:0:
256,192,117824,1,8,0:0:0:0:
256,192,117969,1,12,0:0:0:0:
256,192,118259,1,0,0:0:0:0:
256,192,118404,1,8,0:0:0:0:
256,192,118476,1,8,0:0:0:0:
256,192,118549,1,8,0:0:0:0:
256,192,118621,1,8,0:0:0:0:
256,192,118694,1,0,0:0:0:0:
256,192,118766,1,0,0:0:0:0:
256,192,118839,1,8,0:0:0:0:
256,192,118911,1,0,0:0:0:0:
256,192,118984,1,0,0:0:0:0:
256,192,119056,1,0,0:0:0:0:
256,192,119129,1,12,0:0:0:0:
256,192,119418,1,4,0:0:0:0:
256,192,119708,1,12,0:0:0:0:
256,192,119998,1,0,0:0:0:0:
256,192,120143,1,12,0:0:0:0:
256,192,120433,1,0,0:0:0:0:
256,192,120578,1,8,0:0:0:0:
256,192,120723,1,0,0:0:0:0:
256,192,120795,1,0,0:0:0:0:
256,192,120868,1,8,0:0:0:0:
256,192,121013,1,0,0:0:0:0:
256,192,121158,1,8,0:0:0:0:
256,192,121230,1,8,0:0:0:0:
256,192,121303,1,0,0:0:0:0:
256,192,121375,1,0,0:0:0:0:
256,192,121447,1,8,0:0:0:0:
256,192,121592,1,0,0:0:0:0:
256,192,121665,1,0,0:0:0:0:
256,192,121737,1,8,0:0:0:0:
256,192,121882,1,8,0:0:0:0:
256,192,121955,1,8,0:0:0:0:
256,192,122027,1,0,0:0:0:0:
256,192,122100,1,0,0:0:0:0:
256,192,122172,1,8,0:0:0:0:
256,192,122245,1,0,0:0:0:0:
256,192,122317,1,8,0:0:0:0:
256,192,122462,1,8,0:0:0:0:
256,192,122534,1,8,0:0:0:0:
256,192,122607,1,0,0:0:0:0:
256,192,122752,1,0,0:0:0:0:
256,192,122897,1,8,0:0:0:0:
256,192,123042,1,8,0:0:0:0:
256,192,123114,1,0,0:0:0:0:
256,192,123187,1,8,0:0:0:0:
256,192,123331,1,0,0:0:0:0:
256,192,123476,1,8,0:0:0:0:
256,192,123549,1,8,0:0:0:0:
256,192,123621,1,0,0:0:0:0:
256,192,123694,1,0,0:0:0:0:
256,192,123766,1,8,0:0:0:0:
256,192,123911,1,0,0:0:0:0:
256,192,123984,1,0,0:0:0:0:
256,192,124056,1,8,0:0:0:0:
256,192,124201,1,0,0:0:0:0:
256,192,124346,1,8,0:0:0:0:
256,192,124418,1,0,0:0:0:0:
256,192,124491,1,8,0:0:0:0:
256,192,124563,1,8,0:0:0:0:
256,192,124636,1,0,0:0:0:0:
256,192,124708,1,0,0:0:0:0:
256,192,124781,1,8,0:0:0:0:
256,192,124853,1,8,0:0:0:0:
256,192,124926,1,8,0:0:0:0:
256,192,124998,1,8,0:0:0:0:
256,192,125071,1,4,0:0:0:0:
256,192,125288,1,4,0:0:0:0:
256,192,125505,1,4,0:0:0:0:
256,192,125650,1,12,0:0:0:0:
256,192,126085,1,8,0:0:0:0:
256,192,126375,1,0,0:0:0:0:
256,192,126520,1,0,0:0:0:0:
256,192,126665,1,0,0:0:0:0:
256,192,126737,1,0,0:0:0:0:
256,192,126810,1,8,0:0:0:0:
256,192,126882,1,0,0:0:0:0:
256,192,126955,1,8,0:0:0:0:
256,192,127027,1,8,0:0:0:0:
256,192,127100,1,0,0:0:0:0:
256,192,127245,1,0,0:0:0:0:
256,192,127389,1,8,0:0:0:0:
256,192,127462,1,8,0:0:0:0:
256,192,127534,1,8,0:0:0:0:
256,192,127824,1,8,0:0:0:0:
256,192,127897,1,0,0:0:0:0:
256,192,127969,1,8,0:0:0:0:
256,192,128259,1,0,0:0:0:0:
256,192,128404,1,12,0:0:0:0:
256,192,128549,12,0,129563,0:0:0:0:
256,192,129708,5,0,0:0:0:0:
256,192,129853,1,8,0:0:0:0:
256,192,129926,1,8,0:0:0:0:
256,192,129998,1,8,0:0:0:0:
256,192,130143,1,8,0:0:0:0:
256,192,130216,1,8,0:0:0:0:
256,192,130288,1,0,0:0:0:0:
256,192,130360,1,0,0:0:0:0:
256,192,130433,1,0,0:0:0:0:
256,192,130505,1,0,0:0:0:0:
256,192,130578,1,8,0:0:0:0:
256,192,130868,1,4,0:0:0:0:
256,192,131158,1,8,0:0:0:0:
256,192,131230,1,0,0:0:0:0:
256,192,131303,1,8,0:0:0:0:
256,192,131375,1,8,0:0:0:0:
256,192,131447,1,0,0:0:0:0:
256,192,131592,1,8,0:0:0:0:
256,192,131665,1,8,0:0:0:0:
256,192,131737,1,0,0:0:0:0:
256,192,131810,1,0,0:0:0:0:
256,192,131882,1,8,0:0:0:0:
256,192,132027,1,8,0:0:0:0:
256,192,132172,1,0,0:0:0:0:
256,192,132245,1,0,0:0:0:0:
256,192,132317,1,8,0:0:0:0:
256,192,132462,1,8,0:0:0:0:
256,192,132607,1,0,0:0:0:0:
256,192,132752,1,0,0:0:0:0:
256,192,132897,1,8,0:0:0:0:
256,192,133187,1,12,0:0:0:0:
256,192,133476,1,8,0:0:0:0:
256,192,133549,1,0,0:0:0:0:
256,192,133621,1,8,0:0:0:0:
256,192,133694,1,8,0:0:0:0:
256,192,133766,1,0,0:0:0:0:
256,192,133911,1,0,0:0:0:0:
256,192,133984,1,0,0:0:0:0:
256,192,134056,1,8,0:0:0:0:
256,192,134129,1,0,0:0:0:0:
256,192,134201,1,8,0:0:0:0:
256,192,134346,1,8,0:0:0:0:
256,192,134491,1,8,0:0:0:0:
256,192,134563,1,8,0:0:0:0:
256,192,134636,1,0,0:0:0:0:
256,192,134708,1,0,0:0:0:0:
256,192,134781,1,8,0:0:0:0:
256,192,134926,1,0,0:0:0:0:
256,192,135071,1,0,0:0:0:0:
256,192,135143,1,0,0:0:0:0:
256,192,135216,1,8,0:0:0:0:
256,192,135505,1,4,0:0:0:0:
256,192,135650,1,0,0:0:0:0:
256,192,135795,1,8,0:0:0:0:
256,192,135940,1,8,0:0:0:0:
256,192,136013,1,0,0:0:0:0:
256,192,136085,1,8,0:0:0:0:
256,192,136158,1,8,0:0:0:0:
256,192,136230,1,0,0:0:0:0:
256,192,136303,1,0,0:0:0:0:
256,192,136375,1,8,0:0:0:0:
256,192,136520,1,0,0:0:0:0:
256,192,136665,1,8,0:0:0:0:
256,192,136737,1,8,0:0:0:0:
256,192,136810,1,0,0:0:0:0:
256,192,136955,1,0,0:0:0:0:
256,192,137100,1,8,0:0:0:0:
256,192,137172,1,0,0:0:0:0:
256,192,137245,1,8,0:0:0:0:
256,192,137317,1,8,0:0:0:0:
256,192,137389,1,0,0:0:0:0:
256,192,137534,1,8,0:0:0:0:
256,192,137679,1,0,0:0:0:0:
256,192,137824,5,8,0:0:0:0:
256,192,137897,1,8,0:0:0:0:
256,192,137969,1,0,0:0:0:0:
256,192,138042,1,0,0:0:0:0:
256,192,138114,1,8,0:0:0:0:
256,192,138187,1,0,0:0:0:0:
256,192,138259,1,8,0:0:0:0:
256,192,138331,1,8,0:0:0:0:
256,192,138404,1,0,0:0:0:0:
256,192,138476,1,0,0:0:0:0:
256,192,138549,1,0,0:0:0:0:
256,192,138621,1,0,0:0:0:0:
256,192,138694,1,8,0:0:0:0:
256,192,138766,1,8,0:0:0:0:
256,192,138839,1,8,0:0:0:0:
256,192,138911,1,8,0:0:0:0:
256,192,138984,1,0,0:0:0:0:
256,192,139129,1,12,0:0:0:0:
256,192,139274,1,0,0:0:0:0:
256,192,139418,1,12,0:0:0:0:
256,192,139708,1,0,0:0:0:0:
256,192,139853,1,8,0:0:0:0:
256,192,139926,1,8,0:0:0:0:
256,192,139998,1,8,0:0:0:0:
256,192,140071,1,8,0:0:0:0:
256,192,140143,1,4,0:0:0:0:
256,192,140578,1,0,0:0:0:0:
256,192,140723,1,8,0:0:0:0:
256,192,141013,1,0,0:0:0:0:
256,192,141158,1,0,0:0:0:0:
256,192,141303,1,8,0:0:0:0:
256,192,141447,1,0,0:0:0:0:
256,192,141737,1,0,0:0:0:0:
256,192,141882,1,8,0:0:0:0:
256,192,142172,1,0,0:0:0:0:
256,192,142317,1,8,0:0:0:0:
256,192,142462,1,12,0:0:0:0:
256,192,142897,1,0,0:0:0:0:
256,192,142969,1,0,0:0:0:0:
256,192,143042,1,8,0:0:0:0:
256,192,143331,1,0,0:0:0:0:
256,192,143476,1,0,0:0:0:0:
256,192,143621,1,8,0:0:0:0:
256,192,143766,1,0,0:0:0:0:
256,192,144056,1,0,0:0:0:0:
256,192,144201,1,8,0:0:0:0:
256,192,144346,1,8,0:0:0:0:
256,192,144491,1,0,0:0:0:0:
256,192,144636,1,0,0:0:0:0:
256,192,144781,1,12,0:0:0:0:
256,192,144926,1,8,0:0:0:0:
256,192,145071,1,0,0:0:0:0:
256,192,145216,1,12,0:0:0:0:
256,192,145360,1,0,0:0:0:0:
256,192,145505,1,0,0:0:0:0:
256,192,145650,1,12,0:0:0:0:
256,192,145795,1,0,0:0:0:0:
256,192,145940,1,12,0:0:0:0:
256,192,146085,1,8,0:0:0:0:
256,192,146230,1,0,0:0:0:0:
256,192,146375,1,12,0:0:0:0:
256,192,146520,1,8,0:0:0:0:
256,192,146665,1,0,0:0:0:0:
256,192,146737,1,0,0:0:0:0:
256,192,146810,1,8,0:0:0:0:
256,192,147100,1,4,0:0:0:0:
256,192,147389,1,8,0:0:0:0:
256,192,147462,1,8,0:0:0:0:
256,192,147534,1,0,0:0:0:0:
256,192,147607,1,0,0:0:0:0:
256,192,147679,1,8,0:0:0:0:
256,192,147752,1,8,0:0:0:0:
256,192,147824,1,8,0:0:0:0:
256,192,147897,1,8,0:0:0:0:
256,192,147969,1,0,0:0:0:0:
256,192,148042,1,0,0:0:0:0:
256,192,148114,1,8,0:0:0:0:
256,192,148187,1,0,0:0:0:0:
256,192,148259,1,0,0:0:0:0:
256,192,148331,1,0,0:0:0:0:
256,192,148404,1,8,0:0:0:0:
256,192,148476,1,0,0:0:0:0:
256,192,148549,1,8,0:0:0:0:
256,192,148621,1,8,0:0:0:0:
256,192,148694,1,0,0:0:0:0:
256,192,148766,1,0,0:0:0:0:
256,192,148839,1,8,0:0:0:0:
256,192,148911,1,8,0:0:0:0:
256,192,148984,1,8,0:0:0:0:
256,192,149056,1,8,0:0:0:0:
256,192,149129,1,0,0:0:0:0:
256,192,149201,1,0,0:0:0:0:
256,192,149274,1,0,0:0:0:0:
256,192,149346,1,0,0:0:0:0:
256,192,149418,1,12,0:0:0:0:
256,192,149563,12,8,152897,0:0:0:0:
256,192,154056,5,12,0:0:0:0:
256,192,154636,1,0,0:0:0:0:
256,192,155216,1,0,0:0:0:0:
256,192,155795,1,0,0:0:0:0:
256,192,156375,1,0,0:0:0:0:
256,192,156665,1,0,0:0:0:0:
256,192,156955,1,0,0:0:0:0:
256,192,157245,1,0,0:0:0:0:
256,192,157534,1,8,0:0:0:0:
256,192,157679,1,0,0:0:0:0:
256,192,157752,1,0,0:0:0:0:
256,192,157824,1,8,0:0:0:0:
256,192,157897,1,8,0:0:0:0:
256,192,157969,1,0,0:0:0:0:
256,192,158042,1,0,0:0:0:0:
256,192,158114,1,8,0:0:0:0:
256,192,158694,1,4,0:0:0:0:
256,192,158839,1,8,0:0:0:0:
256,192,159129,1,0,0:0:0:0:
256,192,159201,1,0,0:0:0:0:
256,192,159274,1,8,0:0:0:0:
256,192,159563,1,0,0:0:0:0:
256,192,159636,1,0,0:0:0:0:
256,192,159708,1,0,0:0:0:0:
256,192,159998,1,8,0:0:0:0:
256,192,160071,1,0,0:0:0:0:
256,192,160143,1,0,0:0:0:0:
256,192,160433,1,12,0:0:0:0:
256,192,160578,1,0,0:0:0:0:
256,192,160723,1,8,0:0:0:0:
256,192,160795,1,8,0:0:0:0:
256,192,160868,1,0,0:0:0:0:
256,192,161013,1,0,0:0:0:0:
256,192,161085,1,0,0:0:0:0:
256,192,161158,1,0,0:0:0:0:
256,192,161447,1,0,0:0:0:0:
256,192,161520,1,0,0:0:0:0:
256,192,161592,1,8,0:0:0:0:
256,192,161882,1,0,0:0:0:0:
256,192,161955,1,0,0:0:0:0:
256,192,162027,1,0,0:0:0:0:
256,192,162317,1,8,0:0:0:0:
256,192,162389,1,0,0:0:0:0:
256,192,162462,1,0,0:0:0:0:
256,192,162752,1,12,0:0:0:0:
256,192,162897,1,0,0:0:0:0:
256,192,163042,1,8,0:0:0:0:
256,192,163114,1,8,0:0:0:0:
256,192,163187,1,0,0:0:0:0:
256,192,163331,1,0,0:0:0:0:
256,192,163404,1,0,0:0:0:0:
256,192,163476,1,0,0:0:0:0:
256,192,163766,1,0,0:0:0:0:
256,192,163839,1,0,0:0:0:0:
256,192,163911,1,8,0:0:0:0:
256,192,164201,1,0,0:0:0:0:
256,192,164274,1,0,0:0:0:0:
256,192,164346,1,0,0:0:0:0:
256,192,164636,1,8,0:0:0:0:
256,192,164708,1,0,0:0:0:0:
256,192,164781,1,0,0:0:0:0:
256,192,165071,1,12,0:0:0:0:
256,192,165216,1,0,0:0:0:0:
256,192,165360,1,8,0:0:0:0:
256,192,165433,1,8,0:0:0:0:
256,192,165505,1,0,0:0:0:0:
256,192,165650,1,8,0:0:0:0:
256,192,165723,1,0,0:0:0:0:
256,192,165795,1,8,0:0:0:0:
256,192,165868,1,8,0:0:0:0:
256,192,165940,1,0,0:0:0:0:
256,192,166013,1,0,0:0:0:0:
256,192,166085,1,8,0:0:0:0:
256,192,166158,1,0,0:0:0:0:
256,192,166230,1,8,0:0:0:0:
256,192,166303,1,0,0:0:0:0:
256,192,166375,1,0,0:0:0:0:
256,192,166447,1,0,0:0:0:0:
256,192,166520,1,8,0:0:0:0:
256,192,166592,1,0,0:0:0:0:
256,192,166665,1,8,0:0:0:0:
256,192,166737,1,8,0:0:0:0:
256,192,166810,1,0,0:0:0:0:
256,192,166882,1,0,0:0:0:0:
256,192,166955,1,8,0:0:0:0:
256,192,167027,1,0,0:0:0:0:
256,192,167100,1,8,0:0:0:0:
256,192,167172,1,0,0:0:0:0:
256,192,167245,1,0,0:0:0:0:
256,192,167317,1,0,0:0:0:0:
256,192,167389,1,8,0:0:0:0:
256,192,167969,1,12,0:0:0:0:
256,192,168259,1,0,0:0:0:0:
256,192,168404,1,0,0:0:0:0:
256,192,168476,1,0,0:0:0:0:
256,192,168549,1,8,0:0:0:0:
256,192,168694,1,0,0:0:0:0:
256,192,168839,1,12,0:0:0:0:
256,192,169129,1,8,0:0:0:0:
256,192,169274,1,8,0:0:0:0:
256,192,169418,1,0,0:0:0:0:
256,192,169563,1,0,0:0:0:0:
256,192,169708,1,8,0:0:0:0:
256,192,169998,1,8,0:0:0:0:
256,192,170071,1,8,0:0:0:0:
256,192,170143,1,0,0:0:0:0:
256,192,170288,1,12,0:0:0:0:
256,192,170578,1,0,0:0:0:0:
256,192,170723,1,0,0:0:0:0:
256,192,170868,1,8,0:0:0:0:
256,192,171013,1,0,0:0:0:0:
256,192,171085,1,0,0:0:0:0:
256,192,171158,1,12,0:0:0:0:
256,192,171447,1,8,0:0:0:0:
256,192,171592,1,8,0:0:0:0:
256,192,171737,1,0,0:0:0:0:
256,192,171882,1,0,0:0:0:0:
256,192,172027,1,8,0:0:0:0:
256,192,172172,1,0,0:0:0:0:
256,192,172245,1,0,0:0:0:0:
256,192,172317,1,8,0:0:0:0:
256,192,172462,1,0,0:0:0:0:
256,192,172607,1,12,0:0:0:0:
256,192,172897,1,8,0:0:0:0:
256,192,173042,1,0,0:0:0:0:
256,192,173331,1,0,0:0:0:0:
256,192,173404,1,0,0:0:0:0:
256,192,173476,1,12,0:0:0:0:
256,192,173621,1,0,0:0:0:0:
256,192,173766,1,8,0:0:0:0:
256,192,173911,1,0,0:0:0:0:
256,192,173984,1,8,0:0:0:0:
256,192,174056,1,0,0:0:0:0:
256,192,174201,1,0,0:0:0:0:
256,192,174346,1,8,0:0:0:0:
256,192,174418,1,8,0:0:0:0:
256,192,174491,1,8,0:0:0:0:
256,192,174636,1,0,0:0:0:0:
256,192,174781,1,0,0:0:0:0:
256,192,174926,1,12,0:0:0:0:
256,192,175216,1,8,0:0:0:0:
256,192,175360,1,0,0:0:0:0:
256,192,175505,1,0,0:0:0:0:
256,192,175650,1,0,0:0:0:0:
256,192,175795,1,12,0:0:0:0:
256,192,176230,1,0,0:0:0:0:
256,192,176520,1,0,0:0:0:0:
256,192,176665,1,8,0:0:0:0:
256,192,176810,1,8,0:0:0:0:
256,192,176955,1,0,0:0:0:0:
256,192,177100,1,0,0:0:0:0:
256,192,177245,1,8,0:0:0:0:
256,192,177341,1,8,0:0:0:0:
256,192,177438,1,0,0:0:0:0:
256,192,177534,1,8,0:0:0:0:
256,192,177631,1,0,0:0:0:0:
256,192,177728,1,0,0:0:0:0:
256,192,177824,1,8,0:0:0:0:
256,192,178017,1,0,0:0:0:0:
256,192,178114,1,12,0:0:0:0:
256,192,178549,1,0,0:0:0:0:
256,192,178839,1,0,0:0:0:0:
256,192,178984,1,8,0:0:0:0:
256,192,179274,1,0,0:0:0:0:
256,192,179346,1,8,0:0:0:0:
256,192,179418,1,0,0:0:0:0:
256,192,179563,1,12,0:0:0:0:
256,192,179853,1,0,0:0:0:0:
256,192,179926,1,0,0:0:0:0:
256,192,179998,1,8,0:0:0:0:
256,192,180143,1,8,0:0:0:0:
256,192,180288,1,8,0:0:0:0:
256,192,180433,1,4,0:0:0:0:
256,192,180868,1,0,0:0:0:0:
256,192,181158,1,0,0:0:0:0:
256,192,181303,1,8,0:0:0:0:
256,192,181447,1,8,0:0:0:0:
256,192,181520,1,8,0:0:0:0:
256,192,181592,1,0,0:0:0:0:
256,192,181737,1,0,0:0:0:0:
256,192,181882,1,12,0:0:0:0:
256,192,182172,1,8,0:0:0:0:
256,192,182317,1,0,0:0:0:0:
256,192,182462,1,8,0:0:0:0:
256,192,182534,1,8,0:0:0:0:
256,192,182607,1,0,0:0:0:0:
256,192,182752,1,12,0:0:0:0:
256,192,182897,1,0,0:0:0:0:
256,192,183042,1,8,0:0:0:0:
256,192,183187,1,0,0:0:0:0:
256,192,183259,1,8,0:0:0:0:
256,192,183331,1,0,0:0:0:0:
256,192,183476,1,0,0:0:0:0:
256,192,183621,1,8,0:0:0:0:
256,192,183766,1,8,0:0:0:0:
256,192,183839,1,8,0:0:0:0:
256,192,183911,1,0,0:0:0:0:
256,192,184056,1,0,0:0:0:0:
256,192,184201,1,12,0:0:0:0:
256,192,184491,1,8,0:0:0:0:
256,192,184563,1,8,0:0:0:0:
256,192,184636,1,0,0:0:0:0:
256,192,184708,1,0,0:0:0:0:
256,192,184781,1,8,0:0:0:0:
256,192,184853,1,0,0:0:0:0:
256,192,184926,1,0,0:0:0:0:
256,192,184998,1,0,0:0:0:0:
256,192,185071,1,8,0:0:0:0:
256,192,185143,1,8,0:0:0:0:
256,192,185216,1,8,0:0:0:0:
256,192,185288,1,8,0:0:0:0:
256,192,185360,1,0,0:0:0:0:
256,192,185433,1,0,0:0:0:0:
256,192,185505,1,0,0:0:0:0:
256,192,185578,1,0,0:0:0:0:
256,192,185650,1,8,0:0:0:0:
256,192,185723,1,0,0:0:0:0:
256,192,185795,1,8,0:0:0:0:
256,192,185868,1,8,0:0:0:0:
256,192,185940,1,0,0:0:0:0:
256,192,186013,1,0,0:0:0:0:
256,192,186085,1,8,0:0:0:0:
256,192,186158,1,0,0:0:0:0:
256,192,186230,1,0,0:0:0:0:
256,192,186303,1,0,0:0:0:0:
256,192,186375,1,8,0:0:0:0:
256,192,186447,1,8,0:0:0:0:
256,192,186520,1,0,0:0:0:0:
256,192,186592,1,0,0:0:0:0:
256,192,186665,1,0,0:0:0:0:
256,192,186737,1,0,0:0:0:0:
256,192,186810,1,8,0:0:0:0:
256,192,186882,1,0,0:0:0:0:
256,192,186955,1,0,0:0:0:0:
256,192,187027,1,0,0:0:0:0:
256,192,187100,1,8,0:0:0:0:
256,192,187172,1,0,0:0:0:0:
256,192,187245,1,8,0:0:0:0:
256,192,187317,1,8,0:0:0:0:
256,192,187389,1,0,0:0:0:0:
256,192,187462,1,0,0:0:0:0:
256,192,187534,1,0,0:0:0:0:
256,192,187607,1,0,0:0:0:0:
256,192,187679,1,8,0:0:0:0:
256,192,187752,1,8,0:0:0:0:
256,192,187824,1,8,0:0:0:0:
256,192,187897,1,0,0:0:0:0:
256,192,187969,1,8,0:0:0:0:
256,192,188042,1,0,0:0:0:0:
256,192,188114,1,8,0:0:0:0:
256,192,188187,1,8,0:0:0:0:
256,192,188259,1,0,0:0:0:0:
256,192,188331,1,0,0:0:0:0:
256,192,188404,1,8,0:0:0:0:
256,192,188476,1,0,0:0:0:0:
256,192,188549,1,0,0:0:0:0:
256,192,188621,1,0,0:0:0:0:
256,192,188694,1,8,0:0:0:0:
256,192,188766,1,8,0:0:0:0:
256,192,188839,1,4,0:0:0:0:
256,192,189032,1,0,0:0:0:0:
256,192,189225,1,0,0:0:0:0:
256,192,189418,1,12,0:0:0:0:
256,192,189612,1,8,0:0:0:0:
256,192,189805,1,8,0:0:0:0:
256,192,189998,1,4,0:0:0:0:
256,192,190191,1,0,0:0:0:0:
256,192,190385,1,0,0:0:0:0:
256,192,190578,1,12,0:0:0:0:
256,192,190771,1,8,0:0:0:0:
256,192,190868,1,8,0:0:0:0:
256,192,190964,1,0,0:0:0:0:
256,192,191158,1,8,0:0:0:0:
256,192,191254,1,8,0:0:0:0:
256,192,191351,1,8,0:0:0:0:
256,192,191447,1,0,0:0:0:0:
256,192,191544,1,0,0:0:0:0:
256,192,191641,1,0,0:0:0:0:
256,192,191737,1,8,0:0:0:0:
256,192,191834,1,0,0:0:0:0:
256,192,191931,1,8,0:0:0:0:
256,192,192027,1,8,0:0:0:0:
256,192,192124,1,0,0:0:0:0:
256,192,192317,1,12,0:0:0:0:
256,192,192607,1,12,0:0:0:0:
256,192,192897,1,4,0:0:0:0:
256,192,193187,1,12,0:0:0:0:
256,192,193476,1,0,0:0:0:0:
256,192,201592,12,0,202462,0:0:0:0:
256,192,202752,5,4,0:0:0:0:
256,192,203042,1,8,0:0:0:0:
256,192,203187,1,8,0:0:0:0:
256,192,203331,1,0,0:0:0:0:
256,192,203476,1,8,0:0:0:0:
256,192,203766,1,8,0:0:0:0:
256,192,203911,1,8,0:0:0:0:
256,192,204056,1,0,0:0:0:0:
256,192,204201,1,8,0:0:0:0:
256,192,204346,1,8,0:0:0:0:
256,192,204491,1,0,0:0:0:0:
256,192,204781,1,8,0:0:0:0:
256,192,204926,1,8,0:0:0:0:
256,192,205071,1,4,0:0:0:0:
256,192,205360,1,8,0:0:0:0:
256,192,205433,1,0,0:0:0:0:
256,192,205505,1,8,0:0:0:0:
256,192,205578,1,8,0:0:0:0:
256,192,205650,1,0,0:0:0:0:
256,192,205723,1,0,0:0:0:0:
256,192,205795,1,8,0:0:0:0:
256,192,205868,1,8,0:0:0:0:
256,192,205940,1,8,0:0:0:0:
256,192,206013,1,8,0:0:0:0:
256,192,206085,1,0,0:0:0:0:
256,192,206158,1,0,0:0:0:0:
256,192,206230,1,0,0:0:0:0:
256,192,206303,1,0,0:0:0:0:
256,192,206375,1,8,0:0:0:0:
256,192,206447,1,8,0:0:0:0:
256,192,206520,1,0,0:0:0:0:
256,192,206592,1,0,0:0:0:0:
256,192,206665,1,8,0:0:0:0:
256,192,206737,1,0,0:0:0:0:
256,192,206810,1,8,0:0:0:0:
256,192,206882,1,8,0:0:0:0:
256,192,206955,1,0,0:0:0:0:
256,192,207027,1,0,0:0:0:0:
256,192,207100,1,8,0:0:0:0:
256,192,207969,1,8,0:0:0:0:
256,192,208549,1,0,0:0:0:0:
256,192,209129,1,8,0:0:0:0:
256,192,209708,1,8,0:0:0:0:
256,192,209853,1,8,0:0:0:0:
256,192,209998,1,8,0:0:0:0:
256,192,210143,1,0,0:0:0:0:
256,192,210288,1,0,0:0:0:0:
256,192,210433,1,8,0:0:0:0:
256,192,210578,1,0,0:0:0:0:
256,192,210723,1,0,0:0:0:0:
256,192,210868,1,8,0:0:0:0:
256,192,210940,1,0,0:0:0:0:
256,192,211013,1,8,0:0:0:0:
256,192,211085,1,0,0:0:0:0:
256,192,211158,1,8,0:0:0:0:
256,192,211230,1,8,0:0:0:0:
256,192,211303,1,0,0:0:0:0:
256,192,211375,1,0,0:0:0:0:
256,192,211447,1,8,0:0:0:0:
256,192,211520,1,8,0:0:0:0:
256,192,211592,1,8,0:0:0:0:
256,192,211665,1,8,0:0:0:0:
256,192,211737,1,0,0:0:0:0:
256,192,211810,1,0,0:0:0:0:
256,192,211882,1,8,0:0:0:0:
256,192,212317,1,12,0:0:0:0:
256,192,212462,1,8,0:0:0:0:
256,192,212534,1,0,0:0:0:0:
256,192,212607,1,0,0:0:0:0:
256,192,212752,1,8,0:0:0:0:
256,192,212824,1,8,0:0:0:0:
256,192,212897,1,0,0:0:0:0:
256,192,212969,1,0,0:0:0:0:
256,192,213042,1,8,0:0:0:0:
256,192,213187,1,8,0:0:0:0:
256,192,213331,1,0,0:0:0:0:
256,192,213404,1,0,0:0:0:0:
256,192,213476,1,8,0:0:0:0:
256,192,213621,1,8,0:0:0:0:
256,192,213766,1,0,0:0:0:0:
256,192,213911,1,0,0:0:0:0:
256,192,214056,1,8,0:0:0:0:
256,192,214346,1,12,0:0:0:0:
256,192,214636,1,8,0:0:0:0:
256,192,214708,1,0,0:0:0:0:
256,192,214781,1,8,0:0:0:0:
256,192,214853,1,8,0:0:0:0:
256,192,214926,1,0,0:0:0:0:
256,192,215071,1,0,0:0:0:0:
256,192,215143,1,0,0:0:0:0:
256,192,215216,1,8,0:0:0:0:
256,192,215288,1,0,0:0:0:0:
256,192,215360,1,8,0:0:0:0:
256,192,215505,1,8,0:0:0:0:
256,192,215650,1,8,0:0:0:0:
256,192,215723,1,8,0:0:0:0:
256,192,215795,1,0,0:0:0:0:
256,192,215868,1,0,0:0:0:0:
256,192,215940,1,8,0:0:0:0:
256,192,216085,1,0,0:0:0:0:
256,192,216230,1,0,0:0:0:0:
256,192,216303,1,0,0:0:0:0:
256,192,216375,1,8,0:0:0:0:
256,192,216665,1,4,0:0:0:0:
256,192,216810,1,0,0:0:0:0:
256,192,216955,1,8,0:0:0:0:
256,192,217100,1,8,0:0:0:0:
256,192,217172,1,0,0:0:0:0:
256,192,217245,1,8,0:0:0:0:
256,192,217317,1,8,0:0:0:0:
256,192,217389,1,0,0:0:0:0:
256,192,217462,1,0,0:0:0:0:
256,192,217534,1,8,0:0:0:0:
256,192,217679,1,0,0:0:0:0:
256,192,217824,1,8,0:0:0:0:
256,192,217897,1,8,0:0:0:0:
256,192,217969,1,0,0:0:0:0:
256,192,218114,1,0,0:0:0:0:
256,192,218259,1,8,0:0:0:0:
256,192,218331,1,0,0:0:0:0:
256,192,218404,1,8,0:0:0:0:
256,192,218476,1,8,0:0:0:0:
256,192,218549,1,0,0:0:0:0:
256,192,218694,1,8,0:0:0:0:
256,192,218839,1,0,0:0:0:0:
256,192,218984,5,8,0:0:0:0:
256,192,219056,1,8,0:0:0:0:
256,192,219129,1,0,0:0:0:0:
256,192,219201,1,0,0:0:0:0:
256,192,219274,1,8,0:0:0:0:
256,192,219346,1,0,0:0:0:0:
256,192,219418,1,8,0:0:0:0:
256,192,219491,1,8,0:0:0:0:
256,192,219563,1,0,0:0:0:0:
256,192,219636,1,0,0:0:0:0:
256,192,219708,1,0,0:0:0:0:
256,192,219781,1,0,0:0:0:0:
256,192,219853,1,8,0:0:0:0:
256,192,219926,1,8,0:0:0:0:
256,192,219998,1,8,0:0:0:0:
256,192,220071,1,8,0:0:0:0:
256,192,220143,1,0,0:0:0:0:
256,192,220288,1,12,0:0:0:0:
256,192,220433,1,0,0:0:0:0:
256,192,220578,1,12,0:0:0:0:
256,192,220868,1,0,0:0:0:0:
256,192,221013,1,8,0:0:0:0:
256,192,221085,1,8,0:0:0:0:
256,192,221158,1,8,0:0:0:0:
256,192,221230,1,8,0:0:0:0:
256,192,221303,1,4,0:0:0:0:
256,192,221447,1,0,0:0:0:0:
256,192,221520,1,0,0:0:0:0:
256,192,221592,1,8,0:0:0:0:
256,192,221665,1,8,0:0:0:0:
256,192,221737,1,0,0:0:0:0:
256,192,221882,1,8,0:0:0:0:
256,192,222027,1,8,0:0:0:0:
256,192,222100,1,0,0:0:0:0:
256,192,222172,1,8,0:0:0:0:
256,192,222245,1,8,0:0:0:0:
256,192,222317,1,0,0:0:0:0:
256,192,222389,1,0,0:0:0:0:
256,192,222462,1,8,0:0:0:0:
256,192,222607,1,0,0:0:0:0:
256,192,222752,1,8,0:0:0:0:
256,192,222824,1,8,0:0:0:0:
256,192,222897,1,0,0:0:0:0:
256,192,223042,1,8,0:0:0:0:
256,192,223187,1,0,0:0:0:0:
256,192,223331,1,8,0:0:0:0:
256,192,223404,1,0,0:0:0:0:
256,192,223476,1,8,0:0:0:0:
256,192,223549,1,8,0:0:0:0:
256,192,223621,1,0,0:0:0:0:
256,192,223766,1,0,0:0:0:0:
256,192,223839,1,0,0:0:0:0:
256,192,223911,1,8,0:0:0:0:
256,192,223984,1,0,0:0:0:0:
256,192,224056,1,8,0:0:0:0:
256,192,224129,1,8,0:0:0:0:
256,192,224201,1,0,0:0:0:0:
256,192,224346,1,0,0:0:0:0:
256,192,224491,1,8,0:0:0:0:
256,192,224636,1,8,0:0:0:0:
256,192,224708,1,0,0:0:0:0:
256,192,224781,1,8,0:0:0:0:
256,192,224853,1,8,0:0:0:0:
256,192,224926,1,0,0:0:0:0:
256,192,224998,1,0,0:0:0:0:
256,192,225071,1,8,0:0:0:0:
256,192,225216,1,8,0:0:0:0:
256,192,225288,1,8,0:0:0:0:
256,192,225360,1,0,0:0:0:0:
256,192,225505,1,0,0:0:0:0:
256,192,225650,1,8,0:0:0:0:
256,192,225795,1,0,0:0:0:0:
256,192,225940,1,12,0:0:0:0:
256,192,226085,1,8,0:0:0:0:
256,192,226230,1,0,0:0:0:0:
256,192,226375,1,12,0:0:0:0:
256,192,226520,1,0,0:0:0:0:
256,192,226665,1,0,0:0:0:0:
256,192,226810,1,12,0:0:0:0:
256,192,226955,1,0,0:0:0:0:
256,192,227100,1,12,0:0:0:0:
256,192,227245,1,8,0:0:0:0:
256,192,227389,1,0,0:0:0:0:
256,192,227534,1,12,0:0:0:0:
256,192,227679,1,0,0:0:0:0:
256,192,227824,1,8,0:0:0:0:
256,192,227969,1,8,0:0:0:0:
256,192,228259,1,8,0:0:0:0:
256,192,228331,1,8,0:0:0:0:
256,192,228404,1,0,0:0:0:0:
256,192,228476,1,8,0:0:0:0:
256,192,228549,1,0,0:0:0:0:
256,192,228621,1,0,0:0:0:0:
256,192,228694,1,8,0:0:0:0:
256,192,228766,1,0,0:0:0:0:
256,192,228839,1,8,0:0:0:0:
256,192,228911,1,8,0:0:0:0:
256,192,228984,1,0,0:0:0:0:
256,192,229056,1,8,0:0:0:0:
256,192,229129,1,0,0:0:0:0:
256,192,229201,1,0,0:0:0:0:
256,192,229274,1,8,0:0:0:0:
256,192,229346,1,0,0:0:0:0:
256,192,229418,1,8,0:0:0:0:
256,192,229491,1,8,0:0:0:0:
256,192,229563,1,8,0:0:0:0:
256,192,229636,1,8,0:0:0:0:
256,192,229708,1,0,0:0:0:0:
256,192,229781,1,0,0:0:0:0:
256,192,229853,1,0,0:0:0:0:
256,192,229926,1,0,0:0:0:0:
256,192,229998,1,8,0:0:0:0:
256,192,230578,1,4,0:0:0:0:
256,192,230868,1,0,0:0:0:0:
256,192,231158,1,8,0:0:0:0:
256,192,231303,1,0,0:0:0:0:
256,192,231447,1,8,0:0:0:0:
256,192,231592,1,8,0:0:0:0:
256,192,231737,1,0,0:0:0:0:
256,192,232027,1,8,0:0:0:0:
256,192,232172,1,8,0:0:0:0:
256,192,232317,1,0,0:0:0:0:
256,192,232462,1,8,0:0:0:0:
256,192,232607,1,8,0:0:0:0:
256,192,232752,1,8,0:0:0:0:
256,192,232897,1,0,0:0:0:0:
256,192,233187,1,8,0:0:0:0:
256,192,233476,1,8,0:0:0:0:
256,192,233621,1,8,0:0:0:0:
256,192,233766,1,0,0:0:0:0:
256,192,233911,1,8,0:0:0:0:
256,192,234056,1,0,0:0:0:0:
256,192,234346,1,8,0:0:0:0:
256,192,234491,1,8,0:0:0:0:
256,192,234636,1,0,0:0:0:0:
256,192,234781,1,8,0:0:0:0:
256,192,234853,1,8,0:0:0:0:
256,192,234926,1,8,0:0:0:0:
256,192,235071,1,8,0:0:0:0:
256,192,235216,1,4,0:0:0:0:
256,192,235505,1,8,0:0:0:0:
256,192,235795,1,0,0:0:0:0:
256,192,235940,1,8,0:0:0:0:
256,192,236230,1,8,0:0:0:0:
256,192,236303,1,8,0:0:0:0:
256,192,236375,1,0,0:0:0:0:
256,192,236520,1,0,0:0:0:0:
256,192,236665,1,8,0:0:0:0:
256,192,236810,1,0,0:0:0:0:
256,192,237100,1,8,0:0:0:0:
256,192,237245,1,8,0:0:0:0:
256,192,237389,1,8,0:0:0:0:
256,192,237534,1,0,0:0:0:0:
256,192,237824,1,8,0:0:0:0:
256,192,238114,1,8,0:0:0:0:
256,192,238259,1,0,0:0:0:0:
256,192,238404,1,0,0:0:0:0:
256,192,238549,1,8,0:0:0:0:
256,192,238621,1,8,0:0:0:0:
256,192,238694,1,0,0:0:0:0:
256,192,238839,1,0,0:0:0:0:
256,192,238984,1,8,0:0:0:0:
256,192,239129,1,8,0:0:0:0:
256,192,239418,1,12,0:0:0:0:
256,192,239563,1,0,0:0:0:0:
256,192,239708,1,12,0:0:0:0:
