osu file format v14

[General]
AudioFilename: audio.mp3
AudioLeadIn: 0
PreviewTime: 211941
Countdown: 0
SampleSet: Normal
StackLeniency: 0.5
Mode: 0
LetterboxInBreaks: 0
WidescreenStoryboard: 1

[Editor]
Bookmarks: 81066
DistanceSpacing: 0.6
BeatDivisor: 4
GridSize: 32
TimelineZoom: 3.099999

[Metadata]
Title:M1917
TitleUnicode:M1917
Artist:a crowd of rebellion
ArtistUnicode:a crowd of rebellion
Creator:Catshy
Version:Wally's Extra
Source:
Tags:zeroallies zallies beafowl sullywally
BeatmapID:1193344
BeatmapSetID:531506

[Difficulty]
HPDrainRate:6
CircleSize:4
OverallDifficulty:8
ApproachRate:9.4
SliderMultiplier:1.75
SliderTickRate:1

[Events]
//Background and Video events
0,0,"43265982_p0.png",0,0
//Break Periods
2,71845,78497
2,111791,112700
2,149672,157628
2,193729,202265
//Storyboard Layer 0 (Background)
//Storyboard Layer 1 (Fail)
//Storyboard Layer 2 (Pass)
//Storyboard Layer 3 (Foreground)
//Storyboard Sound Samples

[TimingPoints]
4545,289.855072463768,4,1,0,50,1,0
4834,-200,4,1,0,50,0,0
13530,-133.333333333333,4,1,0,50,0,0
18458,-100,4,1,0,50,0,0
20776,-200,4,1,0,50,0,0
21066,-100,4,1,0,50,0,0
43385,-200,4,1,0,50,0,0
43820,-100,4,1,0,50,0,0
44255,-133.333333333333,4,1,0,50,0,0
48023,-200,4,1,0,50,0,0
48458,-100,4,1,0,50,0,0
48747,-133.333333333333,4,1,0,50,0,0
52226,-160,4,1,0,50,0,0
52516,-200,4,1,0,50,0,0
52660,-100,4,1,0,50,0,0
58168,-133.333333333333,4,1,0,50,0,0
58747,-117.647058823529,4,1,0,50,0,0
59327,-105.263157894737,4,1,0,50,0,0
59907,-100,4,1,0,50,0,0
61211,-133.333333333333,4,1,0,50,0,0
61501,-100,4,1,0,50,0,0
67153,-133.333333333333,4,1,0,50,0,0
71356,-200,4,1,0,50,0,0
82226,-100,4,1,0,50,0,0
83385,-100,4,1,0,50,0,1
92660,-133.333333333333,4,1,0,50,0,0
97298,-100,4,1,0,50,0,1
101356,-100,4,1,0,50,0,0
101936,-100,4,1,0,50,0,1
102081,-100,4,1,0,50,0,0
125124,-133.333333333333,4,1,0,50,0,0
128458,-200,4,1,0,50,0,0
129762,-100,4,1,0,50,0,0
130631,-133.333333333333,4,1,0,50,0,0
130921,-100,4,1,0,50,0,1
140197,-133.333333333333,4,1,0,50,0,0
144834,-100,4,1,0,50,0,1
149472,-100,4,1,0,50,0,0
158747,-200,4,1,0,50,0,0
168023,-133.333333333333,4,1,0,50,0,0
184544,-100,4,1,0,50,0,0
202805,-133.333333333333,4,1,0,50,0,0
210921,-100,4,1,0,50,0,0
212081,-200,4,1,0,50,0,0
212371,-79.9999999999999,4,1,0,50,0,1
212660,-100,4,1,0,50,0,1
221066,-100,4,1,0,50,0,0
221356,-100,4,1,0,50,0,1
223095,-100,4,1,0,50,0,0
223675,-100,4,1,0,50,0,1
230052,-100,4,1,0,50,0,0
230342,-133.333333333333,4,1,0,50,0,0
230631,-100,4,1,0,50,0,1
230776,-100,4,1,0,50,0,0
235269,-133.333333333333,4,1,0,50,0,0

[Colours]
Combo1 : 255,106,106
Combo2 : 80,80,160
Combo3 : 255,176,176
Combo4 : 128,128,255

[HitObjects]
124,264,4545,6,0,B|89:249|89:249|202:228,1,131.25
202,233,4834,6,0,P|222:209|231:188,1,43.75
265,292,5124,2,0,P|254:318|252:340,1,43.75
360,356,5414,6,0,B|367:292|367:292|356:265,1,87.5
294,210,5849,1,0,0:0:0:0:
294,210,5994,2,0,L|244:214,1,43.75
167,184,6284,1,0,0:0:0:0:
167,184,6863,6,0,L|226:184,1,43.75
299,131,7153,2,0,P|328:137|374:185,2,87.5
369,175,7878,5,0,0:0:0:0:
369,175,8023,2,0,L|422:167,1,43.75
382,269,8313,2,0,L|437:265,1,43.75
279,307,8602,1,0,0:0:0:0:
276,307,9182,6,0,P|271:276|272:251,1,43.75
325,125,9472,2,0,P|330:154|326:179,1,43.75
190,201,9762,2,0,P|185:170|186:145,1,43.75
239,19,10052,2,0,P|244:48|240:73,1,43.75
186,154,10342,5,0,0:0:0:0:
97,174,10487,1,0,0:0:0:0:
186,154,10631,2,0,L|286:160,1,87.5
270,159,11501,5,0,0:0:0:0:
186,153,11646,1,0,0:0:0:0:
270,159,11791,2,0,L|332:146,1,43.75
335,261,12081,2,0,L|281:271,1,43.75
381,187,12371,2,0,P|419:186|461:206,1,65.625
483,216,12660,6,0,L|470:125,2,87.5
307,333,13530,6,0,P|273:315|206:322,1,98.4375037550928
184,330,13820,5,0,0:0:0:0:
187,290,14110,1,0,0:0:0:0:
191,250,14400,1,0,0:0:0:0:
197,211,14689,1,0,0:0:0:0:
205,172,14979,6,0,L|339:166,2,131.25000500679
338,93,15849,2,0,P|384:108|400:126,1,65.6250025033952
349,223,16139,6,0,L|336:75,1,131.25000500679
404,290,16718,2,0,B|359:303|359:303|269:295,1,131.25000500679
153,242,17298,5,0,0:0:0:0:
137,205,17588,1,0,0:0:0:0:
134,165,17878,1,0,0:0:0:0:
143,126,18168,1,0,0:0:0:0:
164,97,18458,6,0,B|222:89|222:89|271:100,1,87.5
334,118,18747,1,0,0:0:0:0:
233,228,18892,6,0,B|225:170|225:170|236:121,1,87.5
254,58,19181,1,0,0:0:0:0:
420,116,19327,2,0,B|362:124|362:124|313:113,1,87.5
232,230,19617,6,0,B|269:212|269:212|333:218,1,87.5
401,228,19907,1,0,0:0:0:0:
489,336,20052,6,0,B|452:354|452:354|388:348,1,87.5
320,338,20342,1,0,0:0:0:0:
230,231,20487,6,0,B|215:142|215:142|234:104,1,131.25
259,85,20776,6,0,L|341:87,1,65.625
370,87,21066,6,0,L|424:80,3,43.75
354,173,21356,2,0,L|417:167,3,43.75
339,258,21646,2,0,L|395:252,3,43.75
266,315,21936,5,0,0:0:0:0:
246,324,22008,1,0,0:0:0:0:
224,330,22081,1,0,0:0:0:0:
202,331,22153,1,0,0:0:0:0:
179,331,22226,1,0,0:0:0:0:
157,325,22298,1,0,0:0:0:0:
138,312,22371,1,0,0:0:0:0:
125,294,22443,1,0,0:0:0:0:
114,274,22516,5,0,0:0:0:0:
205,163,22660,2,0,B|216:210|216:210|201:262,1,87.5
203,249,23095,6,0,B|243:226|286:247|286:247|306:232|341:231,1,131.25
371,233,23385,6,0,P|381:182|368:135,1,87.5
293,87,23675,1,0,0:0:0:0:
390,242,23820,2,0,P|399:186|385:141,1,87.5
222,227,24110,5,0,0:0:0:0:
238,89,24255,1,0,0:0:0:0:
312,208,24400,1,0,0:0:0:0:
185,152,24544,5,0,0:0:0:0:
312,208,24689,2,0,B|322:252|322:252|308:309,1,87.5
197,337,24979,5,0,0:0:0:0:
312,293,25124,2,0,P|355:288|399:303,1,87.5
197,337,25414,6,0,B|181:244|181:244|197:198,1,131.25
215,173,25704,2,0,L|323:172,1,87.5
383,110,25994,5,0,0:0:0:0:
199,189,26139,2,0,L|305:188,1,87.5
401,269,26429,5,0,0:0:0:0:
288,190,26573,1,0,0:0:0:0:
404,111,26718,1,0,0:0:0:0:
269,188,26863,1,0,0:0:0:0:
421,275,27008,2,0,B|427:226|427:226|412:176,1,87.5
259,108,27298,5,0,0:0:0:0:
276,309,27443,1,0,0:0:0:0:
255,91,27588,1,0,0:0:0:0:
280,328,27733,6,0,B|242:348|242:348|148:342,1,131.25
111,338,28023,2,0,P|97:293|110:245,1,87.5
161,171,28313,1,0,0:0:0:0:
96,343,28458,2,0,P|82:291|94:241,1,87.5
161,171,28747,5,0,0:0:0:0:
318,211,28892,2,0,B|275:224|275:224|229:213,1,87.5
195,88,29182,1,0,0:0:0:0:
232,216,29327,2,0,L|227:315,1,87.5
386,289,29617,5,0,0:0:0:0:
297,181,29762,1,0,0:0:0:0:
297,303,29907,1,0,0:0:0:0:
389,174,30052,6,0,B|392:102|392:102|381:57|381:57|388:-11,2,175
266,240,30776,2,0,P|216:244|155:212,1,87.5
105,114,31066,5,0,0:0:0:0:
237,162,31211,1,0,0:0:0:0:
130,252,31356,1,0,0:0:0:0:
130,252,31429,1,0,0:0:0:0:
130,252,31501,1,0,0:0:0:0:
105,114,31646,6,0,L|110:58,3,43.75
184,95,31936,2,0,L|188:41,3,43.75
264,113,32226,1,0,0:0:0:0:
265,103,32298,1,0,0:0:0:0:
266,92,32371,2,0,B|318:83|318:83|403:97,1,131.25
438,104,32660,6,0,L|502:100,3,43.75
423,188,32950,2,0,L|481:186,3,43.75
402,269,33240,2,0,L|459:269,3,43.75
339,320,33530,5,0,0:0:0:0:
325,319,33602,1,0,0:0:0:0:
311,318,33675,1,0,0:0:0:0:
297,318,33747,1,0,0:0:0:0:
260,293,33820,5,0,0:0:0:0:
247,294,33892,1,0,0:0:0:0:
233,295,33965,1,0,0:0:0:0:
220,296,34037,1,0,0:0:0:0:
179,313,34110,5,0,0:0:0:0:
165,313,34182,1,0,0:0:0:0:
151,313,34255,1,0,0:0:0:0:
137,313,34327,1,0,0:0:0:0:
99,289,34400,5,0,0:0:0:0:
86,290,34472,1,0,0:0:0:0:
73,291,34544,1,0,0:0:0:0:
59,293,34617,1,0,0:0:0:0:
46,294,34689,6,0,L|59:217,3,43.75
117,201,34979,2,0,L|124:154,3,43.75
193,109,35269,5,0,0:0:0:0:
206,109,35342,1,0,0:0:0:0:
218,110,35414,1,0,0:0:0:0:
231,111,35487,1,0,0:0:0:0:
243,112,35559,1,0,0:0:0:0:
255,113,35631,1,0,0:0:0:0:
268,114,35704,1,0,0:0:0:0:
280,115,35776,1,0,0:0:0:0:
293,116,35849,6,0,L|360:133,3,43.75
401,173,36139,2,0,L|422:233,3,43.75
397,291,36429,5,0,0:0:0:0:
388,300,36501,1,0,0:0:0:0:
377,307,36573,1,0,0:0:0:0:
366,314,36646,1,0,0:0:0:0:
354,319,36718,1,0,0:0:0:0:
341,324,36791,1,0,0:0:0:0:
328,328,36863,1,0,0:0:0:0:
315,330,36936,1,0,0:0:0:0:
302,327,37008,6,0,L|226:348,3,43.75
183,348,37298,2,0,L|139:340,3,43.75
123,254,37588,6,0,L|176:261,3,43.75
247,257,37878,2,0,L|302:240,3,43.75
357,189,38168,5,0,0:0:0:0:
356,175,38240,1,0,0:0:0:0:
355,161,38313,1,0,0:0:0:0:
354,147,38385,1,0,0:0:0:0:
320,117,38458,5,0,0:0:0:0:
321,104,38530,1,0,0:0:0:0:
322,91,38602,1,0,0:0:0:0:
323,77,38675,1,0,0:0:0:0:
325,64,38747,6,0,L|260:78,3,43.75
213,122,39037,2,0,L|160:117,3,43.75
79,113,39327,6,0,L|84:173,3,43.75
163,189,39617,2,0,L|146:253,3,43.75
238,299,39907,6,0,L|243:239,3,43.75
322,223,40197,2,0,L|305:159,3,43.75
373,118,40487,5,0,0:0:0:0:
389,103,40559,1,0,0:0:0:0:
408,93,40631,1,0,0:0:0:0:
429,88,40704,1,0,0:0:0:0:
450,85,40776,1,0,0:0:0:0:
366,225,40921,5,0,0:0:0:0:
344,228,40994,1,0,0:0:0:0:
322,223,41066,2,0,B|294:218|277:210|277:210|240:230|240:230|203:222|203:222|178:237|142:235|110:221|107:150|160:110|191:147,1,306.25
219,144,41646,6,0,B|234:193|234:193|226:235,1,87.5
117,302,41936,1,0,0:0:0:0:
68,203,42081,6,0,B|117:188|117:188|159:196,1,87.5
226,305,42371,1,0,0:0:0:0:
100,343,42516,6,0,B|85:294|85:294|93:252,1,87.5
202,185,42806,1,0,0:0:0:0:
312,257,42950,6,0,B|326:305|326:305|312:358,1,87.5
185,364,43240,1,0,0:0:0:0:
312,255,43385,6,0,L|373:262,2,43.75
355,259,43820,6,0,L|348:161,1,87.5
348,172,44110,1,0,0:0:0:0:
413,60,44255,6,0,B|419:99|419:99|408:130,1,65.6250025033952
280,140,44544,2,0,B|269:108|269:108|273:65,1,65.6250025033952
348,172,44834,5,0,0:0:0:0:
236,215,44979,2,0,P|195:224|156:212,1,65.6250025033952
106,154,45269,1,0,0:0:0:0:
206,83,45414,2,0,L|198:168,1,65.6250025033952
112,238,45704,2,0,L|106:164,1,65.6250025033952
132,317,45994,5,0,0:0:0:0:
8,287,46139,2,0,B|58:291|58:291|87:313|87:313|138:317,1,131.25000500679
235,259,46573,6,0,P|239:222|221:176,1,65.6250025033952
114,182,46863,2,0,P|115:224|132:262,1,65.6250025033952
232,194,47153,5,0,0:0:0:0:
114,182,47298,2,0,B|95:156|95:156|101:91,1,98.4375037550928
118,61,47588,2,0,L|198:63,2,65.6250025033952
264,104,48023,2,0,L|323:96,2,43.75
394,55,48458,6,0,L|383:175,1,87.5
386,142,48747,5,0,0:0:0:0:
296,189,48892,2,0,P|261:196|228:191,1,65.6250025033952
342,264,49182,2,0,P|383:255|422:260,1,65.6250025033952
245,334,49472,5,0,0:0:0:0:
231,189,49617,2,0,L|237:260,1,65.6250025033952
124,217,49907,5,0,0:0:0:0:
183,115,50052,2,0,P|226:103|306:142,1,131.25000500679
363,207,50487,5,0,0:0:0:0:
273,224,50631,1,0,0:0:0:0:
303,138,50776,2,0,L|323:66,1,65.6250025033952
433,113,51066,5,0,0:0:0:0:
363,207,51211,2,0,P|307:228|237:199,1,131.25000500679
244,204,51791,5,0,0:0:0:0:
363,291,51936,2,0,P|399:285|448:237,1,98.4375037550928
428,229,52226,6,0,P|399:257|353:273,1,82.03125
359,249,52516,6,0,P|386:235|399:213,1,43.75
268,129,52805,1,0,0:0:0:0:
249,286,52950,1,0,0:0:0:0:
394,224,53095,6,0,B|396:136|396:136|371:96,1,131.25
344,66,53385,1,0,0:0:0:0:
306,228,53530,6,0,L|393:224,1,87.5
396,343,53820,2,0,L|288:346,1,87.5
159,293,54110,1,0,0:0:0:0:
305,230,54255,2,0,P|341:271|337:340,1,87.5
146,291,54544,5,0,0:0:0:0:
253,164,54689,2,0,P|295:148|376:184,1,131.25
397,215,54979,2,0,L|390:111,1,87.5
391,127,55269,5,0,0:0:0:0:
406,298,55414,2,0,B|341:291|341:291|301:260|301:260|237:255,1,175
77,285,55849,6,0,B|66:328|66:328|84:377,1,87.5
243,256,56139,2,0,B|250:206|250:206|235:166,1,87.5
115,119,56429,5,0,0:0:0:0:
234,171,56573,2,0,B|296:173|296:173|346:195|346:195|414:197,1,175
335,75,57008,5,0,0:0:0:0:
235,171,57153,2,0,P|228:220|242:271,1,87.5
294,309,57443,5,0,0:0:0:0:
137,294,57588,1,0,0:0:0:0:
313,312,57733,6,0,B|374:303|374:303|412:278|412:278|487:270,1,175
314,313,58168,6,0,B|276:280|246:238|251:171|325:137|370:193|356:247|320:251,1,229.687508761883
314,313,58747,6,0,B|265:298|235:226|256:159|318:142|381:197|345:249,1,260.312504965067
314,313,59327,6,0,B|248:299|233:227|237:152|341:111|379:213|357:249,1,290.937492231131
314,313,59907,6,0,L|235:309,1,43.75
361,235,60052,2,0,L|470:239,1,87.5
286,149,60342,5,0,0:0:0:0:
313,313,60487,1,0,0:0:0:0:
283,133,60631,1,0,0:0:0:0:
363,237,60776,5,0,0:0:0:0:
219,198,60921,1,0,0:0:0:0:
348,93,61066,1,0,0:0:0:0:
175,31,61211,6,0,B|133:22|133:22|56:33,1,98.4375037550928
44,44,61501,5,0,0:0:0:0:
215,111,61646,1,0,0:0:0:0:
23,173,61791,1,0,0:0:0:0:
233,234,61936,1,0,0:0:0:0:
254,235,62008,1,0,0:0:0:0:
275,236,62081,1,0,0:0:0:0:
296,237,62153,1,0,0:0:0:0:
317,239,62226,2,0,L|381:217,3,43.75
417,171,62516,6,0,P|445:214|440:258,1,87.5
283,318,62805,1,0,0:0:0:0:
304,144,62950,1,0,0:0:0:0:
443,251,63095,1,0,0:0:0:0:
283,318,63240,2,0,P|252:318|225:311,1,43.75
239,315,63530,6,0,B|257:322|285:318|285:318|323:342|380:345,1,131.25
410,338,63820,1,0,0:0:0:0:
341,177,63965,1,0,0:0:0:0:
239,316,64110,2,0,B|203:340|203:340|116:329,1,131.25
74,315,64400,5,0,0:0:0:0:
238,235,64544,1,0,0:0:0:0:
94,171,64689,1,0,0:0:0:0:
181,72,64834,2,0,P|192:126|178:176,1,87.5
238,235,65124,6,0,B|286:220|286:220|325:240|381:234,1,131.25
436,270,65414,2,0,P|442:226|422:185,1,87.5
424,187,65704,5,0,0:0:0:0:
236,237,65849,1,0,0:0:0:0:
365,88,65994,2,0,B|403:78|403:78|462:86,1,87.5
332,215,66284,5,0,0:0:0:0:
205,129,66429,1,0,0:0:0:0:
205,129,66501,1,0,0:0:0:0:
205,129,66573,2,0,P|196:79|210:44,1,87.5
248,227,66863,2,0,P|189:235|117:189,1,131.25
112,173,67153,6,0,L|128:313,1,131.25000500679
126,300,67733,1,0,0:0:0:0:
216,326,67878,2,0,B|264:337|264:337|361:312,1,131.25000500679
269,251,68313,1,0,0:0:0:0:
355,202,68458,1,0,0:0:0:0:
265,163,68602,6,0,P|292:129|357:109,1,98.4375037550928
375,104,68892,2,0,L|340:41,1,65.6250025033952
266,163,69182,5,0,0:0:0:0:
266,163,69327,1,0,0:0:0:0:
354,199,69472,2,0,B|435:201|469:136,1,131.25000500679
266,163,69907,2,0,P|263:222|312:284,1,131.25000500679
401,298,70342,5,0,0:0:0:0:
303,278,70487,2,0,B|209:265|209:265|169:291,1,131.25000500679
70,346,70921,2,0,P|73:297|70:264,1,65.6250025033952
185,180,71211,5,0,0:0:0:0:
86,74,71356,2,0,L|-3:86,1,87.5
256,192,79037,12,0,80994,0:0:0:0:
256,192,81066,12,0,82081,0:0:0:0:
406,177,82226,6,0,L|361:183,3,43.75
282,219,82516,2,0,L|234:216,3,43.75
177,158,82805,2,0,L|130:166,3,43.75
81,228,83095,5,0,0:0:0:0:
70,227,83168,1,0,0:0:0:0:
59,226,83240,1,0,0:0:0:0:
48,225,83313,1,0,0:0:0:0:
37,224,83385,6,0,B|28:132|28:132|46:89,1,131.25
68,60,83675,1,0,0:0:0:0:
197,150,83820,2,0,L|202:250,1,87.5
93,353,84110,6,0,L|90:259,1,87.5
198,149,84400,2,0,B|288:137|288:137|328:155,1,131.25
387,199,84689,2,0,P|381:142|381:108,1,87.5
418,307,84979,2,0,B|352:304|352:304|312:283|312:283|246:282,1,175
55,344,85414,5,0,0:0:0:0:
229,284,85559,1,0,0:0:0:0:
36,226,85704,2,0,B|15:181|15:181|23:87,1,131.25
32,57,85994,1,0,0:0:0:0:
141,171,86139,2,0,L|137:273,1,87.5
276,336,86429,6,0,B|365:348|365:348|407:329,1,131.25
439,307,86718,2,0,L|446:220,1,87.5
250,144,87008,2,0,B|242:228|242:228|264:286,1,131.25
277,334,87298,2,0,L|188:327,1,87.5
85,233,87588,1,0,0:0:0:0:
215,182,87733,2,0,P|230:224|229:282,1,87.5
85,233,88023,6,0,L|18:225,1,43.75
117,212,88168,1,0,0:0:0:0:
291,231,88313,1,0,0:0:0:0:
159,116,88458,1,0,0:0:0:0:
160,290,88602,5,0,0:0:0:0:
319,217,88747,1,0,0:0:0:0:
103,183,88892,2,0,B|90:95|90:95|112:54,1,131.25
139,24,89182,5,0,0:0:0:0:
310,129,89327,2,0,L|319:222,1,87.5
181,326,89617,2,0,B|111:322|111:322|72:332|72:332|-2:329,1,175
7,329,90052,1,0,0:0:0:0:
134,241,90197,6,0,L|188:244,1,43.75
258,249,90342,2,0,P|276:197|246:125,1,131.25
169,106,90631,6,0,L|103:114,1,43.75
249,128,90776,2,0,P|299:134|377:99,1,131.25
453,80,91066,6,0,L|519:88,1,43.75
372,102,91211,2,0,P|322:107|244:72,1,131.25
190,22,91501,6,0,L|132:29,1,43.75
248,76,91646,2,0,B|245:129|245:129|272:169|273:213,1,131.25
279,244,91936,1,0,0:0:0:0:
188,350,92081,1,0,0:0:0:0:
193,192,92226,1,0,0:0:0:0:
260,336,92371,5,0,0:0:0:0:
281,339,92443,1,0,0:0:0:0:
302,340,92516,1,0,0:0:0:0:
323,338,92588,1,0,0:0:0:0:
341,332,92660,6,0,B|350:244|350:244|320:206,1,131.25000500679
323,210,93095,5,0,0:0:0:0:
427,264,93240,2,0,P|461:269|509:250,1,65.6250025033952
490,261,93530,5,0,0:0:0:0:
386,314,93675,2,0,P|352:319|304:300,1,65.6250025033952
224,244,93965,2,0,P|226:199|210:147,1,98.4375037550928
183,129,94255,2,0,B|264:142|264:142|313:115,1,131.25000500679
386,149,94689,5,0,0:0:0:0:
216,113,94834,1,0,0:0:0:0:
399,151,94979,2,0,P|414:197|411:234,1,65.6250025033952
356,302,95269,5,0,0:0:0:0:
414,215,95414,2,0,L|487:219,1,65.6250025033952
356,302,95704,6,0,B|288:295|288:295|252:310,1,98.4375037550928
230,327,95994,2,0,L|235:258,1,65.6250025033952
119,234,96284,2,0,L|123:303,1,65.6250025033952
234,261,96573,2,0,L|241:193,1,65.6250025033952
119,233,96863,5,0,0:0:0:0:
239,197,97008,2,0,L|338:201,1,98.4375037550928
370,203,97298,5,0,0:0:0:0:
318,73,97443,2,0,L|226:66,1,87.5
90,51,97733,5,0,0:0:0:0:
231,68,97878,2,0,P|274:102|290:151,1,87.5
192,235,98168,5,0,0:0:0:0:
151,101,98313,1,0,0:0:0:0:
287,131,98458,6,0,P|336:144|381:144,1,87.5
496,78,98747,1,0,0:0:0:0:
375,145,98892,2,0,P|330:158|288:155,1,87.5
175,74,99182,5,0,0:0:0:0:
196,248,99327,1,0,0:0:0:0:
196,248,99617,6,0,B|254:234|254:234|285:251|334:255,1,131.25
399,272,99907,6,0,P|401:251|390:212,3,43.75
334,178,100197,2,0,P|334:156|337:120,3,43.75
382,62,100487,6,0,P|352:57|313:56,3,43.75
263,95,100776,2,0,P|228:99|206:97,3,43.75
148,53,101066,5,0,0:0:0:0:
126,55,101139,1,0,0:0:0:0:
104,57,101211,1,0,0:0:0:0:
82,59,101284,1,0,0:0:0:0:
60,61,101356,5,0,0:0:0:0:
59,61,101646,2,0,B|151:53|151:53|194:75,1,131.25
219,99,101936,6,0,L|355:93,1,131.25
379,60,102226,2,0,B|392:102|392:102|385:148,1,87.5
255,198,102516,1,0,0:0:0:0:
385,146,102660,2,0,L|477:150,1,87.5
336,212,102950,5,0,0:0:0:0:
485,285,103095,1,0,0:0:0:0:
308,335,103240,1,0,0:0:0:0:
467,286,103385,1,0,0:0:0:0:
336,212,103530,2,0,B|247:200|247:200|201:217,1,131.25
171,238,103820,5,0,0:0:0:0:
336,157,103965,1,0,0:0:0:0:
190,97,104110,1,0,0:0:0:0:
300,26,104255,6,0,B|344:16|344:16|446:33,1,131.25
456,64,104544,2,0,L|447:166,1,87.5
435,293,104834,1,0,0:0:0:0:
304,243,104979,2,0,L|314:135,1,87.5
428,220,105269,5,0,0:0:0:0:
274,255,105414,1,0,0:0:0:0:
448,315,105559,1,0,0:0:0:0:
302,256,105704,1,0,0:0:0:0:
428,220,105849,6,0,B|453:183|453:183|452:69,1,131.25
450,51,106139,5,0,0:0:0:0:
274,103,106284,1,0,0:0:0:0:
476,161,106429,1,0,0:0:0:0:
249,222,106573,6,0,B|203:235|203:235|109:226,1,131.25
86,199,106863,2,0,L|88:89,1,87.5
202,29,107153,1,0,0:0:0:0:
87,111,107298,2,0,L|-27:94,1,87.5
86,199,107588,5,0,0:0:0:0:
130,48,107733,1,0,0:0:0:0:
179,225,107878,1,0,0:0:0:0:
129,76,108023,1,0,0:0:0:0:
86,199,108168,6,0,B|72:289|72:289|99:344,1,131.25
119,357,108458,5,0,0:0:0:0:
297,318,108602,1,0,0:0:0:0:
152,257,108747,1,0,0:0:0:0:
263,188,108892,2,0,B|308:189|308:189|343:207|343:207|426:205,1,131.25
434,202,109182,6,0,B|445:160|445:160|432:115,1,87.5
275,106,109472,1,0,0:0:0:0:
453,201,109617,2,0,B|464:156|464:156|453:113,1,87.5
259,104,109907,5,0,0:0:0:0:
328,246,110052,1,0,0:0:0:0:
387,72,110197,5,0,0:0:0:0:
230,167,110342,1,0,0:0:0:0:
400,236,110487,1,0,0:0:0:0:
421,232,110559,1,0,0:0:0:0:
442,229,110631,1,0,0:0:0:0:
311,113,110776,5,0,0:0:0:0:
332,287,110921,1,0,0:0:0:0:
310,91,111066,6,0,B|235:91|235:91|201:106|201:106|127:105,1,175
138,105,111429,1,0,0:0:0:0:
138,105,111501,1,0,0:0:0:0:
122,170,113240,5,0,0:0:0:0:
390,214,113385,1,0,0:0:0:0:
256,192,113458,12,0,115125,0:0:0:0:
256,192,115269,6,0,P|212:201|165:185,1,87.5
256,192,115487,6,0,P|270:149|307:116,1,87.5
256,192,115704,6,0,P|285:225|295:274,1,87.5
295,266,115994,5,0,0:0:0:0:
187,327,116139,2,0,B|154:327|132:324|132:324|115:331|115:331|95:326|57:329,1,131.25
16,315,116429,2,0,P|12:282|20:246,3,43.75
70,206,116718,2,0,P|74:178|69:151,3,43.75
19,92,117008,6,0,P|47:82|74:80,3,43.75
145,106,117298,2,0,P|174:112|206:112,3,43.75
266,71,117588,6,0,P|315:85|371:68,1,87.5
441,25,117878,1,0,0:0:0:0:
352,78,118023,2,0,B|327:114|327:114|343:203,1,131.25
355,242,118313,1,0,0:0:0:0:
245,329,118458,6,0,L|201:328,3,43.75
139,274,118747,2,0,L|95:274,3,43.75
26,321,119037,1,0,0:0:0:0:
139,274,119182,6,0,L|151:179,1,87.5
365,138,119472,2,0,L|355:256,1,87.5
121,277,119762,2,0,L|132:184,1,87.5
389,133,120052,2,0,L|385:206,1,43.75
385,298,120197,6,0,B|337:306|304:280|304:280|255:300,1,131.25
203,244,120487,6,0,L|296:201,1,87.5
387,162,120776,1,0,0:0:0:0:
261,68,120921,2,0,P|232:103|221:155,1,87.5
239,301,121211,1,0,0:0:0:0:
222,144,121356,2,0,B|170:113|170:113|115:144|54:141,1,175
197,221,121791,6,0,P|240:221|286:192,1,87.5
413,116,122081,1,0,0:0:0:0:
413,116,122226,2,0,P|457:145|500:148,1,87.5
362,242,122516,5,0,0:0:0:0:
487,247,122660,2,0,B|401:226|401:226|355:244,1,131.25
326,267,122950,2,0,L|332:188,1,43.75
334,113,123095,2,0,P|308:106|232:129,1,87.5
139,189,123385,5,0,0:0:0:0:
152,58,123530,2,0,B|234:37|234:37|282:57,1,131.25
334,113,123820,2,0,P|331:62|332:24,1,87.5
463,117,124110,5,0,0:0:0:0:
443,273,124255,1,0,0:0:0:0:
319,176,124400,1,0,0:0:0:0:
463,117,124544,6,0,L|457:175,1,43.75
443,273,124689,2,0,B|400:285|400:285|306:270,1,131.25
272,262,124979,5,0,0:0:0:0:
141,264,125124,2,0,P|105:269|66:313,2,87.5000033378602
269,171,125704,2,0,P|318:180|398:136,1,131.25000500679
389,146,126139,2,0,L|383:209,1,32.8125012516976
270,172,126429,6,0,L|264:225,1,32.8125012516976
257,301,126573,2,0,L|165:298,1,65.6250025033952
68,242,126863,6,0,L|67:122,1,98.4375037550928
67,143,127153,2,0,P|117:138|154:128,1,65.6250025033952
259,99,127443,5,0,0:0:0:0:
257,115,127516,1,0,0:0:0:0:
256,131,127588,1,0,0:0:0:0:
108,211,127878,5,0,0:0:0:0:
109,227,127950,1,0,0:0:0:0:
110,243,128023,1,0,0:0:0:0:
266,307,128313,5,0,0:0:0:0:
79,336,128458,6,0,B|43:328|14:261|-1:157|57:98|157:107|181:213|106:244,1,371.875
111,241,129762,6,0,L|184:236,1,43.75
225,275,129907,2,0,L|272:272,1,43.75
348,300,130052,5,0,0:0:0:0:
314,146,130197,1,0,0:0:0:0:
353,316,130342,5,0,0:0:0:0:
374,320,130414,1,0,0:0:0:0:
395,325,130487,1,0,0:0:0:0:
409,168,130631,6,0,L|307:144,1,98.4375037550928
281,137,130921,6,0,P|245:153|185:151,1,87.5
83,152,131211,1,0,0:0:0:0:
145,57,131356,2,0,P|195:60|238:82,1,87.5
313,145,131646,5,0,0:0:0:0:
174,278,131791,2,0,B|155:237|155:237|172:127,1,131.25
177,109,132081,1,0,0:0:0:0:
313,145,132226,6,0,L|300:246,1,87.5
64,237,132516,2,0,L|89:119,1,87.5
268,249,132805,5,0,0:0:0:0:
70,320,132950,2,0,P|19:306|-9:254,1,87.5
98,95,133240,6,0,B|181:86|181:86|205:110|245:123,1,131.25
248,38,133530,1,0,0:0:0:0:
143,178,133675,2,0,P|131:235|156:296,1,87.5
321,266,133965,5,0,0:0:0:0:
220,112,134110,1,0,0:0:0:0:
136,263,134255,2,0,P|97:288|52:288,1,87.5
132,104,134544,2,0,L|230:112,1,87.5
378,222,134834,6,0,L|286:217,1,87.5
290,217,135124,1,0,0:0:0:0:
317,42,135269,2,0,L|407:47,1,87.5
453,208,135559,6,0,P|455:255|430:319,1,87.5
410,321,135776,1,0,0:0:0:0:
410,321,135849,2,0,B|378:329|378:329|312:318,1,87.5
153,229,136139,1,0,0:0:0:0:
318,130,136284,1,0,0:0:0:0:
246,337,136429,1,0,0:0:0:0:
194,126,136573,2,0,B|104:117|104:117|59:141,1,131.25
29,157,136863,6,0,L|37:65,1,87.5
202,8,137153,2,0,L|308:14,1,87.5
316,187,137443,1,0,0:0:0:0:
316,187,137516,1,0,0:0:0:0:
316,187,137588,2,0,L|234:182,1,43.75
172,178,137733,6,0,L|128:177,1,43.75
272,184,137878,2,0,P|290:238|270:319,1,131.25
194,346,138168,6,0,L|152:357,1,43.75
275,309,138313,2,0,P|321:288|403:301,1,131.25
462,347,138602,6,0,L|496:388,1,43.75
398,298,138747,2,0,P|372:237|388:166,1,131.25
421,109,139037,5,0,0:0:0:0:
398,298,139182,2,0,B|308:289|308:289|268:317,1,131.25
206,346,139472,6,0,L|215:254,1,87.5
236,84,139762,1,0,0:0:0:0:
115,210,139907,1,0,0:0:0:0:
112,231,139979,1,0,0:0:0:0:
109,252,140052,1,0,0:0:0:0:
106,273,140124,1,0,0:0:0:0:
102,292,140197,6,0,B|197:277|197:277|235:300,1,131.25000500679
227,295,140631,1,0,0:0:0:0:
329,364,140776,2,0,L|332:291,1,65.6250025033952
279,222,141066,1,0,0:0:0:0:
279,222,141211,2,0,L|280:154,1,65.6250025033952
409,106,141501,5,0,0:0:0:0:
409,106,141646,2,0,L|406:178,1,65.6250025033952
279,222,141936,2,0,P|232:212|170:237,1,98.4375037550928
160,248,142226,1,0,0:0:0:0:
113,169,142371,1,0,0:0:0:0:
125,77,142516,2,0,L|20:86,1,98.4375037550928
26,85,142805,1,0,0:0:0:0:
203,128,142950,5,0,0:0:0:0:
203,128,143095,2,0,L|210:57,1,65.6250025033952
277,184,143385,6,0,L|403:182,1,98.4375037550928
408,184,143675,2,0,L|400:264,1,65.6250025033952
285,336,143965,2,0,L|292:264,1,65.6250025033952
401,248,144255,5,0,0:0:0:0:
292,270,144400,1,0,0:0:0:0:
347,152,144544,1,0,0:0:0:0:
397,295,144689,1,0,0:0:0:0:
269,182,144834,6,0,P|223:170|169:188,1,87.5
37,266,145124,1,0,0:0:0:0:
186,348,145269,2,0,P|236:346|280:320,1,87.5
389,206,145559,1,0,0:0:0:0:
258,97,145704,2,0,B|251:140|251:140|272:194,1,87.5
385,306,145994,5,0,0:0:0:0:
219,348,146139,2,0,L|116:338,1,87.5
3,226,146429,5,0,0:0:0:0:
154,148,146573,2,0,P|183:191|188:241,1,87.5
185,269,146791,5,0,0:0:0:0:
185,269,146863,2,0,L|238:262,3,43.75
290,207,147153,6,0,P|340:220|441:219,1,131.25
439,214,147443,5,0,0:0:0:0:
454,198,147516,1,0,0:0:0:0:
460,177,147588,1,0,0:0:0:0:
457,155,147660,1,0,0:0:0:0:
445,136,147733,1,0,0:0:0:0:
428,122,147805,1,0,0:0:0:0:
406,116,147878,1,0,0:0:0:0:
384,118,147950,1,0,0:0:0:0:
362,124,148023,2,0,P|337:151|321:182,3,43.75
314,232,148313,5,0,0:0:0:0:
314,232,148458,1,0,0:0:0:0:
166,314,148602,2,0,L|48:307,1,87.5
30,144,148892,5,0,0:0:0:0:
55,135,148965,1,0,0:0:0:0:
81,135,149037,1,0,0:0:0:0:
106,142,149110,1,0,0:0:0:0:
128,156,149182,1,0,0:0:0:0:
146,174,149255,1,0,0:0:0:0:
160,195,149327,1,0,0:0:0:0:
170,219,149400,1,0,0:0:0:0:
172,244,149472,5,0,0:0:0:0:
409,301,158168,6,0,B|336:316|286:287|286:287|242:303|242:303|192:268|114:297,1,306.25
95,305,158747,6,0,L|100:200,1,87.5
224,175,159182,2,0,L|218:266,1,87.5
321,346,159617,2,0,L|325:254,1,87.5
435,185,160052,2,0,L|429:276,1,87.5
256,306,160487,5,0,0:0:0:0:
307,139,160631,1,0,0:0:0:0:
365,304,160776,1,0,0:0:0:0:
211,222,160921,1,0,0:0:0:0:
379,173,161066,6,0,L|468:176,1,87.5
415,298,161501,2,0,L|318:294,1,87.5
251,187,161936,2,0,L|344:192,1,87.5
287,313,162371,2,0,L|194:309,1,87.5
33,257,162805,5,0,0:0:0:0:
196,193,162950,1,0,0:0:0:0:
24,157,163095,1,0,0:0:0:0:
189,100,163240,1,0,0:0:0:0:
32,22,163385,6,0,L|29:109,1,87.5
150,160,163820,2,0,L|153:72,1,87.5
47,150,164255,2,0,L|42:237,1,87.5
165,288,164689,2,0,L|168:200,1,87.5
29,308,165124,1,0,3:0:0:0:
206,314,165269,1,0,3:0:0:0:
66,205,165414,1,0,2:0:0:0:
115,375,165559,1,0,2:0:0:0:
172,202,165704,5,0,0:0:0:0:
29,308,165849,1,0,0:0:0:0:
250,226,166138,5,0,0:0:0:0:
73,246,166283,1,0,0:0:0:0:
306,282,166573,5,0,0:0:0:0:
142,210,166718,1,0,0:0:0:0:
332,348,167008,5,0,0:0:0:0:
225,203,167153,1,0,0:0:0:0:
414,260,167443,6,0,L|486:255,2,65.625
332,346,168023,6,0,P|296:342|263:329,1,65.6250025033952
214,226,168313,2,0,P|177:228|145:241,1,65.6250025033952
78,331,168602,6,0,L|81:224,1,98.4375037550928
85,160,168892,2,0,L|90:87,1,65.6250025033952
92,95,169327,5,0,0:0:0:0:
190,161,169472,2,0,P|235:164|268:152,1,65.6250025033952
313,55,169762,2,0,P|353:46|419:58,1,98.4375037550928
439,70,170052,5,0,0:0:0:0:
405,183,170197,1,0,0:0:0:0:
313,55,170342,6,0,P|266:68|219:63,1,65.6250025033952
95,100,170631,2,0,P|127:96|176:108,1,65.6250025033952
316,135,170921,2,0,P|280:145|243:146,1,65.6250025033952
97,180,171211,6,0,P|134:177|210:241,1,131.25000500679
226,348,171646,2,0,L|156:342,1,65.6250025033952
160,342,171936,5,0,0:0:0:0:
303,272,172081,2,0,L|377:275,3,65.6250025033952
309,129,172660,6,0,P|263:127|209:173,1,98.4375037550928
204,183,172950,1,0,0:0:0:0:
204,183,173095,2,0,P|165:144|120:139,1,98.4375037550928
92,146,173385,1,0,0:0:0:0:
22,240,173530,6,0,L|30:317,1,65.6250025033952
28,305,173820,1,0,0:0:0:0:
143,351,173965,2,0,P|186:326|246:336,1,98.4375037550928
263,345,174255,1,0,0:0:0:0:
263,345,174400,2,0,L|253:259,1,65.6250025033952
384,188,174689,2,0,L|391:264,1,65.6250025033952
363,328,174979,5,0,0:0:0:0:
328,346,175124,1,0,0:0:0:0:
289,354,175269,1,0,0:0:0:0:
250,347,175414,1,0,0:0:0:0:
218,323,175559,1,0,0:0:0:0:
201,287,175704,1,0,0:0:0:0:
196,247,175849,6,0,B|200:191|200:191|193:170|193:170|197:108,1,131.25000500679
284,69,176284,1,0,0:0:0:0:
284,69,176429,2,0,L|279:147,1,65.6250025033952
259,317,176718,5,0,0:0:0:0:
165,159,176863,1,0,0:0:0:0:
332,236,177008,1,0,0:0:0:0:
152,272,177153,1,0,0:0:0:0:
279,135,177298,6,0,P|305:124|332:120,2,43.7500016689301
165,159,177588,2,0,P|161:130|165:98,2,43.7500016689301
152,272,177878,2,0,P|119:269|94:257,2,43.7500016689301
261,315,178168,2,0,P|240:350|148:370,1,131.25000500679
100,274,178602,1,0,0:0:0:0:
100,274,178747,2,0,L|95:199,1,65.6250025033952
164,111,179037,2,0,L|161:41,1,65.6250025033952
335,109,179327,5,0,0:0:0:0:
173,196,179472,1,0,0:0:0:0:
234,22,179617,6,0,P|299:26|328:55,1,98.4375037550928
334,78,179907,1,0,0:0:0:0:
334,78,180052,2,0,P|366:49|404:37,1,65.6250025033952
404,198,180342,1,0,0:0:0:0:
404,198,180487,2,0,L|266:191,1,131.25000500679
164,236,180921,5,0,0:0:0:0:
164,236,181211,1,0,0:0:0:0:
274,278,181356,2,0,L|346:283,1,65.6250025033952
436,213,181646,1,0,0:0:0:0:
327,166,181791,1,0,0:0:0:0:
339,284,181936,6,0,P|305:309|215:303,1,131.25000500679
143,214,182371,1,0,0:0:0:0:
143,214,182660,5,0,0:0:0:0:
224,128,182805,2,0,L|311:127,1,65.6250025033952
391,65,183095,1,0,0:0:0:0:
283,17,183240,2,0,P|261:44|252:85,1,65.6250025033952
263,192,183530,5,0,0:0:0:0:
227,325,183675,1,0,0:0:0:0:
277,182,183820,5,0,0:0:0:0:
368,311,183965,1,0,0:0:0:0:
294,171,184110,5,0,0:0:0:0:
490,190,184255,6,0,L|485:84,1,98.4375037550928
481,14,184544,6,0,P|451:20|421:43,3,43.75
407,98,184834,2,0,P|382:100|344:89,3,43.75
314,35,185124,6,0,P|264:26|188:59,1,131.25
168,93,185414,6,0,L|173:193,1,87.5
334,253,185704,1,0,0:0:0:0:
334,253,185849,2,0,L|328:132,1,87.5
191,325,186139,6,0,P|140:303|57:321,1,131.25
33,343,186429,1,0,0:0:0:0:
94,200,186573,2,0,P|95:173|88:137,3,43.75
171,142,186863,2,0,P|160:117|140:87,3,43.75
223,68,187153,2,0,P|205:49|183:37,3,43.75
223,68,187443,6,0,P|271:49|359:73,1,131.25
381,92,187733,6,0,P|375:57|375:35,3,43.75
403,123,188023,2,0,P|409:98|423:70,3,43.75
414,161,188313,2,0,P|432:135|457:107,3,43.75
412,197,188602,6,0,P|376:222|283:215,1,131.25
234,166,188892,6,0,L|228:107,1,43.75
345,15,189110,1,0,0:0:0:0:
410,200,189327,1,0,0:0:0:0:
213,165,189472,6,0,L|207:115,1,43.75
362,10,189689,1,0,0:0:0:0:
431,208,189907,1,0,0:0:0:0:
192,166,190052,6,0,L|186:116,1,43.75
381,14,190269,1,0,0:0:0:0:
452,210,190487,1,0,0:0:0:0:
172,165,190631,6,0,L|166:117,1,43.75
401,13,190849,1,0,0:0:0:0:
472,213,191066,1,0,0:0:0:0:
242,331,191211,6,0,P|212:321|168:317,2,58.3333333333333
66,282,191501,2,0,P|108:277|152:255,2,58.3333333333333
248,252,191791,2,0,P|223:244|189:242,2,58.3333333333333
65,202,192081,2,0,P|94:200|132:185,2,58.3333333333333
193,146,192371,5,0,0:0:0:0:
193,146,192467,2,0,P|230:157|266:160,1,58.3333333333333
325,131,192660,1,0,0:0:0:0:
325,131,192757,2,0,P|336:162|356:200,1,58.3333333333333
427,200,192950,1,0,0:0:0:0:
427,200,193047,2,0,P|421:233|421:278,1,58.3333333333333
459,331,193240,6,0,P|399:295|301:332,1,175
255,300,202805,6,0,P|262:257|253:220,1,65.6250025033952
257,84,203095,2,0,P|250:127|259:164,1,65.6250025033952
309,286,203385,2,0,P|293:245|267:217,1,65.6250025033952
202,97,203675,2,0,P|218:138|244:166,1,65.6250025033952
349,246,203965,2,0,P|315:219|278:208,1,65.6250025033952
162,137,204255,2,0,P|196:164|233:175,1,65.6250025033952
364,193,204544,2,0,P|321:185|284:195,1,65.6250025033952
147,191,204834,2,0,P|191:198|227:189,1,65.6250025033952
253,356,205124,6,0,P|260:313|251:276,1,65.6250025033952
259,28,205414,2,0,P|252:71|261:108,1,65.6250025033952
335,335,205704,2,0,P|319:294|293:267,1,65.6250025033952
176,48,205994,2,0,P|192:89|218:116,1,65.6250025033952
396,276,206284,2,0,P|362:249|326:238,1,65.6250025033952
115,107,206574,2,0,P|149:134|185:145,1,65.6250025033952
420,195,206863,2,0,P|377:188|340:197,1,65.6250025033952
92,189,207153,2,0,P|135:196|172:186,1,65.6250025033952
254,190,207443,5,0,0:0:0:0:
256,192,207516,12,0,209689,0:0:0:0:
256,192,209762,12,0,210776,0:0:0:0:
255,189,210921,5,0,0:0:0:0:
252,224,210994,1,0,0:0:0:0:
231,252,211066,1,0,0:0:0:0:
200,269,211139,1,0,0:0:0:0:
166,276,211211,1,0,0:0:0:0:
130,272,211284,1,0,0:0:0:0:
101,251,211356,1,0,0:0:0:0:
87,218,211429,1,0,0:0:0:0:
80,183,211501,2,0,P|81:158|81:127,3,43.75
139,33,211791,2,0,P|141:60|141:88,1,43.75
192,188,211936,2,0,P|194:157|194:113,1,43.75
252,20,212081,6,0,P|252:58|255:91,1,65.625
273,104,212371,6,0,B|383:91|383:91|439:125,1,164.0625
447,157,212660,6,0,L|441:256,1,87.5
251,337,212950,2,0,L|255:232,1,87.5
345,119,213240,1,0,0:0:0:0:
441,244,213385,1,0,0:0:0:0:
237,293,213530,2,0,B|144:278|144:278|106:306,1,131.25
81,330,213820,2,0,L|85:237,1,87.5
235,93,214110,2,0,P|293:82|343:95,1,87.5
448,256,214400,6,0,B|358:275|358:275|319:254,1,131.25
286,233,214689,2,0,P|268:282|290:329,1,87.5
365,182,214979,1,0,0:0:0:0:
206,186,215124,1,0,0:0:0:0:
365,182,215269,2,0,L|457:177,1,87.5
254,104,215559,5,0,0:0:0:0:
311,251,215704,1,0,0:0:0:0:
347,98,215849,2,0,P|356:52|343:9,1,87.5
214,99,216139,6,0,L|211:192,1,87.5
67,252,216429,2,0,L|72:156,1,87.5
277,111,216718,1,0,0:0:0:0:
277,111,216863,2,0,L|272:160,1,43.75
260,262,217008,5,0,0:0:0:0:
434,204,217153,1,0,0:0:0:0:
272,155,217298,1,0,0:0:0:0:
374,293,217443,1,0,0:0:0:0:
373,124,217588,2,0,P|373:106|367:75,1,43.75
357,136,217733,5,0,0:0:0:0:
244,279,217878,1,0,0:0:0:0:
431,222,218023,1,0,0:0:0:0:
272,155,218168,1,0,0:0:0:0:
407,100,218313,2,0,B|317:82|317:82|271:104,1,131.25
245,123,218602,1,0,0:0:0:0:
289,274,218747,2,0,L|351:276,1,43.75
410,231,218892,5,0,0:0:0:0:
245,123,219037,2,0,P|186:113|118:148,1,131.25
81,209,219327,6,0,L|79:260,1,43.75
122,316,219472,6,0,P|167:333|255:311,1,131.25
298,258,219762,2,0,L|302:209,1,43.75
352,318,219907,2,0,P|414:347|485:329,1,131.25
511,312,220197,1,0,0:0:0:0:
298,258,220342,6,0,L|206:265,1,87.5
306,137,220631,2,0,L|212:146,1,87.5
312,17,220921,1,0,0:0:0:0:
417,134,221066,5,0,0:0:0:0:
414,160,221139,1,0,0:0:0:0:
411,185,221211,1,0,0:0:0:0:
409,211,221284,1,0,0:0:0:0:
406,236,221356,5,0,0:0:0:0:
180,277,221501,1,0,0:0:0:0:
346,306,221646,5,0,0:0:0:0:
145,202,221791,1,0,0:0:0:0:
334,158,221936,5,0,0:0:0:0:
180,277,222081,1,0,0:0:0:0:
387,225,222226,5,0,0:0:0:0:
181,124,222371,1,0,0:0:0:0:
344,20,222516,5,0,0:0:0:0:
267,201,222660,1,0,0:0:0:0:
226,10,222805,5,0,0:0:0:0:
402,100,222950,1,0,0:0:0:0:
224,185,223095,6,0,P|180:193|100:156,1,131.25
85,119,223385,1,0,0:0:0:0:
237,77,223530,1,0,0:0:0:0:
196,245,223675,5,0,0:0:0:0:
221,73,223820,1,0,0:0:0:0:
342,200,223965,5,0,0:0:0:0:
174,245,224110,1,0,0:0:0:0:
361,291,224255,5,0,0:0:0:0:
156,245,224400,1,0,0:0:0:0:
354,178,224544,5,0,0:0:0:0:
193,109,224689,1,0,0:0:0:0:
364,78,224834,5,0,0:0:0:0:
185,188,224979,1,0,0:0:0:0:
376,275,225124,5,0,0:0:0:0:
174,188,225269,1,0,0:0:0:0:
364,78,225414,5,0,0:0:0:0:
274,268,225559,1,0,0:0:0:0:
202,74,225704,1,0,0:0:0:0:
385,178,225849,1,0,0:0:0:0:
165,184,225994,6,0,L|65:200,1,87.5
332,110,226284,1,0,0:0:0:0:
152,198,226429,6,0,L|57:211,1,87.5
346,109,226718,1,0,0:0:0:0:
140,211,226863,6,0,L|44:222,1,87.5
157,46,227153,6,0,P|216:46|257:64,1,87.5
351,131,227443,1,0,0:0:0:0:
97,117,227588,2,0,P|139:89|193:88,1,87.5
367,133,227878,1,0,0:0:0:0:
82,214,228023,2,0,P|97:168|127:141,1,87.5
379,137,228313,6,0,L|368:198,1,43.75
341,335,228530,1,0,0:0:0:0:
279,108,228747,1,0,0:0:0:0:
393,148,228892,6,0,L|381:212,1,43.75
347,345,229110,1,0,0:0:0:0:
267,96,229327,1,0,0:0:0:0:
407,152,229472,2,0,P|407:183|397:228,3,43.75
433,306,229762,2,0,P|406:284|390:260,3,43.75
279,248,230052,6,0,P|308:238|337:238,1,43.75
450,147,230197,2,0,P|423:151|405:151,1,43.75
283,21,230342,6,0,P|276:66|293:137,1,98.4375037550928
312,152,230631,6,0,L|215:151,1,87.5
111,261,230921,2,0,L|209:262,1,87.5
346,204,231211,5,0,0:0:0:0:
213,288,231356,2,0,L|74:288,1,131.25
37,288,231646,5,0,0:0:0:0:
108,109,231791,1,0,0:0:0:0:
178,250,231936,1,0,0:0:0:0:
14,188,232081,1,0,0:0:0:0:
186,102,232226,2,0,B|231:100|231:100|267:115|267:115|348:109,1,131.25
358,109,232516,5,0,0:0:0:0:
143,178,232660,1,0,0:0:0:0:
327,234,232805,1,0,0:0:0:0:
180,291,232950,6,0,L|82:290,1,87.5
19,149,233240,2,0,L|112:148,1,87.5
253,210,233530,1,0,0:0:0:0:
130,308,233675,2,0,P|119:260|157:175,1,131.25
180,155,233965,5,0,0:0:0:0:
387,188,234110,1,0,0:0:0:0:
224,253,234255,1,0,0:0:0:0:
288,71,234400,5,0,0:0:0:0:
355,250,234544,2,0,L|222:253,1,131.25
181,264,234834,5,0,0:0:0:0:
370,173,234979,1,0,0:0:0:0:
143,105,235124,1,0,0:0:0:0:
393,24,235269,6,0,P|430:29|481:111,2,131.25000500679
288,80,235994,2,0,L|213:77,1,65.6250025033952
104,69,236284,5,0,0:0:0:0:
104,69,236356,1,0,0:0:0:0:
104,69,236429,2,0,L|105:153,1,65.6250025033952
105,253,236718,1,0,0:0:0:0:
105,253,236863,2,0,P|149:238|211:237,1,98.4375037550928
232,246,237153,5,0,0:0:0:0:
217,89,237298,1,0,0:0:0:0:
201,236,237443,5,0,0:0:0:0:
237,104,237588,2,0,P|272:109|335:83,1,98.4375037550928
355,66,237878,2,0,L|345:138,1,65.6250025033952
435,229,238168,1,0,0:0:0:0:
339,57,238313,2,0,L|329:141,1,65.6250025033952
435,229,238602,5,0,0:0:0:0:
454,227,238675,1,0,0:0:0:0:
473,225,238747,1,0,0:0:0:0:
333,124,238892,1,0,0:0:0:0:
259,280,239037,2,0,L|255:359,1,65.6250025033952
255,345,239472,5,0,0:0:0:0:
55,261,239617,1,0,0:0:0:0:
330,152,239762,1,0,0:0:0:0:
