osu file format v14

[General]
AudioFilename: audio.mp3
AudioLeadIn: 0
PreviewTime: 134346
Countdown: 0
SampleSet: Normal
StackLeniency: 0.7
Mode: 0
LetterboxInBreaks: 0
WidescreenStoryboard: 0

[Editor]
Bookmarks: 94208,94633,95058,95341,95411,95482,95765,95907,95977,96048,96119,96190,96473,96897,97322,97605,97817,98029,98171,98241,98312,98383,98454,98525,98595,98666,98737,99161,99586,99869,99940,100010,100152,100435,100506,100576,100647,100718,100789,100859,100930,101001,101284,101355,101425,101496,101567,101638,101708,101779,101850,101921,101991,102062,102133,102416,102699,103124
DistanceSpacing: 1.3
BeatDivisor: 4
GridSize: 32
TimelineZoom: 2.4

[Metadata]
Title:Ill
TitleUnicode:Ill
Artist:a crowd of rebellion
ArtistUnicode:a crowd of rebellion
Creator:Supicha
Version:Estial
Source:
Tags:epic metal
BeatmapID:1968726
BeatmapSetID:942754

[Difficulty]
HPDrainRate:5
CircleSize:4.2
OverallDifficulty:8
ApproachRate:10
SliderMultiplier:1.6
SliderTickRate:1

[Events]
//Background and Video events
0,0,"thebgillness.jpg",0,0
//Break Periods
2,37683,39014
2,87416,92646
2,116850,124628
2,130372,133401
//Storyboard Layer 0 (Background)
//Storyboard Layer 1 (Fail)
//Storyboard Layer 2 (Pass)
//Storyboard Layer 3 (Foreground)
//Storyboard Sound Samples

[TimingPoints]
7626,283.018867924528,4,1,0,100,1,0
8899,-100,4,1,0,5,0,0
9890,-100,4,1,0,60,0,0
17814,-100,4,1,0,30,0,0
19512,283.018867924528,4,1,0,70,1,0
28568,-166.666666666667,4,1,0,50,0,0
36351,-111.111111111111,4,1,0,50,0,0
42224,-111.111111111111,4,1,0,5,0,0
42295,-111.111111111111,4,1,0,50,0,0
48945,-100,4,1,0,70,0,1
60266,-250,4,1,0,25,0,0
63662,-100,4,1,0,70,0,1
64511,-100,4,1,0,70,0,0
64795,-100,4,1,0,70,0,1
71587,-166.666666666667,4,1,0,50,0,0
77813,-100,4,1,0,70,0,0
78379,-100,4,1,0,70,0,1
80644,-100,4,1,0,80,0,1
83120,-100,4,1,0,5,0,1
83191,-100,4,1,0,80,0,1
83403,-100,4,1,0,5,0,1
83474,-100,4,1,0,80,0,1
83686,-100,4,1,0,5,0,1
83757,-100,4,1,0,80,0,1
83969,-100,4,1,0,5,0,1
84040,-100,4,1,0,70,0,1
84252,-100,4,1,0,5,0,1
84323,-100,4,1,0,70,0,1
84535,-100,4,1,0,5,0,1
84606,-100,4,1,0,70,0,1
84818,-100,4,1,0,5,0,1
84889,-100,4,1,0,70,0,1
85101,-100,4,1,0,5,0,1
85172,-100,4,1,0,70,0,0
93096,-100,4,1,0,20,0,0
94228,-100,4,1,0,60,0,0
102153,-100,4,1,0,30,0,0
103144,-100,4,1,0,60,0,0
112695,-100,4,1,0,5,0,0
112766,-100,4,1,0,60,0,0
113120,-100,4,1,0,5,0,0
113191,-100,4,1,0,60,0,0
113545,-100,4,1,0,5,0,0
113615,-100,4,1,0,60,0,0
125078,-142.857142857143,4,1,0,30,0,0
133851,-100,4,1,0,60,0,0
134983,-200,4,1,0,30,0,0
136115,-100,4,1,0,100,0,1
136186,-100,4,1,0,100,0,0
136257,-100,4,1,0,100,0,1
136327,-100,4,1,0,100,0,0
136540,-100,4,1,0,100,0,1
136610,-100,4,1,0,100,0,0
136681,-100,4,1,0,100,0,1
136752,-100,4,1,0,100,0,0
136964,-100,4,1,0,100,0,1
137035,-100,4,1,0,100,0,0
137530,-100,4,1,0,70,0,1
141775,-100,4,1,0,50,0,0
143474,-100,4,1,0,70,0,1
144040,-133.333333333333,4,1,0,50,0,0
144252,-133.333333333333,4,1,0,5,0,0
144323,-100,4,1,0,90,0,1
148285,-100,4,1,0,70,0,1
150832,-100,4,1,0,80,0,1
153096,-142.857142857143,4,1,0,50,0,0
155361,-100,4,1,0,70,0,1
156492,-100,4,1,0,100,0,0

[HitObjects]
256,192,8899,12,0,9606,0:0:0:0:
21,83,9890,5,0,0:0:0:0:
40,134,9960,1,0,0:0:0:0:
85,166,10031,1,0,0:0:0:0:
139,179,10102,1,0,0:0:0:0:
194,171,10173,2,0,P|244:154|269:113,1,80
437,29,10456,6,0,L|425:111,1,80
395,318,10739,1,0,0:0:0:0:
348,117,10880,1,0,0:0:0:0:
305,333,11022,6,0,L|205:328,1,80
34,240,11305,2,0,L|134:245,1,80
290,346,11588,6,0,L|190:341,1,80
19,253,11871,2,0,L|119:258,1,80
330,231,12153,5,0,0:0:0:0:
382,212,12224,1,0,0:0:0:0:
411,164,12294,1,0,0:0:0:0:
400,108,12365,1,0,0:0:0:0:
352,78,12436,2,0,P|288:53|270:57,1,80
66,36,12719,5,0,0:0:0:0:
95,275,12860,1,0,0:0:0:0:
239,132,13002,2,0,L|141:161,1,80
112,301,13285,6,0,L|209:282,1,80
419,180,13568,2,0,L|322:199,1,80
129,316,13851,6,0,L|226:297,1,80
436,195,14134,2,0,L|339:214,1,80
196,186,14417,5,0,0:0:0:0:
160,203,14488,1,0,0:0:0:0:
121,210,14558,1,0,0:0:0:0:
83,195,14629,1,0,0:0:0:0:
59,162,14700,1,0,0:0:0:0:
57,121,14771,1,0,0:0:0:0:
72,84,14841,1,0,0:0:0:0:
101,56,14912,1,0,0:0:0:0:
139,43,14983,1,0,0:0:0:0:
176,57,15054,1,0,0:0:0:0:
198,89,15124,1,0,0:0:0:0:
226,117,15195,1,0,0:0:0:0:
256,142,15266,1,0,0:0:0:0:
292,158,15337,1,0,0:0:0:0:
331,161,15408,1,0,0:0:0:0:
365,142,15478,1,0,0:0:0:0:
387,108,15549,5,0,0:0:0:0:
390,68,15620,1,0,0:0:0:0:
369,33,15691,1,0,0:0:0:0:
330,24,15761,1,0,0:0:0:0:
292,37,15832,1,0,0:0:0:0:
273,72,15903,1,0,0:0:0:0:
281,111,15974,1,0,0:0:0:0:
303,143,16044,1,0,0:0:0:0:
338,161,16115,1,0,0:0:0:0:
367,187,16186,1,0,0:0:0:0:
394,216,16257,1,0,0:0:0:0:
405,253,16327,1,0,0:0:0:0:
399,292,16398,1,0,0:0:0:0:
370,320,16469,1,0,0:0:0:0:
335,341,16540,1,0,0:0:0:0:
295,343,16610,1,0,0:0:0:0:
257,328,16681,5,0,0:0:0:0:
227,301,16752,1,0,0:0:0:0:
191,282,16823,1,0,0:0:0:0:
152,271,16893,1,0,0:0:0:0:
112,267,16964,1,0,0:0:0:0:
73,278,17035,1,0,0:0:0:0:
45,307,17106,1,0,0:0:0:0:
51,346,17176,1,0,0:0:0:0:
86,365,17247,1,0,0:0:0:0:
125,374,17318,1,0,0:0:0:0:
163,363,17389,1,0,0:0:0:0:
192,336,17459,1,0,0:0:0:0:
207,299,17530,1,0,0:0:0:0:
196,260,17601,1,0,0:0:0:0:
164,235,17672,1,0,0:0:0:0:
126,223,17742,1,0,0:0:0:0:
88,236,17813,5,0,0:0:0:0:
202,170,18096,1,0,0:0:0:0:
328,107,18380,2,0,L|387:104,1,40
255,69,18521,2,0,L|210:71,1,40
328,27,18662,1,0,0:0:0:0:
328,27,19512,5,0,0:0:0:0:
396,242,19653,1,0,0:0:0:0:
159,214,19795,1,0,0:0:0:0:
159,214,19865,1,0,0:0:0:0:
159,214,19936,1,0,0:0:0:0:
440,185,20078,5,0,0:0:0:0:
225,253,20219,1,0,0:0:0:0:
253,16,20361,1,0,0:0:0:0:
253,16,20431,1,0,0:0:0:0:
253,16,20502,1,0,0:0:0:0:
286,296,20644,5,0,0:0:0:0:
218,81,20785,1,0,0:0:0:0:
455,109,20927,1,0,0:0:0:0:
455,109,20997,1,0,0:0:0:0:
455,109,21068,1,0,0:0:0:0:
356,328,21210,6,0,L|456:352,1,80
208,267,21493,2,0,L|108:243,1,80
423,199,21776,5,0,0:0:0:0:
208,267,21917,1,0,0:0:0:0:
244,37,22059,2,0,L|259:0,2,40
265,311,22342,5,0,0:0:0:0:
197,96,22483,1,0,0:0:0:0:
434,124,22625,2,0,L|483:120,2,40
154,157,22908,5,0,0:0:0:0:
369,89,23049,1,0,0:0:0:0:
341,326,23191,2,0,L|332:385,2,40
296,105,23474,6,0,L|284:152,1,40
234,320,23615,2,0,L|245:266,1,40
263,69,23757,2,0,L|251:116,1,40
201,284,23898,2,0,L|212:230,1,40
231,35,24040,5,0,0:0:0:0:
348,277,24181,1,0,0:0:0:0:
66,231,24323,1,0,0:0:0:0:
66,231,24394,1,0,0:0:0:0:
66,231,24464,1,0,0:0:0:0:
263,69,24606,5,0,0:0:0:0:
380,311,24747,1,0,0:0:0:0:
98,265,24889,1,0,0:0:0:0:
98,265,24960,1,0,0:0:0:0:
98,265,25030,1,0,0:0:0:0:
296,105,25172,5,0,0:0:0:0:
413,347,25313,1,0,0:0:0:0:
131,301,25455,1,0,0:0:0:0:
131,301,25526,1,0,0:0:0:0:
131,301,25596,1,0,0:0:0:0:
325,140,25738,5,0,0:0:0:0:
443,379,25879,1,0,0:0:0:0:
433,75,26021,5,0,0:0:0:0:
335,329,26162,1,0,0:0:0:0:
263,69,26304,5,0,0:0:0:0:
30,211,26445,1,0,0:0:0:0:
325,140,26587,5,0,0:0:0:0:
67,99,26728,1,0,0:0:0:0:
344,48,26870,5,0,0:0:0:0:
111,190,27011,1,0,0:0:0:0:
406,119,27153,5,0,0:0:0:0:
148,78,27294,1,0,0:0:0:0:
456,197,27436,5,0,0:0:0:0:
422,218,27507,1,0,0:0:0:0:
382,227,27578,1,0,0:0:0:0:
343,219,27648,1,0,0:0:0:0:
302,215,27719,1,0,0:0:0:0:
262,220,27790,1,0,0:0:0:0:
226,239,27861,1,0,0:0:0:0:
196,264,27931,1,0,0:0:0:0:
175,298,28002,5,0,0:0:0:0:
162,323,28073,1,0,0:0:0:0:
143,344,28144,1,0,0:0:0:0:
116,350,28214,1,0,0:0:0:0:
88,343,28285,1,0,0:0:0:0:
64,328,28356,1,0,0:0:0:0:
51,302,28427,1,0,0:0:0:0:
51,274,28497,1,0,0:0:0:0:
62,248,28568,6,0,B|35:146|23:86|23:86|57:111|57:111|165:177|239:125,1,383.99998828125
405,67,29842,1,0,0:0:0:0:
430,94,30125,5,0,0:0:0:0:
370,329,30266,2,0,B|351:276|351:276|310:312,1,95.9999970703126
111,342,30832,5,0,0:0:0:0:
116,220,30974,1,0,0:0:0:0:
122,98,31115,1,0,0:0:0:0:
132,76,31540,6,0,P|168:47|230:61,1,95.9999970703126
376,239,31964,2,0,L|383:179,1,47.9999985351563
434,39,32247,2,0,L|427:99,1,47.9999985351563
399,253,32530,2,0,L|406:193,1,47.9999985351563
457,53,32813,2,0,L|450:113,1,47.9999985351563
418,264,33096,5,0,0:0:0:0:
288,297,33238,1,0,0:0:0:0:
160,330,33379,2,0,P|87:300|184:187,1,287.999991210938
343,227,34370,1,0,0:0:0:0:
356,202,34653,5,0,0:0:0:0:
395,27,34795,2,0,B|354:60|325:20|286:44,1,95.9999970703126
107,102,35361,2,0,L|172:105,1,47.9999985351563
290,121,35644,2,0,B|346:138|369:125|383:117|383:117|350:186|388:226,1,191.999994140625
473,320,36493,6,0,L|394:316,1,71.9999978027344
308,263,36776,2,0,L|229:267,1,71.9999978027344
36,325,37059,1,0,0:0:0:0:
131,226,37200,1,0,0:0:0:0:
22,162,37342,1,0,0:0:0:0:
117,63,37483,1,0,0:0:0:0:
117,63,39464,5,0,0:0:0:0:
117,63,39535,1,0,0:0:0:0:
117,63,39606,1,0,0:0:0:0:
347,73,39889,6,0,L|440:67,1,71.9999978027344
215,147,40172,2,0,L|122:141,1,71.9999978027344
350,59,40455,2,0,L|443:53,1,71.9999978027344
208,159,40738,2,0,L|115:153,1,71.9999978027344
390,227,41021,5,0,0:0:0:0:
172,64,41162,1,0,0:0:0:0:
159,287,41304,1,0,0:0:0:0:
438,147,41445,1,0,0:0:0:0:
413,130,41728,6,0,L|324:144,1,71.9999978027344
131,168,42011,2,0,P|114:243|133:279,1,107.999996704102
159,287,42295,5,0,0:0:0:0:
403,263,42436,1,0,0:0:0:0:
197,222,42578,1,0,0:0:0:0:
341,141,42719,6,0,L|413:130,1,71.9999978027344
229,100,43002,2,0,L|157:88,1,71.9999978027344
307,68,43285,5,0,0:0:0:0:
262,324,43427,1,0,0:0:0:0:
245,22,43568,1,0,0:0:0:0:
324,288,43710,2,0,P|272:253|193:307,1,143.999995605469
88,348,44134,1,0,0:0:0:0:
42,241,44276,2,0,L|67:165,1,71.9999978027344
99,59,44559,5,0,0:0:0:0:
262,47,44700,1,0,0:0:0:0:
175,200,44842,1,0,0:0:0:0:
178,6,44983,5,0,0:0:0:0:
279,217,45125,1,0,0:0:0:0:
283,22,45266,1,0,0:0:0:0:
159,224,45408,1,0,0:0:0:0:
87,51,45549,5,0,0:0:0:0:
374,141,45691,1,0,0:0:0:0:
56,167,45832,1,0,0:0:0:0:
386,39,45974,1,0,0:0:0:0:
86,271,46115,6,0,L|93:363,1,71.9999978027344
162,150,46398,2,0,L|155:58,1,71.9999978027344
52,48,46823,5,0,0:0:0:0:
386,39,46964,2,0,P|410:67|370:141,1,107.999996704102
374,141,47247,1,0,0:0:0:0:
237,113,47389,2,0,P|213:141|253:215,1,107.999996704102
249,215,47672,5,0,0:0:0:0:
460,318,47813,2,0,L|372:313,1,71.9999978027344
271,330,48096,2,0,L|198:337,1,71.9999978027344
57,320,48379,5,0,0:0:0:0:
79,291,48450,1,0,0:0:0:0:
85,255,48521,1,0,0:0:0:0:
69,222,48592,1,0,0:0:0:0:
52,190,48662,1,0,0:0:0:0:
47,154,48733,1,0,0:0:0:0:
57,119,48804,1,0,0:0:0:0:
77,89,48875,1,0,0:0:0:0:
106,63,48945,5,0,0:0:0:0:
7,264,49087,1,0,0:0:0:0:
35,24,49228,5,0,0:0:0:0:
139,163,49370,1,0,0:0:0:0:
263,23,49511,5,0,0:0:0:0:
149,328,49653,1,0,0:0:0:0:
188,62,49795,5,0,0:0:0:0:
299,260,49936,1,0,0:0:0:0:
342,74,50078,6,0,L|439:66,1,80
218,154,50361,2,0,L|129:164,1,80
351,57,50644,2,0,L|448:49,1,80
209,168,50927,2,0,L|120:178,1,80
129,176,51139,1,0,0:0:0:0:
129,176,51210,1,0,0:0:0:0:
388,232,51351,5,0,0:0:0:0:
388,232,51422,1,0,0:0:0:0:
388,232,51493,2,0,P|387:283|340:316,1,80
129,176,51776,2,0,P|130:125|177:92,1,80
388,232,52059,2,0,P|375:281|327:298,1,80
129,176,52342,5,0,0:0:0:0:
388,232,52483,1,0,0:0:0:0:
96,248,52625,5,0,0:0:0:0:
437,165,52766,1,0,0:0:0:0:
147,104,52908,5,0,0:0:0:0:
369,303,53049,1,0,0:0:0:0:
361,39,53191,1,0,0:0:0:0:
207,253,53332,2,0,L|150:338,1,80
361,120,53615,5,0,0:0:0:0:
361,120,53686,1,0,0:0:0:0:
361,120,53757,2,0,P|410:106|435:78,1,80
207,253,54040,2,0,P|158:267|133:295,1,80
361,120,54323,2,0,P|381:67|366:30,1,80
207,253,54606,6,0,P|182:299|187:342,1,80
361,120,54889,2,0,P|331:75|290:59,1,80
207,253,55172,1,0,0:0:0:0:
416,214,55313,1,0,0:0:0:0:
161,171,55455,1,0,0:0:0:0:
436,298,55596,1,0,0:0:0:0:
436,298,55667,1,0,0:0:0:0:
436,298,55738,5,0,0:0:0:0:
170,55,55879,1,0,0:0:0:0:
182,325,56162,5,0,0:0:0:0:
309,63,56304,1,0,0:0:0:0:
326,314,56586,5,0,0:0:0:0:
68,227,56728,1,0,0:0:0:0:
228,33,57011,5,0,0:0:0:0:
228,33,57082,1,0,0:0:0:0:
228,33,57153,1,0,0:0:0:0:
256,347,57295,1,0,0:0:0:0:
413,174,57436,5,0,0:0:0:0:
137,277,57577,1,0,0:0:0:0:
445,294,57719,5,0,0:0:0:0:
100,153,57860,1,0,0:0:0:0:
434,55,58002,5,0,0:0:0:0:
211,167,58144,1,0,0:0:0:0:
445,294,58285,1,0,0:0:0:0:
322,80,58427,5,0,0:0:0:0:
326,314,58568,1,0,0:0:0:0:
149,208,58710,1,0,0:0:0:0:
413,174,58851,5,0,0:0:0:0:
227,319,58993,1,0,0:0:0:0:
227,77,59134,1,0,0:0:0:0:
419,272,59276,5,0,0:0:0:0:
144,291,59417,1,0,0:0:0:0:
322,80,59559,1,0,0:0:0:0:
74,112,59700,5,0,0:0:0:0:
413,174,59841,1,0,0:0:0:0:
57,208,59983,5,0,0:0:0:0:
422,79,60125,1,0,0:0:0:0:
148,41,60266,6,0,L|157:115,1,64
221,165,60832,2,0,L|212:239,1,64
258,345,61398,6,0,L|194:337,1,64
70,280,61964,2,0,L|133:272,1,64
213,228,62389,1,0,0:0:0:0:
287,177,62530,6,0,L|351:169,1,64
475,112,63096,2,0,L|412:104,1,64
334,60,63662,5,0,0:0:0:0:
296,74,63733,1,0,0:0:0:0:
255,75,63804,1,0,0:0:0:0:
216,63,63875,1,0,0:0:0:0:
180,45,63945,1,0,0:0:0:0:
140,40,64016,1,0,0:0:0:0:
99,42,64087,1,0,0:0:0:0:
63,60,64158,1,0,0:0:0:0:
33,86,64228,6,0,L|39:234,1,120
97,324,64511,2,0,P|109:275|199:239,1,120
255,75,64795,6,0,L|263:174,1,80
276,329,65078,1,0,0:0:0:0:
375,65,65219,2,0,L|341:159,1,80
276,329,65502,1,0,0:0:0:0:
488,117,65644,2,0,L|421:183,1,80
276,329,65927,1,0,0:0:0:0:
511,253,66068,2,0,L|431:283,1,80
276,329,66351,1,0,0:0:0:0:
106,291,66493,6,0,P|78:245|85:161,1,120
119,30,66776,2,0,P|147:76|140:160,1,120
106,291,67059,6,0,L|219:262,1,80
431,173,67342,2,0,L|330:200,1,80
143,340,67625,2,0,L|193:252,1,80
393,124,67908,2,0,L|343:212,1,80
251,354,68191,5,0,0:0:0:0:
300,82,68332,1,0,0:0:0:0:
328,369,68474,5,0,0:0:0:0:
226,60,68615,1,0,0:0:0:0:
392,307,68757,6,0,L|350:184,1,120
300,82,69040,2,0,L|278:214,1,120
251,354,69323,6,0,L|150:330,1,80
26,215,69606,2,0,L|103:233,1,80
247,337,69889,2,0,L|146:313,1,80
22,198,70172,2,0,L|99:216,1,80
299,257,70455,6,0,L|322:171,1,80
453,27,70738,2,0,L|432:104,1,80
307,265,71021,2,0,L|330:179,1,80
461,35,71304,2,0,L|440:112,1,80
318,273,71587,5,0,0:0:0:0:
204,228,71870,1,0,0:0:0:0:
97,183,72153,1,0,0:0:0:0:
97,183,72436,5,0,0:0:0:0:
316,87,72578,1,0,0:0:0:0:
344,200,72861,1,0,0:0:0:0:
374,313,73144,1,0,0:0:0:0:
260,338,73285,5,0,0:0:0:0:
229,327,73356,1,0,0:0:0:0:
196,324,73427,1,0,0:0:0:0:
165,332,73497,1,0,0:0:0:0:
136,345,73568,1,0,0:0:0:0:
118,354,73639,1,0,0:0:0:0:
99,360,73710,1,0,0:0:0:0:
79,361,73780,1,0,0:0:0:0:
60,354,73851,6,0,P|28:312|30:253,1,95.9999970703126
53,103,74276,2,0,P|85:145|83:204,1,95.9999970703126
205,238,74700,6,0,P|241:208|288:202,1,95.9999970703126
455,231,75125,2,0,P|418:260|371:266,1,95.9999970703126
188,141,75549,6,0,L|177:75,1,47.9999985351563
283,289,75832,2,0,L|294:355,1,47.9999985351563
321,102,76115,1,0,0:0:0:0:
321,102,76398,6,0,L|382:98,1,47.9999985351563
428,33,76681,2,0,P|452:70|446:138,2,95.9999970703126
340,30,77389,2,0,L|279:34,2,47.9999985351563
212,29,77813,5,0,0:0:0:0:
183,44,77884,1,0,0:0:0:0:
152,55,77955,1,0,0:0:0:0:
119,56,78026,1,0,0:0:0:0:
90,42,78096,1,0,0:0:0:0:
100,72,78167,1,0,0:0:0:0:
102,104,78238,1,0,0:0:0:0:
92,134,78309,1,0,0:0:0:0:
73,160,78379,6,0,L|80:242,1,80
269,317,78662,2,0,L|187:324,1,80
93,170,78945,2,0,L|100:252,1,80
289,327,79228,2,0,L|207:334,1,80
114,183,79511,6,0,L|193:172,1,80
393,97,79795,2,0,L|314:108,1,80
128,197,80078,2,0,L|207:186,1,80
407,111,80362,2,0,L|328:122,1,80
141,217,80644,5,0,0:0:0:0:
416,123,80785,1,0,0:0:0:0:
128,96,80927,5,0,0:0:0:0:
452,204,81068,1,0,0:0:0:0:
168,303,81210,5,0,0:0:0:0:
362,33,81351,1,0,0:0:0:0:
339,363,81493,5,0,0:0:0:0:
205,17,81634,1,0,0:0:0:0:
439,295,81776,5,0,0:0:0:0:
63,221,81917,1,0,0:0:0:0:
63,221,81988,1,0,0:0:0:0:
63,221,82059,1,0,0:0:0:0:
313,115,82200,1,0,0:0:0:0:
111,86,82342,5,0,0:0:0:0:
251,321,82483,1,0,0:0:0:0:
279,24,82625,5,0,0:0:0:0:
82,355,82766,1,0,0:0:0:0:
313,115,82908,6,0,P|390:96|448:122,1,120
454,156,83191,2,0,P|377:137|319:163,1,120
311,197,83474,2,0,P|388:178|446:204,1,120
452,238,83757,2,0,P|375:219|317:245,1,120
309,279,84040,6,0,P|232:298|174:272,1,120
168,238,84323,2,0,P|245:257|303:231,1,120
311,197,84606,2,0,P|234:216|176:190,1,120
170,156,84889,2,0,P|247:175|305:149,1,120
328,128,85172,1,0,0:0:0:0:
256,192,93096,12,0,93945,0:0:0:0:
280,31,94228,6,0,L|119:39,1,160
259,274,94653,2,0,L|357:113,1,160
64,136,95078,2,0,L|118:209,1,80
215,341,95361,1,0,0:0:0:0:
215,341,95431,1,0,0:0:0:0:
215,341,95502,2,0,L|271:254,1,80
342,137,95785,1,0,0:0:0:0:
280,31,95927,6,0,L|182:37,1,80
64,136,96210,2,0,L|118:209,1,80
342,137,96493,6,0,L|259:274,1,160
120,38,96917,2,0,L|280:31,1,160
159,264,97342,2,0,L|105:191,1,80
20,60,97625,2,0,P|74:76|124:17,2,120
111,199,98191,5,0,0:0:0:0:
141,205,98261,1,0,0:0:0:0:
173,203,98332,1,0,0:0:0:0:
199,185,98403,1,0,0:0:0:0:
220,161,98474,1,0,0:0:0:0:
247,144,98545,1,0,0:0:0:0:
278,139,98615,1,0,0:0:0:0:
310,140,98686,1,0,0:0:0:0:
338,154,98757,6,0,L|255:291,1,160
120,38,99181,2,0,L|280:31,1,160
111,200,99606,2,0,L|64:136,1,80
255,290,99889,1,0,0:0:0:0:
255,290,99960,1,0,0:0:0:0:
255,290,100030,1,0,0:0:0:0:
338,154,100172,2,0,L|382:80,1,80
408,252,100455,5,0,0:0:0:0:
402,283,100526,1,0,0:0:0:0:
385,310,100596,1,0,0:0:0:0:
358,327,100667,1,0,0:0:0:0:
325,329,100738,1,0,0:0:0:0:
294,319,100809,1,0,0:0:0:0:
273,294,100879,1,0,0:0:0:0:
268,260,100950,1,0,0:0:0:0:
275,228,101021,2,0,P|306:181|254:108,1,120
260,105,101304,5,0,0:0:0:0:
234,84,101375,1,0,0:0:0:0:
204,72,101445,1,0,0:0:0:0:
171,73,101516,1,0,0:0:0:0:
141,85,101587,1,0,0:0:0:0:
117,106,101658,1,0,0:0:0:0:
105,135,101728,1,0,0:0:0:0:
98,166,101799,1,0,0:0:0:0:
107,196,101870,1,0,0:0:0:0:
126,221,101941,1,0,0:0:0:0:
152,238,102011,1,0,0:0:0:0:
183,243,102082,1,0,0:0:0:0:
215,245,102153,5,0,0:0:0:0:
299,250,102436,1,0,0:0:0:0:
383,257,102719,2,0,L|411:258,1,20
383,257,103144,6,0,L|323:252,1,40
116,230,103285,1,0,0:0:0:0:
279,188,103427,2,0,L|171:177,1,80
47,166,103710,5,0,0:0:0:0:
116,230,103851,2,0,L|101:339,1,80
199,179,104134,1,0,0:0:0:0:
129,124,104276,2,0,L|144:15,1,80
47,166,104559,5,0,0:0:0:0:
105,309,104700,2,0,L|209:305,1,80
369,297,104983,5,0,0:0:0:0:
286,67,105125,1,0,0:0:0:0:
184,305,105266,5,0,0:0:0:0:
433,212,105408,1,0,0:0:0:0:
209,102,105549,5,0,0:0:0:0:
369,297,105691,1,0,0:0:0:0:
105,309,105832,1,0,0:0:0:0:
105,309,105903,1,0,0:0:0:0:
105,309,105974,1,0,0:0:0:0:
370,114,106115,5,0,0:0:0:0:
271,354,106257,1,0,0:0:0:0:
102,157,106398,1,0,0:0:0:0:
102,157,106469,1,0,0:0:0:0:
102,157,106540,1,0,0:0:0:0:
295,86,106681,5,0,0:0:0:0:
350,338,106823,1,0,0:0:0:0:
446,87,106964,1,0,0:0:0:0:
446,87,107035,1,0,0:0:0:0:
446,87,107106,1,0,0:0:0:0:
473,314,107247,5,0,0:0:0:0:
185,135,107389,1,0,0:0:0:0:
465,213,107530,1,0,0:0:0:0:
127,223,107671,1,0,0:0:0:0:
378,134,107813,5,0,0:0:0:0:
381,344,107955,1,0,0:0:0:0:
217,237,108096,1,0,0:0:0:0:
217,237,108167,1,0,0:0:0:0:
217,237,108238,1,0,0:0:0:0:
402,152,108379,5,0,0:0:0:0:
355,355,108521,1,0,0:0:0:0:
222,207,108662,1,0,0:0:0:0:
222,207,108733,1,0,0:0:0:0:
222,207,108804,1,0,0:0:0:0:
421,175,108945,5,0,0:0:0:0:
328,339,109087,1,0,0:0:0:0:
246,179,109228,1,0,0:0:0:0:
246,179,109299,1,0,0:0:0:0:
246,179,109370,1,0,0:0:0:0:
436,203,109511,6,0,L|350:219,1,80
244,296,109795,2,0,L|158:280,1,80
65,215,110078,5,0,0:0:0:0:
158,37,110219,1,0,0:0:0:0:
161,256,110361,5,0,0:0:0:0:
57,4,110502,1,0,0:0:0:0:
73,236,110644,5,0,0:0:0:0:
166,58,110785,1,0,0:0:0:0:
169,277,110927,5,0,0:0:0:0:
65,25,111068,1,0,0:0:0:0:
79,258,111210,5,0,0:0:0:0:
93,303,111280,1,0,0:0:0:0:
124,339,111351,1,0,0:0:0:0:
170,352,111422,1,0,0:0:0:0:
218,348,111493,1,0,0:0:0:0:
253,315,111563,1,0,0:0:0:0:
299,304,111634,1,0,0:0:0:0:
343,321,111705,1,0,0:0:0:0:
385,344,111776,1,0,0:0:0:0:
418,322,111846,1,0,0:0:0:0:
435,286,111917,1,0,0:0:0:0:
425,247,111988,1,0,0:0:0:0:
405,212,112059,1,0,0:0:0:0:
387,176,112129,1,0,0:0:0:0:
383,136,112200,1,0,0:0:0:0:
392,97,112271,1,0,0:0:0:0:
414,63,112342,5,0,0:0:0:0:
414,63,112412,1,0,0:0:0:0:
414,63,112483,2,0,P|333:30|278:40,1,120
222,95,112766,5,0,0:0:0:0:
222,95,112837,1,0,0:0:0:0:
222,95,112908,2,0,P|157:108|102:170,1,120
146,251,113191,5,0,0:0:0:0:
146,251,113261,1,0,0:0:0:0:
146,251,113332,2,0,P|151:298|206:347,1,120
303,308,113615,5,0,0:0:0:0:
303,308,113686,1,0,0:0:0:0:
303,308,113757,1,0,0:0:0:0:
376,97,113898,1,0,0:0:0:0:
449,255,114040,5,0,0:0:0:0:
118,141,114181,1,0,0:0:0:0:
480,118,114323,5,0,0:0:0:0:
75,272,114464,1,0,0:0:0:0:
138,306,125078,6,0,L|69:318,2,55.9999982910157
222,262,125644,1,0,0:0:0:0:
301,208,125927,2,0,P|400:203|391:90,1,223.999993164063
320,48,126776,1,0,0:0:0:0:
232,84,127059,2,0,B|163:114|102:53|103:52|103:52|77:136,1,223.999993164063
57,224,127908,6,0,L|26:334,2,111.999996582031
147,193,128757,1,0,0:0:0:0:
149,288,129040,1,0,0:0:0:0:
236,249,129323,2,0,P|281:301|398:217,1,223.999993164063
372,131,130172,1,0,0:0:0:0:
90,63,133851,6,0,L|119:112,3,40
148,120,134134,1,0,0:0:0:0:
188,137,134205,1,0,0:0:0:0:
231,143,134276,1,0,0:0:0:0:
271,126,134346,1,0,0:0:0:0:
304,97,134417,6,0,L|359:88,3,40
384,74,134700,1,0,0:0:0:0:
414,106,134771,1,0,0:0:0:0:
427,147,134842,1,0,0:0:0:0:
419,189,134912,1,0,0:0:0:0:
397,227,134983,2,0,P|279:318|164:246,1,300
73,114,136115,5,0,0:0:0:0:
397,227,136257,1,0,0:0:0:0:
46,255,136540,5,0,0:0:0:0:
438,104,136682,1,0,0:0:0:0:
184,27,136964,5,0,0:0:0:0:
184,35,137035,1,0,0:0:0:0:
184,43,137106,1,0,0:0:0:0:
184,51,137177,1,0,0:0:0:0:
181,217,137530,6,0,P|236:218|269:193,1,80
438,104,137813,2,0,P|383:103|350:128,1,80
277,188,138096,2,0,P|270:228|292:289,1,80
352,351,138379,5,0,0:0:0:0:
181,217,138521,1,0,0:0:0:0:
417,252,138662,5,0,0:0:0:0:
109,305,138804,1,0,0:0:0:0:
381,170,138945,6,0,P|356:97|298:67,1,120
248,59,139228,2,0,P|254:101|311:153,1,120
381,170,139511,6,0,L|348:265,1,80
222,362,139795,2,0,L|255:267,1,80
366,157,140078,2,0,L|333:252,1,80
207,349,140362,2,0,L|240:254,1,80
349,139,140644,6,0,P|294:117|256:120,1,80
58,184,140927,2,0,P|113:206|151:203,1,80
363,122,141210,2,0,P|308:100|270:103,1,80
72,167,141493,2,0,P|127:189|165:186,1,80
381,106,141776,6,0,L|403:293,2,160
298,48,142625,1,0,0:0:0:0:
298,48,142767,2,0,P|216:29|126:73,2,160
381,106,143474,5,0,0:0:0:0:
365,143,143545,1,0,0:0:0:0:
365,182,143615,1,0,0:0:0:0:
383,217,143686,1,0,0:0:0:0:
416,239,143757,1,0,0:0:0:0:
432,276,143828,1,0,0:0:0:0:
432,315,143898,1,0,0:0:0:0:
414,350,143969,1,0,0:0:0:0:
380,371,144040,2,0,L|268:365,1,90.0000034332277
89,352,144323,5,0,0:0:0:0:
381,106,144464,1,0,0:0:0:0:
40,94,144606,5,0,0:0:0:0:
432,315,144747,1,0,0:0:0:0:
316,23,144889,5,0,0:0:0:0:
263,364,145030,1,0,0:0:0:0:
492,192,145172,5,0,0:0:0:0:
142,66,145313,1,0,0:0:0:0:
472,29,145455,5,0,0:0:0:0:
27,233,145596,1,0,0:0:0:0:
263,364,145738,5,0,0:0:0:0:
316,23,145879,1,0,0:0:0:0:
469,276,146021,5,0,0:0:0:0:
27,233,146162,1,0,0:0:0:0:
27,233,146233,1,0,0:0:0:0:
27,233,146304,5,0,0:0:0:0:
234,18,146445,1,0,0:0:0:0:
44,262,146587,5,0,0:0:0:0:
400,68,146728,1,0,0:0:0:0:
46,293,146870,5,0,0:0:0:0:
486,205,147011,1,0,0:0:0:0:
36,324,147153,5,0,0:0:0:0:
475,375,147295,1,0,0:0:0:0:
151,32,147436,5,0,0:0:0:0:
269,348,147578,1,0,0:0:0:0:
304,5,147719,5,0,0:0:0:0:
121,372,147861,1,0,0:0:0:0:
40,75,148002,5,0,0:0:0:0:
486,205,148144,1,0,0:0:0:0:
36,324,148285,5,0,0:0:0:0:
112,348,148356,1,0,0:0:0:0:
191,348,148427,1,0,0:0:0:0:
261,308,148497,1,0,0:0:0:0:
289,233,148568,6,0,L|321:149,1,80
457,15,148851,2,0,L|425:99,1,80
266,240,149134,2,0,L|298:156,1,80
434,22,149417,2,0,L|402:106,1,80
240,248,149700,6,0,L|149:267,1,80
28,166,149983,2,0,L|119:185,1,80
231,219,150266,2,0,L|140:238,1,80
19,137,150549,2,0,L|110:156,1,80
223,185,150832,5,0,0:0:0:0:
19,289,150974,1,0,0:0:0:0:
166,47,151115,5,0,0:0:0:0:
196,330,151257,1,0,0:0:0:0:
326,83,151398,5,0,0:0:0:0:
19,289,151540,1,0,0:0:0:0:
341,353,151681,5,0,0:0:0:0:
166,47,151823,1,0,0:0:0:0:
94,348,151964,5,0,0:0:0:0:
326,83,152106,1,0,0:0:0:0:
326,83,152177,1,0,0:0:0:0:
326,83,152247,1,0,0:0:0:0:
16,57,152389,1,0,0:0:0:0:
301,187,152530,5,0,0:0:0:0:
19,289,152672,1,0,0:0:0:0:
315,340,152813,5,0,0:0:0:0:
166,47,152955,1,0,0:0:0:0:
441,72,153096,6,0,P|479:127|430:286,1,223.999993164063
71,312,154228,2,0,P|33:257|82:98,1,223.999993164063
441,72,155361,6,0,L|335:85,1,80
25,207,155644,2,0,L|131:194,1,80
351,159,155927,1,0,0:0:0:0:
421,196,156021,1,0,0:0:0:0:
430,275,156115,1,0,0:0:0:0:
378,337,156210,2,0,L|348:395,2,53.3333333333333
297,342,156493,1,0,0:0:0:0:
222,312,157625,5,0,0:0:0:0:
222,312,157695,1,0,0:0:0:0:
222,312,157766,1,0,0:0:0:0:
49,255,158049,5,0,0:0:0:0:
49,255,158120,1,0,0:0:0:0:
49,255,158191,1,0,0:0:0:0:
242,217,158474,6,0,L|295:223,2,40
64,149,158898,2,0,L|11:143,2,40
257,103,159323,2,0,L|317:103,1,40
436,131,159535,1,0,0:0:0:0:
443,154,159606,1,0,0:0:0:0:
390,238,159747,1,0,0:0:0:0:
383,261,159818,1,0,0:0:0:0:
375,283,159889,6,0,L|316:288,2,40
156,317,160313,1,0,0:0:0:0:
156,317,160384,1,0,0:0:0:0:
156,317,160454,1,0,0:0:0:0:
307,160,160738,5,0,0:0:0:0:
307,160,160809,1,0,0:0:0:0:
307,160,160879,1,0,0:0:0:0:
136,145,161021,6,0,L|56:165,1,80
287,44,161304,2,0,L|367:24,1,80
205,192,161587,1,0,0:0:0:0:
209,207,161658,1,0,0:0:0:0:
214,221,161728,1,0,0:0:0:0:
219,236,161799,1,0,0:0:0:0:
224,251,161870,1,0,0:0:0:0:
250,349,162153,5,0,0:0:0:0:
205,192,162295,1,0,0:0:0:0:
328,292,162436,1,0,0:0:0:0:
167,293,162578,1,0,0:0:0:0:
352,155,162719,5,0,0:0:0:0:
119,150,162861,1,0,0:0:0:0:
315,272,163002,1,0,0:0:0:0:
238,52,163144,1,0,0:0:0:0:
147,315,163285,5,0,0:0:0:0:
382,161,163427,1,0,0:0:0:0:
103,159,163568,1,0,0:0:0:0:
338,312,163710,1,0,0:0:0:0:
227,29,163851,5,0,0:0:0:0:
133,319,163993,1,0,0:0:0:0:
381,146,164134,1,0,0:0:0:0:
75,147,164276,1,0,0:0:0:0:
321,322,164417,6,0,L|308:213,1,80
191,62,164700,2,0,L|204:171,1,80
390,233,164983,2,0,L|310:242,1,80
121,131,165266,2,0,L|230:144,1,80
352,268,165549,5,0,0:0:0:0:
390,233,165620,1,0,0:0:0:0:
411,185,165691,1,0,0:0:0:0:
411,133,165762,1,0,0:0:0:0:
390,86,165832,1,0,0:0:0:0:
352,51,165903,1,0,0:0:0:0:
302,35,165974,1,0,0:0:0:0:
250,40,166045,1,0,0:0:0:0:
205,66,166115,1,0,0:0:0:0:
175,108,166186,1,0,0:0:0:0:
164,159,166257,1,0,0:0:0:0:
177,209,166328,1,0,0:0:0:0:
205,251,166398,2,0,L|254:285,3,40
394,350,166681,5,0,0:0:0:0:
