osu file format v14

[General]
AudioFilename: audio.mp3
AudioLeadIn: 0
PreviewTime: 66486
Countdown: 0
SampleSet: None
StackLeniency: 0.2
Mode: 0
LetterboxInBreaks: 1
WidescreenStoryboard: 1

[Editor]
Bookmarks: 153,5486,10819,18819,21486,29486,32153,42819,53486,64153,66819,93486,96153,98819,104153,114819,116153,117486
DistanceSpacing: 0.7
BeatDivisor: 8
GridSize: 8
TimelineZoom: 1.8

[Metadata]
Title:Hop Step Adventure*
TitleUnicode:Hop Step Adventure☆
Artist:a
ArtistUnicode:ああああ茶漬け
Creator:-Zeraora
Version:High-Speed
Source:VOEZ
Tags:
BeatmapID:2002988
BeatmapSetID:956762

[Difficulty]
HPDrainRate:5
CircleSize:3.8
OverallDifficulty:8
ApproachRate:9.5
SliderMultiplier:2.75
SliderTickRate:0.5

[Events]
//Background and Video events
0,0,"schut.jpg",0,0
//Break Periods
//Storyboard Layer 0 (Background)
//Storyboard Layer 1 (Fail)
//Storyboard Layer 2 (Pass)
//Storyboard Layer 3 (Foreground)
//Storyboard Sound Samples

[TimingPoints]
-1180,333.333333333333,4,2,0,5,1,0
153,-100,4,2,0,60,0,0
5486,-83.3333333333333,4,2,0,70,0,0
10153,-83.3333333333333,4,2,0,65,0,0
10486,-83.3333333333333,4,2,0,80,0,0
10819,-76.9230769230769,4,2,0,70,0,0
21153,-76.9230769230769,4,2,0,50,0,0
21486,-76.9230769230769,4,2,0,75,0,0
32153,-100,4,2,0,85,0,0
32236,-100,4,2,0,70,0,0
36153,-100,4,2,0,60,0,0
37486,-83.3333333333333,4,2,0,70,0,0
40153,-83.3333333333333,4,2,0,73,0,0
41486,-83.3333333333333,4,2,0,76,0,0
42153,-83.3333333333333,4,2,0,79,0,0
42819,-100,4,2,0,82,0,0
42903,-100,4,2,0,70,0,0
53486,-50,4,2,0,50,0,0
53819,-76.9230769230769,4,2,0,70,0,0
64153,-100,4,2,0,80,0,0
64236,-100,4,2,0,45,0,0
65486,-100,4,2,0,60,0,0
66486,-100,4,2,0,40,0,0
66569,-100,4,2,0,50,0,0
66653,-100,4,2,0,60,0,0
66736,-100,4,2,0,70,0,0
66819,-66.6666666666667,4,2,0,95,0,1
66903,-66.6666666666667,4,2,0,85,0,1
68653,-33.3333333333333,4,2,0,85,0,1
68819,-66.6666666666667,4,2,0,85,0,1
71319,-33.3333333333333,4,2,0,85,0,1
71486,-66.6666666666667,4,2,0,85,0,1
72153,-50,4,2,0,85,0,1
72319,-66.6666666666667,4,2,0,85,0,1
77486,-66.6666666666667,4,2,0,95,0,1
77569,-66.6666666666667,4,2,0,85,0,1
79319,-33.3333333333333,4,2,0,85,0,1
79486,-66.6666666666667,4,2,0,85,0,1
81986,-33.3333333333333,4,2,0,85,0,1
82153,-66.6666666666667,4,2,0,85,0,1
88153,-66.6666666666667,4,2,0,95,0,1
88236,-66.6666666666667,4,2,0,85,0,1
92653,-33.3333333333333,4,2,0,85,0,1
92819,-66.6666666666667,4,2,0,85,0,1
93486,-66.6666666666667,4,2,0,90,0,0
93819,-10000,4,2,0,65,0,0
94153,-66.6666666666667,4,2,0,90,0,0
94486,-10000,4,2,0,65,0,0
94819,-66.6666666666667,4,2,0,90,0,0
95153,-10000,4,2,0,65,0,0
95486,-66.6666666666667,4,2,0,90,0,0
95819,-10000,4,2,0,65,0,0
96153,-66.6666666666667,4,2,0,85,0,1
97486,-66.6666666666667,4,2,0,90,0,1
98153,-66.6666666666667,4,2,0,95,0,1
98819,-66.6666666666667,4,2,0,100,0,0
98903,-66.6666666666667,4,2,0,50,0,0
104153,-66.6666666666667,4,2,0,70,0,0
114819,-66.6666666666667,4,2,0,50,0,0
116153,-66.6666666666667,4,2,0,85,0,0

[HitObjects]
195,162,66486,5,0,0:0:0:0:
178,80,66569,1,0,0:0:0:0:
250,40,66653,1,0,0:0:0:0:
311,96,66736,1,0,0:0:0:0:
275,172,66819,6,0,P|326:148|418:174,1,103.125003933907,0|0,0:0|0:0,0:0:0:0:
511,294,66986,2,0,P|465:260|441:168,1,103.125003933907,0|0,0:0|0:0,0:0:0:0:
503,27,67153,2,0,P|497:83|428:150,1,103.125003933907,0|0,0:0|0:0,0:0:0:0:
345,254,67319,5,0,0:0:0:0:
307,272,67403,1,0,0:0:0:0:
266,277,67486,2,0,P|188:213|88:224,1,206.250007867813,0|0,0:0|0:0,0:0:0:0:
15,331,67736,1,0,0:0:0:0:
51,349,67819,2,0,P|101:353|149:336,1,103.125003933907,0|0,0:0|0:0,0:0:0:0:
97,121,67986,2,0,L|88:223,1,103.125003933907,0|0,0:0|0:0,0:0:0:0:
316,342,68153,6,0,P|279:261|340:327,1,206.250007867813,0|0,0:0|0:0,0:0:0:0:
488,173,68403,2,0,P|436:245|463:159,1,206.250007867813,0|0,0:0|0:0,0:0:0:0:
255,114,68653,6,0,P|343:122|255:142,1,206.250007867813,0|0,0:0|0:0,0:0:0:0:
111,360,68819,6,0,L|316:342,1,206.250007867813,0|0,0:0|0:0,0:0:0:0:
415,373,69069,1,0,0:0:0:0:
415,373,69153,2,0,P|408:326|437:257,1,103.125003933907,0|0,0:0|0:0,0:0:0:0:
512,107,69319,2,0,P|471:138|421:148,1,103.125003933907
207,81,69486,6,0,B|166:65|166:65|244:17|327:65,1,206.250007867813,0|0,0:0|0:0,0:0:0:0:
421,149,69736,1,0,0:0:0:0:
390,175,69819,2,0,P|343:195|250:164,1,103.125003933907,0|0,0:0|0:0,0:0:0:0:
94,192,69986,2,0,P|144:187|191:207,1,103.125003933907
234,302,70153,6,0,L|254:70,1,206.250007867813,0|0,0:0|0:0,0:0:0:0:
357,41,70403,1,0,0:0:0:0:
353,92,70486,2,0,L|344:194,1,103.125003933907,0|0,0:0|0:0,0:0:0:0:
503,358,70653,2,0,L|494:255,1,103.125003933907,0|0,0:0|0:0,0:0:0:0:
229,347,70819,6,0,B|182:319|182:319|30:332,1,206.250007867813,0|0,0:0|0:0,0:0:0:0:
0,132,71069,2,0,B|46:159|46:159|198:146,1,206.250007867813,0|0,0:0|0:0,0:0:0:0:
341,220,71319,6,0,L|-17:251,1,206.250007867813,0|0,0:0|0:0,0:0:0:0:
217,43,71486,6,0,P|228:133|276:63,1,206.250007867813,0|0,0:0|0:0,0:0:0:0:
417,8,71736,1,0,0:0:0:0:
434,56,71819,2,0,P|435:121|377:194,1,103.125003933907,0|0,0:0|0:0,0:0:0:0:
317,322,71986,2,0,P|299:274|303:223,1,103.125003933907,0|0,0:0|0:0,0:0:0:0:
503,358,72153,6,0,L|228:346,1,275,0|0,0:0|0:0,0:0:0:0:
44,248,72403,1,0,0:0:0:0:
105,241,72486,2,0,L|232:229,1,103.125003933907,0|0,0:0|0:0,0:0:0:0:
420,154,72653,2,0,L|292:142,1,103.125003933907,0|0,0:0|0:0,0:0:0:0:
140,8,72819,6,0,P|178:103|92:191,1,206.250007867813,0|0,0:0|0:0,0:0:0:0:
39,87,73069,1,0,0:0:0:0:
77,90,73153,2,0,L|300:109,1,206.250007867813,0|0,0:0|0:0,0:0:0:0:
409,42,73403,1,0,0:0:0:0:
390,78,73486,6,0,P|382:128|414:199,1,103.125003933907,0|0,0:0|0:0,0:0:0:0:
503,358,73653,2,0,P|502:307|458:243,1,103.125003933907,0|0,0:0|0:0,0:0:0:0:
499,84,73819,2,0,P|498:134|454:198,1,103.125003933907,0|0,0:0|0:0,0:0:0:0:
339,349,73986,2,0,P|348:299|402:243,1,103.125003933907,0|0,0:0|0:0,0:0:0:0:
258,60,74153,6,0,L|310:26,1,51.5625019669533,0|0,0:0|0:0,0:0:0:0:
283,108,74236,2,0,L|368:100,1,51.5625019669533,0|0,0:0|0:0,0:0:0:0:
276,158,74319,2,0,L|345:200,1,51.5625019669533,0|0,0:0|0:0,0:0:0:0:
235,190,74403,2,0,L|266:260,1,51.5625019669533,0|0,0:0|0:0,0:0:0:0:
183,186,74486,6,0,L|205:111,1,51.5625019669533,0|0,0:0|0:0,0:0:0:0:
131,182,74569,2,0,L|100:112,1,51.5625019669533,0|0,0:0|0:0,0:0:0:0:
90,214,74653,2,0,L|21:172,1,51.5625019669533,0|0,0:0|0:0,0:0:0:0:
83,264,74736,2,0,L|-2:272,1,51.5625019669533,0|0,0:0|0:0,0:0:0:0:
108,312,74819,6,0,L|332:330,1,206.250007867813,0|0,0:0|0:0,0:0:0:0:
415,364,75069,1,0,0:0:0:0:
415,364,75153,5,0,0:0:0:0:
420,312,75236,1,0,0:0:0:0:
399,264,75319,1,0,0:0:0:0:
359,230,75403,1,0,0:0:0:0:
308,220,75486,5,0,0:0:0:0:
366,259,75569,1,0,0:0:0:0:
437,254,75653,1,0,0:0:0:0:
491,208,75736,1,0,0:0:0:0:
505,138,75819,1,0,0:0:0:0:
474,75,75903,1,0,0:0:0:0:
410,43,75986,1,0,0:0:0:0:
341,56,76069,1,0,0:0:0:0:
294,112,76153,6,0,P|242:126|152:90,1,103.125003933907,0|0,0:0|0:0,0:0:0:0:
42,20,76319,2,0,P|80:58|93:153,1,103.125003933907,0|0,0:0|0:0,0:0:0:0:
89,285,76486,2,0,P|102:232|179:173,1,103.125003933907,0|0,0:0|0:0,0:0:0:0:
308,220,76653,1,0,0:0:0:0:
308,220,76736,1,0,0:0:0:0:
308,220,76819,5,0,0:0:0:0:
364,175,76903,1,0,0:0:0:0:
436,183,76986,1,0,0:0:0:0:
481,239,77069,1,0,0:0:0:0:
472,311,77153,1,0,0:0:0:0:
416,356,77236,1,0,0:0:0:0:
344,348,77319,1,0,0:0:0:0:
272,332,77403,1,0,0:0:0:0:
216,377,77486,6,0,B|228:231|228:231|174:169,1,206.250007867813,0|0,0:0|0:0,0:0:0:0:
0,256,77736,1,0,0:0:0:0:
34,277,77819,2,0,P|93:288|150:263,1,103.125003933907,0|0,0:0|0:0,0:0:0:0:
103,79,77986,2,0,L|79:223,1,103.125003933907,0|0,0:0|0:0,0:0:0:0:
216,377,78153,6,0,B|176:332|176:332|189:186,1,206.250007867813,0|0,0:0|0:0,0:0:0:0:
256,50,78403,1,0,0:0:0:0:
231,83,78486,2,0,L|103:94,1,103.125003933907,0|0,0:0|0:0,0:0:0:0:
34,277,78653,2,0,P|83:263|132:275,1,103.125003933907,0|0,0:0|0:0,0:0:0:0:
382,318,78819,6,0,P|304:342|347:262,1,206.250007867813,0|0,0:0|0:0,0:0:0:0:
212,112,79069,2,0,P|272:166|180:169,1,206.250007867813,0|0,0:0|0:0,0:0:0:0:
118,365,79319,6,0,P|135:285|183:363,1,206.250007867813,0|0,0:0|0:0,0:0:0:0:
382,318,79486,6,0,L|364:112,1,206.250007867813,0|0,0:0|0:0,0:0:0:0:
290,185,79736,1,0,0:0:0:0:
324,207,79819,2,0,P|375:216|434:187,1,103.125003933907,0|0,0:0|0:0,0:0:0:0:
405,20,79986,2,0,P|354:11|295:40,1,103.125003933907,0|0,0:0|0:0,0:0:0:0:
115,124,80153,6,0,B|77:101|77:101|162:67|235:129,1,206.250007867813,0|0,0:0|0:0,0:0:0:0:
346,318,80403,2,0,L|363:112,1,206.250007867813,0|0,0:0|0:0,0:0:0:0:
448,48,80653,2,0,L|457:150,1,103.125003933907,0|0,0:0|0:0,0:0:0:0:
499,336,80819,6,0,B|453:309|453:309|301:322,1,206.250007867813,0|0,0:0|0:0,0:0:0:0:
181,369,81069,1,0,0:0:0:0:
181,369,81153,2,0,P|203:324|192:248,1,103.125003933907,0|0,0:0|0:0,0:0:0:0:
240,85,81319,2,0,P|238:136|260:182,1,103.125003933907,0|0,0:0|0:0,0:0:0:0:
345,222,81486,6,0,B|304:187|304:187|152:173,1,206.250007867813,0|0,0:0|0:0,0:0:0:0:
9,224,81736,2,0,B|49:258|49:258|201:272,1,206.250007867813,0|0,0:0|0:0,0:0:0:0:
334,356,81986,6,0,L|128:373,1,206.250007867813,0|0,0:0|0:0,0:0:0:0:
8,112,82153,6,0,P|7:184|48:108,1,206.250007867813,0|0,0:0|0:0,0:0:0:0:
28,20,82403,1,0,0:0:0:0:
78,29,82486,2,0,L|213:17,1,103.125003933907,0|0,0:0|0:0,0:0:0:0:
390,97,82653,2,0,L|287:88,1,103.125003933907,0|0,0:0|0:0,0:0:0:0:
67,123,82819,6,0,P|146:219|85:325,1,206.250007867813,0|0,0:0|0:0,0:0:0:0:
4,245,83069,1,0,0:0:0:0:
42,226,83153,2,0,L|171:230,1,103.125003933907,0|0,0:0|0:0,0:0:0:0:
347,290,83319,2,0,P|303:268|218:277,1,103.125003933907,0|0,0:0|0:0,0:0:0:0:
173,320,83486,6,0,L|190:114,1,206.250007867813,0|0,0:0|0:0,0:0:0:0:
279,35,83736,1,0,0:0:0:0:
279,35,83819,5,0,0:0:0:0:
291,85,83903,1,0,0:0:0:0:
329,118,83986,1,0,0:0:0:0:
378,130,84069,1,0,0:0:0:0:
429,129,84153,6,0,P|375:159|345:204,1,103.125003933907,0|0,0:0|0:0,0:0:0:0:
173,320,84319,2,0,P|222:331|273:320,1,103.125003933907,0|0,0:0|0:0,0:0:0:0:
436,373,84486,2,0,P|382:343|352:298,1,103.125003933907,0|0,0:0|0:0,0:0:0:0:
167,181,84653,2,0,P|216:169|267:180,1,103.125003933907,0|0,0:0|0:0,0:0:0:0:
56,375,84819,6,0,L|10:342,1,51.5625019669533,0|0,0:0|0:0,0:0:0:0:
73,331,84903,2,0,L|2:308,1,51.5625019669533,0|0,0:0|0:0,0:0:0:0:
76,287,84986,2,0,L|1:281,1,51.5625019669533,0|0,0:0|0:0,0:0:0:0:
64,242,85069,2,0,L|-28:258,1,51.5625019669533,0|0,0:0|0:0,0:0:0:0:
40,199,85153,6,0,L|125:185,1,51.5625019669533,0|0,0:0|0:0,0:0:0:0:
13,158,85236,2,0,L|111:172,1,51.5625019669533,0|0,0:0|0:0,0:0:0:0:
0,114,85319,2,0,L|85:148,1,51.5625019669533,0|0,0:0|0:0,0:0:0:0:
3,69,85403,2,0,L|69:117,1,51.5625019669533,0|0,0:0|0:0,0:0:0:0:
21,26,85486,6,0,B|66:57|66:57|225:40,1,206.250007867813,0|0,0:0|0:0,0:0:0:0:
430,120,85736,1,0,0:0:0:0:
430,120,85819,5,0,0:0:0:0:
379,107,85903,1,0,0:0:0:0:
328,117,85986,1,0,0:0:0:0:
293,154,86069,1,0,0:0:0:0:
284,205,86153,5,0,0:0:0:0:
325,147,86236,1,0,0:0:0:0:
319,77,86319,1,0,0:0:0:0:
269,28,86403,1,0,0:0:0:0:
198,24,86486,1,0,0:0:0:0:
142,67,86569,1,0,0:0:0:0:
128,136,86653,1,0,0:0:0:0:
163,198,86736,1,0,0:0:0:0:
204,255,86819,6,0,P|270:233|346:253,1,103.125003933907,0|0,0:0|0:0,0:0:0:0:
477,357,86986,2,0,P|424:312|403:236,1,103.125003933907,0|0,0:0|0:0,0:0:0:0:
428,70,87153,2,0,P|415:137|360:193,1,103.125003933907,0|0,0:0|0:0,0:0:0:0:
303,235,87319,1,0,0:0:0:0:
303,235,87403,1,0,0:0:0:0:
303,235,87486,5,0,0:0:0:0:
264,175,87569,1,0,0:0:0:0:
196,156,87653,1,0,0:0:0:0:
132,186,87736,1,0,0:0:0:0:
103,251,87819,1,0,0:0:0:0:
124,318,87903,1,0,0:0:0:0:
184,356,87986,1,0,0:0:0:0:
253,345,88069,1,0,0:0:0:0:
324,328,88153,6,0,B|394:315|394:315|440:271|440:271|510:258,1,206.250007867813,0|0,0:0|0:0,0:0:0:0:
446,150,88403,1,0,0:0:0:0:
406,139,88486,2,0,P|358:137|291:175,1,103.125003933907,0|0,0:0|0:0,0:0:0:0:
113,213,88653,2,0,P|159:234|210:232,1,103.125003933907,0|0,0:0|0:0,0:0:0:0:
290,364,88819,6,0,L|307:158,1,206.250007867813,0|0,0:0|0:0,0:0:0:0:
181,43,89069,1,0,0:0:0:0:
181,43,89153,5,0,0:0:0:0:
158,78,89236,1,0,0:0:0:0:
185,110,89319,1,0,0:0:0:0:
224,94,89403,1,0,0:0:0:0:
221,53,89486,6,0,L|196:221,1,103.125003933907,0|0,0:0|0:0,0:0:0:0:
177,349,89653,2,0,L|271:210,1,103.125003933907,0|0,0:0|0:0,0:0:0:0:
337,108,89819,2,0,L|312:276,1,103.125003933907,0|0,0:0|0:0,0:0:0:0:
58,302,89986,2,0,L|152:163,1,103.125003933907,0|0,0:0|0:0,0:0:0:0:
379,302,90153,6,0,B|420:286|420:286|342:237|259:286,1,206.250007867813,0|0,0:0|0:0,0:0:0:0:
177,349,90403,1,0,0:0:0:0:
158,312,90486,2,0,P|157:249|188:200,1,103.125003933907,0|0,0:0|0:0,0:0:0:0:
225,16,90653,2,0,P|245:62|241:113,1,103.125003933907,0|0,0:0|0:0,0:0:0:0:
132,84,90819,6,0,L|423:50,1,206.250007867813
503,116,91069,1,0,0:0:0:0:
503,116,91153,2,0,P|456:115|384:165,1,103.125003933907,0|0,0:0|0:0,0:0:0:0:
174,214,91319,2,0,P|220:235|271:233,1,103.125003933907,0|0,0:0|0:0,0:0:0:0:
384,193,91486,6,0,P|360:320|250:350,1,206.250007867813,0|0,0:0|0:0,0:0:0:0:
92,334,91736,1,0,0:0:0:0:
92,334,91819,2,0,L|235:346,1,103.125003933907,0|0,0:0|0:0,0:0:0:0:
305,221,91986,2,0,L|202:229,1,103.125003933907,0|0,0:0|0:0,0:0:0:0:
0,183,92153,6,0,P|81:220|15:159,1,206.250007867813,0|0,0:0|0:0,0:0:0:0:
169,12,92403,2,0,P|97:63|183:36,1,206.250007867813,0|0,0:0|0:0,0:0:0:0:
228,244,92653,6,0,P|220:156|200:244,1,206.250007867813,0|0,0:0|0:0,0:0:0:0:
92,334,92819,6,0,L|235:346,1,103.125003933907,0|0,0:0|0:0,0:0:0:0:
364,231,92986,2,0,L|261:239,1,103.125003933907,0|0,0:0|0:0,0:0:0:0:
92,50,93153,6,0,L|235:37,1,103.125003933907,0|0,0:0|0:0,0:0:0:0:
364,153,93319,2,0,L|261:144,1,103.125003933907,0|0,0:0|0:0,0:0:0:0:
16,192,93486,6,0,L|144:192,1,103.125003933907,0|0,0:0|0:0,0:0:0:0:
496,192,93653,2,0,L|368:192,1,103.125003933907,0|0,0:0|0:0,0:0:0:0:
256,192,93819,6,0,B|256:194|256:194|256:193|256:193|256:195,3,6.875,0|0|0|0,0:0|0:0|0:0|0:0,0:0:0:0:
19,150,94153,6,0,L|145:172,1,103.125003933907,0|0,0:0|0:0,0:0:0:0:
492,233,94319,2,0,L|366:211,1,103.125003933907,0|0,0:0|0:0,0:0:0:0:
256,192,94486,6,0,B|255:194|255:194|255:193|255:193|255:195,3,6.875,0|0|0|0,0:0|0:0|0:0|0:0,0:0:0:0:
19,233,94819,6,0,L|145:211,1,103.125003933907,0|0,0:0|0:0,0:0:0:0:
492,150,94986,2,0,L|366:172,1,103.125003933907,0|0,0:0|0:0,0:0:0:0:
256,192,95153,6,0,B|256:194|256:194|256:193|256:193|256:195,3,6.875,0|0|0|0,0:0|0:0|0:0|0:0,0:0:0:0:
48,71,95486,6,0,L|159:136,1,103.125003933907,0|0,0:0|0:0,0:0:0:0:
463,312,95653,2,0,L|352:248,1,103.125003933907,0|0,0:0|0:0,0:0:0:0:
256,192,95819,6,0,B|254:194|254:194|255:193|255:193|254:195,3,6.875,0|0|0|0,0:0|0:0|0:0|0:0,0:0:0:0:
9,372,96153,5,0,0:0:0:0:
56,318,96236,1,0,0:0:0:0:
122,290,96319,1,0,0:0:0:0:
193,293,96403,1,0,0:0:0:0:
254,329,96486,1,0,0:0:0:0:
320,356,96569,1,0,0:0:0:0:
391,351,96653,1,0,0:0:0:0:
452,314,96736,1,0,0:0:0:0:
490,253,96819,5,0,0:0:0:0:
498,181,96903,1,0,0:0:0:0:
471,114,96986,1,0,0:0:0:0:
418,67,97069,1,0,0:0:0:0:
348,50,97153,1,0,0:0:0:0:
278,65,97236,1,0,0:0:0:0:
223,111,97319,1,0,0:0:0:0:
195,176,97403,1,0,0:0:0:0:
202,247,97486,5,0,0:0:0:0:
260,190,97569,1,0,0:0:0:0:
271,110,97652,1,0,0:0:0:0:
230,40,97735,1,0,0:0:0:0:
155,11,97819,1,0,0:0:0:0:
77,34,97902,1,0,0:0:0:0:
31,100,97985,1,0,0:0:0:0:
35,181,98069,1,0,0:0:0:0:
88,245,98153,6,0,L|168:230,1,51.5625019669533
97,145,98236,2,0,L|187:193,1,51.5625019669533,0|0,0:0|0:0,0:0:0:0:
169,74,98319,2,0,L|201:155,1,51.5625019669533,0|0,0:0|0:0,0:0:0:0:
270,66,98403,2,0,L|242:146,1,51.5625019669533,0|0,0:0|0:0,0:0:0:0:
352,125,98486,2,0,L|272:169,1,51.5625019669533,0|0,0:0|0:0,0:0:0:0:
377,223,98569,2,0,L|294:208,1,51.5625019669533,0|0,0:0|0:0,0:0:0:0:
333,314,98653,2,0,L|286:257,1,51.5625019669533,0|0,0:0|0:0,0:0:0:0:
241,355,98736,2,0,L|241:282,1,51.5625019669533,0|0,0:0|0:0,0:0:0:0:
144,327,98819,5,0,0:0:0:0:
256,192,98903,12,0,101153,0:0:0:0:
