osu file format v14

[General]
AudioFilename: audio.mp3
AudioLeadIn: 0
PreviewTime: -1
Countdown: 1
SampleSet: Normal
StackLeniency: 0.7
Mode: 0
LetterboxInBreaks: 0
SkinPreference:Ez power
WidescreenStoryboard: 1

[Editor]
Bookmarks: 19438,25301,25517,25769,138970,146687,153559
DistanceSpacing: 1.5
BeatDivisor: 6
GridSize: 4
TimelineZoom: 1

[Metadata]
Title:Echolands
TitleUnicode:Echolands
Artist:Zyzyx
ArtistUnicode:Zyzyx
Creator:Davidovix
Version:Echoland
Source:
Tags:
BeatmapID:1306526
BeatmapSetID:619875

[Difficulty]
HPDrainRate:6
CircleSize:5
OverallDifficulty:5
ApproachRate:9
SliderMultiplier:0.9
SliderTickRate:1

[Events]
//Background and Video events
0,0,"2692d7509999ec87416f25bebea3d26e.jpg",0,0
//Break Periods
//Storyboard Layer 0 (Background)
//Storyboard Layer 1 (Fail)
//Storyboard Layer 2 (Pass)
//Storyboard Layer 3 (Foreground)
//Storyboard Sound Samples

[TimingPoints]
1848.1726618705,215.827338129496,4,1,0,100,1,0
30157,215.827338129496,4,1,0,100,1,1
71975,-100,4,1,0,100,0,0
73855,-100,4,1,0,100,0,1
130054,500,4,1,0,100,1,0
142178,218.181818181818,4,1,0,100,1,0
145562,-100,4,1,0,100,0,1
173109,-100,4,1,0,100,0,0

[Colours]
Combo1 : 37,13,179
Combo2 : 128,255,255
Combo3 : 18,124,255
Combo4 : 0,255,255
Combo5 : 0,64,128
Combo6 : 0,0,255
Combo7 : 0,0,128

[HitObjects]
152,112,1812,5,0,0:0:0:0:
248,104,3502,1,0,0:0:0:0:
336,100,5193,1,0,0:0:0:0:
384,100,5661,1,0,0:0:0:0:
440,100,5840,1,0,0:0:0:0:
496,100,6056,1,0,0:0:0:0:
496,152,6272,1,0,0:0:0:0:
496,204,6524,1,0,0:0:0:0:
492,256,6740,1,0,0:0:0:0:
492,304,6920,1,0,0:0:0:0:
340,292,8646,1,0,0:0:0:0:
228,232,10373,1,0,0:0:0:0:
128,180,12099,1,0,0:0:0:0:
36,104,13790,1,0,0:0:0:0:
56,144,15445,6,0,P|104:176|176:96,1,180
236,96,16056,2,0,B|256:164|256:164|280:96|280:96|316:168|316:168|324:88|324:88,1,300
292,80,17279,2,0,B|312:64|360:48|384:48|392:92|388:120|372:140,1,165
420,192,17783,2,0,B|424:256|424:256|368:252|368:252|352:192|352:192|288:184|288:184|288:248|288:248,1,300
354,193,19006,2,0,B|210:169|210:169|210:209|210:209|194:169|194:169|194:209|194:209|178:169|178:169|178:209|178:209|158:169|158:169|118:229|118:229|102:137|102:137|66:233|66:233|26:141|26:141,1,765
224,128,21488,1,0,0:0:0:0:
268,172,21704,1,0,0:0:0:0:
304,124,22028,1,0,0:0:0:0:
336,196,22351,2,0,B|350:212|393:227|428:231|457:220|472:202|484:176|468:145|467:122|461:93,1,240
386,49,23251,2,0,B|298:49|298:49|347:98|347:98|401:98|401:98|416:78,1,225
484,44,24186,2,0,P|296:124|224:136,1,270
200,152,25013,2,0,B|160:212|160:212|112:152|112:152|72:212|72:212|28:148|28:148|88:76|88:76|88:76|88:76,1,390
136,72,26092,2,0,B|168:128|168:128|192:72|192:72|212:128|212:128|240:64|240:64|264:136|264:136|296:56|296:56|308:112|320:136|336:144|360:136|372:108|376:92,1,555
432,120,27531,5,0,0:0:0:0:
468,60,27855,1,0,0:0:0:0:
400,52,28179,1,0,0:0:0:0:
332,44,28466,1,0,0:0:0:0:
360,108,28862,1,0,0:0:0:0:
248,48,29761,6,0,B|244:124|244:124|176:56|176:56|152:132|152:132|104:72|104:72|72:120|72:120,1,375
84,72,30948,6,0,P|260:128|328:128,1,255
320,48,31811,2,0,L|396:48,3,75
432,104,32674,2,0,P|344:276|232:296,1,315
184,280,33574,2,0,L|120:236,3,75
144,96,34473,2,0,B|244:224|280:224|340:96|368:76|368:76|424:144|424:144|464:48|464:48|480:256|480:256,1,705
408,208,36631,2,0,B|308:192|308:192|380:144|380:144|308:144|308:144|384:92|384:92|340:92|212:108|208:224,1,585
40,88,38466,2,0,B|64:164|64:164|112:80|112:80|152:168|152:168|196:80|196:80|236:176|236:176|248:204|388:136,1,630
360,48,40192,2,0,B|264:52|264:52|264:144|264:144|168:144|168:144|168:52|168:52|108:52|108:52|104:56,1,435
56,48,41415,2,0,L|56:144,7,90
60,196,43070,1,0,0:0:0:0:
64,260,43250,1,0,0:0:0:0:
128,256,43538,1,0,0:0:0:0:
128,196,43826,1,0,0:0:0:0:
89,39,44401,2,0,B|253:415|421:47|421:47,1,480
372,80,45660,2,0,B|376:112|376:112|328:112|328:112|316:88|316:88|328:52|328:52|360:48|360:48|392:40,1,210
415,57,46415,6,0,B|155:209|108:204|108:204,1,330
72,216,47279,2,0,B|24:184|24:184|72:160|72:160|32:128|32:128|80:104|80:104,1,210
40,112,48106,6,0,B|140:304|308:296|312:208|312:208|356:264|356:264|388:184|388:184|424:272|424:272|464:184|464:184|535:337|387:337,1,945
324,72,50732,2,0,P|228:72|228:72,3,90
216,72,51487,2,0,P|144:104|216:324,1,360
256,328,52459,2,0,B|280:280|280:280|304:332|304:332|332:280|332:280|356:336|356:336,1,225
408,340,53322,2,0,B|464:296|476:236|472:188|468:136|464:112|448:80|444:72|440:64|436:60|432:56|428:52|428:52,1,300
436,52,54185,2,0,B|388:104|388:104|356:48|356:48|324:84|324:84|300:48|300:48,1,225
288,20,54869,2,0,B|288:236|288:236|212:236|212:236|212:172|212:172|148:172|148:172|148:248|148:248|256:352|256:352|348:288,1,750
368,252,56739,1,0,0:0:0:0:
368,200,56919,1,0,0:0:0:0:
364,144,57207,1,0,0:0:0:0:
292,64,58214,2,0,P|116:64|52:124,1,270
52,188,59329,2,0,P|136:188|136:188,4,75
168,184,60948,2,0,P|168:268|168:268,4,75
240,200,62459,2,0,B|316:200|316:200|316:136|316:136|240:136|240:136|240:72|240:72|312:72|504:72,1,540
500,116,64293,2,0,B|500:252|500:252|408:252|408:252|408:108|408:108,1,360
480,48,65372,70,0,L|340:48,1,135
272,56,66128,2,0,L|128:56,1,135
52,52,66811,2,0,L|52:196,1,135
52,248,67639,2,0,L|192:248,1,135
256,232,68466,2,0,L|360:232,1,105
248,68,69041,2,0,P|288:68|296:68,1,45
344,60,69437,2,0,P|384:60|392:60,1,45
360,140,69869,2,0,P|400:140|408:140,1,45
248,68,70156,2,0,P|288:68|296:68,1,45
312,120,70408,2,0,B|312:180|312:180|256:180|260:180|260:180|260:112|260:112|204:112|204:112|208:180|204:180|204:180|164:184|164:184|160:180|144:148|140:136|136:128|124:124|96:144|92:172|108:192|132:200|140:204|200:232,1,555
164,248,72531,6,0,B|264:224|264:224|160:192|160:192|272:172|272:172|160:128|160:128,1,435
160,48,73898,2,0,B|244:16|432:28|448:32|460:40|468:52|476:68|476:96|460:128|448:140|428:144|392:152|360:148|332:132|308:112|264:92,1,570
352,116,75552,2,0,P|44:288|44:288,1,345
32,288,76523,2,0,P|-8:288|-8:288,7,30
48,240,77351,2,0,P|196:100|336:96,1,345
368,104,79005,2,0,P|320:328|164:352,1,405
468,192,80696,2,0,P|176:196|176:196,1,285
172,244,81415,2,0,B|160:280|128:304|100:320|64:320|56:296|48:284|36:264|24:240|24:220|24:208|24:192|24:176|24:164|32:148,1,285
36,140,82387,6,0,L|300:132,1,255
332,136,83286,2,0,B|384:136|384:136|332:96|332:96|344:80|344:80|328:92|328:92|336:76|336:76|324:88|324:88|324:76|324:76|320:88|320:88|316:76|316:76|316:88|316:88,1,240
448,128,84077,2,0,B|412:272|240:316|196:264,1,330
136,224,85085,2,0,B|80:268|80:268|36:224|36:224|100:176|100:176|48:128|48:128|92:80|356:40,1,600
404,64,87674,2,0,B|448:288|256:332|256:332|248:144,1,525
232,92,89149,2,0,P|112:108|152:328,1,390
176,328,90228,2,0,P|208:328|208:328,7,30
236,328,91092,2,0,B|304:308|408:76|360:44|216:36,1,420
352,44,92603,2,0,B|352:184|176:280|160:280|152:288|152:288|120:268|120:268|120:268|120:268|120:268|120:268|120:268|120:268|120:268,1,360
84,260,93646,2,0,B|72:272|72:272|48:248|48:248|64:232|64:232|80:232|80:232|104:240|104:240,1,105
136,212,94185,2,0,B|168:208|272:92|304:28|196:32|128:40|52:68|52:68|52:68|52:68,1,375
40,136,95156,2,0,B|40:204|196:272|284:168|300:80|300:48|300:40|300:32|284:20,1,390
236,24,96200,2,0,B|176:56|204:232|412:244|448:156|448:156|448:156,1,375
452,120,97171,2,0,P|444:88|444:88,6,30
432,24,97818,2,0,B|296:36|256:40|168:52|120:68|76:96|52:120|36:144|40:152|40:152|28:152|28:152|40:164|40:164|24:164|24:164|36:172|36:172|20:172|20:172|32:180|32:180|16:180|16:180|24:184|24:184|12:188|12:188|20:192|20:192|8:196|8:196|16:200|16:200,1,585
12,248,99617,6,0,B|244:260|244:260|240:160|240:160|308:160|308:160,1,390
336,184,100660,2,0,B|344:200|344:200|364:200|364:200|368:184|368:184|360:168|360:168|344:168|344:168,1,75
464,24,101847,6,0,B|360:24|360:24|456:84|456:84|352:88|352:88|460:144|460:144|460:144|460:144|404:180|456:232|440:320|368:344|276:324|276:324|276:324|276:324|276:324,1,750
244,320,103682,2,0,B|216:240|216:240|176:324|176:324|136:236|136:236|112:324|112:324|84:324|56:284|48:232|56:160|64:112|68:92,1,615
72,56,105372,2,0,B|160:96|160:96|184:12|184:12|268:64|268:64|224:136|224:136|244:164|244:164|244:164|244:164|268:216|268:216|268:216|268:216,1,450
312,212,106595,2,0,P|392:212|392:212,7,75
440,212,107962,2,0,B|432:296|192:384|76:256,1,420
28,232,109329,1,0,0:0:0:0:
48,160,109545,1,0,0:0:0:0:
116,152,109797,2,0,B|152:164|232:184|288:184|324:176|344:160|360:176|360:176|372:124|372:124|400:184|400:184|424:112|424:112|448:172|448:172|476:168|484:148|488:120|488:76|484:48|480:44,1,645
428,48,111523,2,0,B|368:48|312:44|248:48|212:60|180:76|160:88|192:112|192:112|132:96|132:96|176:144|176:144|104:140|104:140|148:176|152:212|152:224|148:228,1,585
112,284,113106,2,0,B|192:300|236:300|268:288|304:268|320:256|352:224|364:216|376:192|408:220|408:220|384:164|384:164|432:196|432:196|412:136|412:136|452:176|452:176|464:112|480:80|480:80|416:36,1,735
344,48,114869,1,0,0:0:0:0:
292,92,115228,1,0,0:0:0:0:
236,132,115588,1,0,0:0:0:0:
180,172,115804,1,0,0:0:0:0:
129,199,115876,2,0,B|77:159|77:159|101:219|101:219|45:195|45:195|69:231,1,225
60,280,116487,54,0,B|160:296|264:292|344:272|376:260|396:212|432:224|432:224|404:176|404:176|464:188|464:188|440:72|440:72,1,615
376,68,118358,2,0,B|248:144|132:216|132:216|164:272|164:272|220:236|220:236|256:284|256:284|200:316|200:316|148:332|104:324|80:296,1,660
72,220,120049,2,0,B|76:176|104:120|140:72|164:64|208:60|224:60|248:64|248:64|248:84|248:84|268:56|268:56|280:96|280:96|296:60|296:60|308:104|308:104|320:64|320:64|332:104|332:104|344:64|344:64,1,570
392,80,121775,2,0,B|344:120|324:148|300:168|280:176|252:184|232:196|216:208|208:216|196:224|180:240|180:240|200:272|200:272|140:240|140:240|168:292|168:292|112:260|112:260|104:260|104:260,1,495
68,224,122962,1,0,0:0:0:0:
60,148,123250,1,0,0:0:0:0:
136,84,123502,1,0,0:0:0:0:
216,76,123969,2,0,B|260:152|260:152|300:76|300:76|336:152|336:152|364:80|364:80,1,330
388,96,125228,2,0,B|344:148|268:224|224:264|204:276|192:280|160:244|160:244|184:320|184:320|112:260|112:260|140:340|140:340|72:268|72:268,1,660
68,68,126955,2,0,L|396:348,1,420
424,292,128682,1,0,0:0:0:0:
424,196,129005,1,0,0:0:0:0:
344,244,129257,1,0,0:0:0:0:
136,132,130470,6,0,L|232:132,1,90
280,128,131220,2,0,B|280:164|280:164|316:128|316:128|320:172|320:172|368:88|368:88,1,225
344,52,132970,2,0,B|304:48|304:48|304:96|304:96|260:92|260:92|228:56|228:56|228:56|228:56,1,180
132,56,134220,2,0,P|100:56|100:56,8,30
192,52,135970,2,0,B|192:104|192:104|152:104|152:104|124:60|124:60|80:100|80:100,1,195
48,112,137304,2,0,P|64:136|92:104,1,75
148,112,138137,2,0,P|164:136|192:104,1,75
244,116,138970,2,0,P|260:140|288:108,1,75
344,120,139720,2,0,P|360:144|388:112,1,75
352,32,140637,2,0,P|352:64|352:64,8,30
288,36,142359,2,0,P|256:36|256:40,7,45
232,84,143268,2,0,B|180:172|156:140|156:140,1,105
120,144,143632,2,0,B|64:216|64:216|40:156|40:156,1,150
256,192,144214,12,0,145341,0:0:0:0:
460,24,145814,70,0,B|464:192|464:312|448:328|432:332|400:336|380:336|308:312|288:296|288:228|304:208|340:196|372:200|392:212|412:232|416:252|388:268,1,585
280,108,147668,2,0,P|256:280|168:324,1,285
112,324,148468,2,0,P|76:324|76:324,8,30
40,256,149305,2,0,B|188:280|384:216|384:216,1,345
440,244,151050,2,0,B|436:196|404:44|404:44|360:44|360:44|336:92|336:88,1,285
400,276,151887,2,0,B|380:220|372:184|364:152|356:140|352:132|328:112|312:104,1,195
312,100,152687,2,0,B|280:172|180:212|108:192|168:64|52:-4|-152:40|128:268|128:268,1,540
80,80,154359,2,0,B|48:200|4:364|24:368|60:368|112:368|120:340,1,360
132,336,155378,2,0,P|172:304|172:304,5,45
192,288,155996,2,0,B|304:300|392:264|412:188|412:144|392:92|380:76,1,360
336,48,157050,2,0,B|316:87|316:87|297:41|297:41|270:87|270:87|312:137|312:137,1,210
328,156,157887,2,0,B|264:276|120:328|68:172|68:168,1,330
48,136,158796,2,0,L|212:60,1,180
256,60,159305,2,0,P|256:196|256:196,1,135
256,248,159850,2,0,P|116:248|116:248,1,135
58,252,160178,6,0,B|43:232|34:180|38:117|73:73|89:55|130:30|161:23|177:23|184:23,1,300
256,60,161232,2,0,P|256:196|256:196,1,135
256,248,161741,2,0,P|396:248|396:248,1,135
441,258,162214,2,0,B|456:262|456:262|447:264|447:264|458:273|458:273|445:273|445:273|450:269|451:271|448:282|448:282|442:281|447:279|453:279|455:280|454:282|450:283|452:286|450:286|453:292|443:293|457:293|445:293|448:293|455:293|444:293|473:306|446:306|451:308|447:307|456:302|460:301|445:299|461:294|432:294|443:300|446:301|447:300,1,105
488,236,163123,2,0,B|460:320|220:364|144:300|144:300,1,375
56,312,164723,6,0,B|52:144|60:24|152:20|152:28|152:36,1,315
188,32,165632,2,0,B|220:32|220:32|220:64|220:64|252:64|252:64|252:28|252:28|288:28|288:28,1,165
232,64,166432,2,0,P|232:200|232:200,1,135
172,200,166905,2,0,P|32:200|32:200,1,135
41,147,167377,2,0,B|40:102|58:65|78:37|97:23|131:15|155:12|171:16|177:20|177:20,1,210
188,84,167959,2,0,P|188:220|188:220,1,135
260,272,168504,2,0,P|120:272|120:272,1,135
64,276,168977,2,0,B|64:212|64:212|116:212|116:212|132:192|132:192|116:184|116:184|132:180|132:180|120:176|120:176|132:172|132:172|120:168|120:168|132:164|132:164|124:160|124:160,1,225
448,36,169887,2,0,B|484:272|268:232|248:172,1,345
208,108,170832,2,0,B|184:120|184:120|184:88|184:88|160:112|160:112|172:140|172:140|152:148|152:148|160:160|160:160,1,150
200,160,171596,2,0,B|144:316|72:368|24:248|28:188,1,330
56,152,172541,2,0,B|56:96|56:96|104:96|104:96|104:152|104:152|148:152|148:152|148:116|148:116,1,240
148,156,173268,1,0,0:0:0:0:
172,212,173959,5,0,0:0:0:0:
216,228,174178,1,0,0:0:0:0:
176,260,174396,1,0,0:0:0:0:
240,260,174578,1,0,0:0:0:0:
208,300,174796,1,0,0:0:0:0:
288,304,175632,5,0,0:0:0:0:
360,304,175814,1,0,0:0:0:0:
440,300,176032,1,0,0:0:0:0:
440,232,176250,1,0,0:0:0:0:
440,156,176468,1,0,0:0:0:0:
440,80,176687,1,0,0:0:0:0:
384,80,177087,5,0,0:0:0:0:
328,84,177305,1,0,0:0:0:0:
272,88,177523,1,0,0:0:0:0:
224,64,177705,1,0,0:0:0:0:
176,32,177923,1,0,0:0:0:0:
116,28,178105,1,0,0:0:0:0:
64,60,178323,1,0,0:0:0:0:
48,152,178978,5,0,0:0:0:0:
24,176,179159,1,0,0:0:0:0:
72,196,179341,1,0,0:0:0:0:
36,216,179559,1,0,0:0:0:0:
80,252,179741,1,0,0:0:0:0:
36,284,180032,1,0,0:0:0:0:
148,344,180723,5,0,0:0:0:0:
184,280,180905,1,0,0:0:0:0:
224,348,181087,1,0,0:0:0:0:
256,280,181268,1,0,0:0:0:0:
292,352,181450,1,0,0:0:0:0:
328,284,181632,1,0,0:0:0:0:
392,284,182396,5,0,0:0:0:0:
324,264,182578,1,0,0:0:0:0:
412,224,182759,1,0,0:0:0:0:
344,200,182941,1,0,0:0:0:0:
412,160,183196,1,0,0:0:0:0:
344,124,183487,1,0,0:0:0:0:
280,136,183887,5,0,0:0:0:0:
232,192,184105,1,0,0:0:0:0:
168,216,184323,1,0,0:0:0:0:
164,148,184505,1,0,0:0:0:0:
164,80,184723,1,0,0:0:0:0:
92,72,184941,1,0,0:0:0:0:
88,148,185159,1,0,0:0:0:0:
84,196,185814,5,0,0:0:0:0:
28,236,186032,1,0,0:0:0:0:
56,300,186250,1,0,0:0:0:0:
120,260,186468,1,0,0:0:0:0:
176,304,186687,1,0,0:0:0:0:
