osu file format v14

[General]
AudioFilename: audio.mp3
AudioLeadIn: 0
PreviewTime: 51700
Countdown: 1
SampleSet: Normal
StackLeniency: 0.2
Mode: 0
LetterboxInBreaks: 0
WidescreenStoryboard: 0

[Editor]
Bookmarks: 77700,84633,110766,135300,169700
DistanceSpacing: 3
BeatDivisor: 3
GridSize: 4
TimelineZoom: 2.599999

[Metadata]
Title:Aeonian
TitleUnicode:Aeonian
Artist:Zyzyx
ArtistUnicode:Zyzyx
Creator:Lilynn
Version:play with HDFL :)
Source:
Tags:dubstep electronic glitch hop jumps fast
BeatmapID:1515816
BeatmapSetID:717519

[Difficulty]
HPDrainRate:9
CircleSize:3.8
OverallDifficulty:9.5
ApproachRate:10
SliderMultiplier:2.7
SliderTickRate:2

[Events]
//Background and Video events
0,0,"VphQPlV.jpg",0,0
//Break Periods
//Storyboard Layer 0 (Background)
//Storyboard Layer 1 (Fail)
//Storyboard Layer 2 (Pass)
//Storyboard Layer 3 (Foreground)
//Storyboard Sound Samples

[TimingPoints]
52100,400,3,1,0,50,1,0
85700,-200,3,1,0,50,0,0
86100,-200,3,1,0,50,0,0
87300,-133.333333333333,3,1,0,50,0,0
88500,-100,3,1,0,50,0,0
88900,-200,3,1,0,50,0,0
89300,-100,3,1,0,50,0,0
90900,-200,3,1,0,50,0,0
92900,-200,3,1,0,50,0,0
93700,-133.333333333333,3,1,0,50,0,0
95300,-200,3,1,0,50,0,0
95700,-133.333333333333,3,1,0,50,0,0
100100,-200,3,1,0,50,0,0
100500,-133.333333333333,3,1,0,50,0,0
109700,-200,3,2,0,15,0,0
119300,-285.714285714286,3,2,0,15,0,0
122500,-250,3,2,0,15,0,0
123300,-238.095238095238,3,2,0,15,0,0
123700,-227.272727272727,3,2,0,15,0,0
123900,-217.391304347826,3,2,0,15,0,0
124100,-208.333333333333,3,2,0,15,0,0
130366,-185.185185185185,3,2,0,15,0,0
132100,-147.058823529412,3,2,0,15,0,0
133300,-133.333333333333,3,2,0,15,0,0
134300,-285.714285714286,3,2,0,15,0,0
175100,500,3,1,0,50,1,0
214350,400,3,1,0,50,1,0

[Colours]
Combo1 : 255,216,176
Combo2 : 217,255,255
Combo3 : 217,217,236
Combo4 : 198,255,213

[HitObjects]
24,200,52100,6,0,B|80:176|80:176|145:168|145:168|206:139,1,180
265,41,52500,5,0,0:0:0:0:
249,289,52633,1,0,0:0:0:0:
360,96,52766,5,0,0:0:0:0:
169,249,52900,1,0,0:0:0:0:
385,321,53033,1,0,0:0:0:0:
265,41,53166,5,0,0:0:0:0:
249,289,53300,1,0,0:0:0:0:
465,177,53433,1,0,0:0:0:0:
193,145,53566,1,0,0:0:0:0:
385,321,53700,6,0,B|348:237|396:230|359:138,1,180
265,41,54100,1,0,0:0:0:0:
465,177,54233,1,0,0:0:0:0:
193,145,54366,1,0,0:0:0:0:
440,48,54500,2,0,B|396:46|333:75|333:75|369:65|400:80,1,180
465,177,54900,1,0,0:0:0:0:
212,123,55033,1,0,0:0:0:0:
294,371,55166,1,0,0:0:0:0:
153,61,55300,6,0,P|129:133|193:205,1,180
456,160,55700,1,0,0:0:0:0:
212,132,55833,1,0,0:0:0:0:
380,270,55966,1,0,0:0:0:0:
440,48,56100,1,0,0:0:0:0:
262,218,56233,5,0,0:0:0:0:
501,274,56366,1,0,0:0:0:0:
352,32,56500,1,0,0:0:0:0:
184,272,56633,5,0,0:0:0:0:
504,160,56766,1,0,0:0:0:0:
120,184,56900,2,0,B|96:248|96:248|120:365,1,180
268,259,57300,2,0,P|270:214|246:148,1,90
148,16,57566,5,0,0:0:0:0:
184,272,57700,1,10,0:0:0:0:
254,33,57833,5,2,3:0:0:0:
268,259,57967,1,10,3:0:0:0:
104,96,58100,6,0,B|161:84|158:116|226:102|226:102|182:118|177:160,1,180,4|0,0:0|0:0,0:0:0:0:
248,172,58500,2,0,P|300:100|224:28,1,180,10|0,0:0|0:0,0:0:0:0:
104,96,58900,5,0,0:0:0:0:
376,88,59033,1,0,0:0:0:0:
148,16,59166,1,0,0:0:0:0:
200,244,59300,1,0,0:0:0:0:
254,33,59433,5,0,0:0:0:0:
76,224,59566,1,0,0:0:0:0:
332,284,59700,1,0,0:0:0:0:
104,96,59833,5,0,0:0:0:0:
176,364,59966,1,0,0:0:0:0:
254,33,60100,6,0,P|224:112|284:176,1,180
332,284,60500,1,0,0:0:0:0:
304,96,60633,1,0,0:0:0:0:
264,360,60766,1,0,0:0:0:0:
304,96,60900,6,0,B|332:72|343:35|343:35|360:80|360:80|380:108|380:108|384:136|384:136|406:169|406:169|357:178,1,270,0|0,3:0|0:0,0:0:0:0:
120,96,61433,5,0,0:0:0:0:
472,108,61566,1,0,0:0:0:0:
52,132,61700,6,0,P|52:52|140:20,1,180
351,66,62100,5,0,0:0:0:0:
120,96,62233,1,0,0:0:0:0:
259,280,62366,1,0,0:0:0:0:
288,4,62499,5,0,0:0:0:0:
141,229,62632,1,0,0:0:0:0:
410,243,62766,1,0,0:0:0:0:
52,144,62900,2,0,B|60:204|60:204|44:256|44:256|56:332,1,180
230,309,63300,6,0,B|148:355|140:303|56:335,1,180
323,196,63700,6,0,L|316:376,1,180
168,248,64100,5,0,0:0:0:0:
368,36,64233,1,0,0:0:0:0:
456,320,64366,1,0,0:0:0:0:
56,336,64500,6,0,B|140:304|148:356|230:310,1,180
68,124,64900,6,0,B|116:100|160:128|160:128|248:128|252:64|160:60|160:128,1,270
112,192,65433,5,0,0:0:0:0:
400,236,65566,1,0,0:0:0:0:
272,32,65700,1,0,0:0:0:0:
188,256,65833,1,0,0:0:0:0:
424,80,65966,1,0,0:0:0:0:
160,127,66100,1,0,0:0:0:0:
344,320,66233,1,0,0:0:0:0:
272,32,66366,1,0,0:0:0:0:
128,312,66500,6,0,P|208:336|268:272,1,180
272,32,66900,1,0,0:0:0:0:
188,256,67033,1,0,0:0:0:0:
424,216,67166,1,0,0:0:0:0:
75,135,67300,6,0,B|70:183|70:183|48:235|48:235|42:316,1,180
384,96,67700,1,0,0:0:0:0:
160,128,67833,1,0,0:0:0:0:
424,216,67966,1,0,0:0:0:0:
192,48,68100,6,0,P|120:48|80:152,1,180
43,310,68500,1,0,0:0:0:0:
424,216,68633,1,0,0:0:0:0:
160,128,68766,1,0,0:0:0:0:
256,368,68900,1,0,0:0:0:0:
304,32,69033,5,0,0:0:0:0:
256,368,69166,1,0,0:0:0:0:
496,176,69300,1,0,0:0:0:0:
112,208,69433,1,0,0:0:0:0:
416,344,69566,1,0,0:0:0:0:
56,152,69700,2,0,P|40:240|112:288,1,180
392,208,70100,5,0,0:0:0:0:
112,208,70233,1,0,0:0:0:0:
440,320,70366,1,0,0:0:0:0:
312,48,70500,1,0,0:0:0:0:
248,315,70633,1,0,0:0:0:0:
144,56,70766,1,0,0:0:0:0:
184,256,70900,6,0,B|168:288|176:336|208:360|208:360|254:342|248:312,1,180,0|4,0:0|0:0,0:0:0:0:
233,121,71300,2,0,L|49:153,1,180
184,256,71700,1,0,0:0:0:0:
240,8,71833,1,0,0:0:0:0:
352,224,71966,1,0,0:0:0:0:
144,48,72100,1,0,0:0:0:0:
416,112,72233,1,0,0:0:0:0:
184,256,72366,1,0,0:0:0:0:
240,8,72500,5,0,0:0:0:0:
352,224,72633,1,0,0:0:0:0:
56,152,72766,1,0,0:0:0:0:
416,112,72900,2,0,P|423:190|443:289,1,180
364,32,73300,5,0,0:0:0:0:
184,136,73433,1,0,0:0:0:0:
352,224,73566,1,0,0:0:0:0:
136,76,73700,6,0,B|112:92|102:128|100:148|124:188|124:188|94:162|66:158|66:158|39:150|43:123|43:123|62:109|62:109|79:120|64:111,1,270
364,32,74233,1,0,0:0:0:0:
185,137,74366,1,0,0:0:0:0:
432,80,74500,2,0,P|356:116|284:60,1,180
364,32,74900,5,0,0:0:0:0:
368,248,75033,1,0,0:0:0:0:
185,137,75166,1,0,0:0:0:0:
480,132,75300,5,0,0:0:0:0:
168,280,75433,1,0,0:0:0:0:
364,32,75566,1,0,0:0:0:0:
328,320,75700,2,0,P|288:244|336:172,1,180
360,160,76100,6,0,P|272:188|196:144,1,180
128,52,76500,6,0,L|116:256,1,180
112,328,76900,5,0,0:0:0:0:
284,88,77033,1,0,0:0:0:0:
272,372,77166,1,0,0:0:0:0:
128,52,77300,6,0,L|116:256,1,180
256,192,77700,12,0,80766,0:0:0:0:
256,192,80900,12,0,82900,0:0:0:0:
88,192,83300,6,0,L|220:176,1,90
256,236,83566,2,0,L|345:246,1,90
316,156,83833,5,0,0:0:0:0:
328,352,83966,1,0,0:0:0:0:
256,100,84100,2,0,P|328:76|396:144,1,180
468,276,84500,6,0,P|440:272|416:276,1,45
336,232,84633,2,0,P|313:235|291:234,1,45
212,184,84766,2,0,P|189:180|167:181,1,45
106,104,84900,6,0,B|132:158|132:158|118:211|118:211|144:272,1,180
368,112,85300,6,0,P|296:132|352:176,1,180
346,25,85700,2,0,P|300:28|261:52,1,90
167,180,86100,5,0,0:0:0:0:
408,240,86366,1,0,0:0:0:0:
317,239,86500,2,0,B|298:266|358:296|358:296|396:262|405:226|372:182|348:174,1,225
55,126,87300,2,0,P|102:174|168:179,1,135.000005149841
266,135,87700,6,0,P|272:106|268:76,1,33.7500012874604
343,35,87833,2,0,P|349:64|345:94,1,33.7500012874604
352,176,87966,2,0,L|347:204,2,16.8750006437302
428,32,88100,5,0,0:0:0:0:
464,232,88233,1,0,0:0:0:0:
256,16,88366,1,0,0:0:0:0:
460,308,88500,6,0,P|420:296|392:256,1,90
352,176,88700,1,0,0:0:0:0:
352,176,88766,2,0,L|292:184,1,45
192,252,88900,6,0,L|200:132,1,112.5
88,292,89300,5,0,0:0:0:0:
304,264,89433,1,0,0:0:0:0:
112,104,89566,1,0,0:0:0:0:
176,336,89700,1,0,0:0:0:0:
332,156,89833,1,0,0:0:0:0:
88,292,89966,5,0,0:0:0:0:
388,100,90100,6,0,P|320:76|252:148,1,180
460,348,90500,6,0,B|464:292|464:292|440:232|440:232|440:164,1,180
403,14,90900,2,0,B|383:59|383:59|387:102,1,90
328,156,91300,1,0,0:0:0:0:
136,112,91433,1,0,0:0:0:0:
208,240,91566,1,0,0:0:0:0:
256,40,91700,1,0,0:0:0:0:
64,84,91833,6,0,P|64:140|88:172,1,90
212,244,92233,1,0,0:0:0:0:
212,244,92300,1,0,0:0:0:0:
212,244,92366,1,0,0:0:0:0:
368,158,92500,5,0,0:0:0:0:
136,112,92633,1,0,0:0:0:0:
228,332,92766,1,0,0:0:0:0:
411,93,92900,6,0,P|374:80|326:92,1,90
256,168,93300,2,0,B|256:208|256:208|272:260,1,90
187,305,93700,2,0,B|249:289|249:289|284:297|284:297|311:273|311:273|376:256,1,202.500007724762
401,148,94233,1,0,0:0:0:0:
270,255,94366,1,0,0:0:0:0:
136,364,94500,1,0,0:0:0:0:
136,364,94633,1,0,0:0:0:0:
238,140,94900,6,0,P|280:189|269:254,1,135.000005149841
120,216,95300,6,0,L|224:208,1,90
401,148,95700,6,0,L|264:140,1,135.000005149841
180,80,96100,5,0,0:0:0:0:
236,312,96233,1,0,0:0:0:0:
40,264,96366,1,0,0:0:0:0:
296,264,96500,6,0,P|312:328|272:380,1,135.000005149841
236,312,96900,6,0,B|248:248|248:248|236:177,1,135.000005149841
396,220,97300,1,0,0:0:0:0:
396,220,97433,1,0,0:0:0:0:
104,248,97566,1,0,0:0:0:0:
104,248,97700,1,0,0:0:0:0:
320,60,97833,1,0,0:0:0:0:
320,60,97966,1,0,0:0:0:0:
256,344,98100,5,0,0:0:0:0:
124,72,98233,1,0,0:0:0:0:
376,208,98366,1,0,0:0:0:0:
44,196,98500,6,0,P|104:168|180:240,1,135.000005149841
256,344,98900,1,0,0:0:0:0:
104,248,99033,1,0,0:0:0:0:
376,208,99166,1,0,0:0:0:0:
58,314,99300,6,0,P|24:256|44:194,1,135.000005149841
384,208,99700,5,0,0:0:0:0:
104,248,99833,1,0,0:0:0:0:
436,284,99966,1,0,0:0:0:0:
96,64,100100,6,0,P|100:108|136:140,1,90
220,120,100500,6,0,L|268:128,1,33.7500012874604
392,168,100633,2,0,L|358:162,1,33.7500012874604
312,48,100766,6,0,L|320:100,1,33.7500012874604
296,236,100899,2,0,L|288:200,1,33.7500012874604
438,106,101033,6,0,P|422:95|406:92,1,33.7500012874604
464,240,101166,6,0,P|479:235|495:226,1,33.7500012874604
466,17,101300,5,0,0:0:0:0:
220,120,101433,1,0,0:0:0:0:
440,304,101566,1,0,0:0:0:0:
238,45,101700,6,0,P|178:53|142:113,1,135.000005149841
56,95,102100,5,0,0:0:0:0:
220,120,102233,1,0,0:0:0:0:
110,243,102366,1,0,0:0:0:0:
144,24,102500,5,0,0:0:0:0:
331,148,102633,1,0,0:0:0:0:
124,237,102766,1,0,0:0:0:0:
392,100,102900,6,0,P|408:160|368:216,1,135.000005149841
110,243,103300,1,0,0:0:0:0:
110,243,103700,5,0,0:0:0:0:
344,232,103833,1,0,0:0:0:0:
224,28,103966,1,0,0:0:0:0:
248,280,104100,5,0,0:0:0:0:
32,140,104233,1,0,0:0:0:0:
240,160,104366,1,0,0:0:0:0:
240,160,104433,1,0,0:0:0:0:
240,160,104500,1,0,0:0:0:0:
110,243,104633,1,0,0:0:0:0:
224,28,104766,1,0,0:0:0:0:
38,301,104900,6,0,P|10:249|110:245,1,202.500007724762
136,352,105433,5,0,0:0:0:0:
160,132,105566,1,0,0:0:0:0:
248,292,105700,2,0,L|148:280,1,67.5000025749207
109,242,105966,6,0,L|105:214,2,16.8750006437302
136,352,106100,1,0,0:0:0:0:
160,132,106233,1,0,0:0:0:0:
315,286,106500,6,0,L|223:294,1,67.5000025749207
396,300,106766,6,0,L|400:248,1,33.7500012874604
408,148,106900,5,0,0:0:0:0:
344,372,107033,1,0,0:0:0:0:
272,200,107300,2,0,P|304:188|340:188,1,67.5000025749207
204,272,107700,6,0,L|220:136,1,135.000005149841
190,69,108100,6,0,L|206:301,1,202.500007724762
408,148,108766,5,0,0:0:0:0:
272,199,108900,2,0,P|303:188|337:187,1,67.5000025749207
320,280,109166,1,0,0:0:0:0:
408,148,109300,5,0,0:0:0:0:
336,68,109500,5,0,0:0:0:0:
467,269,109700,6,0,B|433:271|397:252|381:219|381:219|332:224|332:224|339:262|361:285|361:285|321:269|288:280|288:280|255:313|192:290|192:290|229:330|260:303|286:315|286:315|297:320,1,495
279,312,111300,6,0,B|228:116|228:116|96:284|96:284|204:292,1,517.5
268,268,112900,6,0,B|264:120|356:180|444:100|364:8|364:8|256:72|356:180,1,517.5
472,208,114500,6,0,B|476:248|476:248|468:288|468:288|488:336|488:336|412:276|352:324|268:272|268:272|352:324|412:276,1,517.5
404,268,116100,6,0,B|352:204|392:136|392:136|336:168|256:160|228:112|248:48|296:28|332:52,1,405
325,48,117900,2,0,P|314:106|335:171,1,112.5,0|0,2:0|2:0,2:0:0:0:
308,157,118300,2,0,P|320:211|310:266,1,112.5,0|0,2:0|2:0,2:0:0:0:
293,340,118900,6,0,P|249:311|238:255,1,112.5
338,178,119300,6,0,B|228:163|241:241|147:237|147:237|244:296|241:241|310:266,1,377.999988464356
256,192,121100,12,0,122100,0:0:0:0:
21,162,122500,6,0,P|72:146|123:159,1,108
189,218,123300,2,0,L|165:90,1,113.399996539307
222,44,123900,5,0,0:0:0:0:
222,44,124100,2,0,L|333:51,1,108.000002636719
355,81,124500,2,0,L|473:57,1,108.000002636719
483,22,124900,6,0,P|483:56|494:102,1,72
510,179,125300,6,0,P|497:213|469:237,1,72
384,256,125700,6,0,B|324:220|236:252|236:252|256:288|304:296,1,237.600005800781
292,208,126500,6,0,P|250:166|209:157,1,86.4000021093751
194,98,126900,6,0,L|179:183,1,86.4000021093751
383,255,127300,6,0,L|369:170,1,86.4000021093751
232,324,127966,1,0,0:0:0:0:
232,324,128100,2,0,L|124:332,1,86.4000021093751
88,172,128500,6,0,L|188:184,1,86.4000021093751
312,64,128900,6,0,B|288:96|288:96|284:152|336:180|392:160|404:104,1,216.000005273438
396,64,129700,6,0,P|392:152|432:216,1,129.600003164063
464,240,130366,5,0,0:0:0:0:
464,240,130500,2,0,P|404:233|366:246,1,97.2000023730469
280,296,130900,6,0,P|228:300|183:283,1,97.2000023730469
84,200,131300,6,0,P|88:228|100:256,1,48.6000011865235
186,285,131566,5,0,0:0:0:0:
186,285,131700,2,0,P|192:264|192:228,1,48.6000011865235
160,80,131900,2,0,P|154:101|154:137,1,48.6000011865235
344,236,132100,6,0,B|276:208|276:208|196:228,1,153.000000933838
344,220,132700,6,0,L|348:100,1,91.8000005603027
72,91,133300,2,0,B|105:99|125:93|125:93|95:120|115:157|115:157|152:163|195:133|150:120,1,202.500007724762
336,140,134300,1,0,0:0:0:0:
139,248,134500,2,0,P|163:232|211:228,1,78.7499975967408
224,344,134900,2,0,P|196:353|149:344,1,78.7499975967408
139,248,135300,6,0,L|147:144,1,94.4999971160889
200,92,135900,1,0,0:0:0:0:
200,92,136100,2,0,L|256:84,1,47.2499985580445
336,184,136400,2,0,L|280:176,1,47.2499985580445
216,100,136700,2,0,L|272:92,1,47.2499985580445
352,112,137200,1,0,0:0:0:0:
468,174,137500,1,0,0:0:0:0:
359,279,137700,6,0,L|311:266,1,47.2499985580445
305,253,138000,1,0,0:0:0:0:
223,275,138100,6,0,L|175:262,1,47.2499985580445
159,268,138400,1,0,0:0:0:0:
88,306,138500,6,0,P|78:262|90:217,1,70.8749978370667
135,166,138900,6,0,L|125:98,1,47.2499985580445,0|8,0:0|0:0,0:0:0:0:
217,33,139300,2,0,L|212:88,1,47.2499985580445
200,91,139600,1,0,0:0:0:0:
269,148,139700,6,0,L|276:208,1,47.2499985580445
