osu file format v14

[General]
AudioFilename: audio.mp3
AudioLeadIn: 0
PreviewTime: 130832
Countdown: 0
SampleSet: Soft
StackLeniency: 0.7
Mode: 2
LetterboxInBreaks: 0
WidescreenStoryboard: 1

[Editor]
Bookmarks: 10907,20604,30301,39998,49695,59392,69089,78786,88483,98180,103029,103180,103256,103332,103407,103483,103559,103635,103710,103786,103862,103938,104014,104089,104165,104241,104317,104392,104468,104544,104620,104695,104771,104847,104923,104998,105074,105150,105226,105301,105377,105453,105529,105604,105680,105756,105832,105907,105983,106059,106135,106210,106362,106438,106514,106589,106665,106741,106817,106892,106968,107120,107195,107271,107347,107423,107498,107650,107726,107801,107877,112726,121210,130907,140604,150453
DistanceSpacing: 1.6
BeatDivisor: 4
GridSize: 32
TimelineZoom: 2.899999

[Metadata]
Title:Schadenfreude
TitleUnicode:Schadenfreude
Artist:ZxNX
ArtistUnicode:ZxNX
Creator:Jemzuu
Version:Salad
Source:BOFXVII
Tags:axs vii 7 gf nm1 grandfinals ajamez -rustyy sinnoh -momox nosuri THE BMS OF FIGHTERS XVII -VISION THE RETRO FUTURE- gothic hardcore instrumental electronic techno dubstep orchestral breakcore electro shiku Accuracy Score No Mod REGULICIA grand finals
BeatmapID:3522806
BeatmapSetID:1698949

[Difficulty]
HPDrainRate:4
CircleSize:3
OverallDifficulty:7.2
ApproachRate:7.2
SliderMultiplier:1.4
SliderTickRate:1

[Events]
//Background and Video events
0,0,"cassi-josh-lhnOvu72BM8-unsplash (1).jpg",0,0
//Break Periods
2,103237,107015
//Storyboard Layer 0 (Background)
//Storyboard Layer 1 (Fail)
//Storyboard Layer 2 (Pass)
//Storyboard Layer 3 (Foreground)
//Storyboard Layer 4 (Overlay)
//Storyboard Sound Samples

[TimingPoints]
1219,303.030303030303,4,2,1,60,1,0
9703,-100,4,2,1,60,0,0
10082,-100,4,2,1,60,0,0
10385,-100,4,2,1,60,0,0
10688,-100,4,2,1,60,0,0
10764,-100,4,2,1,60,0,0
20612,-100,4,2,1,70,0,0
21825,-100,4,2,1,70,0,0
25764,-100,4,2,1,70,0,0
26976,-100,4,2,1,70,0,0
30461,-100,4,2,1,70,0,0
30612,-100,4,2,1,70,0,0
30915,-100,4,2,1,70,0,0
30991,-100,4,2,1,70,0,0
31370,-100,4,2,1,70,0,0
31446,-100,4,2,1,70,0,0
31825,-100,4,2,1,70,0,0
31901,-100,4,2,1,70,0,0
32885,-100,4,2,1,70,0,0
32961,-100,4,2,1,70,0,0
33340,-100,4,2,1,70,0,0
33416,-100,4,2,1,70,0,0
33794,-100,4,2,1,70,0,0
33870,-100,4,2,1,70,0,0
34249,-100,4,2,1,70,0,0
34325,-100,4,2,1,70,0,0
35006,-100,4,2,2,70,0,0
35158,-100,4,2,1,70,0,0
35385,-100,4,2,1,70,0,0
37128,-100,4,2,2,70,0,0
37279,-100,4,2,1,70,0,0
37582,-100,4,2,1,70,0,0
37961,-100,4,2,1,70,0,0
40006,-100,4,2,1,80,0,0
40915,-100,4,2,1,80,0,0
41825,-100,4,2,1,80,0,0
43340,-100,4,2,1,80,0,0
43946,-100,4,2,1,80,0,0
44552,-100,4,2,1,80,0,0
44855,-100,4,2,1,80,0,0
45461,-100,4,2,1,80,0,0
46673,-100,4,2,1,80,0,0
47203,-100,4,2,1,80,0,0
47582,-100,4,2,1,80,0,0
48188,-100,4,2,1,80,0,0
48491,-100,4,2,1,80,0,0
50612,-100,4,2,1,80,0,0
51825,-100,4,2,1,80,0,0
52431,-100,4,2,1,80,0,0
53340,-100,4,2,1,80,0,0
54173,-100,4,2,1,80,0,0
54325,-100,4,2,1,80,0,0
58188,-100,4,2,1,80,0,0
59400,-100,4,2,1,80,0,1
62431,-100,4,2,1,80,0,1
62582,-100,4,2,1,80,0,1
64097,-100,4,2,1,80,0,0
64552,-100,4,2,1,80,0,1
68794,-100,4,2,1,80,0,0
69097,-100,4,2,1,80,0,1
70006,-100,4,2,1,80,0,1
70158,-100,4,2,1,80,0,1
71067,-100,4,2,1,80,0,1
72431,-100,4,2,1,80,0,1
72582,-100,4,2,1,80,0,1
73643,-100,4,2,1,80,0,1
73794,-100,4,2,1,80,0,1
76067,-100,4,2,1,80,0,1
76218,-100,4,2,1,80,0,1
76370,-100,4,2,1,90,0,0
76875,-100,4,2,1,90,0,0
77582,-100,4,2,1,90,0,0
78491,-100,4,2,2,90,0,0
78794,-100,4,2,1,80,0,0
79703,-100,4,2,1,80,0,0
80006,-100,4,2,1,80,0,0
83643,-100,4,2,1,80,0,0
83870,-100,4,2,1,80,0,0
84552,-100,4,2,1,80,0,0
86067,-100,4,2,1,80,0,0
86522,-100,4,2,1,80,0,0
88491,-100,4,2,1,70,0,0
98188,-100,4,2,1,80,0,1
98264,-100,4,2,1,80,0,0
98491,-100,4,2,99,80,0,0
98567,-100,4,2,1,80,0,0
98794,-100,4,2,1,80,0,1
101522,-100,4,2,1,80,0,0
101825,-100,4,2,1,80,0,0
107885,-100,4,2,1,70,0,0
121218,-100,4,2,1,80,0,0
126067,-100,4,2,1,90,0,1
126522,-100,4,2,1,90,0,1
126597,-100,4,2,1,90,0,1
127734,-100,4,2,1,90,0,1
127809,-100,4,2,1,90,0,1
128188,-100,4,2,1,90,0,1
128340,-100,4,2,1,90,0,1
129855,-100,4,2,1,80,0,0
129931,-100,4,2,1,80,0,0
130915,-100,4,2,1,80,0,1
130991,-100,4,2,1,80,0,0
131522,-100,4,2,1,80,0,1
131749,-100,4,2,1,80,0,1
132431,-100,4,2,1,80,0,0
132734,-100,4,2,1,80,0,0
133112,-100,4,2,1,80,0,0
133340,-100,4,2,1,90,0,1
133415,-100,4,2,1,80,0,0
133946,-100,4,2,1,90,0,1
135158,-100,4,2,1,90,0,1
135461,-100,4,2,1,80,0,0
135764,-100,4,2,1,90,0,1
135840,-100,4,2,1,80,0,0
137582,-100,4,2,1,80,0,0
137961,-100,4,2,1,80,0,0
138188,-100,4,2,1,90,0,1
138264,-100,4,2,1,80,0,0
138794,-100,4,2,1,80,0,0
140309,-100,4,2,1,80,0,0
140612,-100,4,2,1,80,0,0
141522,-100,4,2,1,80,0,0
141824,-100,4,2,1,80,0,0
145461,-100,4,2,1,80,0,0
145688,-100,4,2,1,80,0,0
146370,-100,4,2,1,80,0,0
148340,-100,4,2,1,80,0,0

[Colours]
Combo1 : 5,126,192
Combo2 : 233,75,166
Combo3 : 255,47,47

[HitObjects]
336,258,612,6,0,L|371:188,2,70,2|2|2,0:0|0:0|0:0,0:0:0:0:
262,276,1067,1,2,0:0:0:0:
116,321,1219,6,0,L|101:163,1,140,6|2,0:3|0:0,0:0:0:0:
167,156,1673,1,2,0:0:0:0:
236,148,1825,1,2,0:0:0:0:
86,89,2128,1,2,0:0:0:0:
229,51,2431,5,2,0:2:0:0:
163,67,2582,1,2,0:0:0:0:
135,128,2734,1,2,0:0:0:0:
166,189,2885,1,2,0:0:0:0:
232,202,3037,2,0,L|385:248,2,140,2|2|2,0:0|0:0|0:0,0:0:0:0:
83,247,3794,6,0,L|72:145,1,70,4|2,0:1|0:0,0:0:0:0:
150,124,4097,2,0,L|245:104,1,70,2|2,0:0|0:0,0:0:0:0:
299,52,4400,2,0,L|214:46,1,70,2|2,0:0|0:0,0:0:0:0:
158,56,4703,1,2,0:0:0:0:
239,118,4855,6,0,L|384:144,1,140,2|2,0:2|0:0,0:0:0:0:
216,268,5461,2,0,L|177:200,2,70,2|2|2,0:0|0:0|0:0,0:0:0:0:
285,288,5915,1,2,0:0:0:0:
435,308,6067,6,0,L|442:157,1,140,4|2,1:1|0:0,0:0:0:0:
373,141,6522,1,2,0:0:0:0:
303,129,6673,1,2,0:0:0:0:
444,80,6976,1,2,0:0:0:0:
296,29,7279,5,2,0:0:0:0:
362,40,7430,1,2,0:0:0:0:
394,99,7582,1,2,0:0:0:0:
367,162,7733,1,2,0:0:0:0:
302,179,7885,1,2,0:0:0:0:
372,215,8037,2,0,L|460:216,2,70,2|2|2,0:0|0:0|0:0,0:0:0:0:
223,271,8491,6,0,L|74:246,1,140,4|2,0:1|0:0,0:0:0:0:
146,200,8946,1,2,0:0:0:0:
223,188,9097,1,2,0:0:0:0:
78,121,9400,1,2,0:0:0:0:
340,50,9703,6,0,L|349:210,1,140,6|4,1:3|1:3,0:0:0:0:
206,249,10309,1,4,1:3:0:0:
352,300,10612,1,4,1:3:0:0:
81,369,10915,6,0,L|72:227,1,140,12|2,0:0|0:0,0:0:0:0:
139,198,11370,1,2,0:0:0:0:
217,191,11522,2,0,L|259:115,2,70,2|2|2,0:0|0:0|0:0,0:0:0:0:
144,208,11976,1,2,0:0:0:0:
290,264,12128,6,0,L|434:303,1,140,10|2,0:0|0:0,0:0:0:0:
426,337,12582,1,4,0:3:0:0:
354,364,12734,1,2,0:0:0:0:
209,364,13037,1,4,0:3:0:0:
461,357,13340,6,0,L|466:196,1,140,4|2,1:0|0:0,0:0:0:0:
395,192,13794,1,10,0:0:0:0:
318,178,13946,2,0,L|485:134,1,140,10|8,0:0|0:0,0:0:0:0:
195,262,14552,6,0,L|188:120,1,140,12|2,0:0|0:0,0:0:0:0:
255,93,15006,1,2,0:0:0:0:
328,63,15158,2,0,L|235:49,1,70,2|2,0:0|0:0,0:0:0:0:
185,46,15461,1,2,0:0:0:0:
437,252,15764,6,0,L|473:323,2,70,14|2|2,0:0|0:0|0:0,0:0:0:0:
288,241,16370,2,0,L|137:290,1,140,2|2,0:0|0:0,0:0:0:0:
226,335,16825,1,2,0:0:0:0:
376,338,16976,6,0,P|393:283|331:234,1,140,8|2,0:0|0:0,0:0:0:0:
266,225,17431,1,2,0:0:0:0:
338,217,17582,1,2,0:0:0:0:
373,133,17734,1,2,0:0:0:0:
338,217,17885,1,2,0:0:0:0:
266,225,18037,1,2,0:0:0:0:
183,280,18188,6,0,L|334:319,1,140,4|0,1:0|0:0,0:0:0:0:
250,351,18643,1,0,0:0:0:0:
175,360,18794,1,0,0:0:0:0:
321,363,19097,1,0,0:0:0:0:
61,242,19400,5,14,0:0:0:0:
61,242,19703,1,10,0:0:0:0:
61,242,20006,1,10,0:0:0:0:
113,197,20158,1,10,0:0:0:0:
189,182,20309,1,10,0:0:0:0:
462,269,20612,6,0,P|465:208|217:317,1,560,14|4,0:0|0:1,0:0:0:0:
448,342,22885,1,2,0:0:0:0:
377,337,23037,1,2,0:0:0:0:
306,354,23188,6,0,P|290:309|403:212,1,210,2|2,0:2|0:0,0:0:0:0:
406,110,24097,1,2,0:0:0:0:
332,78,24249,6,0,L|175:98,1,140,10|10,0:0|0:0,0:0:0:0:
267,153,24703,2,0,L|425:169,1,140,10|10,0:0|0:0,0:0:0:0:
442,219,25158,1,10,0:0:0:0:
406,167,25309,1,10,0:0:0:0:
45,278,25764,6,0,P|46:213|227:317,1,420,12|4,0:0|0:1,0:0:0:0:
17,327,27885,1,10,0:0:0:0:
90,278,28037,6,0,L|260:245,1,140,12|2,0:3|0:0,0:0:0:0:
301,207,28491,2,0,L|208:193,1,70,2|2,0:0|0:0,0:0:0:0:
150,162,28794,2,0,L|231:129,1,70,2|2,0:0|0:0,0:0:0:0:
293,120,29097,5,6,0:0:0:0:
293,120,29400,1,2,0:0:0:0:
293,120,29703,1,2,0:0:0:0:
219,103,29855,1,8,0:0:0:0:
184,59,30006,1,8,0:1:0:0:
219,103,30158,1,8,0:1:0:0:
370,164,30309,5,8,0:0:0:0:
439,162,30461,2,0,L|452:304,1,140,8|8,0:0|0:0,0:0:0:0:
375,324,30915,2,0,L|228:338,1,140,8|8,0:0|0:0,0:0:0:0:
76,340,31370,6,0,P|63:300|141:250,1,140,8|8,0:0|0:0,0:0:0:0:
204,235,31825,2,0,L|364:203,1,140,8|8,0:0|0:1,0:0:0:0:
412,206,32279,1,8,0:1:0:0:
339,208,32431,1,8,0:1:0:0:
86,133,32734,5,8,0:0:0:0:
26,98,32885,2,0,L|163:55,1,140,8|8,0:0|0:0,0:0:0:0:
233,58,33340,2,0,L|245:212,1,140,8|8,0:0|0:0,0:0:0:0:
94,240,33794,6,0,P|42:248|37:335,1,140,8|8,0:0|0:0,0:0:0:0:
103,351,34249,2,0,L|257:318,1,140,8|10,0:0|0:0,0:0:0:0:
279,271,34703,5,8,0:1:0:0:
239,322,34855,1,8,0:3:0:0:
167,329,35006,1,4,0:3:0:0:
311,364,35158,6,0,L|452:302,1,140,12|8,0:0|0:0,0:0:0:0:
474,263,35612,1,8,0:1:0:0:
437,309,35764,1,8,0:0:0:0:
294,331,36067,1,8,0:0:0:0:
437,309,36370,6,0,L|442:207,1,70,8|8,0:0|0:0,0:0:0:0:
365,196,36673,2,0,L|277:192,1,70,8|8,0:0|1:1,0:0:0:0:
261,181,36900,1,8,0:0:0:0:
184,120,37052,2,0,L|246:102,1,35,8|4,0:0|0:3,0:0:0:0:
290,94,37279,1,8,0:0:0:0:
32,38,37582,6,0,L|27:147,1,105,10|10,0:1|0:1,0:0:0:0:
116,175,38037,1,10,0:1:0:0:
194,216,38188,2,0,L|98:241,1,70,8|8,0:0|0:0,0:0:0:0:
52,280,38491,2,0,L|130:296,1,70,8|8,0:0|0:0,0:0:0:0:
277,322,38794,5,14,0:0:0:0:
121,360,39400,2,0,L|74:292,2,70,8|8|8,0:0|0:0|0:0,0:0:0:0:
389,268,40006,6,0,L|250:232,2,140,14|10|10,0:0|0:0|0:0,0:0:0:0:
457,277,40764,1,8,0:0:0:0:
388,268,40915,1,10,0:0:0:0:
128,144,41219,6,0,L|283:93,2,140,10|10|10,0:0|0:0|0:0,0:0:0:0:
61,175,41976,1,8,0:1:0:0:
124,195,42128,2,0,L|217:226,1,70,8|8,0:0|0:1,0:0:0:0:
344,269,42431,6,0,L|416:246,1,70,10|10,0:0|0:0,0:0:0:0:
344,269,42734,2,0,L|208:214,2,140,10|10|10,0:0|0:0|0:0,0:0:0:0:
199,350,43643,6,0,L|54:302,1,140,10|10,0:0|0:0,0:0:0:0:
138,269,44097,1,10,0:0:0:0:
211,256,44249,1,10,0:0:0:0:
459,288,44552,1,14,0:0:0:0:
211,256,44855,6,0,L|204:100,1,140,12|10,0:0|0:0,0:0:0:0:
274,95,45309,1,10,0:0:0:0:
343,84,45461,6,0,L|493:124,2,140,10|10|10,0:0|0:0|0:0,0:0:0:0:
200,137,46370,1,10,0:0:0:0:
354,211,46673,6,0,L|441:225,1,70,10|10,0:0|0:0,0:0:0:0:
282,322,46976,1,8,0:1:0:0:
248,332,47051,1,8,0:1:0:0:
215,342,47127,1,8,0:1:0:0:
41,214,47582,6,0,L|203:180,2,140,14|14|14,0:0|0:0|0:0,0:0:0:0:
299,269,48491,6,0,L|308:191,1,70,10|10,0:0|0:0,0:0:0:0:
234,156,48794,2,0,L|122:129,2,105,10|10|10,0:0|0:0|0:0,0:0:0:0:
306,88,49400,2,0,L|225:68,1,70,8|8,0:1|0:1,0:0:0:0:
83,80,49703,6,0,P|70:123|146:184,1,140,14|10,0:2|0:1,0:0:0:0:
194,202,50158,1,2,0:1:0:0:
265,206,50309,1,10,0:1:0:0:
118,351,50612,6,0,L|103:202,1,140,10|10,0:1|0:1,0:0:0:0:
246,166,51219,1,10,0:1:0:0:
392,119,51522,2,0,L|222:100,1,140,10|10,0:1|0:1,0:0:0:0:
180,103,51976,1,2,0:1:0:0:
177,74,52279,1,10,0:0:0:0:
331,200,52431,6,0,L|484:244,2,140,10|10|10,0:1|0:1|0:1,0:0:0:0:
77,288,53340,2,0,L|65:203,1,70,10|2,0:1|0:0,0:0:0:0:
141,161,53794,1,10,0:0:0:0:
290,126,53946,6,0,L|412:95,2,105,14|10|10,0:0|0:0|0:1,0:0:0:0:
133,49,54552,6,0,P|87:50|67:198,1,210,14|10,0:0|0:0,0:0:0:0:
119,216,55158,1,10,0:1:0:0:
373,346,55461,6,0,P|352:295|191:232,1,210,14|2,0:0|0:1,0:0:0:0:
144,217,56067,2,0,L|294:184,1,140,10|8,0:0|0:1,0:0:0:0:
419,182,56673,1,10,0:0:0:0:
149,297,56976,6,0,L|135:144,1,140,10|10,0:1|0:0,0:0:0:0:
208,118,57431,1,10,0:0:0:0:
132,110,57582,2,0,L|46:95,1,70,10|10,0:0|0:1,0:0:0:0:
132,110,57885,2,0,L|225:85,1,70,10|10,0:1|0:1,0:0:0:0:
354,133,58188,6,0,L|494:205,2,140,10|10|10,0:1|0:2|0:2,0:0:0:0:
219,249,59097,2,0,L|146:277,1,70,10|10,0:1|0:1,0:0:0:0:
308,345,59400,6,0,L|462:308,1,140,14|10,0:0|0:1,0:0:0:0:
295,250,60006,2,0,L|246:185,2,70,10|2|10,0:1|0:1|0:1,0:0:0:0:
372,271,60461,6,0,L|212:311,1,140,10|10,0:1|0:1,0:0:0:0:
166,315,60915,1,10,0:0:0:0:
236,304,61067,2,0,L|380:337,2,140,10|10|10,0:1|0:1|0:1,0:0:0:0:
83,318,61825,6,0,L|69:173,1,140,14|10,0:1|0:1,0:0:0:0:
136,149,62279,1,2,0:1:0:0:
207,138,62431,1,10,0:1:0:0:
65,84,62734,1,10,0:1:0:0:
206,37,63037,6,0,L|220:193,1,140,10|10,0:1|0:1,0:0:0:0:
367,250,63643,2,0,L|234:304,1,140,10|10,0:1|0:1,0:0:0:0:
170,323,64097,1,10,0:1:0:0:
99,314,64249,1,6,0:1:0:0:
369,361,64552,6,0,L|383:209,1,140,14|10,0:0|0:0,0:0:0:0:
319,186,65006,1,2,0:0:0:0:
248,173,65158,1,10,0:0:0:0:
382,150,65461,5,10,0:0:0:0:
449,59,65764,1,10,0:0:0:0:
382,150,66067,1,10,0:0:0:0:
248,173,66370,2,0,L|159:156,1,70,10|2,0:0|0:0,0:0:0:0:
327,280,66673,6,0,L|475:315,1,140,10|10,0:0|0:0,0:0:0:0:
397,344,67128,1,2,0:0:0:0:
327,354,67279,1,10,0:0:0:0:
466,371,67582,2,0,L|470:294,1,70,10|10,0:0|0:0,0:0:0:0:
319,255,67885,6,0,L|177:208,1,140,10|10,0:1|0:1,0:0:0:0:
258,173,68340,2,0,L|399:147,1,140,10|10,0:1|0:1,0:0:0:0:
324,118,68794,1,10,0:0:0:0:
64,288,69097,6,0,P|51:237|132:171,1,140,14|10,0:0|0:1,0:0:0:0:
165,154,69552,1,2,0:1:0:0:
235,148,69703,1,10,0:0:0:0:
93,75,70006,6,0,L|260:58,1,140,10|10,0:1|0:1,0:0:0:0:
271,124,70461,1,2,0:1:0:0:
232,60,70612,1,8,0:0:0:0:
77,195,70915,6,0,L|195:266,2,105,10|10|10,0:1|0:1|0:1,0:0:0:0:
67,318,71673,1,8,0:0:0:0:
137,340,71825,1,10,0:1:0:0:
291,356,71976,2,0,L|296:274,1,70,2|8,0:1|0:0,0:0:0:0:
139,207,72431,6,0,L|288:168,1,140,10|10,0:1|0:1,0:0:0:0:
274,143,72885,1,2,0:1:0:0:
189,123,73037,1,10,0:0:0:0:
333,89,73340,1,10,0:1:0:0:
183,59,73643,1,10,0:1:0:0:
450,328,73946,6,0,L|459:208,1,105,10|10,0:1|0:1,0:0:0:0:
347,198,74400,2,0,L|332:88,1,105,10|10,0:1|0:1,0:0:0:0:
217,69,74855,2,0,L|310:44,1,70,10|8,0:1|0:0,0:0:0:0:
363,41,75158,1,8,0:0:0:0:
159,188,75385,6,0,L|45:207,1,105,8|10,0:0|0:0,0:0:0:0:
170,304,75840,2,0,L|288:311,1,105,8|10,0:0|0:1,0:0:0:0:
204,353,76218,1,8,0:0:0:0:
54,366,76370,6,0,L|48:219,1,140,14|10,0:1|0:2,0:0:0:0:
148,205,76875,1,10,0:1:0:0:
269,195,77128,1,10,0:1:0:0:
151,111,77380,1,10,0:1:0:0:
349,82,77582,6,0,L|422:89,2,70,10|8|10,0:1|0:3|0:1,0:0:0:0:
207,101,78188,2,0,L|165:189,2,70,10|8|6,0:1|0:3|0:3,0:0:0:0:
474,69,78794,6,0,P|491:129|357:188,1,210,12|12,0:0|0:0,0:0:0:0:
104,316,80006,6,0,L|93:236,1,70,8|8,0:1|0:1,0:0:0:0:
159,198,80309,2,0,L|245:179,1,70,10|10,0:1|0:0,0:0:0:0:
305,179,80612,2,0,L|344:109,2,70,10|10|10,0:1|0:1|0:0,0:0:0:0:
48,64,81218,6,0,L|133:48,1,70,12|12,0:0|0:0,0:0:0:0:
373,75,81673,1,12,0:0:0:0:
465,207,82431,6,0,L|359:239,2,105,10|2|10,0:0|1:2|0:1,0:0:0:0:
428,147,83036,1,10,0:0:0:0:
370,110,83188,1,2,1:2:0:0:
301,103,83339,1,10,0:0:0:0:
47,99,83643,6,0,L|55:227,1,105,12|12,0:0|0:0,0:0:0:0:
257,286,84097,1,12,0:0:0:0:
448,335,84855,6,0,L|455:243,1,70,10|10,0:0|0:0,0:0:0:0:
370,255,85158,2,0,L|360:176,1,70,10|10,0:1|0:0,0:0:0:0:
277,153,85461,2,0,L|353:126,1,70,10|10,0:0|0:1,0:0:0:0:
417,78,85764,2,0,L|328:53,1,70,10|2,0:1|0:1,0:0:0:0:
193,71,86067,6,0,P|173:120|304:177,1,210,12|12,0:0|0:0,0:0:0:0:
54,306,87279,6,0,L|43:171,1,105,10|10,0:0|0:0,0:0:0:0:
136,164,87734,1,10,0:0:0:0:
289,148,87885,2,0,L|442:183,1,140,10|10,0:0|0:0,0:0:0:0:
160,331,88491,5,14,0:0:0:0:
160,331,88794,1,10,0:0:0:0:
160,331,89097,1,10,0:0:0:0:
160,331,89400,1,10,0:0:0:0:
419,333,89703,5,14,0:0:0:0:
419,333,90006,1,10,0:0:0:0:
419,333,90309,1,10,0:0:0:0:
336,338,90461,2,0,L|493:286,1,140,10|10,0:0|0:0,0:0:0:0:
314,225,90915,6,0,L|162:192,1,140,14|10,0:0|0:0,0:0:0:0:
177,195,91522,1,10,0:0:0:0:
177,195,91825,1,10,0:0:0:0:
439,185,92128,5,14,0:0:0:0:
439,185,92431,1,10,0:0:0:0:
439,185,92734,2,0,L|369:137,1,70,10|8,0:0|0:0,0:0:0:0:
309,130,93037,1,10,0:0:0:0:
47,37,93340,5,14,0:0:0:0:
113,41,93491,1,10,0:0:0:0:
146,100,93643,1,10,0:0:0:0:
115,159,93794,1,10,0:0:0:0:
48,165,93946,1,10,0:0:0:0:
43,286,94249,2,0,L|112:297,1,70,8|8,0:0|0:0,0:0:0:0:
262,348,94552,5,14,0:0:0:0:
297,304,94703,1,10,0:0:0:0:
261,279,94855,1,10,0:0:0:0:
192,226,95006,1,10,0:0:0:0:
260,219,95158,1,10,0:0:0:0:
400,141,95461,2,0,L|331:130,1,70,10|8,0:0|0:0,0:0:0:0:
179,99,95764,5,14,0:0:0:0:
71,57,96067,2,0,L|150:38,1,70,10|8,0:0|0:0,0:0:0:0:
220,59,96370,6,0,L|243:17,2,35,10|8|8,0:0|0:0|0:0,0:0:0:0:
137,117,96673,2,0,L|95:125,2,35,10|8|8,0:0|0:0|0:0,0:0:0:0:
293,186,96976,5,14,0:0:0:0:
421,268,97279,2,0,L|352:295,1,70,10|10,0:1|0:0,0:0:0:0:
284,300,97582,1,10,0:3:0:0:
426,374,97885,1,10,0:1:0:0:
159,364,98188,6,0,L|150:205,1,140,14|0,0:0|0:0,0:0:0:0:
421,223,98794,5,14,0:1:0:0:
354,210,98945,1,2,0:1:0:0:
323,150,99097,1,2,0:1:0:0:
350,89,99248,1,2,0:1:0:0:
416,72,99400,1,2,0:1:0:0:
343,55,99552,1,2,0:1:0:0:
265,98,99703,2,0,L|336:137,1,70,2|2,0:1|0:1,0:0:0:0:
399,171,100006,5,10,0:0:0:0:
266,243,100309,1,10,0:0:0:0:
131,265,100612,1,10,0:0:0:0:
279,329,100915,5,10,0:0:0:0:
345,321,101066,1,10,0:0:0:0:
377,261,101218,1,10,0:0:0:0:
345,202,101369,1,10,0:0:0:0:
278,195,101521,1,14,0:0:0:0:
19,81,101825,6,0,L|161:56,1,140,8|8,0:0|0:0,0:0:0:0:
308,159,102431,1,8,0:0:0:0:
160,215,102734,2,0,L|75:231,1,70,10|10,0:1|0:1,0:0:0:0:
248,330,103037,5,12,0:0:0:0:
267,85,107885,6,0,P|337:95|392:218,2,210,4|2|2,0:3|0:0|0:0,0:0:0:0:
194,98,108946,1,2,0:0:0:0:
352,244,109249,1,2,0:0:0:0:
201,299,109703,2,0,L|49:316,1,140,2|2,0:0|0:0,0:0:0:0:
317,362,110309,6,0,P|331:309|257:255,1,140,2|2,0:0|0:0,0:0:0:0:
203,251,110764,1,2,0:0:0:0:
343,177,111067,2,0,L|483:137,1,140,2|2,0:0|0:0,0:0:0:0:
324,85,111522,6,0,L|174:51,2,140,10|10|10,0:0|0:0|0:0,0:0:0:0:
472,91,112431,1,10,0:0:0:0:
207,285,112734,6,0,P|190:226|268:178,1,140,14|2,0:0|0:0,0:0:0:0:
313,168,113188,2,0,L|165:142,1,140,2|2,0:0|0:0,0:0:0:0:
99,156,113643,1,2,0:0:0:0:
358,335,113946,5,4,1:3:0:0:
219,349,114249,1,2,0:0:0:0:
212,279,114400,1,10,0:0:0:0:
206,209,114552,1,8,0:0:0:0:
351,186,114855,1,8,0:0:0:0:
89,259,115158,6,0,L|70:103,1,140,4|0,1:0|0:0,0:0:0:0:
143,93,115612,1,0,0:0:0:0:
218,82,115764,2,0,L|59:66,1,140,8|8,0:0|0:0,0:0:0:0:
342,80,116370,6,0,L|356:232,1,140,14|2,0:0|0:0,0:0:0:0:
281,249,116825,1,2,0:0:0:0:
357,269,116976,1,2,0:0:0:0:
394,194,117128,1,2,0:0:0:0:
357,269,117279,1,2,0:0:0:0:
287,291,117431,1,2,0:0:0:0:
133,345,117582,6,0,L|120:194,1,140,12|2,0:0|0:0,0:0:0:0:
262,171,118188,2,0,L|178:133,1,70,2|0,0:0|0:0,0:0:0:0:
123,129,118491,1,2,0:0:0:0:
383,82,118794,6,0,L|397:253,1,140,10|2,0:0|0:0,0:0:0:0:
250,276,119400,1,2,0:0:0:0:
395,326,119703,1,2,0:0:0:0:
146,366,120006,5,10,0:0:0:0:
79,357,120157,1,2,0:0:0:0:
47,297,120309,1,2,0:0:0:0:
78,237,120460,1,2,0:0:0:0:
144,228,120612,1,2,0:0:0:0:
293,236,120915,1,2,0:0:0:0:
32,111,121218,6,0,L|30:23,1,70,14|8,0:0|0:0,0:0:0:0:
192,55,121673,1,2,0:0:0:0:
266,112,121825,1,2,0:1:0:0:
208,152,121976,1,2,0:1:0:0:
151,192,122128,1,2,0:1:0:0:
94,232,122279,1,2,0:1:0:0:
250,310,122431,5,14,0:0:0:0:
414,330,123037,2,0,L|456:259,2,70,8|8|8,0:1|0:1|0:0,0:0:0:0:
140,345,123643,5,14,0:0:0:0:
206,336,123794,1,8,0:0:0:0:
238,276,123946,1,8,0:0:0:0:
207,216,124097,1,8,0:0:0:0:
141,207,124249,6,0,L|43:218,1,70,8|8,0:0|0:0,0:0:0:0:
141,207,124552,2,0,L|215:204,1,70,8|8,0:0|0:0,0:0:0:0:
292,189,124855,6,0,L|312:153,2,35,8|8|8,0:0|0:0|0:0,0:0:0:0:
212,203,125158,2,0,L|170:207,2,35,8|8|8,0:0|0:0|0:0,0:0:0:0:
367,258,125461,6,0,L|494:337,1,140,12|10,0:0|0:1,0:0:0:0:
219,354,126067,6,0,P|205:313|272:246,1,140,14|10,0:2|0:1,0:0:0:0:
337,230,126522,2,0,L|185:212,1,140,2|2,0:1|0:1,0:0:0:0:
128,227,126976,1,10,0:1:0:0:
198,212,127128,1,8,0:1:0:0:
345,138,127279,6,0,L|499:102,1,140,10|10,0:1|0:1,0:0:0:0:
410,77,127734,2,0,L|265:100,1,140,10|10,0:1|0:1,0:0:0:0:
195,115,128188,1,10,0:1:0:0:
450,284,128491,5,10,0:1:0:0:
487,214,128643,1,10,0:1:0:0:
450,284,128794,1,10,0:1:0:0:
378,305,128946,1,10,0:1:0:0:
304,308,129097,6,0,L|279:264,2,35,10|10|10,0:0|0:0|0:0,0:0:0:0:
384,314,129400,2,0,L|434:318,2,35,10|10|10,0:0|0:0|0:0,0:0:0:0:
232,365,129703,6,0,L|140:357,1,70,14|8,0:0|0:0,0:0:0:0:
256,192,130158,12,0,130612,0:0:0:0:
190,107,130915,6,0,L|339:81,1,140,14|2,0:0|0:1,0:0:0:0:
60,257,131522,6,0,L|39:211,2,35,14|8|8,0:0|0:0|0:0,0:0:0:0:
99,278,131749,2,0,L|228:282,2,105,10|10|10,0:1|0:1|0:1,0:0:0:0:
215,337,132431,2,0,L|301:335,1,70,10|0,0:1|0:0,0:0:0:0:
134,184,132734,6,0,P|86:178|73:94,1,140,14|0,0:0|1:0,0:0:0:0:
340,46,133340,6,0,L|184:85,1,140,14|2,0:0|0:0,0:0:0:0:
461,106,133946,6,0,L|470:231,1,105,14|10,0:0|0:1,0:0:0:0:
355,275,134400,2,0,L|480:311,1,105,10|10,0:1|0:1,0:0:0:0:
341,358,134855,5,14,0:0:0:0:
90,365,135158,2,0,L|80:217,1,140,10|10,0:1|0:0,0:0:0:0:
151,208,135612,1,10,0:0:0:0:
309,208,135764,5,14,0:0:0:0:
437,178,136370,2,0,L|474:112,2,70,10|10|2,0:1|0:1|1:0,0:0:0:0:
359,185,136825,6,0,L|214:153,1,140,0|0,1:0|1:0,1:0:0:0:
146,157,137279,1,2,1:0:0:0:
405,318,137582,2,0,L|422:168,1,140,10|0,0:1|1:0,0:0:0:0:
162,290,138188,6,0,L|310:232,1,140,14|2,0:0|0:0,0:0:0:0:
59,218,138794,2,0,L|25:151,2,70,10|8|8,0:1|0:0|0:0,0:0:0:0:
194,218,139400,6,0,L|269:202,1,70,10|10,0:0|0:1,0:0:0:0:
120,144,139703,2,0,L|43:122,2,70,10|10|10,0:1|0:1|0:1,0:0:0:0:
193,151,140158,1,10,0:1:0:0:
119,177,140309,1,6,0:1:0:0:
375,308,140612,6,0,P|383:266|261:185,1,210,14|12,0:0|0:0,0:0:0:0:
473,50,141825,5,10,0:0:0:0:
406,57,141976,1,10,0:1:0:0:
375,117,142128,1,10,0:1:0:0:
409,175,142279,1,10,0:0:0:0:
476,179,142431,1,10,0:0:0:0:
408,216,142582,1,10,0:1:0:0:
339,237,142734,1,10,0:0:0:0:
267,251,142885,1,10,0:1:0:0:
412,330,143037,6,0,L|493:347,1,70,12|12,0:0|0:0,0:0:0:0:
224,368,143491,1,12,0:0:0:0:
48,251,144249,6,0,L|179:224,2,105,10|10|2,0:0|0:0|0:1,0:0:0:0:
117,288,144855,2,0,L|190:295,1,70,10|10,0:0|0:0,0:0:0:0:
109,337,145158,2,0,L|29:356,1,70,10|10,0:1|0:1,0:0:0:0:
194,357,145461,6,0,L|310:337,1,105,12|12,0:0|0:0,0:0:0:0:
92,246,145915,1,12,0:0:0:0:
128,47,146673,5,10,0:0:0:0:
195,54,146824,1,10,0:1:0:0:
226,114,146976,1,10,0:1:0:0:
192,172,147127,1,10,0:0:0:0:
120,177,147279,2,0,L|36:179,2,70,10|10|10,0:0|0:1|0:1,0:0:0:0:
382,308,147885,6,0,L|462:308,2,70,8|8|8,0:0|0:0|0:0,0:0:0:0:
234,345,148340,1,12,0:0:0:0:
277,243,149097,6,0,L|390:233,2,105,10|10|10,0:1|0:1|0:1,0:0:0:0:
198,200,149703,2,0,L|266:175,1,70,10|10,0:1|0:1,0:0:0:0:
349,137,150006,2,0,L|273:124,1,70,10|10,0:1|0:1,0:0:0:0:
123,136,150309,6,0,L|114:50,1,70,14|2,0:0|0:1,0:0:0:0:
