osu file format v14

[General]
AudioFilename: audio.mp3
AudioLeadIn: 0
PreviewTime: 130832
Countdown: 0
SampleSet: Soft
StackLeniency: 0.7
Mode: 2
LetterboxInBreaks: 0
WidescreenStoryboard: 1

[Editor]
Bookmarks: 10907,20604,30301,39998,49695,59392,69089,78786,88483,98180,103029,103180,103256,103332,103407,103483,103559,103635,103710,103786,103862,103938,104014,104089,104165,104241,104317,104392,104468,104544,104620,104695,104771,104847,104923,104998,105074,105150,105226,105301,105377,105453,105529,105604,105680,105756,105832,105907,105983,106059,106135,106210,106362,106438,106514,106589,106665,106741,106817,106892,106968,107120,107195,107271,107347,107423,107498,107650,107726,107801,107877,112726,121210,130907,140604,150453
DistanceSpacing: 1.6
BeatDivisor: 4
GridSize: 32
TimelineZoom: 2.899999

[Metadata]
Title:Schadenfreude
TitleUnicode:Schadenfreude
Artist:ZxNX
ArtistUnicode:ZxNX
Creator:Jemzuu
Version:Humiliation
Source:BOFXVII
Tags:axs vii 7 gf nm1 grandfinals ajamez -rustyy sinnoh -momox nosuri THE BMS OF FIGHTERS XVII -VISION THE RETRO FUTURE- gothic hardcore instrumental electronic techno dubstep orchestral breakcore electro shiku Accuracy Score No Mod REGULICIA grand finals
BeatmapID:3471455
BeatmapSetID:1698949

[Difficulty]
HPDrainRate:5
CircleSize:4.2
OverallDifficulty:9.9
ApproachRate:9.9
SliderMultiplier:2.24
SliderTickRate:2

[Events]
//Background and Video events
0,0,"cassi-josh-lhnOvu72BM8-unsplash (1).jpg",0,0
//Break Periods
2,103237,107420
//Storyboard Layer 0 (Background)
//Storyboard Layer 1 (Fail)
//Storyboard Layer 2 (Pass)
//Storyboard Layer 3 (Foreground)
//Storyboard Layer 4 (Overlay)
//Storyboard Sound Samples

[TimingPoints]
1219,303.030303030303,4,2,1,60,1,0
9703,-36.3636363636364,4,2,1,60,0,0
10006,-36.3636363636364,4,2,40,60,0,0
10082,-36.3636363636364,4,2,1,60,0,0
10309,-36.3636363636364,4,2,40,60,0,0
10385,-36.3636363636364,4,2,1,60,0,0
10612,-36.3636363636364,4,2,40,60,0,0
10688,-36.3636363636364,4,2,1,60,0,0
10764,-100,4,2,1,60,0,0
20612,-37.7358490566038,4,2,1,70,0,0
21825,-100,4,2,1,70,0,0
25764,-37.037037037037,4,2,1,70,0,0
26976,-100,4,2,1,70,0,0
30461,-40,4,2,1,70,0,0
30612,-100,4,2,1,70,0,0
30915,-40,4,2,1,70,0,0
30991,-100,4,2,1,70,0,0
31370,-40,4,2,1,70,0,0
31446,-100,4,2,1,70,0,0
31825,-40,4,2,1,70,0,0
31901,-100,4,2,1,70,0,0
32885,-40,4,2,1,70,0,0
32961,-100,4,2,1,70,0,0
33340,-40,4,2,1,70,0,0
33416,-100,4,2,1,70,0,0
33794,-40,4,2,1,70,0,0
33870,-100,4,2,1,70,0,0
34249,-40,4,2,1,70,0,0
34325,-100,4,2,1,70,0,0
35006,-100,4,2,2,70,0,0
35158,-83.3333333333333,4,2,1,70,0,0
35385,-100,4,2,1,70,0,0
37128,-100,4,2,2,70,0,0
37279,-100,4,2,1,70,0,0
37582,-40,4,2,1,70,0,0
37961,-83.3333333333333,4,2,1,70,0,0
40006,-83.3333333333333,4,2,1,80,0,0
40915,-40,4,2,1,80,0,0
41825,-83.3333333333333,4,2,1,80,0,0
43340,-43.4782608695652,4,2,1,80,0,0
43946,-83.3333333333333,4,2,1,80,0,0
44552,-33.3333333333333,4,2,1,80,0,0
44855,-83.3333333333333,4,2,1,80,0,0
45461,-40,4,2,1,80,0,0
46673,-83.3333333333333,4,2,1,80,0,0
47203,-16,4,2,1,80,0,0
47582,-83.3333333333333,4,2,1,80,0,0
48188,-40,4,2,1,80,0,0
48491,-83.3333333333333,4,2,1,80,0,0
50612,-43.4782608695652,4,2,1,80,0,0
51825,-83.3333333333333,4,2,1,80,0,0
52431,-40,4,2,1,80,0,0
53340,-83.3333333333333,4,2,1,80,0,0
54173,-40,4,2,1,80,0,0
54325,-83.3333333333333,4,2,1,80,0,0
58188,-100,4,2,1,80,0,0
59400,-89.2857142857143,4,2,1,80,0,1
62431,-40.8163265306122,4,2,1,80,0,1
62582,-89.2857142857143,4,2,1,80,0,1
64097,-100,4,2,1,80,0,0
64552,-89.2857142857143,4,2,1,80,0,1
68794,-100,4,2,1,80,0,0
69097,-89.2857142857143,4,2,1,80,0,1
70006,-40.8163265306122,4,2,1,80,0,1
70158,-89.2857142857143,4,2,1,80,0,1
70915,-40.8163265306122,4,2,1,80,0,1
71067,-89.2857142857143,4,2,1,80,0,1
72431,-40.8163265306122,4,2,1,80,0,1
72582,-89.2857142857143,4,2,1,80,0,1
73643,-40.4858299595142,4,2,1,80,0,1
73794,-89.2857142857143,4,2,1,80,0,1
76067,-40,4,2,1,80,0,1
76218,-89.2857142857143,4,2,1,80,0,1
76370,-100,4,2,1,90,0,0
76875,-38.9105058365759,4,2,1,90,0,0
77582,-100,4,2,1,90,0,0
78491,-100,4,2,2,90,0,0
78794,-36.3636363636364,4,2,1,80,0,0
80006,-89.2857142857143,4,2,1,80,0,0
83643,-40.8163265306122,4,2,1,80,0,0
83870,-40,4,2,1,80,0,0
84552,-89.2857142857143,4,2,1,80,0,0
86067,-36.3636363636364,4,2,1,80,0,0
86522,-89.2857142857143,4,2,1,80,0,0
88491,-89.2857142857143,4,2,1,70,0,0
98188,-25,4,2,1,80,0,1
98264,-100,4,2,1,80,0,0
98491,-100,4,2,99,80,0,0
98567,-100,4,2,1,80,0,0
98794,-100,4,2,1,80,0,1
101522,-100,4,2,1,80,0,0
101825,-86.9565217391304,4,2,1,80,0,0
107885,-95.2380952380952,4,2,1,70,0,0
121218,-95.2380952380952,4,2,1,80,0,0
126067,-83.3333333333333,4,2,1,90,0,1
126522,-40,4,2,1,90,0,1
126597,-83.3333333333333,4,2,1,90,0,1
127734,-40,4,2,1,90,0,1
127809,-83.3333333333333,4,2,1,90,0,1
128188,-40,4,2,1,90,0,1
128340,-83.3333333333333,4,2,1,90,0,1
129855,-100,4,2,1,80,0,0
129931,-33.3333333333333,4,2,1,80,0,0
130915,-83.3333333333333,4,2,1,80,0,1
130991,-100,4,2,1,80,0,0
131522,-100,4,2,1,80,0,1
131749,-40,4,2,1,80,0,1
132431,-83.3333333333333,4,2,1,80,0,0
132734,-33.3333333333333,4,2,1,80,0,0
133037,-33.3333333333333,4,2,99,80,0,0
133112,-33.3333333333333,4,2,1,80,0,0
133340,-83.3333333333333,4,2,1,90,0,1
133415,-83.3333333333333,4,2,1,80,0,0
133946,-83.3333333333333,4,2,1,90,0,1
135158,-100,4,2,1,90,0,1
135461,-100,4,2,1,80,0,0
135764,-100,4,2,1,90,0,1
135840,-100,4,2,1,80,0,0
137582,-32.258064516129,4,2,1,80,0,0
137885,-32.258064516129,4,2,99,80,0,0
137961,-32.258064516129,4,2,1,80,0,0
138188,-100,4,2,1,90,0,1
138264,-100,4,2,1,80,0,0
138794,-85.4700854700855,4,2,1,80,0,0
140309,-40,4,2,1,80,0,0
140612,-36.3636363636364,4,2,1,80,0,0
141824,-89.2857142857143,4,2,1,80,0,0
145461,-40.8163265306122,4,2,1,80,0,0
145688,-40,4,2,1,80,0,0
146370,-89.2857142857143,4,2,1,80,0,0
148340,-89.2857142857143,4,2,1,80,0,0

[Colours]
Combo1 : 5,126,192
Combo2 : 233,75,166
Combo3 : 255,47,47

[HitObjects]
254,294,612,5,2,0:0:0:0:
308,217,764,1,2,0:0:0:0:
210,166,915,1,2,0:0:0:0:
337,120,1067,1,2,0:0:0:0:
66,291,1219,6,0,L|55:63,1,224,6|2,0:3|0:0,0:0:0:0:
197,39,1673,2,2,L|229:93,2,56
140,162,1976,1,2,0:0:0:0:
203,285,2128,1,2,0:0:0:0:
343,331,2279,2,2,L|277:334,1,56
61,360,2431,6,2,L|47:225,1,112,2|2,0:2|0:0,0:0:0:0:
185,206,2734,1,2,0:0:0:0:
46,226,2885,1,2,0:0:0:0:
291,146,3037,2,2,L|72:72,2,224
42,33,3794,5,4,0:1:0:0:
173,47,3946,1,2,0:0:0:0:
228,172,4097,1,2,0:0:0:0:
173,47,4249,1,2,0:0:0:0:
42,33,4400,1,2,0:0:0:0:
181,36,4552,1,2,0:0:0:0:
41,49,4703,2,2,L|97:49,1,56
297,97,4855,5,2,0:2:0:0:
172,166,5006,1,2,0:0:0:0:
123,271,5158,1,2,0:0:0:0:
172,166,5309,1,2,0:0:0:0:
297,97,5461,1,2,0:0:0:0:
160,145,5612,1,2,0:0:0:0:
303,114,5764,2,2,L|383:100,1,56
179,43,5915,2,2,L|94:37,1,56
339,193,6067,5,4,1:1:0:0:
461,215,6219,1,2,0:0:0:0:
334,217,6370,1,2,0:0:0:0:
330,237,6522,1,2,0:0:0:0:
190,293,6673,1,2,0:0:0:0:
325,267,6825,1,2,0:0:0:0:
183,272,6976,1,2,0:0:0:0:
321,290,7128,2,2,L|239:308,1,56
59,356,7279,5,2,0:0:0:0:
183,360,7431,1,2,0:0:0:0:
188,339,7582,1,2,0:0:0:0:
332,318,7734,1,2,0:0:0:0:
324,298,7885,1,2,0:0:0:0:
194,313,8037,1,2,0:0:0:0:
137,304,8188,1,2,0:0:0:0:
194,313,8340,1,2,0:0:0:0:
458,320,8491,5,4,0:1:0:0:
451,293,8643,1,2,0:0:0:0:
314,273,8794,1,2,0:0:0:0:
320,245,8946,1,2,0:0:0:0:
175,237,9097,1,2,0:0:0:0:
165,213,9249,1,2,0:0:0:0:
308,203,9400,1,2,0:0:0:0:
318,177,9552,1,2,0:0:0:0:
54,234,9703,6,0,B|38:78|38:78|54:229|54:229|303:46|303:46|237:191|237:191|190:50|190:50|490:120|490:120|491:280|491:280|491:136|491:136|183:137|183:137|118:279|118:279|188:128,1,2156.00002056122,6|0,1:3|0:0,0:0:0:0:
459,64,10915,5,12,0:0:0:0:
320,80,11067,1,2,0:0:0:0:
320,80,11219,1,2,0:0:0:0:
320,80,11370,1,2,0:0:0:0:
181,136,11522,1,2,0:0:0:0:
302,182,11673,1,2,0:0:0:0:
166,231,11825,2,2,L|78:244,1,56
177,258,11976,2,2,L|270:259,1,56
33,297,12128,6,0,P|24:229|161:150,1,224,10|2,0:0|0:0,0:0:0:0:
384,88,12582,1,4,0:3:0:0:
253,71,12734,1,2,0:0:0:0:
250,89,12885,1,2,0:0:0:0:
114,129,13037,1,4,0:3:0:0:
120,147,13188,1,2,0:0:0:0:
392,236,13340,5,4,1:0:0:0:
265,282,13491,1,0,0:0:0:0:
395,337,13643,1,2,0:0:0:0:
398,318,13794,1,10,0:0:0:0:
148,362,13946,1,10,0:0:0:0:
142,338,14097,1,0,0:0:0:0:
273,306,14249,1,8,0:0:0:0:
135,315,14400,2,2,L|59:313,1,56
275,281,14552,6,0,L|319:224,2,56,12|0|0,0:0|0:0|0:0,0:0:0:0:
147,224,14855,1,2,0:0:0:0:
281,298,15006,1,2,0:0:0:0:
46,226,15158,2,2,L|39:156,1,56
114,149,15309,2,2,L|35:139,1,56
247,98,15461,2,2,L|319:93,1,56
228,75,15612,2,2,L|297:75,1,56
96,40,15764,6,2,L|22:41,2,56,14|2|2,0:0|0:0|0:0,0:0:0:0:
159,86,15991,2,2,L|87:92,1,56
112,122,16218,1,2,0:0:0:0:
344,207,16370,1,2,0:0:0:0:
338,241,16522,1,2,0:0:0:0:
212,276,16673,2,2,L|136:289,1,56
329,342,16825,2,2,L|402:352,1,56
170,361,16976,5,8,0:0:0:0:
41,344,17128,1,2,0:0:0:0:
166,327,17279,1,2,0:0:0:0:
174,293,17431,1,2,0:0:0:0:
314,275,17582,1,2,0:0:0:0:
304,249,17734,1,2,0:0:0:0:
63,224,17885,1,2,0:0:0:0:
75,201,18037,1,2,0:0:0:0:
351,148,18188,6,0,P|318:83|155:46,1,224,4|0,1:0|0:0,0:0:0:0:
310,64,18643,2,0,L|345:13,2,56
177,115,18946,2,0,L|137:55,2,56
236,128,19173,1,0,0:0:0:0:
160,142,19249,2,0,L|238:146,1,56
455,166,19400,6,0,L|462:344,1,168,14|0,0:0|0:0,0:0:0:0:
286,358,19703,2,0,L|279:170,1,168,10|0,0:0|0:0,0:0:0:0:
95,170,20006,1,10,0:0:0:0:
9,90,20158,2,10,L|89:75,1,56
266,33,20309,2,10,L|183:24,1,56
14,77,20461,2,10,L|92:66,1,56
318,109,20612,6,0,B|276:258|276:258|221:126|221:126|458:308|458:308|164:303|164:303|200:157|200:157|261:291|261:291|11:133|11:133|295:57|295:57|245:206|245:206|185:75|185:75|497:76,1,2374.40009963379,14|4,0:0|0:1,0:0:0:0:
480,75,22128,5,2,0:0:0:0:
480,75,22431,1,2,0:0:0:0:
480,75,22734,1,2,0:0:0:0:
480,75,22885,2,2,L|413:75,1,56
231,151,23037,5,2,0:0:0:0:
479,179,23188,2,0,B|480:291|480:291|480:171,1,224,2|2,0:2|0:0,0:0:0:0:
326,165,23643,2,0,B|325:53|325:53|325:173,1,224,2|0,0:0|0:0,0:0:0:0:
175,217,24097,2,2,L|87:226,1,56
316,206,24249,5,10,0:0:0:0:
372,218,24324,1,2,0:0:0:0:
400,265,24400,1,2,0:0:0:0:
372,218,24476,1,2,0:0:0:0:
183,349,24552,2,2,L|94:349,1,56,10|2,0:0|0:0,0:0:0:0:
326,372,24703,6,2,L|334:295,1,56,10|2,0:0|0:0,0:0:0:0:
246,304,24855,2,2,L|238:232,1,56
37,177,25006,2,2,L|102:161,1,56,10|2,0:0|0:0,0:0:0:0:
291,63,25158,2,2,L|201:48,1,56,10|2,0:0|0:0,0:0:0:0:
36,29,25309,6,2,L|30:98,1,56,10|2,0:0|0:0,0:0:0:0:
117,104,25461,2,2,L|125:182,1,56
38,197,25612,2,2,L|31:263,1,56
257,336,25764,6,0,B|320:189|320:189|371:325|371:325|79:251|79:251|357:136|357:136|288:0|288:0|252:149|252:149|506:306|506:306|197:366,1,1814.40000692139,12|4,0:0|0:1,0:0:0:0:
208,363,26976,5,2,0:0:0:0:
208,363,27128,1,2,0:0:0:0:
354,351,27279,1,2,0:0:0:0:
354,351,27582,2,0,L|355:155,1,168,2|0,0:0|0:0,0:0:0:0:
117,82,27885,6,0,L|190:66,1,56,10|0,0:0|0:0,0:0:0:0:
407,40,28037,2,8,L|374:38,1,28,12|12,0:3|0:3,0:1:0:0:
270,69,28188,6,2,L|310:117,1,56
370,132,28340,2,2,L|318:185,1,56
262,193,28491,2,2,L|317:238,1,56
375,252,28643,2,2,L|313:291,1,56
167,323,28794,2,2,L|245:350,1,56
390,356,28946,2,2,L|324:362,1,56
83,358,29097,5,6,0:0:0:0:
83,358,29400,1,2,0:0:0:0:
83,358,29703,1,2,0:0:0:0:
83,358,29855,1,8,0:0:0:0:
230,340,29931,1,8,0:0:0:0:
377,244,30006,2,8,L|299:244,1,56,8|8,0:1|0:1,0:1:0:0:
98,130,30158,2,8,L|3:123,1,56,8|8,0:1|0:1,0:1:0:0:
253,54,30309,6,0,L|261:138,1,56,8|0,0:0|0:0,0:0:0:0:
39,151,30461,2,0,L|277:310,1,280,8|8,0:0|0:1,0:0:0:0:
212,199,30688,1,0,0:0:0:0:
394,295,30764,2,0,L|403:197,1,56,8|0,0:0|0:0,0:0:0:0:
195,369,30915,6,0,L|463:182,1,280,8|8,0:0|0:1,0:0:0:0:
365,377,31143,1,0,0:0:0:0:
159,284,31218,2,0,L|86:282,1,56,8|0,0:0|0:0,0:0:0:0:
303,156,31370,6,0,L|8:42,1,280,8|8,0:0|0:1,0:0:0:0:
104,40,31597,1,0,0:0:0:0:
303,79,31673,2,0,L|372:74,1,56,8|0,0:0|0:0,0:0:0:0:
154,136,31825,6,0,L|417:339,1,280,8|8,0:0|0:1,0:0:0:0:
311,314,32052,1,0,0:0:0:0:
104,183,32128,2,8,L|23:186,1,56,8|8,0:1|0:1,0:1:0:0:
205,242,32279,5,8,0:1:0:0:
49,186,32355,1,8,0:1:0:0:
205,242,32431,2,8,L|290:244,1,56,8|8,0:1|0:1,0:1:0:0:
196,279,32582,2,8,L|117:290,1,56,8|8,0:1|0:1,0:1:0:0:
336,351,32734,6,0,L|423:356,1,56,8|0,0:0|0:0,0:0:0:0:
189,375,32885,2,0,L|466:223,1,280,8|8,0:0|0:1,0:0:0:0:
372,228,33112,1,0,0:0:0:0:
183,212,33188,2,0,L|171:149,1,56,8|0,0:0|0:0,0:0:0:0:
384,158,33340,6,0,L|89:48,1,280,8|8,0:0|0:1,0:0:0:0:
188,45,33567,1,0,0:0:0:0:
408,49,33643,2,0,L|311:47,1,56,8|0,0:0|0:0,0:0:0:0:
122,157,33794,6,0,L|386:294,1,280,8|8,0:0|0:1,0:0:0:0:
307,295,34022,1,0,0:0:0:0:
55,235,34097,2,0,L|137:245,1,56,8|0,0:0|0:0,0:0:0:0:
298,372,34249,6,0,L|28:228,1,280,8|8,0:0|0:1,0:0:0:0:
113,286,34476,1,0,0:0:0:0:
323,291,34552,2,2,L|399:292,1,56,10|10,0:0|0:0,0:0:0:0:
224,238,34703,5,8,0:1:0:0:
378,291,34779,1,8,0:1:0:0:
224,238,34855,2,8,L|153:235,1,56,8|8,0:3|0:3,0:3:0:0:
318,184,35006,1,4,0:3:0:0:
468,181,35082,1,4,0:3:0:0:
268,31,35158,6,0,P|237:88|345:128,1,201.599993847656,12|0,0:0|0:0,0:0:0:0:
134,206,35461,1,8,0:0:0:0:
366,276,35612,1,8,0:1:0:0:
128,301,35764,2,0,L|-5:295,1,112,8|8,0:0|0:3,0:0:0:0:
173,201,36067,2,0,L|101:184,1,56,8|0,0:0|0:0,0:0:0:0:
46,162,36219,2,0,L|117:149,1,56,2|0,0:0|0:0,0:0:0:0:
312,88,36370,6,0,L|237:78,1,56,8|0,0:0|0:0,0:0:0:0:
87,37,36522,2,0,L|159:27,1,56,8|0,0:0|0:0,0:0:0:0:
314,113,36673,2,0,L|242:104,1,56,8|0,0:0|0:0,0:0:0:0:
113,147,36825,1,8,1:1:0:0:
258,106,36900,6,0,L|265:179,1,56,8|0,0:0|0:0,0:0:0:0:
412,199,37052,1,8,0:0:0:0:
263,161,37128,2,4,L|207:160,1,56,4|4,0:3|0:3,0:3:0:0:
382,360,37279,2,0,L|451:352,1,56,8|0,0:0|0:0,0:0:0:0:
254,301,37431,2,0,L|243:228,1,56,8|0,0:0|0:0,0:0:0:0:
55,215,37582,6,0,L|340:105,1,280,10|0,0:1|0:0,0:0:0:0:
235,102,37809,2,0,L|501:199,1,280,10|0,0:1|0:0,0:0:0:0:
320,26,38037,2,0,L|233:34,1,67.1999979492188,10|0,0:1|0:0,0:0:0:0:
418,200,38188,6,8,L|333:177,1,67.1999979492188,8|8,0:0|0:0,0:0:0:0:
160,265,38340,2,8,L|133:268,1,16.7999994873047,8|8,0:0|0:0,0:0:0:0:
262,330,38415,2,8,L|293:328,1,16.7999994873047,8|8,0:0|0:0,0:0:0:0:
403,297,38491,2,8,L|317:271,1,67.1999979492188,8|8,0:0|0:0,0:0:0:0:
145,355,38643,2,8,L|118:355,1,16.7999994873047,8|8,0:0|0:0,0:0:0:0:
259,214,38719,2,8,L|282:215,1,16.7999994873047,8|8,0:0|0:0,0:0:0:0:
128,124,38794,5,14,0:0:0:0:
126,124,39097,1,2,0:0:0:0:
126,124,39400,1,8,0:0:0:0:
487,66,39552,5,8,0:0:0:0:
335,175,39628,1,8,0:0:0:0:
186,236,39703,2,8,L|258:259,1,67.1999979492188,8|8,0:0|0:0,0:0:0:0:
443,335,39855,2,8,L|406:338,1,33.5999989746094
244,355,39931,2,8,L|191:355,1,33.5999989746094
42,345,40006,6,0,P|28:271|163:213,1,201.599993847656,14|0,0:0|0:0,0:0:0:0:
342,143,40309,2,0,L|110:71,1,201.599993847656,10|0,0:0|0:0,0:0:0:0:
365,50,40612,1,10,0:0:0:0:
331,46,40649,1,0,0:0:0:0:
298,42,40687,1,0,0:0:0:0:
93,20,40764,1,8,0:0:0:0:
126,16,40801,1,0,0:0:0:0:
159,12,40839,1,0,0:0:0:0:
376,209,40915,6,0,B|100:164|100:164|174:35,1,420,10|0,0:0|0:0,0:0:0:0:
396,273,41219,2,0,B|120:228|120:228|194:99,1,420,10|0,0:0|0:0,0:0:0:0:
415,340,41522,2,0,B|139:295|139:295|213:166,1,420,10|0,0:0|0:0,0:0:0:0:
408,144,41825,6,0,L|487:133,1,67.1999979492188,10|0,0:0|0:0,0:0:0:0:
290,60,41976,2,0,L|274:169,1,67.1999979492188,8|0,0:1|0:0,0:0:0:0:
93,211,42128,1,8,0:0:0:0:
246,232,42203,1,8,0:0:0:0:
402,278,42279,2,0,L|363:287,1,33.5999989746094,8|0,0:1|0:0,0:0:0:0:
216,329,42355,2,0,L|173:331,1,33.5999989746094,8|0,0:0|0:0,0:0:0:0:
336,372,42431,6,0,L|443:366,1,67.1999979492188,10|0,0:0|0:0,0:0:0:0:
225,348,42582,2,0,L|213:236,1,67.1999979492188,10|0,0:0|0:0,0:0:0:0:
36,190,42734,2,0,L|236:109,1,201.599993847656,10|0,0:0|0:0,0:0:0:0:
425,38,43037,2,0,L|205:-17,1,201.599993847656,10|2,0:0|0:0,0:0:0:0:
451,69,43340,6,0,B|225:195|225:195|225:333,1,386.400007369995,10|0,0:0|0:0,0:0:0:0:
50,79,43643,2,0,B|277:190|277:190|277:337,1,386.400007369995,10|0,0:0|0:0,0:0:0:0:
88,360,43946,2,0,L|175:358,1,67.1999979492188,10|0,0:0|0:0,0:0:0:0:
363,260,44097,2,8,L|322:241,1,33.5999989746094,10|8,0:0|0:0,0:0:0:0:
200,210,44173,2,8,L|157:207,1,33.5999989746094
23,214,44249,6,0,L|23:-2,1,201.599993847656,10|0,0:0|0:0,0:0:0:0:
270,29,44552,6,0,B|142:337|142:337|496:306,1,672.000025634767,14|12,0:0|0:0,0:0:0:0:
471,340,44893,6,0,L|482:295,5,33.5999989746094
290,234,45158,6,0,L|244:220,2,33.5999989746094,10|0|0,0:0|0:0|0:0,0:0:0:0:
480,139,45309,2,0,L|387:123,1,67.1999979492188,10|0,0:0|0:0,0:0:0:0:
158,191,45461,6,0,B|434:236|434:236|360:365,1,420,10|0,0:0|0:0,0:0:0:0:
138,127,45764,2,0,B|414:172|414:172|340:301,1,420,10|0,0:0|0:0,0:0:0:0:
119,60,46068,2,0,B|395:105|395:105|321:234,1,420,10|0,0:0|0:0,0:0:0:0:
101,17,46370,2,0,B|377:62|377:62|303:191,1,420,10|0,0:0|0:0,0:0:0:0:
102,235,46673,6,8,L|33:229,1,67.1999979492188,10|8,0:0|0:0,0:0:0:0:
216,134,46825,2,8,L|223:220,1,67.1999979492188,10|8,0:0|0:0,0:0:0:0:
400,280,46976,1,8,0:1:0:0:
236,322,47052,1,8,0:1:0:0:
43,344,47128,1,8,0:1:0:0:
188,364,47203,6,0,B|233:17|233:17|269:366|269:366|227:17|227:17|180:364|180:363|179:365|179:365|492:209,1,1750,8|14,0:1|0:0,0:0:0:0:
323,199,47658,5,0,0:0:0:0:
297,194,47696,1,0,0:0:0:0:
275,172,47734,1,0,0:0:0:0:
295,144,47772,1,0,0:0:0:0:
325,129,47809,1,0,0:0:0:0:
489,210,47885,5,14,0:0:0:0:
303,107,47961,5,0,0:0:0:0:
277,102,47999,1,0,0:0:0:0:
255,80,48037,1,0,0:0:0:0:
275,47,48075,1,0,0:0:0:0:
303,37,48112,1,0,0:0:0:0:
489,210,48188,6,0,B|250:358|250:358|247:122,1,420,14|0,0:0|0:0,0:0:0:0:
63,116,48491,2,0,L|140:101,1,67.1999979492188,10|0,0:0|0:0,0:0:0:0:
274,273,48643,2,0,L|188:251,1,67.1999979492188,10|0,0:0|0:0,0:0:0:0:
35,257,48794,6,0,L|44:111,1,134.399995898438,10|0,0:0|0:0,0:0:0:0:
226,13,49022,2,0,L|245:163,1,134.399995898438,10|0,0:0|0:0,0:0:0:0:
425,137,49249,2,8,L|354:159,1,67.1999979492188,10|8,0:0|0:0,0:0:0:0:
180,221,49400,5,8,0:1:0:0:
339,267,49476,1,8,0:1:0:0:
501,338,49552,2,8,L|403:354,1,67.1999979492188,8|8,0:1|0:1,0:1:0:0:
216,334,49703,6,0,P|199:256|311:213,1,201.599993847656,14|0,0:2|0:0,0:0:0:0:
106,133,50006,2,0,L|17:120,1,67.1999979492188,10|0,0:1|0:0,0:0:0:0:
258,76,50158,2,0,L|407:54,1,134.399995898438,2|10,0:1|0:1,0:0:0:0:
326,31,50385,1,0,0:0:0:0:
135,29,50461,1,2,0:1:0:0:
168,24,50498,1,0,0:0:0:0:
201,19,50536,1,0,0:0:0:0:
473,198,50612,6,10,B|251:330|251:330|251:177,1,386.400007369995,10|0,0:1|0:1,0:1:0:0:
36,64,50915,2,10,B|251:199|251:199|250:4,1,386.400007369995,10|0,0:1|0:1,0:1:0:0:
476,73,51219,2,10,B|251:196|251:196|250:36,1,386.400007369995,10|0,0:1|0:1,0:1:0:0:
37,334,51522,2,10,B|254:198|254:198|255:350,1,386.400007369995,10|0,0:1|0:1,0:1:0:0:
451,80,51825,6,0,L|359:71,1,67.1999979492188,10|0,0:1|0:0,0:0:0:0:
178,29,51976,2,0,L|166:187,1,134.399995898438,2|10,0:1|0:0,0:0:0:0:
196,184,52165,1,0,0:0:0:0:
239,191,52203,1,0,0:0:0:0:
419,320,52279,2,8,L|518:299,1,67.1999979492188,10|8,0:0|0:0,0:0:0:0:
285,363,52431,6,0,B|32:246|32:246|112:115,1,420,10|0,0:1|0:0,0:0:0:0:
325,302,52734,2,0,B|72:185|72:185|152:54,1,420,10|0,0:1|0:0,0:0:0:0:
366,239,53037,2,0,B|113:122|113:122|193:-9,1,420,10|0,0:1|0:0,0:0:0:0:
439,53,53340,5,10,0:1:0:0:
408,65,53377,1,2,0:0:0:0:
377,78,53415,1,2,0:0:0:0:
269,99,53453,1,2,0:0:0:0:
160,127,53491,1,2,0:0:0:0:
146,162,53529,1,2,0:0:0:0:
160,197,53567,1,2,0:0:0:0:
248,348,53794,6,10,L|203:350,1,33.5999989746094
57,346,53870,2,10,L|5:348,1,33.5999989746094
227,250,53946,6,0,L|378:213,1,134.399995898438,14|0,0:0|0:0,0:0:0:0:
282,202,54173,2,0,L|5:84,1,280,10|0,0:0|0:0,0:0:0:0:
170,44,54400,1,10,0:1:0:0:
318,52,54476,1,10,0:1:0:0:
162,72,54552,6,0,P|78:87|81:253,1,268.799991796875,14|0,0:0|0:0,0:0:0:0:
320,304,55006,1,10,0:0:0:0:
74,364,55158,2,0,L|54:100,1,201.599993847656,10|0,0:1|0:0,0:0:0:0:
283,78,55461,6,0,P|301:158|198:218,1,201.599993847656,14|0,0:0|0:0,0:0:0:0:
150,227,55764,1,0,0:0:0:0:
21,336,55915,2,0,L|99:353,1,67.1999979492188,2|0,0:1|0:0,0:0:0:0:
287,367,56067,6,0,L|297:159,1,201.599993847656,10|0,0:0|0:0,0:0:0:0:
497,103,56370,1,8,0:1:0:0:
483,77,56522,2,2,L|388:64,1,67.1999979492188
194,141,56673,2,0,L|400:258,1,201.599993847656,10|0,0:0|0:0,0:0:0:0:
150,322,56976,6,0,P|65:301|81:195,1,201.599993847656,10|0,0:1|0:0,0:0:0:0:
322,188,57279,2,8,L|347:153,2,33.5999989746094,10|8|8,0:0|0:0|0:0,0:0:0:0:
197,209,57393,1,8,0:0:0:0:
74,171,57431,2,8,L|-4:146,1,67.1999979492188,10|8,0:0|0:0,0:0:0:0:
228,36,57582,6,8,L|236:116,1,67.1999979492188,10|8,0:0|0:0,0:0:0:0:
77,157,57734,1,10,0:1:0:0:
227,173,57809,1,10,0:1:0:0:
381,201,57885,1,10,0:1:0:0:
395,300,58037,1,10,0:1:0:0:
241,323,58112,1,10,0:1:0:0:
85,342,58188,5,10,0:1:0:0:
41,257,58289,1,10,0:2:0:0:
85,342,58390,1,10,0:2:0:0:
175,354,58491,2,10,L|199:357,1,18.6666666666667,10|10,0:2|0:2,0:2:0:0:
29,140,58592,2,10,L|58:136,1,18.6666666666667,10|10,0:2|0:2,0:2:0:0:
119,87,58693,2,10,L|142:85,1,18.6666666666667,10|10,0:2|0:2,0:2:0:0:
330,30,58794,6,10,L|299:28,1,18.6666666666667,10|10,0:2|0:2,0:2:0:0:
237,80,58895,2,10,L|258:84,1,18.6666666666667,10|10,0:2|0:2,0:2:0:0:
419,139,58996,2,10,L|448:140,1,18.6666666666667,10|10,0:2|0:2,0:2:0:0:
261,197,59097,6,10,L|239:227,2,28,10|10|10,0:1|0:1|0:1,0:1:0:0:
418,253,59249,1,10,0:1:0:0:
265,317,59325,1,10,0:1:0:0:
93,330,59400,6,0,L|168:316,1,62.720000765625,14|0,0:0|0:0,0:0:0:0:
297,285,59552,1,2,0:0:0:0:
158,277,59628,1,2,0:0:0:0:
15,185,59703,2,0,L|164:141,1,125.44000153125,10|0,0:1|0:0,0:0:0:0:
200,138,59931,1,0,0:0:0:0:
385,39,60006,6,0,L|302:23,1,62.720000765625,10|0,0:1|0:0,0:0:0:0:
153,46,60158,2,0,L|230:67,1,62.720000765625,2|0,0:1|0:0,0:0:0:0:
393,139,60309,2,0,L|405:218,1,62.720000765625,10|0,0:1|0:0,0:0:0:0:
211,288,60461,6,0,L|346:310,1,125.44000153125,10|0,0:1|0:0,0:0:0:0:
400,318,60688,1,2,0:0:0:0:
223,368,60764,2,0,L|214:301,1,62.720000765625,10|0,0:1|0:0,0:0:0:0:
357,257,60915,1,10,0:0:0:0:
213,237,60991,1,10,0:0:0:0:
66,226,61067,6,0,L|56:152,1,62.720000765625,10|0,0:1|0:0,0:0:0:0:
240,140,61219,2,2,L|247:63,1,62.720000765625
51,38,61370,2,0,L|191:9,1,125.44000153125,10|8,0:1|0:0,0:0:0:0:
240,16,61597,1,0,0:0:0:0:
432,137,61673,2,0,L|361:152,1,62.720000765625,10|0,0:1|0:0,0:0:0:0:
181,214,61825,6,0,L|99:210,1,62.720000765625,14|0,0:1|0:0,0:0:0:0:
258,293,61976,1,2,0:0:0:0:
401,324,62052,1,2,0:0:0:0:
244,329,62128,2,0,L|232:245,1,62.720000765625,10|0,0:1|0:0,0:0:0:0:
57,184,62279,2,0,L|129:172,1,62.720000765625,2|0,0:1|0:0,0:0:0:0:
321,74,62431,6,0,L|73:230,1,274.400002616882,10|2,0:1|0:1,0:0:0:0:
154,240,62658,1,0,0:0:0:0:
337,228,62734,2,0,L|416:220,1,62.720000765625,10|0,0:1|0:0,0:0:0:0:
213,170,62885,2,0,L|208:87,1,62.720000765625,2|0,0:1|0:0,0:0:0:0:
414,42,63037,6,2,L|279:36,1,125.44000153125,10|2,0:1|0:0,0:0:0:0:
356,73,63264,1,2,0:0:0:0:
169,99,63340,2,0,L|96:108,1,62.720000765625,10|0,0:1|0:0,0:0:0:0:
301,197,63491,2,0,L|309:277,1,62.720000765625,2|0,0:0|0:0,0:0:0:0:
114,323,63643,2,0,L|276:349,1,125.44000153125,10|0,0:1|0:0,0:0:0:0:
302,344,63870,1,0,0:0:0:0:
101,228,63946,2,2,L|19:226,1,62.720000765625,10|2,0:1|0:0,0:0:0:0:
258,124,64097,6,0,L|169:117,1,56,10|0,0:1|0:0,0:0:0:0:
133,116,64249,2,0,L|130:297,1,168,6|0,0:1|0:0,0:0:0:0:
371,67,64552,6,0,L|197:55,1,125.44000153125,14|0,0:0|0:0,0:0:0:0:
243,96,64779,1,0,0:0:0:0:
421,158,64855,2,2,L|497:171,1,62.720000765625,10|2,0:0|0:0,0:0:0:0:
399,193,65006,2,2,L|390:260,1,62.720000765625
205,351,65158,2,2,L|276:331,1,62.720000765625,10|2,0:0|0:0,0:0:0:0:
339,309,65309,2,2,L|257:295,1,62.720000765625
91,224,65461,6,2,L|-7:222,1,62.720000765625,10|2,0:0|0:0,0:0:0:0:
208,155,65612,2,2,L|125:150,1,62.720000765625
319,109,65764,2,2,L|399:95,1,62.720000765625,10|2,0:0|0:0,0:0:0:0:
303,89,65915,2,2,L|395:75,1,62.720000765625
181,37,66067,2,2,L|85:31,1,62.720000765625,10|2,0:0|0:0,0:0:0:0:
201,62,66218,2,2,L|212:138,1,62.720000765625
397,237,66370,2,2,L|321:266,1,62.720000765625,10|2,0:0|0:0,0:0:0:0:
150,328,66522,2,2,L|243:354,1,62.720000765625
421,360,66673,6,0,L|429:223,1,125.44000153125,10|0,0:0|0:0,0:0:0:0:
362,219,66900,1,0,0:0:0:0:
172,227,66976,2,2,L|167:147,1,62.720000765625,10|2,0:0|0:0,0:0:0:0:
249,151,67128,2,2,L|255:71,1,62.720000765625,2|2,0:0|0:0,0:0:0:0:
432,19,67279,2,2,L|440:98,1,62.720000765625,10|2,0:0|0:0,0:0:0:0:
356,93,67431,2,2,L|345:171,1,62.720000765625,2|2,0:0|0:0,0:0:0:0:
165,241,67582,2,2,L|230:275,1,62.720000765625,10|2,0:0|0:0,0:0:0:0:
410,339,67734,2,2,L|336:360,1,62.720000765625,10|2,0:0|0:0,0:0:0:0:
156,359,67885,6,0,L|13:345,1,125.44000153125,10|0,0:1|0:0,0:0:0:0:
185,292,68112,1,8,0:0:0:0:
31,346,68188,2,0,L|130:309,1,62.720000765625,10|0,0:1|0:0,0:0:0:0:
292,225,68340,2,0,L|453:220,1,125.44000153125,10|0,0:1|0:0,0:0:0:0:
352,189,68567,1,0,0:0:0:0:
161,115,68643,2,0,L|50:118,1,62.720000765625,10|0,0:1|0:0,0:0:0:0:
315,45,68794,5,10,0:0:0:0:
287,43,68831,1,10,0:0:0:0:
259,42,68869,1,10,0:0:0:0:
231,41,68907,1,10,0:0:0:0:
203,40,68945,1,10,0:0:0:0:
175,38,68983,1,10,0:0:0:0:
147,37,69021,1,10,0:0:0:0:
360,111,69097,6,0,L|509:141,1,125.44000153125,14|0,0:0|0:0,0:0:0:0:
418,173,69325,1,0,0:0:0:0:
244,232,69400,2,0,L|306:228,1,62.720000765625,10|0,0:1|0:0,0:0:0:0:
139,313,69552,2,2,L|0:275,1,125.44000153125,2|10,0:1|0:0,0:0:0:0:
82,253,69779,1,0,0:0:0:0:
264,232,69855,2,2,L|272:162,1,62.720000765625,10|2,0:1|0:0,0:0:0:0:
81,128,70006,6,0,L|359:45,1,274.400002616882,10|0,0:1|0:0,0:0:0:0:
278,32,70234,1,0,0:0:0:0:
96,37,70309,2,0,L|83:116,1,62.720000765625,10|0,0:1|0:0,0:0:0:0:
289,186,70461,2,0,L|123:217,1,125.44000153125,2|8,0:1|0:0,0:0:0:0:
230,244,70688,1,0,0:0:0:0:
413,282,70764,2,2,L|484:287,1,62.720000765625,10|2,0:1|0:0,0:0:0:0:
274,357,70915,6,2,L|4:286,1,274.400002616882,10|2,0:1|0:0,0:0:0:0:
170,268,71143,1,10,0:1:0:0:
239,258,71218,2,0,L|248:153,1,62.720000765625,2|0,0:0|0:0,0:0:0:0:
31,111,71370,2,0,L|121:92,1,62.720000765625,10|0,0:1|0:0,0:0:0:0:
253,50,71522,2,0,L|261:120,1,62.720000765625,2|0,0:1|0:0,0:0:0:0:
431,169,71673,6,0,L|508:182,1,62.720000765625,8|0,0:0|0:0,0:0:0:0:
317,255,71825,2,2,L|233:268,1,62.720000765625,10|2,0:1|0:0,0:0:0:0:
465,344,71976,2,0,L|483:190,1,125.44000153125,2|8,0:1|0:0,0:0:0:0:
414,206,72203,1,0,0:0:0:0:
231,186,72279,2,2,L|150:185,1,62.720000765625,2|2,0:1|0:0,0:0:0:0:
368,103,72431,6,2,L|94:230,1,274.400002616882,10|2,0:1|0:0,0:0:0:0:
186,244,72658,1,0,0:0:0:0:
363,341,72734,2,2,L|291:355,1,62.720000765625,10|2,0:1|0:0,0:0:0:0:
112,342,72885,2,2,L|255:300,1,125.44000153125,2|10,0:1|0:0,0:0:0:0:
298,298,73112,1,0,0:0:0:0:
111,146,73188,2,2,L|28:139,1,62.720000765625,2|2,0:1|0:0,0:0:0:0:
272,69,73340,6,0,L|284:200,1,125.44000153125,10|0,0:1|0:0,0:0:0:0:
219,203,73567,1,0,0:0:0:0:
28,54,73643,2,0,L|282:210,1,276.640010658509,10|0,0:1|0:0,0:0:0:0:
329,209,73870,1,0,0:0:0:0:
119,294,73946,6,0,L|262:314,1,125.44000153125,10|0,0:1|0:0,0:0:0:0:
45,368,74173,2,0,L|30:238,1,125.44000153125,10|0,0:1|0:0,0:0:0:0:
228,158,74400,2,0,L|92:147,1,125.44000153125,10|0,0:1|0:0,0:0:0:0:
308,79,74628,2,0,L|471:66,1,125.44000153125,10|0,0:1|0:0,0:0:0:0:
222,25,74855,6,0,L|324:17,1,62.720000765625,10|0,0:1|0:0,0:0:0:0:
440,98,75006,1,8,0:0:0:0:
285,163,75082,1,8,0:0:0:0:
129,181,75158,6,0,L|121:311,1,125.44000153125,8|2,0:0|0:1,0:0:0:0:
308,338,75385,2,0,L|168:354,1,125.44000153125,8|0,0:0|0:0,0:0:0:0:
370,264,75612,2,2,L|453:267,1,62.720000765625,10|2,0:0|0:0,0:0:0:0:
277,220,75764,1,2,0:1:0:0:
432,266,75840,2,0,L|442:129,1,125.44000153125,8|0,0:0|0:0,0:0:0:0:
205,133,76067,6,8,L|500:32,1,280,10|8,0:1|0:0,0:0:0:0:
280,29,76294,1,8,0:0:0:0:
81,52,76370,6,8,L|75:195,1,112,14|0,0:1|0:0,0:0:0:0:
278,241,76623,1,10,0:2:0:0:
241,238,76673,1,10,0:2:0:0:
204,235,76724,1,10,0:2:0:0:
167,232,76774,1,10,0:2:0:0:
391,360,76875,6,0,L|71:333,1,287.839989898194,10|8,0:1|0:0,0:0:0:0:
148,312,77077,1,10,0:0:0:0:
192,305,77128,2,0,L|495:263,1,287.839989898194,10|8,0:1|0:0,0:0:0:0:
434,243,77330,1,10,0:0:0:0:
390,228,77380,2,0,L|72:204,1,287.839989898194,10|8,0:1|0:0,0:0:0:0:
254,71,77582,5,10,0:1:0:0:
100,86,77658,2,8,L|56:33,2,56,8|8|8,0:3|0:3|0:3,0:3:0:0:
275,91,77885,5,10,0:1:0:0:
90,125,77961,2,8,L|18:91,2,56,8|8|8,0:3|0:3|0:3,0:3:0:0:
291,115,78188,5,10,0:1:0:0:
74,160,78264,2,8,L|-1:168,2,56,8|8|8,0:3|0:3|0:3,0:3:0:0:
301,152,78491,6,4,L|224:153,1,56,6|4,0:3|0:3,0:3:0:0:
14,206,78643,2,4,L|117:213,1,56,4|4,0:3|0:3,0:3:0:0:
313,78,78794,6,12,B|353:244|353:244|412:119|412:119|189:334|189:334|504:353,1,924.000008811951
485,353,79703,2,2,L|488:169,3,154.000001468658
294,164,80006,6,8,L|389:145,1,62.720000765625,8|8,0:1|0:1,0:1:0:0:
177,76,80158,2,8,L|78:72,1,62.720000765625,8|8,0:1|0:1,0:1:0:0:
299,57,80309,2,2,L|312:128,1,62.720000765625,10|2,0:1|0:0,0:0:0:0:
228,131,80461,2,2,L|221:203,1,62.720000765625,10|2,0:0|0:0,0:0:0:0:
29,287,80612,6,10,L|94:310,1,62.720000765625,10|10,0:1|0:1,0:1:0:0:
287,353,80764,2,10,L|295:279,1,62.720000765625,10|10,0:1|0:1,0:1:0:0:
213,291,80915,2,2,L|202:220,1,62.720000765625,10|2,0:0|0:0,0:0:0:0:
396,186,81067,2,10,L|483:183,1,62.720000765625,10|10,0:1|0:1,0:1:0:0:
220,84,81218,5,12,0:0:0:0:
487,65,81370,1,12,0:0:0:0:
33,71,81673,5,12,0:0:0:0:
57,132,82431,2,2,L|21:192,2,62.720000765625,10|2|10,0:0|0:0|0:1,0:0:0:0:
261,92,82658,1,2,0:0:0:0:
196,57,82734,2,2,L|115:54,1,62.720000765625,10|2,0:1|0:0,0:0:0:0:
324,189,82885,1,10,0:1:0:0:
355,189,82922,1,2,0:0:0:0:
386,190,82960,1,2,0:0:0:0:
244,272,83037,5,10,0:0:0:0:
386,190,83112,2,2,L|423:138,2,62.720000765625,10|2|2,0:1|0:0|0:0,0:0:0:0:
203,359,83340,2,10,L|275:355,1,62.720000765625
422,345,83491,1,10,0:1:0:0:
263,328,83567,1,10,0:1:0:0:
92,324,83643,6,0,L|412:275,1,274.400002616882,12|0,0:0|0:0,0:0:0:0:
291,246,83870,2,0,L|-12:212,1,280,12|0,0:0|0:0,0:0:0:0:
227,155,84097,6,0,L|299:34,1,140,12|0,0:0|0:0,0:0:0:0:
463,68,84552,2,2,L|497:147,2,62.720000765625
400,59,84779,1,2,0:0:0:0:
208,245,84855,6,2,L|279:260,1,62.720000765625,10|2,0:0|0:0,0:0:0:0:
442,323,85006,2,10,L|470:284,2,31.3600003828125
266,358,85158,2,2,L|256:280,1,62.720000765625,10|2,0:1|0:0,0:0:0:0:
75,223,85309,2,2,L|171:195,1,62.720000765625,10|2,0:0|0:0,0:0:0:0:
321,139,85461,6,2,L|233:126,1,62.720000765625,10|2,0:0|0:0,0:0:0:0:
432,79,85612,2,2,L|512:61,1,62.720000765625,10|2,0:1|0:0,0:0:0:0:
312,35,85764,2,2,L|223:28,1,62.720000765625,10|2,0:1|0:0,0:0:0:0:
69,56,85915,2,2,L|162:75,1,62.720000765625,2|2,0:1|0:0,0:0:0:0:
361,70,86067,6,12,B|324:224|324:224|265:86|265:86|485:302|485:302|90:300,1,924.000008811951
63,338,86976,2,10,L|23:257,2,62.720000765625,10|10|10,0:3|0:3|0:3,0:3:0:0:
125,351,87203,1,10,0:3:0:0:
344,236,87279,6,2,L|203:217,1,125.44000153125,10|2,0:0|0:0,0:0:0:0:
14,102,87506,2,2,L|142:75,1,125.44000153125,10|2,0:0|0:0,0:0:0:0:
339,26,87734,2,2,L|255:29,1,62.720000765625,10|2,0:0|0:0,0:0:0:0:
459,92,87885,6,2,L|474:168,1,62.720000765625,10|2,0:0|0:0,0:0:0:0:
287,229,88037,2,10,L|218:238,1,62.720000765625,10|10,0:1|0:1,0:1:0:0:
430,313,88188,2,2,L|445:392,1,62.720000765625,10|2,0:0|0:0,0:0:0:0:
277,366,88340,1,10,0:1:0:0:
115,338,88415,1,10,0:1:0:0:
301,294,88491,6,0,L|443:277,1,125.44000153125,14|0,0:0|0:0,0:0:0:0:
282,268,88794,2,0,L|269:117,1,125.44000153125,10|0,0:0|0:0,0:0:0:0:
25,88,89097,2,0,L|160:64,1,125.44000153125,10|0,0:0|0:0,0:0:0:0:
294,42,89400,1,10,0:0:0:0:
146,66,89552,1,2,0:0:0:0:
449,129,89703,6,0,L|459:268,1,125.44000153125,14|0,0:0|0:0,0:0:0:0:
309,300,90006,2,0,L|296:155,1,125.44000153125,10|0,0:0|0:0,0:0:0:0:
54,160,90309,1,10,0:0:0:0:
295,82,90461,2,0,L|157:71,1,125.44000153125,10|0,0:0|0:0,0:0:0:0:
441,34,90764,1,10,0:0:0:0:
170,80,90915,6,0,L|160:213,1,125.44000153125,14|0,0:0|0:0,0:0:0:0:
307,272,91218,2,8,L|164:287,1,125.44000153125,10|2,0:0|0:0,0:0:0:0:
453,350,91522,2,0,L|462:180,1,125.44000153125,10|0,0:0|0:0,0:0:0:0:
310,226,91825,1,10,0:0:0:0:
460,225,91976,1,2,0:0:0:0:
164,148,92128,6,0,L|301:128,1,125.44000153125,14|0,0:0|0:0,0:0:0:0:
131,77,92431,2,0,L|126:215,1,125.44000153125,10|0,0:0|0:0,0:0:0:0:
408,164,92734,6,8,L|446:100,2,62.720000765625,10|8|8,0:0|0:0|0:0,0:0:0:0:
343,177,92961,1,8,0:0:0:0:
138,283,93037,2,8,L|200:273,1,62.720000765625,10|8,0:0|0:0,0:0:0:0:
401,356,93188,1,8,0:0:0:0:
369,354,93225,1,8,0:0:0:0:
338,353,93263,1,8,0:0:0:0:
116,366,93340,6,0,L|44:357,1,62.720000765625,14|0,0:0|0:0,0:0:0:0:
133,338,93491,2,0,L|142:266,1,62.720000765625,10|0,0:0|0:0,0:0:0:0:
319,270,93643,2,0,L|321:187,1,62.720000765625,10|0,0:0|0:0,0:0:0:0:
226,202,93794,2,0,L|219:124,1,62.720000765625,10|0,0:0|0:0,0:0:0:0:
436,135,93946,2,0,L|442:64,1,62.720000765625,10|0,0:0|0:0,0:0:0:0:
347,55,94097,2,0,L|332:139,1,62.720000765625,10|0,0:0|0:0,0:0:0:0:
172,36,94249,2,8,L|243:36,1,62.720000765625
79,141,94400,2,8,L|-9:139,1,62.720000765625
216,190,94552,6,0,L|231:271,1,62.720000765625,14|0,0:0|0:0,0:0:0:0:
410,294,94703,2,0,L|334:291,1,62.720000765625,10|0,0:0|0:0,0:0:0:0:
173,300,94855,2,0,L|95:313,1,62.720000765625,10|0,0:0|0:0,0:0:0:0:
202,355,95006,2,0,L|213:254,1,62.720000765625,10|0,0:0|0:0,0:0:0:0:
38,141,95158,2,0,L|114:133,1,62.720000765625,10|8,0:0|0:0,0:0:0:0:
323,138,95309,2,0,L|238:140,1,62.720000765625,8|8,0:0|0:0,0:0:0:0:
73,358,95461,6,8,L|43:321,2,31.3600003828125,10|8|8,0:0|0:0|0:0,0:0:0:0:
196,359,95575,1,8,0:0:0:0:
313,338,95612,2,8,L|343:301,2,31.3600003828125
120,240,95764,6,8,L|44:236,1,62.720000765625,14|8,0:0|0:0,0:0:0:0:
249,215,95915,2,8,L|255:121,1,62.720000765625
452,90,96067,2,8,L|369:82,1,62.720000765625,10|8,0:0|0:0,0:0:0:0:
161,51,96218,1,8,0:0:0:0:
306,53,96294,1,8,0:0:0:0:
460,51,96370,6,8,L|490:14,2,31.3600003828125,10|8|8,0:0|0:0|0:0,0:0:0:0:
335,110,96484,1,8,0:0:0:0:
213,129,96522,2,8,L|183:92,2,31.3600003828125
334,164,96635,1,8,0:0:0:0:
455,190,96673,6,8,L|499:184,1,31.3600003828125,10|8,0:0|0:0,0:0:0:0:
364,284,96749,2,8,L|315:284,1,31.3600003828125
210,332,96825,2,8,L|153:332,1,31.3600003828125
316,375,96900,2,8,L|356:375,1,31.3600003828125
116,357,96976,5,14,0:0:0:0:
85,357,97013,1,8,0:0:0:0:
59,340,97051,1,8,0:0:0:0:
50,311,97089,1,8,0:0:0:0:
59,281,97127,1,8,0:0:0:0:
84,263,97165,1,8,0:0:0:0:
115,264,97203,1,8,0:0:0:0:
340,199,97279,5,10,0:1:0:0:
203,177,97431,1,10,0:0:0:0:
472,98,97582,2,8,L|490:165,3,62.720000765625,10|8|8|8,0:3|0:3|0:3|0:3,0:3:0:0:
273,47,97885,6,8,L|195:38,1,62.720000765625,10|8,0:1|0:1,0:1:0:0:
412,20,98037,2,8,L|494:10,1,62.720000765625,8|8,0:1|0:1,0:1:0:0:
205,118,98188,6,10,B|172:348|172:348|159:130|159:130|321:294|321:294|469:137|469:137|472:380|472:380|494:175|494:175|30:183,1,1792,14|14,0:0|0:1,0:0:0:0:
56,160,98813,5,2,0:0:0:0:
212,154,98870,1,2,0:1:0:0:
219,135,98889,1,2,0:0:0:0:
72,135,98946,1,2,0:1:0:0:
82,115,98965,1,2,0:0:0:0:
232,112,99022,1,2,0:1:0:0:
244,93,99040,1,2,0:0:0:0:
95,93,99097,5,2,0:1:0:0:
109,75,99116,1,2,0:0:0:0:
257,72,99173,1,2,0:1:0:0:
270,54,99192,1,2,0:0:0:0:
121,54,99249,1,2,0:1:0:0:
136,39,99267,1,2,0:0:0:0:
278,39,99325,1,2,0:1:0:0:
290,25,99343,1,2,0:0:0:0:
439,32,99400,5,2,0:1:0:0:
454,37,99419,1,2,0:0:0:0:
310,172,99476,1,2,0:1:0:0:
295,177,99495,1,2,0:0:0:0:
150,239,99552,1,2,0:1:0:0:
135,244,99571,1,2,0:0:0:0:
281,314,99628,1,2,0:1:0:0:
296,319,99647,1,2,0:0:0:0:
435,316,99703,1,2,0:1:0:0:
450,321,99722,1,2,0:0:0:0:
313,231,99779,1,2,0:1:0:0:
298,236,99798,1,2,0:0:0:0:
166,149,99855,1,2,0:1:0:0:
151,154,99874,1,2,0:0:0:0:
280,85,99931,1,2,0:1:0:0:
295,90,99950,1,2,0:0:0:0:
416,90,100006,5,10,0:0:0:0:
431,95,100025,1,2,0:0:0:0:
373,141,100082,1,10,0:0:0:0:
358,146,100101,1,2,0:0:0:0:
209,211,100158,1,10,0:0:0:0:
194,216,100177,1,2,0:0:0:0:
252,262,100234,1,10,0:0:0:0:
267,267,100253,1,2,0:0:0:0:
408,288,100309,5,10,0:0:0:0:
423,283,100328,1,2,0:0:0:0:
438,234,100385,1,10,0:0:0:0:
432,217,100404,1,2,0:0:0:0:
408,175,100461,1,10,0:0:0:0:
394,166,100480,1,2,0:0:0:0:
350,160,100537,1,10,0:0:0:0:
336,158,100556,1,2,0:0:0:0:
190,176,100612,5,10,0:0:0:0:
175,171,100631,1,2,0:0:0:0:
160,122,100688,1,10,0:0:0:0:
166,105,100707,1,2,0:0:0:0:
190,63,100764,1,10,0:0:0:0:
204,54,100783,1,2,0:0:0:0:
248,48,100840,1,10,0:0:0:0:
262,46,100859,1,2,0:0:0:0:
110,25,100915,6,10,L|32:29,1,56
263,226,101067,2,10,L|353:233,1,56
79,304,101218,2,10,L|11:308,1,56
337,337,101370,2,10,L|440:340,1,56
177,369,101522,6,0,L|168:180,1,168,14|0,0:0|0:0,0:0:0:0:
404,129,101825,6,0,L|249:112,1,128.800002456665,8|0,0:0|0:0,0:0:0:0:
242,109,102014,1,0,0:0:0:0:
450,216,102128,2,0,L|295:199,1,128.800002456665,8|0,0:0|0:0,0:0:0:0:
288,196,102317,1,0,0:0:0:0:
486,311,102431,6,0,L|331:294,1,128.800002456665,8|0,0:0|0:0,0:0:0:0:
324,291,102620,1,0,0:0:0:0:
61,87,102734,1,10,0:1:0:0:
163,70,102772,1,0,0:0:0:0:
430,49,102885,1,10,0:1:0:0:
328,33,102923,1,0,0:0:0:0:
63,256,103037,5,12,0:0:0:0:
290,57,107885,6,2,P|331:111|145:287,1,352.799989233399,4|2,0:3|0:0,0:0:0:0:
67,290,108491,1,0,0:0:0:0:
329,328,108794,2,2,L|440:287,2,117.599996411133
88,347,109249,1,2,0:0:0:0:
59,347,109268,6,0,L|44:5,1,338.099989682007,0|2,0:0|0:0,0:0:0:0:
316,58,110006,1,2,0:0:0:0:
51,41,110309,5,2,0:0:0:0:
76,51,110328,2,0,L|280:139,1,220.499993270874,0|2,0:0|0:0,0:0:0:0:
150,155,110764,2,0,L|141:287,1,117.599996411133,2|0,0:0|0:0,0:0:0:0:
280,299,111067,2,2,P|291:230|159:153,1,235.199992822266
465,34,111522,6,0,L|477:219,1,176.399994616699,10|0,0:0|0:0,0:0:0:0:
285,256,111825,2,2,L|215:239,1,58.7999982055665,10|2,0:0|0:0,0:0:0:0:
306,230,111976,2,2,L|234:214,1,58.7999982055665
64,217,112128,6,2,L|28:152,2,58.7999982055665,10|2|2,0:0|0:0|0:0,0:0:0:0:
126,231,112355,1,2,0:0:0:0:
308,129,112431,2,2,L|227:125,1,58.7999982055665,10|2,0:0|0:0,0:0:0:0:
54,42,112582,2,2,L|137:26,1,58.7999982055665
358,61,112734,6,0,P|381:121|258:207,1,235.199992822266,14|2,0:0|0:0,0:0:0:0:
405,151,113188,2,0,P|431:227|298:297,1,235.199992822266,2|2,0:0|0:0,0:0:0:0:
183,331,113643,2,0,L|314:313,1,117.599996411133,2|0,0:0|0:0,0:0:0:0:
44,349,113946,6,0,P|34:286|135:235,1,176.399994616699,4|0,1:3|0:0,0:0:0:0:
185,220,114249,1,2,0:0:0:0:
44,156,114400,1,10,0:0:0:0:
295,87,114552,2,0,L|311:226,1,117.599996411133,8|0,0:0|0:0,0:0:0:0:
164,232,114855,2,0,L|149:355,1,117.599996411133,8|0,0:0|0:0,0:0:0:0:
408,338,115158,6,0,L|276:328,2,117.599996411133,4|0|0,1:0|0:0|0:0,0:0:0:0:
163,290,115612,1,0,0:0:0:0:
303,280,115764,2,0,L|310:154,1,117.599996411133,8|0,0:0|0:0,0:0:0:0:
59,172,116067,2,0,L|49:40,1,117.599996411133,8|0,0:0|0:0,0:0:0:0:
115,45,116294,1,0,0:0:0:0:
321,61,116370,6,2,L|257:88,1,58.7999982055665,14|2,0:0|0:0,0:0:0:0:
192,109,116522,2,2,L|268:134,1,58.7999982055665
173,170,116673,2,2,L|102:183,1,58.7999982055665
286,282,116825,2,2,L|357:287,1,58.7999982055665
148,353,116976,6,2,L|74:347,1,58.7999982055665
170,331,117128,2,2,L|99:326,1,58.7999982055665
310,311,117279,2,2,L|345:246,2,58.7999982055665
246,318,117506,1,2,0:0:0:0:
465,340,117582,6,0,P|477:265|324:188,1,235.199992822266,12|2,0:0|0:0,0:0:0:0:
494,99,118037,2,2,L|423:90,1,58.7999982055665
249,225,118188,2,0,L|244:69,1,117.599996411133,2|0,0:0|0:0,0:0:0:0:
16,65,118491,1,2,0:0:0:0:
248,65,118643,1,2,0:0:0:0:
16,65,118794,6,0,L|272:155,2,235.199992822266,10|2|2,0:0|0:0|0:0,0:0:0:0:
143,104,119552,1,2,0:0:0:0:
403,172,119703,2,2,L|414:292,1,117.599996411133
146,338,120006,6,2,L|218:325,1,58.7999982055665,10|2,0:0|0:0,0:0:0:0:
132,304,120158,2,2,L|33:291,1,58.7999982055665
150,276,120309,2,2,L|228:256,1,58.7999982055665
391,146,120461,2,2,L|312:135,1,58.7999982055665
140,58,120612,2,2,L|209:47,1,58.7999982055665
133,82,120764,2,2,L|56:98,1,58.7999982055665
144,109,120915,2,2,L|226:123,1,58.7999982055665
407,266,121067,2,2,L|339:270,1,58.7999982055665
112,340,121218,5,14,0:0:0:0:
387,358,121370,2,0,L|407:328,2,29.3999991027832,8|0|0,0:0|0:0|0:0,0:0:0:0:
200,219,121673,2,2,L|284:207,1,58.7999982055665,2|2,0:0|0:0,0:0:0:0:
441,187,121825,6,2,L|445:161,1,14.6999995513916,2|2,0:1|0:0,0:0:0:0:
258,130,121900,2,2,L|253:113,1,14.6999995513916,2|2,0:1|0:0,0:0:0:0:
369,75,121976,2,2,L|371:49,1,14.6999995513916,2|2,0:1|0:0,0:0:0:0:
487,37,122052,2,2,L|492:15,1,14.6999995513916,2|2,0:1|0:0,0:0:0:0:
290,9,122128,6,2,L|270:15,1,14.6999995513916,2|2,0:1|0:0,0:0:0:0:
217,46,122203,2,2,L|235:50,1,14.6999995513916,2|2,0:1|0:0,0:0:0:0:
278,67,122279,2,2,L|305:70,1,14.6999995513916,2|2,0:1|0:0,0:0:0:0:
341,92,122355,2,2,L|315:95,1,14.6999995513916,2|2,0:1|0:0,0:0:0:0:
55,160,122431,5,14,0:0:0:0:
55,160,122734,2,0,L|55:357,1,176.399994616699,2|0,0:0|0:0,0:0:0:0:
266,350,123037,6,8,L|192:337,1,58.7999982055665,8|8,0:1|0:1,0:1:0:0:
28,116,123188,2,8,L|127:107,1,58.7999982055665,8|8,0:1|0:1,0:1:0:0:
291,154,123340,2,8,L|299:54,1,58.7999982055665
95,90,123491,2,8,L|86:14,1,58.7999982055665
333,23,123643,6,0,L|339:106,1,58.7999982055665,14|0,0:0|0:0,0:0:0:0:
245,94,123794,2,0,L|331:109,1,58.7999982055665,8|0,0:0|0:0,0:0:0:0:
485,162,123946,2,0,L|490:240,1,58.7999982055665,8|0,0:0|0:0,0:0:0:0:
280,272,124097,2,0,L|174:285,1,58.7999982055665,8|0,0:0|0:0,0:0:0:0:
483,204,124249,6,8,L|499:291,1,58.7999982055665
341,275,124400,2,8,L|337:347,1,58.7999982055665
182,306,124552,2,8,L|175:372,1,58.7999982055665
22,230,124703,2,8,L|38:153,1,58.7999982055665
274,106,124855,6,8,L|294:75,2,29.3999991027832
160,129,124968,1,8,0:0:0:0:
45,74,125006,2,8,L|2:69,2,29.3999991027832
165,147,125120,1,8,0:0:0:0:
286,175,125158,6,8,L|319:178,1,29.3999991027832
190,251,125234,2,8,L|158:255,1,29.3999991027832
37,317,125309,2,8,L|86:330,1,29.3999991027832
202,346,125385,2,8,L|258:348,1,29.3999991027832
374,353,125461,5,12,0:0:0:0:
483,157,125764,2,10,L|397:140,1,58.7999982055665,10|10,0:1|0:1,0:1:0:0:
277,95,125915,1,8,0:1:0:0:
124,82,125991,1,8,0:1:0:0:
370,68,126067,6,0,L|386:212,1,134.399995898438,14|0,0:2|0:0,0:0:0:0:
318,221,126294,1,0,0:0:0:0:
156,300,126370,2,0,L|233:279,1,67.1999979492188,10|0,0:1|0:0,0:0:0:0:
34,267,126522,6,0,L|302:111,1,280,2|8,0:1|0:0,0:0:0:0:
208,110,126749,1,0,0:0:0:0:
407,51,126825,2,0,L|487:37,1,67.1999979492188,2|0,0:1|0:0,0:0:0:0:
297,89,126976,2,0,L|288:176,1,67.1999979492188,10|0,0:1|0:0,0:0:0:0:
136,196,127128,1,8,0:1:0:0:
296,193,127203,1,8,0:1:0:0:
134,238,127279,6,0,L|-29:266,1,134.399995898438,10|0,0:1|0:0,0:0:0:0:
72,303,127506,1,0,0:0:0:0:
265,362,127582,2,2,L|343:343,1,67.1999979492188,10|2,0:1|0:0,0:0:0:0:
112,367,127734,6,0,L|379:216,1,280,10|0,0:1|0:0,0:0:0:0:
288,213,127961,1,0,0:0:0:0:
57,140,128037,2,2,L|126:128,1,67.1999979492188,10|2,0:1|0:0,0:0:0:0:
374,31,128188,2,2,L|74:159,1,280,10|2,0:1|0:1,0:1:0:0:
186,163,128415,1,2,0:0:0:0:
363,275,128491,6,0,L|293:275,1,67.1999979492188,10|0,0:1|0:0,0:0:0:0:
476,357,128643,2,0,L|471:258,1,67.1999979492188,10|0,0:1|0:0,0:0:0:0:
278,342,128794,2,0,L|270:265,1,67.1999979492188,10|0,0:1|0:0,0:0:0:0:
71,239,128946,2,0,L|51:142,1,67.1999979492188,10|0,0:1|0:0,0:0:0:0:
297,114,129097,5,10,0:0:0:0:
161,85,129173,1,10,0:0:0:0:
23,21,129249,2,10,L|99:7,1,67.1999979492188
241,36,129400,1,10,0:0:0:0:
95,29,129476,1,10,0:0:0:0:
249,58,129552,2,10,L|321:61,1,67.1999979492188
135,175,129703,5,14,0:0:0:0:
390,253,129855,1,8,0:0:0:0:
405,229,129893,1,0,0:0:0:0:
390,253,129931,6,2,B|381:82|381:82|345:242|345:242|300:66|300:66|228:210|228:210|171:51|171:51|106:198|106:198|93:29|93:29|51:191|51:191|81:369|81:369|121:217|121:217|245:220|245:220|403:384,1,2016.0000769043
121,224,130915,6,0,P|47:208|64:48,1,268.799991796875,14|2,0:0|0:1,0:0:0:0:
90,44,131256,1,0,0:0:0:0:
204,38,131408,2,0,L|234:41,1,28,2|0,0:1|0:0,0:0:0:0:
468,143,131522,6,0,L|452:162,1,14,14|0,0:0|0:0,0:0:0:0:
427,173,131597,2,8,L|406:177,1,14
372,183,131673,2,8,L|349:186,1,14
202,384,131749,6,0,L|449:195,1,280,10|0,0:1|0:0,0:0:0:0:
260,191,131976,2,0,L|25:379,1,280,10|0,0:1|0:0,0:0:0:0:
259,108,132203,2,0,L|19:296,1,280,10|0,0:1|0:0,0:0:0:0:
268,28,132431,6,0,L|480:31,1,201.599993847656,10|0,0:1|0:0,0:0:0:0:
201,331,132734,6,0,B|186:129|186:129|168:268|168:268|470:129|470:129|415:291|415:291|374:133|374:133|148:147,1,1176.00004486084,14|0,0:0|0:0,0:0:0:0:
36,326,133340,6,0,L|35:53,1,268.799991796875,14|2,0:0|0:0,0:0:0:0:
78,49,133681,1,0,0:0:0:0:
468,155,133946,6,0,L|331:198,1,134.399995898438,14|0,0:0|0:0,0:0:0:0:
140,268,134173,2,0,L|282:313,1,134.399995898438,10|0,0:1|0:0,0:0:0:0:
468,155,134400,2,0,L|334:198,1,134.399995898438,10|0,0:1|0:0,0:0:0:0:
140,268,134628,2,0,L|282:313,1,134.399995898438,10|0,0:1|0:0,0:0:0:0:
65,323,134855,2,0,P|41:247|153:192,1,201.599993847656,14|0,0:0|0:0,0:0:0:0:
339,109,135158,6,2,L|316:103,1,14,10|2,0:1|0:0,0:0:0:0:
276,86,135234,2,2,L|252:81,1,14,10|2,0:0|0:0,0:0:0:0:
329,109,135309,2,2,L|309:100,1,14,10|2,0:0|0:0,0:0:0:0:
267,82,135385,2,2,L|249:77,1,14,10|2,0:0|0:0,0:0:0:0:
80,69,135461,6,2,L|74:95,1,18.6666666666667,10|2,0:0|0:0,0:0:0:0:
253,78,135562,2,2,L|259:107,1,18.6666666666667,10|2,0:0|0:0,0:0:0:0:
80,69,135663,2,2,L|74:97,1,18.6666666666667,10|2,0:0|0:0,0:0:0:0:
333,366,135764,6,0,L|340:118,1,224,14|2,0:0|0:0,0:0:0:0:
343,103,136370,2,10,L|260:87,1,56,10|10,0:1|0:1,0:1:0:0:
355,81,136522,2,10,L|422:69,1,56,10|10,0:1|0:1,0:1:0:0:
191,161,136673,6,2,L|182:189,3,28,2|2|2|2,1:0|0:0|0:0|0:0,0:0:0:0:
393,288,136862,6,2,L|402:316,3,28,2|2|2|10,1:0|0:0|0:0|0:0,0:0:0:0:
104,380,137165,2,0,L|91:343,1,28,2|0,1:0|0:0,0:0:0:0:
291,216,137279,2,0,L|470:187,1,168,2|0,1:0|0:0,0:0:0:0:
218,66,137582,6,0,B|239:266|239:266|313:140|313:140|46:361|46:361|8:209|8:209|46:24|46:24|237:69,1,1215.20000927124,10|0,0:1|0:0,0:0:0:0:
424,233,138188,5,14,0:0:0:0:
359,247,138264,1,2,0:0:0:0:
291,241,138340,1,2,0:0:0:0:
259,238,138377,1,2,0:0:0:0:
230,227,138415,1,2,0:0:0:0:
207,208,138453,1,2,0:0:0:0:
192,184,138491,1,2,0:0:0:0:
187,156,138529,1,2,0:0:0:0:
193,129,138567,1,2,0:0:0:0:
208,104,138605,1,2,0:0:0:0:
232,86,138643,1,2,0:0:0:0:
260,75,138680,1,2,0:0:0:0:
292,73,138718,1,2,0:0:0:0:
97,33,138794,6,0,L|13:38,1,65.520000249939,10|0,0:1|0:0,0:0:0:0:
115,61,138946,2,8,L|132:132,1,65.520000249939
319,163,139097,2,8,L|386:171,1,65.520000249939,8|8,0:0|0:0,0:0:0:0:
193,254,139249,2,8,L|182:335,1,65.520000249939
394,344,139400,6,10,L|324:332,1,65.520000249939,14|10,0:0|0:0,0:0:0:0:
183,327,139552,1,10,0:1:0:0:
329,332,139628,1,10,0:1:0:0:
486,318,139703,2,10,L|491:241,1,65.520000249939,10|10,0:1|0:1,0:1:0:0:
332,235,139855,2,10,L|345:138,1,65.520000249939,10|10,0:1|0:1,0:1:0:0:
184,183,140006,2,10,L|168:112,1,65.520000249939,10|10,0:1|0:1,0:1:0:0:
10,92,140158,2,10,L|26:27,1,65.520000249939,10|10,0:1|0:1,0:1:0:0:
276,113,140309,6,0,B|4:176|4:176|80:355,1,420,6|0,0:1|0:0,0:0:0:0:
303,360,140612,6,12,B|263:194|263:194|204:319|204:319|427:104|427:104|112:85,1,924.000008811951,14|12,0:0|0:0,0:0:0:0:
80,346,141521,2,2,L|77:162,3,154.000001468658
294,133,141824,6,2,L|199:114,1,62.720000765625,10|2,0:0|0:0,0:0:0:0:
50,49,141976,2,10,L|113:38,1,62.720000765625,10|10,0:1|0:1,0:1:0:0:
299,57,142127,2,10,L|213:66,1,62.720000765625,10|10,0:1|0:1,0:1:0:0:
316,110,142279,2,2,L|412:128,1,62.720000765625,10|2,0:0|0:0,0:0:0:0:
202,289,142430,6,2,L|139:286,1,62.720000765625,10|2,0:0|0:0,0:0:0:0:
324,347,142582,2,2,L|400:346,1,62.720000765625,10|2,0:1|0:0,0:0:0:0:
316,308,142733,2,2,L|226:300,1,62.720000765625,10|2,0:0|0:0,0:0:0:0:
458,283,142885,2,2,L|467:188,1,62.720000765625,10|2,0:1|0:0,0:0:0:0:
223,93,143036,5,12,0:0:0:0:
490,74,143188,1,12,0:0:0:0:
33,71,143491,5,12,0:0:0:0:
57,132,144249,2,2,L|21:192,2,62.720000765625,10|2|10,0:0|0:0|0:1,0:0:0:0:
261,92,144476,1,10,0:0:0:0:
196,57,144552,2,2,L|115:54,1,62.720000765625,10|2,0:1|0:0,0:0:0:0:
324,189,144703,1,2,0:1:0:0:
355,189,144740,1,2,0:0:0:0:
386,190,144778,1,2,0:0:0:0:
244,272,144855,5,10,0:0:0:0:
386,190,144931,2,2,L|456:167,1,62.720000765625,10|10,0:1|0:0,0:0:0:0:
293,139,145082,1,10,0:0:0:0:
140,109,145158,2,10,L|209:90,1,62.720000765625,10|10,0:1|0:0,0:0:0:0:
359,109,145309,1,10,0:1:0:0:
200,92,145385,1,10,0:1:0:0:
30,343,145461,6,0,L|350:294,1,274.400002616882,12|0,0:0|0:0,0:0:0:0:
222,275,145688,2,0,L|500:306,1,280,12|0,0:0|0:0,0:0:0:0:
293,139,145915,6,0,L|221:18,1,140,12|0,0:0|0:0,0:0:0:0:
72,90,146370,2,2,L|38:169,2,62.720000765625
135,81,146597,1,2,0:0:0:0:
326,271,146673,6,2,L|264:258,1,62.720000765625,10|2,0:0|0:0,0:0:0:0:
78,334,146824,2,2,L|50:295,2,31.3600003828125,10|2|2,0:1|0:0|0:0,0:0:0:0:
258,357,146976,2,2,L|262:280,1,62.720000765625,10|2,0:1|0:0,0:0:0:0:
441,202,147127,2,2,L|537:174,1,62.720000765625,10|2,0:0|0:0,0:0:0:0:
314,140,147279,6,2,L|402:127,1,62.720000765625,10|2,0:0|0:0,0:0:0:0:
210,81,147430,2,2,L|130:63,1,62.720000765625,10|2,0:1|0:0,0:0:0:0:
330,44,147582,2,2,L|419:37,1,62.720000765625,10|2,0:1|0:0,0:0:0:0:
178,174,147733,2,2,L|85:193,1,62.720000765625,10|2,0:1|0:1,0:1:0:0:
302,272,147885,5,8,0:0:0:0:
161,316,147961,1,8,0:0:0:0:
20,321,148037,2,8,L|95:311,1,62.720000765625
303,304,148188,1,8,0:0:0:0:
24,184,148340,5,12,0:0:0:0:
63,338,148794,2,8,L|23:257,2,62.720000765625,8|8|8,0:3|0:3|0:3,0:3:0:0:
125,351,149021,1,8,0:3:0:0:
302,271,149097,6,2,L|161:252,1,125.44000153125,10|2,0:1|0:0,0:0:0:0:
375,132,149324,2,2,L|503:105,1,125.44000153125,10|2,0:1|0:0,0:0:0:0:
293,51,149552,2,2,L|209:54,1,62.720000765625,10|2,0:1|0:0,0:0:0:0:
416,209,149703,6,2,L|328:209,1,62.720000765625,10|2,0:1|0:0,0:0:0:0:
196,158,149855,1,10,0:1:0:0:
353,209,149931,1,10,0:1:0:0:
196,158,150006,2,2,L|286:171,1,62.720000765625,10|2,0:1|0:0,0:0:0:0:
424,333,150158,1,10,0:1:0:0:
235,354,150234,1,10,0:1:0:0:
46,355,150309,5,14,0:0:0:0:
349,230,150461,2,2,L|373:196,2,31.3600003828125,2|2|2,0:1|0:0|0:0,0:0:0:0:
