osu file format v14

[General]
AudioFilename: audio.mp3
AudioLeadIn: 0
PreviewTime: 60395
Countdown: 0
SampleSet: Normal
StackLeniency: 0.7
Mode: 1
LetterboxInBreaks: 0
WidescreenStoryboard: 1

[Editor]
DistanceSpacing: 2.9
BeatDivisor: 4
GridSize: 32
TimelineZoom: 2.899999

[Metadata]
Title:Onyx
TitleUnicode:Onyx
Artist:ZxNX
ArtistUnicode:ZxNX
Creator:Boaz
Version:Muzukashii
Source:
Tags:fa featured electronic instrumental artist mpg mappers' guild mg psytrance trance dubcore lanota noxy games artcore drum and bass dnb n' dubstep future bass house uk hardcore mari_0hara mari 0hara slyme
BeatmapID:3742650
BeatmapSetID:1823819

[Difficulty]
HPDrainRate:6
CircleSize:5
OverallDifficulty:5
ApproachRate:5
SliderMultiplier:1.4
SliderTickRate:1

[Events]
//Background and Video events
0,0,"onyx.jpg",0,0
//Break Periods
//Storyboard Layer 0 (Background)
//Storyboard Layer 1 (Fail)
//Storyboard Layer 2 (Pass)
//Storyboard Layer 3 (Foreground)
//Storyboard Layer 4 (Overlay)
//Storyboard Sound Samples

[TimingPoints]
95,303.030303030303,4,1,0,100,1,0
2519,-125,4,1,0,50,0,0
11913,-125,4,1,0,65,0,0
11988,-124.76388434887,4,1,0,65,0,0
12064,-124.528659025588,4,1,0,65,0,0
12216,-124.060705384359,4,1,0,65,0,0
12367,-123.596408288375,4,1,0,65,0,0
12519,-123.135421874269,4,1,0,65,0,0
12670,-122.67801192921,4,1,0,65,0,0
13125,-121.325799810004,4,1,0,65,0,0
13276,-120.881565077799,4,1,0,65,0,0
13428,-120.44071667044,4,1,0,65,0,0
13731,-119.568453537492,4,1,0,65,0,0
13882,-119.137113712801,4,1,0,65,0,0
14185,-118.283563552576,4,1,0,65,0,0
14337,-117.861427961917,4,1,0,65,0,0
14791,-116.61277213048,4,1,0,65,0,0
14943,-116.202322187207,4,1,0,65,0,0
15094,-115.794885571494,4,1,0,65,0,0
15246,-115.390162988605,4,1,0,65,0,0
15549,-114.589408959288,4,1,0,65,0,0
15701,-114.193054778408,4,1,0,65,0,0
15852,-113.799562554482,4,1,0,65,0,0
16155,-113.020530179307,4,1,0,65,0,0
16307,-112.635063520544,4,1,0,65,0,0
16458,-112.25209125646,4,1,0,65,0,0
16610,-111.871839620531,4,1,0,65,0,0
16913,-111.118889433371,4,1,0,65,0,0
17064,-110.746263697928,4,1,0,65,0,0
17216,-110.376006905123,4,1,0,65,0,0
17367,-110.008338632068,4,1,0,65,0,0
17519,-109.643111671509,4,1,0,65,0,0
17973,-108.56160219555,4,1,0,65,0,0
18125,-108.205902848412,4,1,0,65,0,0
18276,-107.852526768997,4,1,0,65,0,0
18579,-107.152539140144,4,1,0,65,0,0
18731,-106.805884577017,4,1,0,65,0,0
19034,-106.119486296791,4,1,0,65,0,0
19185,-105.779473070133,4,1,0,65,0,0
19488,-105.106052006475,4,1,0,65,0,0
19640,-104.772601545605,4,1,0,65,0,0
19791,-104.441260146468,4,1,0,65,0,0
19943,-104.11189946955,4,1,0,65,0,0
20095,-103.784717285241,4,1,0,65,0,0
20398,-103.136377231613,4,1,0,65,0,0
20473,-102.975582429894,4,1,0,65,0,0
20549,-102.815288222097,4,1,0,65,0,0
20701,-102.496087211871,4,1,0,65,0,0
21004,-101.863801984918,4,1,0,65,0,0
21155,-101.5504726159,4,1,0,65,0,0
21307,-101.239167409087,4,1,0,65,0,0
21610,-100.622146733252,4,1,0,65,0,0
21913,-100,4,1,0,85,0,0
23882,-100,4,1,0,85,0,0
23958,-100,4,1,0,85,0,0
24034,-100,4,1,0,85,0,0
24110,-100,4,1,0,85,0,0
24185,-100,4,1,0,85,0,0
24337,-100,4,1,0,85,0,0
24488,-100,4,1,0,85,0,0
24564,-100,4,1,0,85,0,0
24640,-100,4,1,0,85,0,0
24791,-100,4,1,0,85,0,0
24943,-100,4,1,0,85,0,0
25094,-100,4,1,0,85,0,0
25246,-100,4,1,0,85,0,0
25398,-100,4,1,0,85,0,0
25549,-100,4,1,0,85,0,0
29185,-100,4,1,0,85,0,0
29337,-100,4,1,0,85,0,0
29488,-100,4,1,0,85,0,0
29640,-100,4,1,0,85,0,0
29791,-100,4,1,0,85,0,0
29943,-100,4,1,0,85,0,0
30094,-100,4,1,0,85,0,0
30170,-100,4,1,0,85,0,0
30246,-100,4,1,0,85,0,0
30322,-100,4,1,0,85,0,0
30398,-100,4,1,0,85,0,0
30701,-100,4,1,0,85,0,0
31004,-100,4,1,0,85,0,0
31155,-100,4,1,0,85,0,0
31307,-100,4,1,0,85,0,0
31610,-100,4,1,0,85,0,0
31913,-100,4,1,0,85,0,0
32216,-100,4,1,0,85,0,0
32519,-100,4,1,0,85,0,0
32822,-100,4,1,0,85,0,0
33125,-100,4,1,0,85,0,0
33428,-100,4,1,0,85,0,0
33731,-100,4,1,0,85,0,0
33882,-100,4,1,0,85,0,0
34034,-100,4,1,0,85,0,0
34337,-100,4,1,0,85,0,0
34640,-100,4,1,0,85,0,0
34943,-100,4,1,0,85,0,0
35246,-100,4,1,0,85,0,0
35549,-100,4,1,0,85,0,0
35852,-100,4,1,0,85,0,0
36155,-100,4,1,0,85,0,0
36458,-100,4,1,0,85,0,0
36610,-100,4,1,0,85,0,0
36761,-100,4,1,0,85,0,0
36913,-100,4,1,0,85,0,0
37064,-100,4,1,0,85,0,0
37216,-100,4,1,0,85,0,0
37367,-100,4,1,0,85,0,0
37519,-100,4,1,0,85,0,0
37670,-100,4,1,0,85,0,0
37822,-100,4,1,0,85,0,0
37973,-100,4,1,0,85,0,0
38125,-100,4,1,0,85,0,0
38276,-100,4,1,0,85,0,0
38428,-100,4,1,0,85,0,0
38579,-100,4,1,0,85,0,0
38731,-100,4,1,0,85,0,0
38882,-100,4,1,0,85,0,0
39034,-100,4,1,0,85,0,0
39110,-100,4,1,0,85,0,0
39185,-100,4,1,0,85,0,0
39337,-100,4,1,0,85,0,0
39488,-100,4,1,0,85,0,0
39640,-100,4,1,0,85,0,0
39716,-100,4,1,0,85,0,0
39791,-100,4,1,0,85,0,0
39943,-100,4,1,0,85,0,0
40094,-100,4,1,0,85,0,0
41307,-100,4,1,0,85,0,0
41610,-100,4,1,0,85,0,0
41685,-100,4,1,0,85,0,0
41761,-100,4,1,0,85,0,0
41837,-100,4,1,0,85,0,0
41913,-100,4,1,0,85,0,0
42064,-100,4,1,0,85,0,0
42216,-100,4,1,0,85,0,0
42291,-100,4,1,0,85,0,0
42367,-100,4,1,0,85,0,0
42443,-100,4,1,0,85,0,0
42519,-100,4,1,0,85,0,0
42822,-100,4,1,0,85,0,0
42898,-100,4,1,0,85,0,0
42973,-100,4,1,0,85,0,0
43049,-100,4,1,0,85,0,0
43125,-100,4,1,0,85,0,0
43276,-100,4,1,0,85,0,0
43428,-100,4,1,0,85,0,0
43504,-100,4,1,0,85,0,0
43579,-100,4,1,0,85,0,0
43655,-100,4,1,0,85,0,0
43731,-100,4,1,0,85,0,0
43882,-100,4,1,0,85,0,0
44034,-100,4,1,0,85,0,0
44110,-100,4,1,0,85,0,0
44185,-100,4,1,0,85,0,0
44261,-100,4,1,0,85,0,0
44337,-100,4,1,0,85,0,0
44488,-100,4,1,0,85,0,0
44640,-100,4,1,0,85,0,0
44716,-100,4,1,0,85,0,0
44791,-100,4,1,0,85,0,0
44867,-100,4,1,0,85,0,0
44943,-100,4,1,0,85,0,0
45246,-100,4,1,0,85,0,0
45322,-100,4,1,0,85,0,0
45398,-100,4,1,0,85,0,0
45473,-100,4,1,0,85,0,0
45549,-100,4,1,0,85,0,0
45701,-100,4,1,0,85,0,0
45852,-100,4,1,0,85,0,0
46004,-100,4,1,0,85,0,0
46155,-100,4,1,0,85,0,0
46458,-100,4,1,0,85,0,0
46534,-100,4,1,0,85,0,0
46610,-100,4,1,0,85,0,0
46685,-100,4,1,0,85,0,0
46761,-100,4,1,0,85,0,0
46913,-100,4,1,0,85,0,0
47064,-100,4,1,0,85,0,0
47140,-100,4,1,0,85,0,0
47216,-100,4,1,0,85,0,0
47291,-100,4,1,0,85,0,0
47367,-100,4,1,0,85,0,0
47670,-100,4,1,0,85,0,0
47746,-100,4,1,0,85,0,0
47822,-100,4,1,0,85,0,0
47898,-100,4,1,0,85,0,0
47973,-100,4,1,0,85,0,0
48125,-100,4,1,0,85,0,0
48276,-100,4,1,0,85,0,0
48352,-100,4,1,0,85,0,0
48428,-100,4,1,0,85,0,0
48504,-100,4,1,0,85,0,0
48579,-100,4,1,0,85,0,0
48882,-100,4,1,0,85,0,0
48958,-100,4,1,0,85,0,0
49034,-100,4,1,0,85,0,0
49110,-100,4,1,0,85,0,0
49185,-100,4,1,0,85,0,0
49337,-100,4,1,0,85,0,0
49488,-100,4,1,0,85,0,0
49564,-100,4,1,0,85,0,0
49640,-100,4,1,0,85,0,0
49716,-100,4,1,0,85,0,0
49791,-100,4,1,0,85,0,0
50019,-100,4,1,0,85,0,0
50246,-100,4,1,0,85,0,0
50398,-100,4,1,0,85,0,0
50473,-100,4,1,0,85,0,0
50549,-100,4,1,0,85,0,0
50701,-100,4,1,0,85,0,0
50852,-100,4,1,0,85,0,0
51004,-100,4,1,0,85,0,0
51307,-100,4,1,0,85,0,0
51382,-100,4,1,0,85,0,0
51458,-100,4,1,0,85,0,0
51534,-100,4,1,0,85,0,0
51610,-100,4,1,0,85,0,0
51761,-100,4,1,0,85,0,0
51913,-100,4,1,0,85,0,0
51988,-100,4,1,0,85,0,0
52064,-100,4,1,0,85,0,0
52140,-100,4,1,0,85,0,0
52216,-100,4,1,0,85,0,0
52519,-100,4,1,0,85,0,0
52594,-100,4,1,0,85,0,0
52670,-100,4,1,0,85,0,0
52746,-100,4,1,0,85,0,0
52822,-100,4,1,0,85,0,0
52973,-100,4,1,0,85,0,0
53125,-100,4,1,0,85,0,0
53201,-100,4,1,0,85,0,0
53276,-100,4,1,0,85,0,0
53352,-100,4,1,0,85,0,0
53428,-100,4,1,0,85,0,0
53731,-100,4,1,0,85,0,0
53807,-100,4,1,0,85,0,0
53882,-100,4,1,0,85,0,0
53958,-100,4,1,0,85,0,0
54034,-100,4,1,0,85,0,0
54185,-100,4,1,0,85,0,0
54337,-100,4,1,0,85,0,0
54413,-100,4,1,0,85,0,0
54488,-100,4,1,0,85,0,0
54564,-100,4,1,0,85,0,0
54640,-100,4,1,0,85,0,0
54943,-100,4,1,0,85,0,0
55019,-100,4,1,0,85,0,0
55094,-100,4,1,0,85,0,0
55170,-100,4,1,0,85,0,0
55246,-100,4,1,0,85,0,0
55398,-100,4,1,0,85,0,0
55549,-100,4,1,0,85,0,0
55701,-100,4,1,0,85,0,0
55852,-100,4,1,0,85,0,0
56155,-100,4,1,0,85,0,0
56231,-100,4,1,0,85,0,0
56307,-100,4,1,0,85,0,0
56382,-100,4,1,0,85,0,0
56458,-100,4,1,0,85,0,0
56610,-100,4,1,0,85,0,0
56761,-100,4,1,0,85,0,0
56837,-100,4,1,0,85,0,0
56913,-100,4,1,0,85,0,0
56988,-100,4,1,0,85,0,0
57064,-100,4,1,0,85,0,0
57367,-100,4,1,0,85,0,0
57443,-100,4,1,0,85,0,0
57519,-100,4,1,0,85,0,0
57594,-100,4,1,0,85,0,0
57670,-100,4,1,0,85,0,0
57822,-100,4,1,0,85,0,0
57973,-100,4,1,0,85,0,0
58049,-100,4,1,0,85,0,0
58125,-100,4,1,0,85,0,0
58201,-100,4,1,0,85,0,0
58276,-100,4,1,0,85,0,0
58579,-100,4,1,0,85,0,0
58655,-100,4,1,0,85,0,0
58731,-100,4,1,0,85,0,0
58807,-100,4,1,0,85,0,0
58882,-100,4,1,0,85,0,0
59034,-100,4,1,0,85,0,0
59185,-100,4,1,0,85,0,0
59261,-100,4,1,0,85,0,0
59337,-100,4,1,0,85,0,0
59413,-100,4,1,0,85,0,0
59488,-100,4,1,0,85,0,0
59791,-100,4,1,0,85,0,0
59867,-100,4,1,0,85,0,0
59943,-100,4,1,0,85,0,0
60019,-100,4,1,0,85,0,0
60094,-100,4,1,0,85,0,0
60246,-100,4,1,0,85,0,0
60398,-100,4,1,0,85,0,0
60473,-100,4,1,0,85,0,0
60549,-100,4,1,0,85,0,0
60701,-90.9090909090909,4,1,0,85,0,1
60852,-90.9090909090909,4,1,0,85,0,1
64337,-90.9090909090909,4,1,0,85,0,1
64488,-90.9090909090909,4,1,0,85,0,1
64640,-90.9090909090909,4,1,0,85,0,1
64791,-90.9090909090909,4,1,0,85,0,1
64943,-90.9090909090909,4,1,0,85,0,1
65094,-90.9090909090909,4,1,0,85,0,1
65170,-90.9090909090909,4,1,0,85,0,1
65246,-90.9090909090909,4,1,0,85,0,1
65398,-90.9090909090909,4,1,0,85,0,1
65549,-90.9090909090909,4,1,0,85,0,1
73996,-90.9090909090909,4,1,0,85,0,1
74147,-90.9090909090909,4,1,0,85,0,1
74299,-90.9090909090909,4,1,0,85,0,1
74450,-90.9090909090909,4,1,0,85,0,1
74602,-90.9090909090909,4,1,0,85,0,1
74753,-90.9090909090909,4,1,0,85,0,1
74829,-90.9090909090909,4,1,0,85,0,1
74905,-90.9090909090909,4,1,0,85,0,1
75057,-90.9090909090909,4,1,0,85,0,1
75208,-90.9090909090909,4,1,0,85,0,1
78882,-90.9090909090909,4,1,0,85,0,1
79185,-93.0232558139535,4,1,0,85,0,1
79337,-94.1176470588235,4,1,0,85,0,1
79488,-95.2380952380952,4,1,0,85,0,1
79640,-96.3855421686747,4,1,0,85,0,1
79716,-96.969696969697,4,1,0,85,0,1
79791,-97.5609756097561,4,1,0,85,0,1
79943,-98.7654320987654,4,1,0,85,0,1
80094,-100,4,1,0,85,0,0
80246,-100,4,1,0,85,0,0
80398,-100,4,1,0,85,0,0
80549,-100,4,1,0,85,0,0
80852,-100,4,1,0,85,0,0
80928,-100,4,1,0,85,0,0
81004,-100,4,1,0,85,0,0
81307,-90.9090909090909,4,1,0,85,0,1
83693,-90.9090909090909,4,1,0,85,0,1
83844,-90.9090909090909,4,1,0,85,0,1
83996,-90.9090909090909,4,1,0,85,0,1
84147,-90.9090909090909,4,1,0,85,0,1
84299,-90.9090909090909,4,1,0,85,0,1
84450,-90.9090909090909,4,1,0,85,0,1
84526,-90.9090909090909,4,1,0,85,0,1
84602,-90.9090909090909,4,1,0,85,0,1
84754,-90.9090909090909,4,1,0,85,0,1
84905,-90.9090909090909,4,1,0,85,0,1
93390,-90.9090909090909,4,1,0,85,0,1
93541,-90.9090909090909,4,1,0,85,0,1
93693,-90.9090909090909,4,1,0,85,0,1
93844,-90.9090909090909,4,1,0,85,0,1
93996,-90.9090909090909,4,1,0,85,0,1
94147,-90.9090909090909,4,1,0,85,0,1
94223,-90.9090909090909,4,1,0,85,0,1
94299,-90.9090909090909,4,1,0,85,0,1
94451,-90.9090909090909,4,1,0,85,0,1
94602,-90.9090909090909,4,1,0,85,0,1
97064,-90.9090909090909,4,1,0,85,0,1
97367,-91.9540229885058,4,1,0,85,0,1
97519,-92.485549132948,4,1,0,85,0,1
97822,-93.5672514619883,4,1,0,85,0,1
97898,-93.841642228739,4,1,0,85,0,1
97973,-94.1176470588235,4,1,0,85,0,1
98125,-94.6745562130178,4,1,0,85,0,1
98276,-95.2380952380952,4,1,0,85,0,1
98579,-96.3855421686747,4,1,0,85,0,1
98655,-96.6767371601208,4,1,0,85,0,1
98731,-96.969696969697,4,1,0,85,0,1
98882,-97.5609756097561,4,1,0,85,0,1
99034,-98.159509202454,4,1,0,85,0,1
99185,-98.7654320987654,4,1,0,85,0,1
99261,-99.0712074303406,4,1,0,85,0,1
99337,-99.3788819875776,4,1,0,85,0,1
99488,-100,4,1,0,85,0,0
99640,-100,4,1,0,75,0,0

[HitObjects]
274,171,2519,5,0,0:0:0:0:
241,240,3731,1,0,0:0:0:0:
241,240,4640,1,8,0:0:0:0:
249,209,6155,1,0,0:0:0:0:
249,209,7367,1,0,0:0:0:0:
249,209,8579,1,0,0:0:0:0:
249,209,9488,1,0,0:0:0:0:
228,207,11004,1,8,0:0:0:0:
228,207,11913,5,0,0:0:0:0:
228,207,11988,1,0,0:0:0:0:
228,207,12064,1,0,0:0:0:0:
228,207,12216,1,8,0:0:0:0:
99,149,12367,1,8,0:0:0:0:
99,149,12519,1,0,0:0:0:0:
99,149,12670,1,0,0:0:0:0:
99,149,13125,1,0,0:0:0:0:
99,149,13276,1,0,0:0:0:0:
99,149,13428,1,8,0:0:0:0:
99,149,13731,1,8,0:0:0:0:
99,149,13882,1,8,0:0:0:0:
109,146,14185,1,8,0:0:0:0:
109,146,14337,1,0,0:0:0:0:
109,146,14791,1,8,0:0:0:0:
109,146,14943,1,0,0:0:0:0:
109,146,15094,1,8,0:0:0:0:
109,146,15246,1,0,0:0:0:0:
126,146,15549,1,8,0:0:0:0:
120,144,15701,1,0,0:0:0:0:
120,144,15852,1,8,0:0:0:0:
120,144,16155,1,0,0:0:0:0:
120,144,16307,1,0,0:0:0:0:
120,144,16458,1,8,0:0:0:0:
120,144,16610,1,0,0:0:0:0:
120,144,16913,1,8,0:0:0:0:
120,144,17064,1,0,0:0:0:0:
120,144,17216,1,0,0:0:0:0:
120,144,17367,1,8,0:0:0:0:
120,144,17519,1,0,0:0:0:0:
120,144,17973,1,8,0:0:0:0:
120,144,18125,1,0,0:0:0:0:
120,144,18276,1,0,0:0:0:0:
120,144,18579,1,8,0:0:0:0:
120,144,18731,1,0,0:0:0:0:
120,144,19034,1,8,0:0:0:0:
120,144,19185,1,0,0:0:0:0:
120,144,19488,1,8,0:0:0:0:
120,144,19640,1,0,0:0:0:0:
120,144,19791,1,8,0:0:0:0:
120,144,19943,1,8,0:0:0:0:
120,144,20095,1,0,0:0:0:0:
120,144,20398,1,8,0:0:0:0:
120,144,20473,1,8,0:0:0:0:
120,144,20549,1,8,0:0:0:0:
120,144,20701,1,0,0:0:0:0:
188,141,21004,1,0,0:0:0:0:
188,141,21155,1,0,0:0:0:0:
188,141,21307,1,8,0:0:0:0:
176,140,21610,1,8,0:0:0:0:
188,141,21913,1,4,0:0:0:0:
182,155,22367,1,4,0:0:0:0:
182,155,22822,1,4,0:0:0:0:
214,131,23882,5,8,0:0:0:0:
214,131,23958,1,8,0:0:0:0:
214,131,24034,1,8,0:0:0:0:
214,131,24185,1,0,0:0:0:0:
214,131,24337,1,8,0:0:0:0:
214,131,24488,1,8,0:0:0:0:
214,131,24564,1,8,0:0:0:0:
214,131,24640,1,8,0:0:0:0:
214,131,24791,1,0,0:0:0:0:
248,172,24943,1,8,0:0:0:0:
161,133,25246,1,0,0:0:0:0:
161,133,25398,1,8,0:0:0:0:
194,160,25549,1,4,0:0:0:0:
209,179,26761,1,4,0:0:0:0:
209,179,27216,1,4,0:0:0:0:
209,179,27670,1,4,0:0:0:0:
164,137,29185,5,0,0:0:0:0:
164,137,29337,1,0,0:0:0:0:
164,137,29488,1,8,0:0:0:0:
164,137,29640,1,0,0:0:0:0:
164,137,29943,1,0,0:0:0:0:
164,137,30094,1,8,0:0:0:0:
164,137,30170,1,8,0:0:0:0:
164,137,30246,1,8,0:0:0:0:
164,137,30398,1,8,0:0:0:0:
232,167,30701,1,0,0:0:0:0:
164,137,31004,1,8,0:0:0:0:
164,137,31155,1,8,0:0:0:0:
164,137,31307,1,0,0:0:0:0:
215,176,31610,5,8,0:0:0:0:
215,176,31913,1,0,0:0:0:0:
215,176,32216,1,0,0:0:0:0:
215,176,32519,1,0,0:0:0:0:
215,176,32822,1,8,0:0:0:0:
215,176,33125,1,0,0:0:0:0:
215,176,33428,1,0,0:0:0:0:
215,176,33731,1,0,0:0:0:0:
201,170,33882,1,8,0:0:0:0:
215,176,34034,1,8,0:0:0:0:
215,176,34337,1,0,0:0:0:0:
215,176,34640,1,0,0:0:0:0:
215,176,34943,1,0,0:0:0:0:
215,176,35246,1,8,0:0:0:0:
215,176,35549,1,0,0:0:0:0:
215,176,35852,1,0,0:0:0:0:
215,176,36155,1,0,0:0:0:0:
215,176,36458,5,8,0:0:0:0:
232,128,36610,1,0,0:0:0:0:
232,128,36761,1,0,0:0:0:0:
232,128,36913,1,0,0:0:0:0:
232,128,37064,1,8,0:0:0:0:
232,128,37367,1,0,0:0:0:0:
232,128,37670,1,8,0:0:0:0:
232,128,37822,1,0,0:0:0:0:
232,128,37973,1,0,0:0:0:0:
232,128,38125,1,0,0:0:0:0:
232,128,38276,1,8,0:0:0:0:
232,128,38579,1,0,0:0:0:0:
232,128,38882,1,8,0:0:0:0:
232,128,39034,1,0,0:0:0:0:
180,171,39110,1,0,0:0:0:0:
232,128,39185,1,0,0:0:0:0:
232,128,39337,1,0,0:0:0:0:
232,128,39488,1,8,0:0:0:0:
232,128,39640,1,0,0:0:0:0:
201,170,39716,1,0,0:0:0:0:
201,170,39791,1,0,0:0:0:0:
232,128,39943,1,0,0:0:0:0:
232,128,40095,1,8,0:0:0:0:
256,192,40246,12,0,40701,0:0:0:0:
204,147,41004,5,12,0:0:0:0:
204,147,41307,5,4,0:0:0:0:
207,141,41761,1,0,0:0:0:0:
207,141,41913,1,8,0:0:0:0:
207,141,42064,1,0,0:0:0:0:
207,141,42216,1,8,0:0:0:0:
207,141,42291,1,8,0:0:0:0:
207,141,42367,1,8,0:0:0:0:
207,141,42519,1,8,0:0:0:0:
207,141,42973,1,0,0:0:0:0:
207,141,43125,1,8,0:0:0:0:
207,141,43276,1,0,0:0:0:0:
207,141,43428,1,8,0:0:0:0:
207,141,43504,1,8,0:0:0:0:
207,141,43579,1,8,0:0:0:0:
207,141,43731,1,0,0:0:0:0:
171,164,43882,1,8,0:0:0:0:
207,141,44034,1,0,0:0:0:0:
207,141,44337,1,8,0:0:0:0:
207,141,44488,1,0,0:0:0:0:
207,141,44640,1,8,0:0:0:0:
207,141,44716,1,8,0:0:0:0:
206,151,44791,1,8,0:0:0:0:
204,151,44943,1,8,0:0:0:0:
207,141,45398,1,0,0:0:0:0:
207,141,45549,1,8,0:0:0:0:
207,141,45852,1,8,0:0:0:0:
201,145,46155,1,4,0:0:0:0:
207,141,46610,1,0,0:0:0:0:
207,141,46761,1,8,0:0:0:0:
207,141,46913,1,0,0:0:0:0:
207,141,47064,1,8,0:0:0:0:
207,141,47140,1,8,0:0:0:0:
207,141,47216,1,8,0:0:0:0:
207,141,47367,1,0,0:0:0:0:
207,141,47822,1,0,0:0:0:0:
207,141,47973,1,8,0:0:0:0:
207,141,48125,1,0,0:0:0:0:
207,141,48276,1,8,0:0:0:0:
207,141,48352,1,8,0:0:0:0:
207,141,48428,1,8,0:0:0:0:
207,141,48579,1,0,0:0:0:0:
207,141,49034,1,0,0:0:0:0:
207,141,49185,1,8,0:0:0:0:
207,141,49337,1,0,0:0:0:0:
207,141,49488,1,8,0:0:0:0:
207,141,49564,1,8,0:0:0:0:
206,151,49640,1,8,0:0:0:0:
204,151,49791,1,0,0:0:0:0:
248,218,50019,1,0,0:0:0:0:
171,176,50246,1,0,0:0:0:0:
207,141,50398,1,8,0:0:0:0:
207,141,50473,1,8,0:0:0:0:
207,141,50549,1,8,0:0:0:0:
207,141,50701,1,12,0:0:0:0:
235,141,50852,1,8,0:0:0:0:
178,167,51004,1,4,0:0:0:0:
207,141,51458,1,8,0:0:0:0:
207,141,51610,1,0,0:0:0:0:
207,141,51761,1,0,0:0:0:0:
207,141,51913,1,8,0:0:0:0:
207,141,51988,1,8,0:0:0:0:
207,141,52064,1,8,0:0:0:0:
207,141,52216,1,0,0:0:0:0:
207,141,52670,1,8,0:0:0:0:
207,141,52822,1,0,0:0:0:0:
207,141,52973,1,8,0:0:0:0:
207,141,53125,1,0,0:0:0:0:
207,141,53201,1,0,0:0:0:0:
207,141,53276,1,0,0:0:0:0:
207,141,53428,1,8,0:0:0:0:
207,141,53882,1,0,0:0:0:0:
207,141,54034,1,8,0:0:0:0:
207,141,54185,1,0,0:0:0:0:
207,141,54337,1,8,0:0:0:0:
207,141,54413,1,8,0:0:0:0:
206,151,54488,1,8,0:0:0:0:
204,151,54640,1,0,0:0:0:0:
207,141,55094,1,8,0:0:0:0:
207,141,55246,1,8,0:0:0:0:
207,141,55398,1,0,0:0:0:0:
207,141,55549,1,8,0:0:0:0:
178,159,55625,1,8,0:0:0:0:
182,147,55701,1,8,0:0:0:0:
182,147,55852,1,4,0:0:0:0:
207,141,56307,1,8,0:0:0:0:
207,141,56458,1,8,0:0:0:0:
207,141,56610,1,0,0:0:0:0:
207,141,56761,1,0,0:0:0:0:
207,141,56837,1,0,0:0:0:0:
207,141,56913,1,0,0:0:0:0:
207,141,57064,1,8,0:0:0:0:
207,141,57519,1,0,0:0:0:0:
207,141,57670,1,8,0:0:0:0:
207,141,57822,1,0,0:0:0:0:
207,141,57973,1,8,0:0:0:0:
207,141,58049,1,8,0:0:0:0:
207,141,58125,1,8,0:0:0:0:
207,141,58276,1,0,0:0:0:0:
207,141,58731,1,0,0:0:0:0:
207,141,58882,1,8,0:0:0:0:
207,141,59034,1,0,0:0:0:0:
207,141,59185,1,8,0:0:0:0:
207,141,59261,1,8,0:0:0:0:
206,151,59337,1,8,0:0:0:0:
204,151,59488,1,4,0:0:0:0:
207,141,59791,1,8,0:0:0:0:
207,141,59867,1,8,0:0:0:0:
207,141,59943,1,8,0:0:0:0:
207,141,60094,1,0,0:0:0:0:
207,141,60246,1,0,0:0:0:0:
207,141,60398,1,8,0:0:0:0:
204,147,60473,1,8,0:0:0:0:
204,147,60549,1,8,0:0:0:0:
204,147,60701,1,4,0:0:0:0:
159,149,61004,1,8,0:0:0:0:
138,157,61155,1,8,0:0:0:0:
159,149,61307,1,0,0:0:0:0:
138,157,61458,1,0,0:0:0:0:
138,157,61534,1,0,0:0:0:0:
133,150,61610,1,0,0:0:0:0:
159,149,61913,1,8,0:0:0:0:
135,132,62064,1,0,0:0:0:0:
149,129,62140,1,0,0:0:0:0:
159,149,62216,1,0,0:0:0:0:
149,128,62367,1,8,0:0:0:0:
159,149,62519,1,0,0:0:0:0:
159,149,62822,1,8,0:0:0:0:
159,149,63125,1,0,0:0:0:0:
159,149,63428,1,8,0:0:0:0:
152,92,63579,1,0,0:0:0:0:
159,149,63731,1,8,0:0:0:0:
152,92,63882,1,0,0:0:0:0:
152,92,63958,1,0,0:0:0:0:
152,92,64034,1,0,0:0:0:0:
152,92,64185,1,0,0:0:0:0:
159,149,64337,5,8,0:0:0:0:
159,149,64640,1,8,0:0:0:0:
152,92,64791,1,0,0:0:0:0:
159,149,64943,1,8,0:0:0:0:
152,92,65094,1,0,0:0:0:0:
152,92,65170,1,0,0:0:0:0:
159,149,65246,1,0,0:0:0:0:
152,92,65398,1,0,0:0:0:0:
152,92,65549,1,12,0:0:0:0:
146,148,65852,1,8,0:0:0:0:
146,148,66004,1,0,0:0:0:0:
146,148,66155,1,8,0:0:0:0:
146,148,66231,1,8,0:0:0:0:
146,148,66307,1,8,0:0:0:0:
146,148,66458,1,8,0:0:0:0:
298,258,66761,1,0,0:0:0:0:
192,138,66913,1,8,0:0:0:0:
298,258,67064,1,0,0:0:0:0:
192,138,67140,1,0,0:0:0:0:
195,144,67216,1,0,0:0:0:0:
195,144,67367,1,8,0:0:0:0:
162,143,67670,1,0,0:0:0:0:
189,144,67973,1,8,0:0:0:0:
188,146,68276,1,0,0:0:0:0:
187,146,68428,1,8,0:0:0:0:
187,146,68579,1,0,0:0:0:0:
187,146,68731,1,8,0:0:0:0:
187,146,68807,1,8,0:0:0:0:
189,144,68882,1,8,0:0:0:0:
188,146,69034,1,8,0:0:0:0:
188,146,69185,1,4,0:0:0:0:
187,146,69413,1,4,0:0:0:0:
187,146,69640,1,4,0:0:0:0:
182,146,69867,1,8,0:0:0:0:
180,145,70095,1,8,0:0:0:0:
179,145,70398,1,4,0:0:0:0:
177,146,70625,1,4,0:0:0:0:
175,146,70852,1,4,0:0:0:0:
180,145,71155,1,0,0:0:0:0:
179,145,71307,1,8,0:0:0:0:
177,146,71610,1,4,0:0:0:0:
175,146,71837,1,4,0:0:0:0:
172,146,72064,1,4,0:0:0:0:
175,146,72367,1,0,0:0:0:0:
172,146,72519,1,0,0:0:0:0:
175,146,72670,1,0,0:0:0:0:
175,146,72822,1,8,0:0:0:0:
172,146,73125,1,0,0:0:0:0:
175,146,73276,1,8,0:0:0:0:
175,146,73428,1,0,0:0:0:0:
175,146,73579,1,0,0:0:0:0:
175,146,73655,1,0,0:0:0:0:
175,146,73731,1,0,0:0:0:0:
172,146,73882,1,8,0:0:0:0:
172,146,74034,1,0,0:0:0:0:
167,154,74337,1,0,0:0:0:0:
167,154,74640,1,0,0:0:0:0:
167,154,74791,1,0,0:0:0:0:
167,154,74867,1,0,0:0:0:0:
167,154,74943,1,0,0:0:0:0:
167,154,75094,1,8,0:0:0:0:
167,154,75246,1,4,0:0:0:0:
162,143,75549,1,0,0:0:0:0:
167,154,75701,1,8,0:0:0:0:
188,136,75852,1,0,0:0:0:0:
188,136,75928,1,0,0:0:0:0:
167,154,76004,1,0,0:0:0:0:
167,154,76155,1,8,0:0:0:0:
168,131,76307,1,0,0:0:0:0:
167,154,76458,1,8,0:0:0:0:
194,151,76761,1,8,0:0:0:0:
194,151,76913,1,0,0:0:0:0:
194,151,77064,1,8,0:0:0:0:
139,143,77140,1,8,0:0:0:0:
194,151,77216,1,8,0:0:0:0:
116,140,77367,1,0,0:0:0:0:
194,151,77519,1,8,0:0:0:0:
194,151,77670,1,0,0:0:0:0:
194,151,77973,1,0,0:0:0:0:
194,151,78125,1,0,0:0:0:0:
194,151,78428,1,0,0:0:0:0:
194,151,78504,1,0,0:0:0:0:
194,151,78579,1,0,0:0:0:0:
194,151,78731,1,8,0:0:0:0:
194,151,78882,5,0,0:0:0:0:
194,151,79185,1,8,0:0:0:0:
192,143,79337,1,0,0:0:0:0:
192,143,79488,1,8,0:0:0:0:
192,143,79640,1,0,0:0:0:0:
192,143,79716,1,0,0:0:0:0:
192,143,79791,1,0,0:0:0:0:
192,143,79943,1,0,0:0:0:0:
192,143,80094,1,12,0:0:0:0:
192,143,80852,1,0,0:0:0:0:
192,143,80928,1,0,0:0:0:0:
192,143,81004,1,0,0:0:0:0:
192,143,81155,1,8,0:0:0:0:
192,143,81307,1,4,0:0:0:0:
124,141,81610,1,8,0:0:0:0:
124,141,81761,1,0,0:0:0:0:
124,141,81913,1,0,0:0:0:0:
124,141,82064,1,8,0:0:0:0:
124,141,82140,1,8,0:0:0:0:
124,141,82216,1,8,0:0:0:0:
124,141,82367,1,8,0:0:0:0:
149,149,82519,1,0,0:0:0:0:
149,149,82822,1,8,0:0:0:0:
149,149,82973,1,0,0:0:0:0:
149,149,83125,1,0,0:0:0:0:
149,149,83276,1,8,0:0:0:0:
149,149,83352,1,8,0:0:0:0:
149,149,83428,1,8,0:0:0:0:
149,149,83579,1,0,0:0:0:0:
149,149,83731,1,8,0:0:0:0:
159,149,84034,1,8,0:0:0:0:
159,149,84337,1,8,0:0:0:0:
152,92,84488,1,0,0:0:0:0:
152,92,84564,1,0,0:0:0:0:
159,149,84640,1,0,0:0:0:0:
152,92,84791,1,0,0:0:0:0:
152,92,84943,1,12,0:0:0:0:
146,148,85246,1,8,0:0:0:0:
146,148,85398,1,0,0:0:0:0:
146,148,85549,1,8,0:0:0:0:
146,148,85625,1,8,0:0:0:0:
146,148,85701,1,8,0:0:0:0:
146,148,85852,1,8,0:0:0:0:
146,148,86004,1,8,0:0:0:0:
298,258,86155,1,0,0:0:0:0:
298,258,86458,1,0,0:0:0:0:
195,144,86610,1,8,0:0:0:0:
195,144,86761,1,0,0:0:0:0:
195,144,86837,1,0,0:0:0:0:
195,144,86913,1,0,0:0:0:0:
116,140,87064,1,0,0:0:0:0:
195,144,87216,1,8,0:0:0:0:
189,144,87367,1,0,0:0:0:0:
188,146,87670,1,8,0:0:0:0:
187,146,87822,1,8,0:0:0:0:
187,146,88125,1,8,0:0:0:0:
187,146,88201,1,8,0:0:0:0:
189,144,88276,1,8,0:0:0:0:
188,146,88428,1,8,0:0:0:0:
188,146,88579,1,4,0:0:0:0:
222,174,88807,1,0,0:0:0:0:
222,174,89034,1,0,0:0:0:0:
222,174,89185,1,8,0:0:0:0:
222,174,89488,1,8,0:0:0:0:
222,174,89640,1,8,0:0:0:0:
205,159,89791,5,4,0:0:0:0:
195,179,90094,1,0,0:0:0:0:
205,159,90246,1,0,0:0:0:0:
205,159,90398,1,8,0:0:0:0:
205,159,90549,1,0,0:0:0:0:
205,159,90625,1,0,0:0:0:0:
205,159,90701,1,0,0:0:0:0:
202,158,90852,1,8,0:0:0:0:
202,158,91004,1,0,0:0:0:0:
205,159,91307,1,8,0:0:0:0:
205,159,91458,1,0,0:0:0:0:
205,159,91610,1,8,0:0:0:0:
202,158,91761,1,0,0:0:0:0:
202,158,91837,1,0,0:0:0:0:
202,158,91913,1,0,0:0:0:0:
205,159,92064,1,8,0:0:0:0:
170,160,92216,1,0,0:0:0:0:
170,160,92519,1,0,0:0:0:0:
170,160,92670,1,0,0:0:0:0:
170,160,92822,1,8,0:0:0:0:
170,160,92973,1,0,0:0:0:0:
170,160,93049,1,0,0:0:0:0:
170,160,93125,1,0,0:0:0:0:
170,160,93276,1,0,0:0:0:0:
170,160,93428,1,8,0:0:0:0:
170,160,93731,1,8,0:0:0:0:
170,160,94034,1,8,0:0:0:0:
170,160,94185,1,0,0:0:0:0:
170,160,94261,1,0,0:0:0:0:
170,160,94337,1,0,0:0:0:0:
170,160,94488,1,8,0:0:0:0:
205,159,94640,5,4,0:0:0:0:
200,197,94943,1,8,0:0:0:0:
200,197,95094,1,0,0:0:0:0:
200,197,95246,1,8,0:0:0:0:
200,197,95398,1,0,0:0:0:0:
200,197,95473,1,0,0:0:0:0:
200,197,95549,1,0,0:0:0:0:
200,197,95701,1,8,0:0:0:0:
200,197,95852,1,0,0:0:0:0:
200,197,96155,1,0,0:0:0:0:
200,197,96307,1,8,0:0:0:0:
200,197,96458,1,0,0:0:0:0:
200,197,96610,1,8,0:0:0:0:
200,197,96685,1,8,0:0:0:0:
158,148,96761,1,8,0:0:0:0:
200,197,96913,1,8,0:0:0:0:
200,197,97064,5,0,0:0:0:0:
200,197,97367,1,0,0:0:0:0:
200,197,97519,1,0,0:0:0:0:
200,197,97822,1,8,0:0:0:0:
200,197,97898,1,8,0:0:0:0:
200,197,97973,1,8,0:0:0:0:
200,197,98125,1,0,0:0:0:0:
205,159,98276,1,8,0:0:0:0:
211,151,98579,1,8,0:0:0:0:
211,151,98655,1,8,0:0:0:0:
211,151,98731,1,8,0:0:0:0:
211,151,98882,1,8,0:0:0:0:
211,151,99034,1,0,0:0:0:0:
211,151,99185,1,8,0:0:0:0:
211,151,99261,1,8,0:0:0:0:
211,151,99337,1,8,0:0:0:0:
228,176,99488,5,0,0:0:0:0:
256,192,99640,12,0,100701,0:0:0:0:
