osu file format v14

[General]
AudioFilename: ZxNX - FORTALiCE.mp3
AudioLeadIn: 0
PreviewTime: 108002
Countdown: 0
SampleSet: Soft
StackLeniency: 0.7
Mode: 3
LetterboxInBreaks: 0
SpecialStyle: 0
WidescreenStoryboard: 0

[Editor]
DistanceSpacing: 2.8
BeatDivisor: 4
GridSize: 16
TimelineZoom: 2.9

[Metadata]
Title:FORTALiCE
TitleUnicode:FORTALiCE
Artist:ZxNX
ArtistUnicode:ZxNX
Creator:FAMoss
Version:Fortress
Source:THE BMS OF FIGHTERS XVI -NEO DYSTOPIA-
Tags:zuna vorticalex team pandora cyber industry tech symphony core BOFXVI 参加作品 uk hardcore trap drum and bass dnb electronic instrumental dynamix kalpa orzmic rizline rhyzinus
BeatmapID:3550473
BeatmapSetID:1737101

[Difficulty]
HPDrainRate:8.5
CircleSize:4
OverallDifficulty:8.5
ApproachRate:5
SliderMultiplier:1.4
SliderTickRate:1

[Events]
//Background and Video events
0,0,"FORTLICE_4_3.jpg",0,0
//Break Periods
//Storyboard Layer 0 (Background)
//Storyboard Layer 1 (Fail)
//Storyboard Layer 2 (Pass)
//Storyboard Layer 3 (Foreground)
//Storyboard Layer 4 (Overlay)
//Storyboard Sound Samples
Sample,21836,0,"Bells (7).wav",100
Sample,71669,0,"Percussion (53).wav",100
Sample,94836,0,"Bells (57).wav",100
Sample,95169,0,"Bells (59).wav",100
Sample,95169,0,"Orchestral Percussion (8).wav",100
Sample,95502,0,"Bells (61).wav",100
Sample,95836,0,"Bells (63).wav",100
Sample,96169,0,"Bells (65).wav",100
Sample,96502,0,"Orchestral Percussion (8).wav",100
Sample,96502,0,"Bells (67).wav",100
Sample,96836,0,"Bells (69).wav",100
Sample,97169,0,"Bells (71).wav",100

[TimingPoints]
3,333.333333333333,4,2,1,70,1,0
33669,-100,4,2,1,70,0,1
44002,-100,4,2,1,70,0,0
66336,-100,4,2,1,70,0,1
76002,-100,4,2,1,70,0,0
108336,-100,4,2,1,70,0,1
124002,-100,4,2,1,70,0,0
129669,-100,4,2,1,70,0,1
138669,-100,4,2,1,70,0,0

[HitObjects]
64,192,3,5,2,0:0:0:0:
192,192,3,1,0,0:0:0:0:
448,192,3,1,0,0:0:0:0:
320,192,169,1,0,0:0:0:0:
64,192,252,1,0,0:0:0:0:
192,192,336,1,0,0:0:0:0:
448,192,419,1,0,0:0:0:0:
192,192,502,1,0,0:0:0:0:
64,192,586,1,0,0:0:0:0:
320,192,669,1,0,0:0:0:0:
192,192,836,1,0,0:0:0:0:
448,192,919,1,0,0:0:0:0:
64,192,1002,1,0,0:0:0:0:
320,192,1169,1,0,0:0:0:0:
192,192,1252,1,0,0:0:0:0:
64,192,1336,1,2,0:0:0:0:
320,192,1336,1,4,0:0:0:0:
448,192,1336,1,0,0:0:0:0:
448,192,1502,1,0,0:0:0:0:
320,192,1586,1,0,0:0:0:0:
64,192,1669,1,2,0:0:0:0:
192,192,1669,1,0,0:0:0:0:
192,192,1836,1,0,0:0:0:0:
320,192,1919,1,0,0:0:0:0:
64,192,2002,1,2,0:0:0:0:
448,192,2002,1,0,0:0:0:0:
448,192,2169,1,0,0:0:0:0:
320,192,2252,1,0,0:0:0:0:
64,192,2336,1,2,0:0:0:0:
192,192,2336,1,0,0:0:0:0:
192,192,2502,1,0,0:0:0:0:
320,192,2586,1,0,0:0:0:0:
64,192,2669,1,2,0:0:0:0:
448,192,2669,1,0,0:0:0:0:
64,192,2836,1,0,0:0:0:0:
192,192,2919,1,0,0:0:0:0:
320,192,3002,1,2,0:0:0:0:
448,192,3002,1,0,0:0:0:0:
320,192,3169,1,0,0:0:0:0:
192,192,3252,1,0,0:0:0:0:
64,192,3336,1,2,0:0:0:0:
448,192,3336,1,0,0:0:0:0:
64,192,3502,1,0,0:0:0:0:
192,192,3586,1,0,0:0:0:0:
320,192,3669,1,2,0:0:0:0:
448,192,3669,1,0,0:0:0:0:
320,192,3836,1,0,0:0:0:0:
192,192,3919,1,0,0:0:0:0:
64,192,4002,1,2,0:0:0:0:
448,192,4002,1,0,0:0:0:0:
448,192,4169,1,0,0:0:0:0:
320,192,4252,1,0,0:0:0:0:
64,192,4336,1,2,0:0:0:0:
192,192,4336,1,0,0:0:0:0:
448,192,4419,128,0,4502:0:0:0:0:
192,192,4502,1,0,0:0:0:0:
320,192,4586,1,0,0:0:0:0:
64,192,4669,1,2,0:0:0:0:
448,192,4669,1,0,0:0:0:0:
448,192,4836,1,0,0:0:0:0:
320,192,4919,1,0,0:0:0:0:
64,192,5002,1,2,0:0:0:0:
192,192,5002,1,0,0:0:0:0:
320,192,5086,128,0,5169:0:0:0:0:
192,192,5169,1,0,0:0:0:0:
320,192,5252,1,0,0:0:0:0:
64,192,5336,1,2,0:0:0:0:
448,192,5336,1,0,0:0:0:0:
64,192,5502,1,0,0:0:0:0:
192,192,5586,1,0,0:0:0:0:
320,192,5669,1,2,0:0:0:0:
448,192,5669,1,0,0:0:0:0:
64,192,5752,128,0,5836:0:0:0:0:
320,192,5836,1,0,0:0:0:0:
192,192,5919,1,0,0:0:0:0:
64,192,6002,1,2,0:0:0:0:
448,192,6002,1,0,0:0:0:0:
192,192,6169,1,0,0:0:0:0:
320,192,6252,1,2,0:0:0:0:
448,192,6252,1,0,0:0:0:0:
64,192,6336,1,2,0:0:0:0:
192,192,6336,1,8,0:0:0:0:
320,192,6419,1,0,0:0:0:0:
64,192,6502,1,2,0:0:0:0:
448,192,6502,1,0,0:0:0:0:
192,192,6586,1,0,0:0:0:0:
64,192,6669,1,4,0:0:0:0:
320,192,6669,1,2,0:0:0:0:
448,192,6669,1,0,0:0:0:0:
192,192,6836,1,0,0:0:0:0:
320,192,6919,1,0,0:0:0:0:
64,192,7002,1,8,0:0:0:0:
192,192,7002,1,2,0:0:0:0:
448,192,7002,1,0,0:0:0:0:
448,192,7169,1,0,0:0:0:0:
320,192,7252,1,0,0:0:0:0:
64,192,7336,1,2,0:0:0:0:
192,192,7336,1,0,0:0:0:0:
320,192,7502,1,0,0:0:0:0:
192,192,7586,1,0,0:0:0:0:
64,192,7669,1,8,0:0:0:0:
320,192,7669,1,2,0:0:0:0:
448,192,7669,1,0,0:0:0:0:
448,192,7836,1,0,0:0:0:0:
320,192,7919,1,0,0:0:0:0:
64,192,8002,1,2,0:0:0:0:
192,192,8002,1,0,0:0:0:0:
320,192,8169,1,0,0:0:0:0:
192,192,8252,1,0,0:0:0:0:
64,192,8336,1,2,0:0:0:0:
320,192,8336,1,8,0:0:0:0:
448,192,8336,1,0,0:0:0:0:
192,192,8419,1,0,0:0:0:0:
448,192,8502,1,0,0:0:0:0:
320,192,8586,1,0,0:0:0:0:
64,192,8669,1,2,0:0:0:0:
192,192,8669,1,0,0:0:0:0:
448,192,8752,1,0,0:0:0:0:
320,192,8836,1,0,0:0:0:0:
192,192,8919,1,0,0:0:0:0:
64,192,9002,1,8,0:0:0:0:
320,192,9002,1,2,0:0:0:0:
448,192,9002,1,0,0:0:0:0:
192,192,9086,1,0,0:0:0:0:
448,192,9169,1,0,0:0:0:0:
192,192,9252,1,0,0:0:0:0:
320,192,9336,1,2,0:0:0:0:
448,192,9336,1,0,0:0:0:0:
64,192,9419,1,0,0:0:0:0:
192,192,9502,1,8,0:0:0:0:
320,192,9586,1,0,0:0:0:0:
64,192,9669,1,2,0:0:0:0:
192,192,9669,1,8,0:0:0:0:
448,192,9669,1,0,0:0:0:0:
320,192,9752,1,0,0:0:0:0:
192,192,9836,1,8,0:0:0:0:
320,192,9919,1,0,0:0:0:0:
64,192,10002,1,2,0:0:0:0:
448,192,10002,1,0,0:0:0:0:
192,192,10086,1,0,0:0:0:0:
320,192,10169,1,8,0:0:0:0:
192,192,10252,1,8,0:0:0:0:
64,192,10336,1,8,0:0:0:0:
320,192,10336,1,2,0:0:0:0:
448,192,10336,1,0,0:0:0:0:
192,192,10419,1,0,0:0:0:0:
448,192,10502,1,8,0:0:0:0:
320,192,10586,1,8,0:0:0:0:
64,192,10669,1,0,0:0:0:0:
448,192,10669,1,0,0:0:0:0:
192,192,10669,1,0,0:0:0:100:Kick + Snare (7).wav
64,192,11002,1,0,0:0:0:0:
192,192,11002,1,0,0:0:0:100:Kick + Snare (7).wav
448,192,11002,1,0,0:0:0:0:
320,192,11169,128,0,11336:0:0:0:0:
448,192,11336,1,0,0:0:0:0:
192,192,11336,1,0,0:0:0:100:Kick + Snare (7).wav
64,192,11336,1,0,0:0:0:0:
192,192,11502,1,0,0:0:0:0:
320,192,11586,1,2,0:0:0:0:
448,192,11586,1,0,0:0:0:0:
64,192,11669,1,0,0:0:0:100:Percussion (17).wav
192,192,11669,128,0,11836:0:0:0:100:Kick + Snare (7).wav
448,192,11669,1,0,0:0:0:0:
320,192,11836,128,0,12002:0:0:0:0:
64,192,12002,1,2,0:0:0:0:
192,192,12002,1,4,0:0:0:0:
448,192,12002,1,0,0:0:0:0:
192,192,12169,1,0,0:0:0:0:
448,192,12336,1,0,0:0:0:0:
448,192,12502,1,0,0:0:0:0:
64,192,12669,1,0,0:0:0:0:
64,192,12836,1,0,0:0:0:0:
320,192,13002,1,0,0:0:0:0:
320,192,13169,1,0,0:0:0:0:
64,192,13336,1,0,0:0:0:0:
192,192,13336,1,0,0:0:0:0:
192,192,13502,1,0,0:0:0:0:
448,192,13669,1,0,0:0:0:0:
448,192,13836,1,0,0:0:0:0:
64,192,14002,1,0,0:0:0:0:
64,192,14169,1,0,0:0:0:0:
192,192,14336,1,0,0:0:0:0:
192,192,14502,1,0,0:0:0:0:
320,192,14669,1,0,0:0:0:0:
448,192,14669,1,0,0:0:0:0:
320,192,14836,1,0,0:0:0:0:
64,192,15002,1,0,0:0:0:0:
64,192,15169,1,0,0:0:0:0:
448,192,15336,1,0,0:0:0:0:
448,192,15502,1,0,0:0:0:0:
192,192,15669,1,0,0:0:0:0:
192,192,15836,1,0,0:0:0:0:
320,192,16002,1,0,0:0:0:0:
448,192,16002,1,0,0:0:0:0:
320,192,16169,1,0,0:0:0:0:
64,192,16336,1,0,0:0:0:0:
64,192,16502,1,0,0:0:0:0:
448,192,16669,1,0,0:0:0:0:
448,192,16836,1,0,0:0:0:0:
64,192,17002,1,0,0:0:0:0:
320,192,17044,1,0,0:0:0:0:
192,192,17086,1,0,0:0:0:0:
448,192,17127,1,0,0:0:0:0:
320,192,17169,1,0,0:0:0:0:
64,192,17211,1,0,0:0:0:0:
192,192,17252,1,0,0:0:0:0:
320,192,17294,1,0,0:0:0:0:
64,192,17336,1,6,0:0:0:0:
448,192,17336,1,0,0:0:0:100:Bells (14).wav
448,192,17502,1,0,0:0:0:0:
192,192,17669,1,0,0:0:0:100:Bells (2).wav
192,192,17836,1,0,0:0:0:0:
64,192,18002,128,0,18086:0:0:0:100:Bells (15).wav
320,192,18002,1,0,0:0:0:0:
320,192,18169,1,0,0:0:0:0:
64,192,18336,1,0,0:0:0:100:Bells (4).wav
64,192,18502,1,0,0:0:0:0:
320,192,18669,128,0,18752:0:0:0:100:Bells (18).wav
448,192,18669,1,0,0:0:0:0:
448,192,18836,1,0,0:0:0:0:
192,192,19002,1,0,0:0:0:0:
192,192,19169,1,0,0:0:0:100:Bells (18).wav
448,192,19169,128,0,19252:0:0:0:0:
320,192,19336,1,0,0:0:0:0:
320,192,19502,1,0,0:0:0:0:
64,192,19669,128,0,19752:0:0:0:100:Bells (7).wav
192,192,19669,1,0,0:0:0:0:
192,192,19836,1,0,0:0:0:0:
64,192,20002,1,0,0:0:0:0:
448,192,20002,128,0,20114:0:0:0:0:
192,192,20114,128,0,20225:0:0:0:0:
320,192,20225,128,0,20336:0:0:0:0:
448,192,20336,128,0,20447:0:0:0:100:Bells (21).wav
192,192,20447,128,0,20558:0:0:0:0:
64,192,20558,128,0,20669:0:0:0:0:
320,192,20669,128,0,20780:0:0:0:100:Bells (22).wav
192,192,20780,128,0,20891:0:0:0:0:
448,192,20891,128,0,21002:0:0:0:0:
64,192,21002,128,0,21114:0:0:0:100:Bells (10).wav
320,192,21114,128,0,21225:0:0:0:0:
192,192,21225,128,0,21336:0:0:0:0:
64,192,21336,128,0,21447:0:0:0:100:Bells (11).wav
448,192,21336,1,0,0:0:0:0:
320,192,21447,128,0,21558:0:0:0:0:
192,192,21558,128,0,21669:0:0:0:0:
64,192,21669,128,0,21780:0:0:0:0:
320,192,21780,128,0,21891:0:0:0:0:
448,192,21891,128,0,22002:0:0:0:0:
192,192,22002,128,0,22114:0:0:0:0:
320,192,22114,1,0,0:0:0:0:
64,192,22169,1,0,0:0:0:0:
320,192,22252,1,2,0:0:0:0:
448,192,22252,1,0,0:0:0:0:
64,192,22336,128,0,22586:0:0:0:100:Percussion (17).wav
192,192,22336,128,0,22586:0:0:0:0:
448,192,22336,128,0,22586:0:0:0:0:
64,192,22669,1,4,0:0:0:0:
192,192,22669,1,8,0:0:0:0:
320,192,22669,1,0,0:0:0:0:
448,192,22669,1,0,0:0:0:0:
64,192,22836,128,0,23002:0:0:0:0:
192,192,23002,1,8,0:0:0:0:
320,192,23002,1,0,0:0:0:0:
448,192,23002,1,0,0:0:0:0:
320,192,23169,128,0,23336:0:0:0:0:
64,192,23336,1,8,0:0:0:0:
192,192,23336,1,0,0:0:0:0:
448,192,23336,128,0,23502:0:0:0:0:
192,192,23502,1,0,0:0:0:0:
320,192,23586,128,0,23752:0:0:0:0:
64,192,23669,1,8,0:0:0:0:
192,192,23669,1,0,0:0:0:0:
448,192,23669,1,0,0:0:0:0:
320,192,23836,1,0,0:0:0:0:
320,192,23919,1,0,0:0:0:0:
64,192,24002,1,8,0:0:0:0:
192,192,24002,1,0,0:0:0:0:
448,192,24002,128,0,24169:0:0:0:0:
64,192,24169,1,0,0:0:0:0:
192,192,24252,128,0,24419:0:0:0:0:
64,192,24336,1,8,0:0:0:0:
320,192,24336,1,0,0:0:0:0:
448,192,24336,1,0,0:0:0:0:
320,192,24502,128,0,24669:0:0:0:0:
64,192,24669,1,8,0:0:0:0:
192,192,24669,1,0,0:0:0:0:
448,192,24669,128,0,24836:0:0:0:0:
192,192,24836,1,0,0:0:0:0:
320,192,24919,128,0,25086:0:0:0:0:
64,192,25002,1,8,0:0:0:0:
192,192,25002,1,0,0:0:0:0:
448,192,25002,1,0,0:0:0:0:
320,192,25169,1,0,0:0:0:0:
320,192,25252,1,0,0:0:0:0:
64,192,25336,1,8,0:0:0:0:
192,192,25336,1,0,0:0:0:0:
448,192,25336,1,0,0:0:0:0:
448,192,25502,128,0,25669:0:0:0:0:
64,192,25669,1,8,0:0:0:0:
192,192,25669,1,0,0:0:0:0:
320,192,25669,1,0,0:0:0:0:
192,192,25836,128,0,26002:0:0:0:0:
64,192,26002,128,8,26169:0:0:0:0:
320,192,26002,1,0,0:0:0:0:
448,192,26002,1,0,0:0:0:0:
320,192,26169,1,0,0:0:0:0:
192,192,26252,128,0,26419:0:0:0:0:
64,192,26336,1,8,0:0:0:0:
320,192,26336,1,0,0:0:0:0:
448,192,26336,1,0,0:0:0:0:
192,192,26502,1,0,0:0:0:0:
192,192,26586,1,0,0:0:0:0:
64,192,26669,128,8,26836:0:0:0:0:
320,192,26669,1,0,0:0:0:0:
448,192,26669,1,0,0:0:0:0:
448,192,26836,1,0,0:0:0:0:
320,192,26919,128,0,27086:0:0:0:0:
64,192,27002,1,8,0:0:0:0:
192,192,27002,1,0,0:0:0:0:
448,192,27002,1,0,0:0:0:0:
192,192,27169,128,0,27336:0:0:0:0:
64,192,27336,128,8,27502:0:0:0:0:
320,192,27336,1,0,0:0:0:0:
448,192,27336,1,0,0:0:0:0:
320,192,27502,128,0,27586:0:0:0:0:
192,192,27586,128,0,27669:0:0:0:0:
64,192,27669,1,8,0:0:0:0:
320,192,27669,128,0,27752:0:0:0:0:
448,192,27669,128,0,27836:0:0:0:0:
64,192,27836,128,0,28002:0:0:0:0:
192,192,27919,128,0,28002:0:0:0:0:
320,192,28002,1,2,0:0:0:0:
448,192,28002,1,8,0:0:0:0:
64,192,28169,1,8,0:0:0:0:
192,192,28169,1,0,0:0:0:0:
448,192,28169,1,0,0:0:0:0:
192,192,28336,1,2,0:0:0:0:
320,192,28336,1,8,0:0:0:0:
64,192,28502,1,8,0:0:0:0:
320,192,28502,1,0,0:0:0:0:
448,192,28502,1,0,0:0:0:0:
64,192,28669,1,8,0:0:0:0:
192,192,28669,1,2,0:0:0:0:
192,192,28836,1,8,0:0:0:0:
320,192,28836,1,0,0:0:0:0:
448,192,28836,1,0,0:0:0:0:
64,192,29002,1,2,0:0:0:0:
448,192,29002,1,8,0:0:0:0:
64,192,29169,1,8,0:0:0:0:
192,192,29169,1,0,0:0:0:0:
448,192,29169,1,0,0:0:0:0:
320,192,29252,1,0,0:0:0:0:
64,192,29336,1,2,0:0:0:0:
192,192,29336,1,8,0:0:0:0:
64,192,29502,1,8,0:0:0:0:
320,192,29502,1,0,0:0:0:0:
448,192,29502,1,0,0:0:0:0:
192,192,29669,1,8,0:0:0:0:
320,192,29669,1,2,0:0:0:0:
64,192,29836,1,8,0:0:0:0:
192,192,29836,1,0,0:0:0:0:
448,192,29836,1,0,0:0:0:0:
320,192,30002,1,8,0:0:0:0:
448,192,30002,1,2,0:0:0:0:
64,192,30169,1,8,0:0:0:0:
192,192,30169,1,0,0:0:0:0:
320,192,30169,1,0,0:0:0:0:
64,192,30336,1,8,0:0:0:0:
448,192,30336,1,2,0:0:0:0:
64,192,30502,1,8,0:0:0:0:
320,192,30502,1,0,0:0:0:0:
448,192,30502,1,0,0:0:0:0:
192,192,30586,1,0,0:0:0:0:
320,192,30669,1,2,0:0:0:0:
448,192,30669,1,8,0:0:0:0:
192,192,30752,1,8,0:0:0:0:
64,192,30836,1,8,0:0:0:0:
320,192,30836,1,0,0:0:0:0:
448,192,30919,1,8,0:0:0:0:
64,192,31002,1,2,0:0:0:0:
192,192,31002,1,8,0:0:0:0:
320,192,31086,1,8,0:0:0:0:
192,192,31169,1,8,0:0:0:0:
448,192,31169,1,0,0:0:0:0:
64,192,31252,1,8,0:0:0:0:
320,192,31336,1,8,0:0:0:0:
448,192,31336,1,2,0:0:0:0:
192,192,31419,1,8,0:0:0:0:
64,192,31502,1,8,0:0:0:0:
448,192,31502,1,0,0:0:0:0:
320,192,31586,1,8,0:0:0:0:
64,192,31669,1,8,0:0:0:0:
192,192,31669,1,0,0:0:0:0:
320,192,31752,1,8,0:0:0:0:
64,192,31836,1,8,0:0:0:0:
448,192,31836,1,0,0:0:0:0:
192,192,31919,1,8,0:0:0:0:
64,192,32002,1,2,0:0:0:0:
320,192,32002,128,0,32669:0:0:0:0:
448,192,32002,1,0,0:0:0:0:
64,192,32669,128,0,32752:0:0:0:0:
448,192,32752,128,0,32836:0:0:0:0:
192,192,32836,128,0,32919:0:0:0:0:
320,192,32919,128,0,33002:0:0:0:0:
64,192,33002,128,0,33252:0:0:0:100:Percussion (17).wav
192,192,33002,128,0,33252:0:0:0:0:
448,192,33002,128,0,33252:0:0:0:0:
64,192,33336,128,2,33586:0:0:0:0:
320,192,33336,128,0,33586:0:0:0:0:
448,192,33336,128,0,33586:0:0:0:100:String Shots (2).wav
192,192,33336,128,0,33586:0:0:0:0:
64,192,33669,1,2,0:0:0:0:
320,192,33669,1,8,0:0:0:0:
448,192,33669,1,4,0:0:0:0:
192,192,33836,1,0,0:0:0:0:
320,192,33919,1,0,0:0:0:0:
64,192,34002,128,2,34169:0:0:0:0:
448,192,34002,1,0,0:0:0:0:
320,192,34169,1,0,0:0:0:0:
192,192,34252,128,0,34419:0:0:0:0:
64,192,34336,1,8,0:0:0:0:
320,192,34336,1,2,0:0:0:0:
448,192,34336,1,0,0:0:0:0:
192,192,34502,1,0,0:0:0:0:
192,192,34586,1,0,0:0:0:0:
64,192,34669,128,2,34836:0:0:0:0:
320,192,34669,1,0,0:0:0:0:
448,192,34836,1,0,0:0:0:0:
320,192,34919,128,0,35086:0:0:0:0:
64,192,35002,1,8,0:0:0:0:
192,192,35002,1,2,0:0:0:0:
448,192,35002,1,0,0:0:0:0:
192,192,35169,1,0,0:0:0:0:
320,192,35252,1,0,0:0:0:0:
64,192,35336,128,2,35502:0:0:0:0:
448,192,35336,1,0,0:0:0:0:
320,192,35502,1,0,0:0:0:0:
192,192,35586,128,0,35752:0:0:0:0:
64,192,35669,1,2,0:0:0:0:
320,192,35669,1,8,0:0:0:0:
448,192,35669,1,0,0:0:0:0:
448,192,35836,1,0,0:0:0:0:
320,192,35919,1,0,0:0:0:0:
64,192,36002,128,2,36252:0:0:0:0:
192,192,36002,128,0,36169:0:0:0:0:
448,192,36169,1,0,0:0:0:0:
320,192,36252,1,0,0:0:0:0:
64,192,36336,1,2,0:0:0:0:
192,192,36336,1,8,0:0:0:0:
448,192,36336,1,0,0:0:0:0:
320,192,36502,1,0,0:0:0:0:
192,192,36586,1,0,0:0:0:0:
64,192,36669,1,2,0:0:0:0:
448,192,36669,128,0,36836:0:0:0:0:
192,192,36836,1,0,0:0:0:0:
320,192,36919,128,0,37086:0:0:0:0:
64,192,37002,1,8,0:0:0:0:
192,192,37002,1,2,0:0:0:0:
448,192,37002,1,0,0:0:0:0:
320,192,37169,1,0,0:0:0:0:
320,192,37252,1,0,0:0:0:0:
192,192,37336,1,2,0:0:0:0:
448,192,37336,128,0,37502:0:0:0:0:
64,192,37502,1,0,0:0:0:0:
192,192,37586,128,0,37752:0:0:0:0:
64,192,37669,1,8,0:0:0:0:
320,192,37669,1,2,0:0:0:0:
448,192,37669,1,0,0:0:0:0:
320,192,37836,1,0,0:0:0:0:
64,192,37919,1,0,0:0:0:0:
320,192,38002,1,2,0:0:0:0:
448,192,38002,128,0,38169:0:0:0:0:
192,192,38086,128,0,38252:0:0:0:0:
64,192,38252,1,2,0:0:0:0:
448,192,38252,1,0,0:0:0:0:
320,192,38336,1,0,0:0:0:0:
320,192,38419,1,0,0:0:0:0:
64,192,38502,1,2,0:0:0:0:
192,192,38502,1,0,0:0:0:0:
320,192,38586,1,0,0:0:0:0:
64,192,38669,1,2,0:0:0:0:
192,192,38669,1,4,0:0:0:0:
448,192,38669,1,0,0:0:0:0:
192,192,38836,1,0,0:0:0:0:
192,192,38919,1,0,0:0:0:0:
64,192,39002,1,2,0:0:0:0:
320,192,39002,1,8,0:0:0:0:
448,192,39002,1,0,0:0:0:0:
192,192,39086,1,0,0:0:0:0:
192,192,39169,1,0,0:0:0:0:
320,192,39252,1,0,0:0:0:0:
64,192,39336,128,2,39502:0:0:0:0:
448,192,39336,1,0,0:0:0:0:
320,192,39502,1,0,0:0:0:0:
192,192,39586,128,0,39752:0:0:0:0:
64,192,39669,1,8,0:0:0:0:
320,192,39669,1,2,0:0:0:0:
448,192,39669,1,0,0:0:0:0:
192,192,39836,1,0,0:0:0:0:
192,192,39919,1,0,0:0:0:0:
64,192,40002,1,2,0:0:0:0:
448,192,40002,128,0,40169:0:0:0:0:
192,192,40169,1,0,0:0:0:0:
320,192,40252,128,0,40419:0:0:0:0:
64,192,40336,1,8,0:0:0:0:
192,192,40336,1,2,0:0:0:0:
448,192,40336,1,0,0:0:0:0:
448,192,40502,1,0,0:0:0:0:
320,192,40586,1,0,0:0:0:0:
64,192,40669,1,2,0:0:0:0:
192,192,40669,128,0,40836:0:0:0:0:
448,192,40836,1,0,0:0:0:0:
320,192,40919,128,0,41086:0:0:0:0:
64,192,41002,1,2,0:0:0:0:
192,192,41002,1,8,0:0:0:0:
448,192,41002,1,0,0:0:0:0:
64,192,41169,1,0,0:0:0:0:
192,192,41252,1,0,0:0:0:0:
320,192,41336,128,2,41502:0:0:0:0:
448,192,41336,128,0,41586:0:0:0:0:
64,192,41502,1,0,0:0:0:0:
192,192,41586,1,0,0:0:0:0:
64,192,41669,1,2,0:0:0:0:
320,192,41669,128,8,41836:0:0:0:0:
448,192,41669,1,0,0:0:0:0:
192,192,41836,1,0,0:0:0:0:
192,192,41919,1,0,0:0:0:0:
320,192,42002,1,2,0:0:0:0:
448,192,42002,128,0,42169:0:0:0:0:
192,192,42169,1,0,0:0:0:0:
64,192,42252,1,2,0:0:0:0:
320,192,42252,1,0,0:0:0:0:
448,192,42252,1,0,0:0:0:0:
192,192,42336,128,0,42669:0:0:0:0:
320,192,42502,128,0,42669:0:0:0:0:
64,192,42669,128,8,42836:0:0:0:0:
448,192,42669,1,2,0:0:0:0:
320,192,42836,1,0,0:0:0:0:
64,192,43002,128,2,43169:0:0:0:0:
192,192,43002,1,8,0:0:0:0:
448,192,43002,1,0,0:0:0:0:
320,192,43169,1,0,0:0:0:0:
320,192,43252,1,0,0:0:0:0:
64,192,43336,128,2,43502:0:0:0:0:
192,192,43336,1,8,0:0:0:0:
448,192,43336,1,0,0:0:0:0:
320,192,43419,1,0,0:0:0:0:
192,192,43502,1,0,0:0:0:0:
320,192,43586,1,2,0:0:0:0:
448,192,43586,1,0,0:0:0:0:
64,192,43669,1,0,0:0:0:100:Kick + Snare (7).wav
192,192,43669,1,0,0:0:0:100:String Shots (1).wav
448,192,43669,1,0,0:0:0:0:
320,192,43752,1,0,0:0:0:0:
64,192,43836,1,2,0:0:0:0:
192,192,43877,1,2,0:0:0:0:
448,192,43919,1,2,0:0:0:0:
320,192,43961,1,2,0:0:0:0:
64,192,44002,128,6,44252:0:0:0:0:
192,192,44002,128,0,44252:0:0:0:100:String Shots (2).wav
64,192,44336,1,2,0:0:0:0:
192,192,44336,1,8,0:0:0:0:
448,192,44336,1,0,0:0:0:0:
320,192,44502,1,0,0:0:0:0:
192,192,44586,1,0,0:0:0:0:
64,192,44669,1,2,0:0:0:0:
448,192,44669,128,0,44836:0:0:0:0:
192,192,44836,1,0,0:0:0:0:
320,192,44919,128,0,45086:0:0:0:0:
64,192,45002,1,8,0:0:0:0:
192,192,45002,1,2,0:0:0:0:
448,192,45002,1,0,0:0:0:0:
64,192,45169,1,0,0:0:0:0:
64,192,45252,1,0,0:0:0:0:
320,192,45336,1,2,0:0:0:0:
448,192,45336,128,0,45502:0:0:0:0:
192,192,45502,1,0,0:0:0:0:
320,192,45586,128,0,45752:0:0:0:0:
64,192,45669,1,8,0:0:0:0:
192,192,45669,1,2,0:0:0:0:
448,192,45669,1,0,0:0:0:0:
192,192,45836,1,0,0:0:0:0:
320,192,45919,1,0,0:0:0:0:
64,192,46002,1,2,0:0:0:0:
448,192,46002,128,0,46169:0:0:0:0:
192,192,46169,1,0,0:0:0:0:
320,192,46252,128,0,46419:0:0:0:0:
64,192,46336,1,2,0:0:0:0:
192,192,46336,1,8,0:0:0:0:
448,192,46336,1,0,0:0:0:0:
64,192,46502,1,0,0:0:0:0:
192,192,46586,1,0,0:0:0:0:
320,192,46669,1,2,0:0:0:0:
448,192,46669,128,0,46919:0:0:0:0:
64,192,46836,1,0,0:0:0:0:
192,192,46919,1,0,0:0:0:0:
64,192,47002,1,2,0:0:0:0:
320,192,47002,1,8,0:0:0:0:
448,192,47002,1,0,0:0:0:0:
192,192,47169,1,0,0:0:0:0:
320,192,47252,1,0,0:0:0:0:
64,192,47336,128,2,47502:0:0:0:0:
448,192,47336,1,0,0:0:0:0:
192,192,47502,1,0,0:0:0:0:
320,192,47586,128,0,47752:0:0:0:0:
64,192,47669,1,8,0:0:0:0:
192,192,47669,1,2,0:0:0:0:
448,192,47669,1,0,0:0:0:0:
320,192,47836,1,0,0:0:0:0:
320,192,47919,1,0,0:0:0:0:
64,192,48002,128,2,48169:0:0:0:0:
192,192,48002,1,0,0:0:0:0:
448,192,48169,1,0,0:0:0:0:
192,192,48252,128,0,48419:0:0:0:0:
64,192,48336,1,8,0:0:0:0:
320,192,48336,1,2,0:0:0:0:
448,192,48336,1,0,0:0:0:0:
320,192,48502,1,0,0:0:0:0:
192,192,48586,1,0,0:0:0:0:
64,192,48669,128,2,48836:0:0:0:0:
448,192,48669,1,0,0:0:0:0:
320,192,48919,1,2,0:0:0:0:
448,192,48919,1,0,0:0:0:0:
64,192,49002,1,8,0:0:0:0:
192,192,49002,1,2,0:0:0:0:
320,192,49086,1,0,0:0:0:0:
64,192,49169,1,2,0:0:0:0:
448,192,49169,1,0,0:0:0:0:
192,192,49252,1,0,0:0:0:0:
64,192,49336,1,4,0:0:0:0:
320,192,49336,1,2,0:0:0:0:
448,192,49336,1,0,0:0:0:0:
320,192,49502,1,0,0:0:0:0:
320,192,49586,1,0,0:0:0:0:
64,192,49669,1,8,0:0:0:0:
192,192,49669,1,2,0:0:0:0:
448,192,49669,1,0,0:0:0:0:
320,192,49752,1,0,0:0:0:0:
320,192,49836,1,0,0:0:0:0:
192,192,49919,1,0,0:0:0:0:
64,192,50002,1,2,0:0:0:0:
448,192,50002,128,0,50169:0:0:0:0:
192,192,50169,1,0,0:0:0:0:
320,192,50252,128,0,50419:0:0:0:0:
64,192,50336,1,8,0:0:0:0:
192,192,50336,1,2,0:0:0:0:
448,192,50336,1,0,0:0:0:0:
320,192,50502,1,0,0:0:0:0:
320,192,50586,1,0,0:0:0:0:
64,192,50669,128,2,50836:0:0:0:0:
448,192,50669,1,0,0:0:0:0:
320,192,50836,1,0,0:0:0:0:
192,192,50919,128,0,51086:0:0:0:0:
64,192,51002,1,2,0:0:0:0:
320,192,51002,1,8,0:0:0:0:
448,192,51002,1,0,0:0:0:0:
64,192,51169,1,0,0:0:0:0:
192,192,51252,1,0,0:0:0:0:
320,192,51336,128,2,51502:0:0:0:0:
448,192,51336,1,0,0:0:0:0:
64,192,51502,1,0,0:0:0:0:
192,192,51586,1,0,0:0:0:0:
448,192,51669,128,0,51752:0:0:0:0:
192,192,51752,128,0,51836:0:0:0:0:
448,192,51836,128,0,51919:0:0:0:0:
192,192,51919,128,0,52002:0:0:0:0:
64,192,52002,1,2,0:0:0:0:
320,192,52002,128,0,52336:0:0:0:0:
448,192,52002,1,0,0:0:0:0:
192,192,52169,128,0,52336:0:0:0:100:Percussion (28).wav
64,192,52336,128,2,52669:0:0:0:0:
448,192,52336,1,8,0:0:0:0:
448,192,52502,128,0,52669:0:0:0:100:Percussion (28).wav
192,192,52669,128,2,53002:0:0:0:0:
320,192,52669,1,0,0:0:0:0:
320,192,52836,128,0,53002:0:0:0:100:Percussion (28).wav
64,192,53002,1,2,0:0:0:0:
448,192,53002,128,8,53336:0:0:0:0:
64,192,53169,128,0,53336:0:0:0:100:Percussion (28).wav
192,192,53336,128,2,53502:0:0:0:0:
320,192,53336,128,0,53669:0:0:0:0:
64,192,53669,1,0,0:0:0:0:
192,192,53669,1,0,0:0:0:0:
320,192,53836,1,0,0:0:0:0:
192,192,53919,1,0,0:0:0:0:
64,192,54002,1,0,0:0:0:0:
448,192,54002,1,0,0:0:0:0:
192,192,54169,1,0,0:0:0:0:
320,192,54252,1,2,0:0:0:0:
448,192,54252,1,0,0:0:0:0:
64,192,54336,128,0,54586:0:0:0:100:Percussion (17).wav
192,192,54336,1,0,0:0:0:0:
448,192,54336,128,0,54586:0:0:0:0:
320,192,54502,128,0,54669:0:0:0:0:
64,192,54669,1,0,0:0:0:100:Kick + Snare (7).wav
192,192,54669,128,0,55002:0:0:0:0:
448,192,54669,1,0,0:0:0:0:
320,192,54836,1,0,0:0:0:0:
448,192,55002,1,0,0:0:0:0:
192,192,55169,1,0,0:0:0:0:
320,192,55252,1,0,0:0:0:0:
64,192,55336,1,4,0:0:0:0:
448,192,55336,128,0,55502:0:0:0:100:Kick + Snare (26).wav
192,192,55502,1,0,0:0:0:0:
64,192,55586,128,0,55752:0:0:0:0:
320,192,55669,1,2,0:0:0:0:
448,192,55669,1,0,0:0:0:0:
192,192,55836,1,0,0:0:0:0:
320,192,55919,1,0,0:0:0:0:
448,192,56002,128,0,56169:0:0:0:0:
192,192,56169,1,0,0:0:0:0:
64,192,56252,128,0,56419:0:0:0:0:
320,192,56336,1,2,0:0:0:0:
448,192,56336,1,0,0:0:0:0:
192,192,56502,1,0,0:0:0:0:
320,192,56586,1,0,0:0:0:0:
64,192,56669,1,0,0:0:0:100:Kick + Snare (26).wav
448,192,56669,128,0,56836:0:0:0:0:
192,192,56836,1,0,0:0:0:0:
64,192,56919,128,0,57086:0:0:0:0:
320,192,57002,128,0,57169:0:0:0:0:
64,192,57169,1,0,0:0:0:0:
192,192,57169,1,0,0:0:0:0:
448,192,57169,1,0,0:0:0:0:
320,192,57336,1,0,0:0:0:100:Kick + Snare (7).wav
448,192,57336,128,0,57669:0:0:0:0:
192,192,57669,128,0,57752:0:0:0:100:Percussion (53).wav
320,192,57836,128,0,57919:0:0:0:100:Percussion (54).wav
64,192,58002,128,0,58169:0:0:0:100:Kick + Snare (26).wav
448,192,58002,1,0,0:0:0:0:
320,192,58169,1,0,0:0:0:0:
448,192,58252,128,0,58419:0:0:0:0:
64,192,58336,1,2,0:0:0:0:
192,192,58336,1,0,0:0:0:0:
320,192,58502,1,0,0:0:0:0:
192,192,58586,1,0,0:0:0:0:
64,192,58669,128,0,58836:0:0:0:0:
192,192,58836,1,2,0:0:0:0:
320,192,58836,1,0,0:0:0:0:
448,192,58919,128,0,59086:0:0:0:0:
64,192,59002,1,0,0:0:0:0:
320,192,59169,1,0,0:0:0:0:
192,192,59252,1,0,0:0:0:0:
64,192,59336,128,0,59502:0:0:0:100:Kick + Snare (26).wav
448,192,59336,1,0,0:0:0:0:
320,192,59502,1,0,0:0:0:0:
448,192,59586,1,0,0:0:0:0:
64,192,59669,1,2,0:0:0:0:
192,192,59669,1,8,0:0:0:0:
320,192,59752,1,2,0:0:0:0:
448,192,59752,1,0,0:0:0:0:
64,192,59836,1,2,0:0:0:0:
192,192,59836,1,0,0:0:0:0:
320,192,59919,1,2,0:0:0:0:
64,192,60002,1,4,0:0:0:0:
192,192,60002,1,2,0:0:0:0:
448,192,60002,1,0,0:0:0:0:
320,192,60169,1,0,0:0:0:0:
192,192,60252,1,0,0:0:0:0:
192,192,60336,1,10,0:0:0:0:
64,192,60419,1,0,0:0:0:0:
320,192,60419,1,0,0:0:0:0:
448,192,60419,1,0,0:0:0:0:
192,192,60502,1,0,0:0:0:0:
192,192,60586,1,0,0:0:0:0:
64,192,60669,1,2,0:0:0:0:
448,192,60669,128,0,60836:0:0:0:0:
192,192,60836,1,0,0:0:0:0:
320,192,60919,128,0,61086:0:0:0:0:
64,192,61002,1,2,0:0:0:0:
192,192,61002,1,8,0:0:0:0:
448,192,61002,1,0,0:0:0:0:
320,192,61169,1,0,0:0:0:0:
320,192,61252,1,0,0:0:0:0:
192,192,61336,1,2,0:0:0:0:
448,192,61336,128,0,61502:0:0:0:0:
64,192,61502,1,0,0:0:0:0:
192,192,61586,128,0,61752:0:0:0:0:
64,192,61669,1,2,0:0:0:0:
320,192,61669,1,8,0:0:0:0:
448,192,61669,1,0,0:0:0:0:
320,192,61836,1,0,0:0:0:0:
192,192,61919,1,0,0:0:0:0:
64,192,62002,1,2,0:0:0:0:
448,192,62002,128,0,62169:0:0:0:0:
192,192,62169,1,0,0:0:0:0:
320,192,62252,128,0,62419:0:0:0:0:
64,192,62336,1,8,0:0:0:0:
192,192,62336,1,2,0:0:0:0:
448,192,62336,1,0,0:0:0:0:
64,192,62502,1,0,0:0:0:0:
192,192,62586,1,0,0:0:0:0:
320,192,62669,128,2,62836:0:0:0:0:
448,192,62669,128,0,62919:0:0:0:0:
64,192,62836,1,8,0:0:0:0:
192,192,62919,1,0,0:0:0:0:
64,192,63002,128,2,63169:0:0:0:0:
320,192,63002,1,8,0:0:0:0:
448,192,63002,1,0,0:0:0:0:
192,192,63169,1,8,0:0:0:0:
320,192,63252,1,0,0:0:0:0:
64,192,63336,128,2,63502:0:0:0:0:
448,192,63336,1,0,0:0:0:0:
320,192,63502,1,8,0:0:0:0:
192,192,63586,1,8,0:0:0:0:
64,192,63669,128,8,63836:0:0:0:0:
320,192,63669,1,2,0:0:0:0:
448,192,63669,1,0,0:0:0:0:
192,192,63752,1,0,0:0:0:0:
448,192,63836,1,8,0:0:0:0:
320,192,63919,1,8,0:0:0:0:
64,192,64002,128,2,64336:0:0:0:0:
192,192,64002,1,0,0:0:0:100:Percussion (55).wav
448,192,64086,128,0,64252:0:0:0:0:
320,192,64169,128,0,64419:0:0:0:0:
192,192,64252,128,0,64502:0:0:0:0:
448,192,64336,128,0,64669:0:0:0:0:
64,192,64419,128,0,64669:0:0:0:0:
320,192,64502,128,0,64669:0:0:0:0:
192,192,64586,128,0,64669:0:0:0:0:
320,192,64836,1,0,0:0:0:0:
64,192,65002,128,0,65252:0:0:0:100:Kick + Snare (7).wav
192,192,65002,1,0,0:0:0:100:String Shots (1).wav
448,192,65002,128,0,65252:0:0:0:0:
64,192,65336,1,2,0:0:0:0:
320,192,65336,128,0,65669:0:0:0:100:String Shots (2).wav
448,192,65336,1,0,0:0:0:0:
64,192,65669,1,0,0:0:0:0:
448,192,65669,1,0,0:0:0:0:
192,192,65836,1,0,0:0:0:0:
320,192,65919,1,0,0:0:0:0:
64,192,66002,128,0,66169:0:0:0:100:Kick + Snare (26).wav
192,192,66002,1,0,0:0:0:0:
448,192,66002,128,0,66169:0:0:0:0:
64,192,66336,128,2,66502:0:0:0:0:
192,192,66336,128,4,66502:0:0:0:0:
320,192,66336,128,0,66586:0:0:0:0:
448,192,66336,128,0,66586:0:0:0:0:
64,192,66669,128,2,66919:0:0:0:0:
192,192,66669,128,0,66919:0:0:0:0:
320,192,66669,128,0,66836:0:0:0:0:
448,192,66669,128,0,66836:0:0:0:0:
64,192,67002,128,2,67169:0:0:0:0:
192,192,67002,128,0,67169:0:0:0:0:
320,192,67002,128,0,67252:0:0:0:0:
448,192,67002,128,0,67252:0:0:0:0:
64,192,67336,128,2,67586:0:0:0:0:
192,192,67336,128,0,67586:0:0:0:0:
320,192,67336,128,0,67502:0:0:0:0:
448,192,67336,128,0,67502:0:0:0:0:
64,192,67669,128,2,67752:0:0:0:0:
192,192,67669,128,0,67752:0:0:0:0:
320,192,67669,128,0,67919:0:0:0:0:
448,192,67669,128,0,67919:0:0:0:0:
64,192,67836,128,0,68002:0:0:0:0:
320,192,68002,128,2,68336:0:0:0:0:
448,192,68002,128,0,68502:0:0:0:0:
64,192,68336,1,0,0:0:0:0:
192,192,68419,1,0,0:0:0:0:
64,192,68502,1,0,0:0:0:0:
320,192,68586,1,0,0:0:0:0:
64,192,68669,128,0,68836:0:0:0:100:Kick + Snare (26).wav
192,192,68669,128,0,68836:0:0:0:0:
448,192,68669,1,0,0:0:0:0:
448,192,68836,128,0,69002:0:0:0:0:
320,192,68919,128,0,69002:0:0:0:0:
64,192,69002,128,2,69252:0:0:0:0:
192,192,69002,128,4,69252:0:0:0:0:
320,192,69169,128,0,69336:0:0:0:0:
448,192,69169,128,0,69336:0:0:0:0:
64,192,69336,128,2,69586:0:0:0:0:
192,192,69336,128,0,69586:0:0:0:0:
64,192,69669,128,2,69919:0:0:0:0:
192,192,69669,128,0,69919:0:0:0:0:
448,192,69669,128,0,69919:0:0:0:0:
320,192,70002,128,2,70252:0:0:0:0:
448,192,70002,128,0,70252:0:0:0:0:
64,192,70169,128,0,70336:0:0:0:0:
192,192,70252,128,0,70336:0:0:0:0:
320,192,70336,128,2,70586:0:0:0:0:
448,192,70336,128,0,70586:0:0:0:0:
64,192,70502,128,0,70669:0:0:0:0:
192,192,70502,128,0,70669:0:0:0:0:
320,192,70669,1,2,0:0:0:0:
448,192,70669,1,4,0:0:0:0:
192,192,70836,1,0,0:0:0:0:
320,192,70919,1,2,0:0:0:0:
448,192,70919,1,0,0:0:0:0:
64,192,71002,128,0,71086:0:0:0:0:
320,192,71086,128,0,71169:0:0:0:0:
64,192,71169,128,0,71252:0:0:0:0:
320,192,71252,128,0,71336:0:0:0:0:
64,192,71336,1,2,0:0:0:0:
192,192,71336,128,0,71502:0:0:0:0:
320,192,71502,1,0,0:0:0:0:
64,192,71586,1,2,0:0:0:0:
448,192,71586,128,0,71752:0:0:0:0:
192,192,71752,1,0,0:0:0:0:
320,192,71836,1,0,0:0:0:100:Percussion (54).wav
192,192,71919,1,0,0:0:0:0:
320,192,72002,128,2,72169:0:0:0:0:
448,192,72002,1,0,0:0:0:0:
192,192,72169,1,0,0:0:0:0:
64,192,72252,128,2,72419:0:0:0:0:
448,192,72252,1,0,0:0:0:0:
320,192,72419,1,0,0:0:0:0:
192,192,72502,1,0,0:0:0:0:
320,192,72586,1,0,0:0:0:0:
64,192,72669,1,2,0:0:0:0:
192,192,72669,128,0,72836:0:0:0:0:
320,192,72836,1,0,0:0:0:0:
64,192,72919,1,2,0:0:0:0:
192,192,72919,1,0,0:0:0:0:
448,192,73002,128,0,73086:0:0:0:0:
64,192,73086,128,0,73169:0:0:0:0:
448,192,73169,128,0,73252:0:0:0:0:
64,192,73252,128,0,73336:0:0:0:0:
320,192,73336,128,8,73419:0:0:0:0:
192,192,73502,128,8,73586:0:0:0:0:
64,192,73669,128,8,73752:0:0:0:0:
448,192,73836,128,8,73919:0:0:0:0:
192,192,73919,1,8,0:0:0:0:
320,192,74002,128,8,74086:0:0:0:0:
64,192,74086,1,8,0:0:0:0:
192,192,74169,128,8,74252:0:0:0:0:
448,192,74252,1,8,0:0:0:0:
64,192,74336,1,8,0:0:0:0:
192,192,74377,1,8,0:0:0:0:
320,192,74419,1,8,0:0:0:0:
448,192,74461,1,8,0:0:0:0:
64,192,74502,1,8,0:0:0:0:
192,192,74544,1,8,0:0:0:0:
320,192,74586,1,8,0:0:0:0:
64,192,74669,128,2,75002:0:0:0:0:
192,192,74669,1,4,0:0:0:0:
448,192,74936,1,0,0:0:0:0:
320,192,75002,1,0,0:0:0:0:
192,192,75069,1,0,0:0:0:0:
64,192,75136,1,0,0:0:0:0:
448,192,75202,1,0,0:0:0:0:
320,192,75269,1,0,0:0:0:0:
64,192,75336,1,0,0:0:0:0:
448,192,75419,1,0,0:0:0:0:
192,192,75502,1,0,0:0:0:0:
320,192,75586,1,2,0:0:0:0:
448,192,75586,1,0,0:0:0:0:
64,192,75669,128,0,75919:0:0:0:100:Percussion (17).wav
192,192,75669,128,0,75919:0:0:0:0:
448,192,75669,128,0,75919:0:0:0:0:
64,192,76002,1,2,0:0:0:0:
192,192,76002,1,4,0:0:0:0:
320,192,76002,128,0,77336:0:0:0:100:Bells (14).wav
448,192,76002,1,0,0:0:0:0:
192,192,76336,128,0,76419:0:0:0:100:Bells (15).wav
448,192,76669,128,0,76752:0:0:0:100:Bells (16).wav
64,192,77002,128,0,77086:0:0:0:100:Bells (17).wav
192,192,77336,128,0,78669:0:0:0:100:Bells (18).wav
448,192,77336,128,0,77419:0:0:0:0:
320,192,77836,128,0,77919:0:0:0:100:Bells (19).wav
64,192,78336,128,0,78419:0:0:0:100:Bells (20).wav
448,192,78669,128,0,80002:0:0:0:0:
320,192,79002,128,0,79086:0:0:0:100:Bells (21).wav
64,192,79336,128,0,79419:0:0:0:100:Bells (22).wav
192,192,79669,128,0,79752:0:0:0:100:Bells (23).wav
64,192,80002,128,0,81002:0:0:0:100:Bells (24).wav
320,192,80002,128,0,80086:0:0:0:0:
448,192,80502,128,0,80586:0:0:0:100:Bells (25).wav
448,192,81002,1,0,0:0:0:100:Bells (26).wav
192,192,81044,1,0,0:0:0:0:
320,192,81086,1,0,0:0:0:0:
64,192,81127,1,0,0:0:0:0:
192,192,81169,1,0,0:0:0:0:
448,192,81211,1,0,0:0:0:0:
320,192,81252,1,0,0:0:0:0:
192,192,81294,1,0,0:0:0:0:
64,192,81336,1,0,0:0:0:100:Orchestral Percussion (8).wav
448,192,81336,128,0,82669:0:0:0:100:Bells (27).wav
192,192,81669,128,0,81752:0:0:0:100:Bells (28).wav
64,192,82002,128,0,82086:0:0:0:100:Bells (29).wav
320,192,82336,128,0,82419:0:0:0:100:Bells (30).wav
64,192,82669,128,0,84002:0:0:0:100:Bells (31).wav
192,192,82669,128,0,82752:0:0:0:0:
448,192,83169,128,0,83252:0:0:0:100:Bells (32).wav
320,192,83669,128,0,83752:0:0:0:100:Bells (33).wav
448,192,84002,128,0,85336:0:0:0:0:
192,192,84336,128,0,84419:0:0:0:100:Bells (34).wav
320,192,84669,128,0,84752:0:0:0:100:Bells (35).wav
64,192,85002,128,0,85086:0:0:0:100:Bells (36).wav
192,192,85336,128,0,86169:0:0:0:100:Bells (37).wav
320,192,85336,128,0,85419:0:0:0:0:
448,192,85836,128,0,85919:0:0:0:100:Bells (38).wav
320,192,86169,1,0,0:0:0:100:Orchestral Percussion (8).wav
448,192,86169,1,0,0:0:0:0:
320,192,86336,1,0,0:0:0:100:Orchestral Percussion (8).wav
448,192,86336,1,0,0:0:0:100:Bells (39).wav
320,192,86502,1,0,0:0:0:100:Orchestral Percussion (8).wav
448,192,86502,1,0,0:0:0:0:
64,192,86669,1,4,0:0:0:0:
192,192,86669,1,0,0:0:0:100:Orchestral Percussion (8).wav
448,192,86669,1,0,0:0:0:100:Bells (40).wav
320,192,86836,1,0,0:0:0:100:Bells (41).wav
448,192,87002,1,0,0:0:0:100:Bells (42).wav
64,192,87169,1,0,0:0:0:100:Orchestral Percussion (8).wav
192,192,87169,1,0,0:0:0:100:Bells (43).wav
320,192,87336,1,0,0:0:0:100:Bells (44).wav
64,192,87502,1,0,0:0:0:100:Bells (45).wav
192,192,87669,1,0,0:0:0:100:Orchestral Percussion (8).wav
448,192,87669,1,0,0:0:0:100:Bells (46).wav
320,192,87836,1,0,0:0:0:100:Bells (47).wav
64,192,88002,1,0,0:0:0:100:Orchestral Percussion (8).wav
192,192,88002,1,0,0:0:0:100:Bells (48).wav
448,192,88002,1,0,0:0:0:0:
320,192,88169,1,0,0:0:0:100:Bells (49).wav
448,192,88336,1,0,0:0:0:100:Bells (50).wav
64,192,88502,1,0,0:0:0:100:Orchestral Percussion (8).wav
192,192,88502,1,0,0:0:0:100:Bells (51).wav
320,192,88669,1,0,0:0:0:100:Bells (52).wav
64,192,88836,1,0,0:0:0:100:Bells (53).wav
320,192,89002,1,0,0:0:0:100:Orchestral Percussion (8).wav
448,192,89002,1,0,0:0:0:100:Bells (54).wav
192,192,89169,1,0,0:0:0:100:Bells (55).wav
64,192,89336,1,0,0:0:0:100:Orchestral Percussion (8).wav
320,192,89336,1,0,0:0:0:100:Bells (56).wav
448,192,89336,1,0,0:0:0:0:
192,192,89502,1,0,0:0:0:100:Bells (57).wav
64,192,89669,1,0,0:0:0:100:Bells (58).wav
320,192,89836,1,0,0:0:0:100:Orchestral Percussion (8).wav
448,192,89836,1,0,0:0:0:100:Bells (59).wav
192,192,90002,1,0,0:0:0:100:Bells (60).wav
448,192,90169,1,0,0:0:0:100:Bells (61).wav
320,192,90336,1,0,0:0:0:100:Bells (62).wav
192,192,90502,1,0,0:0:0:100:Bells (63).wav
64,192,90669,1,0,0:0:0:100:Orchestral Percussion (8).wav
320,192,90669,1,0,0:0:0:100:Bells (64).wav
448,192,90669,1,0,0:0:0:0:
192,192,90836,1,0,0:0:0:100:Bells (65).wav
64,192,91002,1,0,0:0:0:100:Bells (66).wav
320,192,91169,1,0,0:0:0:100:Orchestral Percussion (8).wav
448,192,91169,1,0,0:0:0:100:Bells (67).wav
192,192,91336,1,0,0:0:0:100:Bells (68).wav
448,192,91502,1,0,0:0:0:100:Bells (69).wav
192,192,91669,1,0,0:0:0:100:Bells (70).wav
448,192,91711,1,0,0:0:0:0:
320,192,91752,1,0,0:0:0:0:
64,192,91794,1,0,0:0:0:0:
192,192,91836,1,0,0:0:0:100:Bells (71).wav
448,192,91877,1,0,0:0:0:0:
320,192,91919,1,0,0:0:0:0:
192,192,91961,1,0,0:0:0:0:
64,192,92002,1,0,0:0:0:100:Orchestral Percussion (8).wav
448,192,92002,1,0,0:0:0:100:Bells (40).wav
320,192,92169,1,0,0:0:0:100:Bells (41).wav
192,192,92336,1,0,0:0:0:100:Bells (42).wav
64,192,92502,1,0,0:0:0:100:Orchestral Percussion (8).wav
320,192,92502,1,0,0:0:0:100:Bells (43).wav
448,192,92502,1,0,0:0:0:0:
192,192,92669,1,0,0:0:0:100:Bells (44).wav
320,192,92836,1,0,0:0:0:100:Bells (45).wav
64,192,93002,1,0,0:0:0:100:Orchestral Percussion (8).wav
192,192,93002,1,0,0:0:0:100:Bells (46).wav
448,192,93002,1,0,0:0:0:0:
320,192,93169,1,0,0:0:0:100:Bells (47).wav
64,192,93336,1,0,0:0:0:100:Orchestral Percussion (8).wav
192,192,93336,1,0,0:0:0:100:Bells (48).wav
448,192,93336,1,0,0:0:0:0:
320,192,93502,1,0,0:0:0:100:Bells (49).wav
192,192,93669,1,0,0:0:0:100:Bells (50).wav
64,192,93836,1,0,0:0:0:100:Orchestral Percussion (8).wav
320,192,93836,1,0,0:0:0:100:Bells (51).wav
448,192,93836,1,0,0:0:0:0:
192,192,94002,1,0,0:0:0:100:Bells (52).wav
320,192,94169,1,0,0:0:0:100:Bells (53).wav
64,192,94336,1,0,0:0:0:100:Orchestral Percussion (8).wav
192,192,94336,1,0,0:0:0:100:Bells (54).wav
448,192,94336,1,0,0:0:0:0:
320,192,94502,1,0,0:0:0:100:Bells (55).wav
64,192,94669,1,0,0:0:0:100:Orchestral Percussion (8).wav
192,192,94669,1,0,0:0:0:100:Bells (56).wav
448,192,94669,1,0,0:0:0:0:
320,192,94780,1,0,0:0:0:0:
320,192,94891,1,0,0:0:0:0:
64,192,95002,1,0,0:0:0:100:Bells (58).wav
448,192,95002,1,0,0:0:0:0:
192,192,95114,1,0,0:0:0:0:
192,192,95225,1,0,0:0:0:0:
448,192,95336,1,0,0:0:0:100:Bells (60).wav
448,192,95447,1,0,0:0:0:0:
64,192,95558,1,0,0:0:0:0:
64,192,95669,1,0,0:0:0:100:Bells (62).wav
320,192,95780,1,0,0:0:0:0:
320,192,95891,1,0,0:0:0:0:
64,192,96002,128,0,96114:0:0:0:100:Orchestral Percussion (8).wav
192,192,96002,1,0,0:0:0:100:Bells (64).wav
448,192,96002,1,0,0:0:0:0:
320,192,96114,1,0,0:0:0:0:
448,192,96225,1,0,0:0:0:0:
64,192,96336,1,0,0:0:0:100:Bells (66).wav
192,192,96336,128,0,96447:0:0:0:0:
448,192,96447,1,0,0:0:0:0:
192,192,96558,1,0,0:0:0:0:
64,192,96669,1,0,0:0:0:100:Bells (68).wav
320,192,96669,128,0,96780:0:0:0:0:
192,192,96780,1,0,0:0:0:0:
320,192,96891,1,0,0:0:0:0:
64,192,97002,128,0,97114:0:0:0:100:Bells (70).wav
448,192,97002,128,0,97114:0:0:0:0:
192,192,97114,1,0,0:0:0:0:
320,192,97225,1,0,0:0:0:0:
64,192,97336,1,8,0:0:0:0:
192,192,97336,1,4,0:0:0:0:
448,192,97336,1,0,0:0:0:0:
320,192,97419,1,0,0:0:0:0:
192,192,97502,1,0,0:0:0:0:
320,192,97586,1,0,0:0:0:0:
64,192,97669,1,8,0:0:0:0:
192,192,97669,1,0,0:0:0:0:
448,192,97669,1,0,0:0:0:0:
320,192,97752,1,0,0:0:0:0:
192,192,97836,1,0,0:0:0:0:
64,192,98002,1,8,0:0:0:0:
320,192,98002,1,0,0:0:0:0:
448,192,98002,1,0,0:0:0:0:
192,192,98086,1,0,0:0:0:0:
448,192,98169,1,0,0:0:0:0:
320,192,98252,1,0,0:0:0:0:
64,192,98336,1,8,0:0:0:0:
192,192,98336,1,0,0:0:0:0:
448,192,98336,128,0,98502:0:0:0:0:
192,192,98502,128,0,98669:0:0:0:0:
64,192,98669,1,8,0:0:0:0:
320,192,98669,1,0,0:0:0:0:
448,192,98669,1,0,0:0:0:0:
192,192,98752,1,0,0:0:0:0:
448,192,98836,1,0,0:0:0:0:
192,192,98919,1,0,0:0:0:0:
64,192,99002,1,8,0:0:0:0:
320,192,99002,1,0,0:0:0:0:
448,192,99002,1,0,0:0:0:0:
192,192,99169,1,0,0:0:0:0:
192,192,99252,1,0,0:0:0:0:
64,192,99336,1,8,0:0:0:0:
320,192,99336,128,0,99502:0:0:0:0:
448,192,99336,1,0,0:0:0:0:
192,192,99502,128,0,99669:0:0:0:0:
64,192,99669,1,8,0:0:0:0:
320,192,99669,1,0,0:0:0:0:
448,192,99669,1,0,0:0:0:0:
448,192,99836,1,0,0:0:0:0:
192,192,99919,1,0,0:0:0:0:
64,192,100002,1,8,0:0:0:0:
320,192,100002,1,0,0:0:0:0:
448,192,100002,1,0,0:0:0:0:
192,192,100086,1,0,0:0:0:0:
320,192,100169,1,0,0:0:0:0:
192,192,100252,1,0,0:0:0:0:
64,192,100336,1,8,0:0:0:0:
320,192,100336,1,0,0:0:0:0:
448,192,100336,1,0,0:0:0:0:
192,192,100419,1,0,0:0:0:0:
320,192,100502,1,0,0:0:0:0:
64,192,100669,1,8,0:0:0:0:
192,192,100669,1,0,0:0:0:0:
448,192,100669,1,0,0:0:0:0:
320,192,100752,1,0,0:0:0:0:
64,192,100836,1,0,0:0:0:0:
192,192,100919,1,0,0:0:0:0:
64,192,101002,128,8,101169:0:0:0:0:
320,192,101002,1,0,0:0:0:0:
448,192,101002,1,0,0:0:0:0:
192,192,101169,1,0,0:0:0:0:
320,192,101252,1,0,0:0:0:0:
64,192,101336,1,8,0:0:0:0:
192,192,101336,1,0,0:0:0:0:
448,192,101336,1,0,0:0:0:0:
320,192,101419,1,0,0:0:0:0:
64,192,101502,1,0,0:0:0:0:
320,192,101586,1,0,0:0:0:0:
64,192,101669,1,8,0:0:0:0:
192,192,101669,1,0,0:0:0:0:
448,192,101669,1,0,0:0:0:0:
192,192,101836,1,0,0:0:0:0:
320,192,101919,1,0,0:0:0:0:
64,192,102002,1,8,0:0:0:0:
192,192,102002,128,0,102169:0:0:0:0:
448,192,102002,1,0,0:0:0:0:
320,192,102169,128,0,102336:0:0:0:0:
64,192,102336,128,2,102586:0:0:0:0:
192,192,102336,1,0,0:0:0:0:
448,192,102502,128,0,102669:0:0:0:0:
64,192,102669,1,8,0:0:0:0:
192,192,102669,1,2,0:0:0:0:
64,192,102836,1,8,0:0:0:0:
320,192,102836,1,0,0:0:0:0:
448,192,102836,1,0,0:0:0:0:
192,192,102919,1,0,0:0:0:0:
448,192,103002,1,8,0:0:0:0:
320,192,103002,1,2,0:0:0:0:
64,192,103169,1,8,0:0:0:0:
192,192,103169,1,0,0:0:0:0:
320,192,103169,1,0,0:0:0:0:
320,192,103336,1,2,0:0:0:0:
448,192,103336,1,8,0:0:0:0:
448,192,103502,1,8,0:0:0:0:
64,192,103502,1,0,0:0:0:0:
192,192,103502,1,0,0:0:0:0:
320,192,103586,1,0,0:0:0:0:
192,192,103669,1,2,0:0:0:0:
64,192,103669,1,8,0:0:0:0:
320,192,103836,1,0,0:0:0:0:
448,192,103836,1,8,0:0:0:0:
192,192,103836,1,0,0:0:0:0:
64,192,104002,1,8,0:0:0:0:
192,192,104002,1,2,0:0:0:0:
320,192,104169,1,0,0:0:0:0:
448,192,104169,1,0,0:0:0:0:
64,192,104169,1,8,0:0:0:0:
192,192,104252,1,0,0:0:0:0:
448,192,104336,1,8,0:0:0:0:
320,192,104336,1,2,0:0:0:0:
320,192,104502,1,0,0:0:0:0:
64,192,104502,1,8,0:0:0:0:
192,192,104502,1,0,0:0:0:0:
320,192,104669,1,2,0:0:0:0:
448,192,104669,1,8,0:0:0:0:
448,192,104836,1,8,0:0:0:0:
64,192,104836,1,0,0:0:0:0:
192,192,104836,1,0,0:0:0:0:
320,192,104919,1,0,0:0:0:0:
192,192,105002,1,2,0:0:0:0:
64,192,105002,1,8,0:0:0:0:
192,192,105169,1,0,0:0:0:0:
448,192,105169,1,8,0:0:0:0:
320,192,105169,1,0,0:0:0:0:
64,192,105336,1,8,0:0:0:0:
448,192,105336,1,0,0:0:0:0:
320,192,105336,1,2,0:0:0:0:
192,192,105461,1,8,0:0:0:0:
320,192,105461,1,0,0:0:0:0:
64,192,105586,1,2,0:0:0:0:
192,192,105586,1,8,0:0:0:0:
448,192,105586,1,0,0:0:0:0:
64,192,105711,1,8,0:0:0:0:
320,192,105711,1,0,0:0:0:0:
192,192,105836,1,2,0:0:0:0:
320,192,105836,1,8,0:0:0:0:
448,192,105836,1,0,0:0:0:0:
64,192,105961,1,8,0:0:0:0:
448,192,105961,1,0,0:0:0:0:
64,192,106086,1,2,0:0:0:0:
192,192,106086,1,8,0:0:0:0:
320,192,106086,1,0,0:0:0:0:
192,192,106211,1,8,0:0:0:0:
448,192,106211,1,0,0:0:0:0:
64,192,106336,1,2,0:0:0:0:
320,192,106336,1,8,0:0:0:0:
448,192,106336,1,0,0:0:0:0:
192,192,106419,1,8,0:0:0:0:
64,192,106502,1,8,0:0:0:0:
320,192,106502,1,2,0:0:0:0:
448,192,106502,1,0,0:0:0:0:
192,192,106586,1,8,0:0:0:0:
64,192,106669,128,8,106752:0:0:0:0:
448,192,106669,128,0,106752:0:0:0:0:
64,192,106836,128,8,106919:0:0:0:0:
448,192,106836,128,0,106919:0:0:0:0:
64,192,107002,128,8,107086:0:0:0:0:
448,192,107002,128,0,107086:0:0:0:0:
64,192,107169,128,8,107252:0:0:0:0:
448,192,107169,128,0,107252:0:0:0:0:
192,192,107336,128,0,107502:0:0:0:0:
448,192,107502,128,0,107669:0:0:0:0:
64,192,107669,128,0,108002:0:0:0:0:
192,192,107836,128,0,108002:0:0:0:0:
320,192,108002,128,0,108252:0:0:0:100:Kick + Snare (7).wav
448,192,108002,128,0,108252:0:0:0:0:
64,192,108336,1,2,0:0:0:0:
192,192,108336,1,8,0:0:0:0:
448,192,108336,1,4,0:0:0:0:
320,192,108419,1,0,0:0:0:0:
64,192,108502,1,0,0:0:0:0:
320,192,108586,1,0,0:0:0:0:
64,192,108669,1,2,0:0:0:0:
448,192,108669,1,0,0:0:0:0:
192,192,108752,1,0,0:0:0:0:
320,192,108836,1,0,0:0:0:0:
192,192,108919,1,0,0:0:0:0:
64,192,109002,1,8,0:0:0:0:
320,192,109002,1,2,0:0:0:0:
448,192,109002,1,0,0:0:0:0:
192,192,109086,1,0,0:0:0:0:
448,192,109169,128,0,109336:0:0:0:0:
64,192,109336,1,2,0:0:0:0:
192,192,109336,1,0,0:0:0:0:
448,192,109419,1,0,0:0:0:0:
320,192,109502,1,0,0:0:0:0:
192,192,109586,1,0,0:0:0:0:
64,192,109669,1,8,0:0:0:0:
320,192,109669,1,2,0:0:0:0:
448,192,109669,1,0,0:0:0:0:
192,192,109752,1,0,0:0:0:0:
448,192,109836,1,0,0:0:0:0:
320,192,109919,1,0,0:0:0:0:
64,192,110002,1,2,0:0:0:0:
192,192,110002,1,0,0:0:0:0:
320,192,110086,1,0,0:0:0:0:
448,192,110169,1,0,0:0:0:0:
192,192,110252,1,0,0:0:0:0:
64,192,110336,1,2,0:0:0:0:
320,192,110336,1,8,0:0:0:0:
448,192,110336,1,0,0:0:0:0:
192,192,110419,1,0,0:0:0:0:
320,192,110502,128,0,110669:0:0:0:0:
64,192,110669,1,2,0:0:0:0:
448,192,110669,1,0,0:0:0:0:
320,192,110780,1,0,0:0:0:0:
64,192,110836,1,0,0:0:0:0:
192,192,110891,1,0,0:0:0:0:
320,192,110947,1,0,0:0:0:0:
64,192,111002,1,2,0:0:0:0:
192,192,111002,1,8,0:0:0:0:
448,192,111002,1,0,0:0:0:0:
320,192,111086,1,0,0:0:0:0:
192,192,111169,1,0,0:0:0:0:
320,192,111252,1,0,0:0:0:0:
64,192,111336,1,2,0:0:0:0:
192,192,111336,1,0,0:0:0:0:
448,192,111419,1,0,0:0:0:0:
64,192,111502,1,0,0:0:0:0:
320,192,111586,1,0,0:0:0:0:
64,192,111669,1,8,0:0:0:0:
192,192,111669,1,2,0:0:0:0:
448,192,111669,1,0,0:0:0:0:
320,192,111752,1,0,0:0:0:0:
192,192,111836,128,0,112002:0:0:0:0:
64,192,112002,1,2,0:0:0:0:
448,192,112002,1,0,0:0:0:0:
192,192,112086,1,0,0:0:0:0:
320,192,112169,1,0,0:0:0:0:
192,192,112252,1,0,0:0:0:0:
64,192,112336,1,8,0:0:0:0:
320,192,112336,1,2,0:0:0:0:
448,192,112336,1,0,0:0:0:0:
192,192,112419,1,0,0:0:0:0:
448,192,112502,1,0,0:0:0:0:
320,192,112558,1,0,0:0:0:0:
64,192,112669,1,2,0:0:0:0:
192,192,112669,1,0,0:0:0:0:
320,192,112752,1,0,0:0:0:0:
192,192,112836,1,0,0:0:0:0:
320,192,112919,1,2,0:0:0:0:
448,192,112919,1,0,0:0:0:0:
64,192,113002,1,8,0:0:0:0:
192,192,113002,1,2,0:0:0:0:
448,192,113002,1,0,0:0:0:0:
320,192,113086,128,0,113169:0:0:0:0:
64,192,113169,1,2,0:0:0:0:
448,192,113169,128,0,113252:0:0:0:0:
192,192,113252,128,0,113336:0:0:0:0:
320,192,113336,128,2,113586:0:0:0:0:
448,192,113336,128,4,113586:0:0:0:0:
192,192,113502,128,0,113669:0:0:0:0:
64,192,113669,1,2,0:0:0:0:
320,192,113669,1,8,0:0:0:0:
448,192,113669,1,0,0:0:0:0:
192,192,113752,1,0,0:0:0:0:
448,192,113836,1,0,0:0:0:0:
192,192,113919,1,0,0:0:0:0:
64,192,114002,1,2,0:0:0:0:
448,192,114002,1,0,0:0:0:0:
320,192,114086,1,0,0:0:0:0:
192,192,114169,1,0,0:0:0:0:
320,192,114252,1,0,0:0:0:0:
64,192,114336,1,8,0:0:0:0:
192,192,114336,1,2,0:0:0:0:
448,192,114336,1,0,0:0:0:0:
320,192,114419,1,0,0:0:0:0:
64,192,114502,128,0,114669:0:0:0:0:
320,192,114669,1,2,0:0:0:0:
448,192,114669,1,0,0:0:0:0:
64,192,114752,1,0,0:0:0:0:
192,192,114836,1,0,0:0:0:0:
320,192,114919,1,0,0:0:0:0:
64,192,115002,1,2,0:0:0:0:
192,192,115002,1,8,0:0:0:0:
448,192,115002,1,0,0:0:0:0:
320,192,115086,1,0,0:0:0:0:
64,192,115169,1,0,0:0:0:0:
192,192,115252,1,0,0:0:0:0:
320,192,115336,1,2,0:0:0:0:
448,192,115336,1,0,0:0:0:0:
64,192,115419,1,0,0:0:0:0:
192,192,115502,1,0,0:0:0:0:
320,192,115586,1,0,0:0:0:0:
64,192,115669,1,8,0:0:0:0:
192,192,115669,1,2,0:0:0:0:
448,192,115669,1,0,0:0:0:0:
320,192,115752,128,0,115836:0:0:0:0:
64,192,115836,128,0,115919:0:0:0:0:
320,192,115919,128,0,116002:0:0:0:0:
64,192,116002,1,2,0:0:0:0:
448,192,116002,1,0,0:0:0:0:
320,192,116086,1,0,0:0:0:0:
192,192,116169,1,0,0:0:0:0:
320,192,116252,1,0,0:0:0:0:
64,192,116336,1,8,0:0:0:0:
192,192,116336,1,2,0:0:0:0:
448,192,116336,1,0,0:0:0:0:
320,192,116419,1,0,0:0:0:0:
64,192,116502,1,0,0:0:0:0:
192,192,116586,1,0,0:0:0:0:
320,192,116669,1,2,0:0:0:0:
448,192,116669,1,0,0:0:0:0:
64,192,116752,1,0,0:0:0:0:
448,192,116836,1,0,0:0:0:0:
192,192,116919,1,0,0:0:0:0:
64,192,117002,1,2,0:0:0:0:
320,192,117002,1,8,0:0:0:0:
448,192,117002,1,0,0:0:0:0:
192,192,117086,1,0,0:0:0:0:
320,192,117169,128,0,117336:0:0:0:0:
64,192,117336,128,0,117502:0:0:0:100:Kick + Snare (7).wav
192,192,117336,128,0,117502:0:0:0:0:
448,192,117336,128,0,117419:0:0:0:0:
64,192,117669,128,0,117752:0:0:0:100:Kick + Snare (7).wav
320,192,117669,128,0,117836:0:0:0:0:
448,192,117669,128,0,117836:0:0:0:0:
64,192,118002,128,0,118169:0:0:0:100:Kick + Snare (7).wav
192,192,118002,128,0,118169:0:0:0:0:
448,192,118002,128,0,118086:0:0:0:0:
320,192,118169,1,0,0:0:0:0:
192,192,118252,1,0,0:0:0:0:
64,192,118336,1,0,0:0:0:0:
448,192,118336,1,0,0:0:0:0:
320,192,118419,1,0,0:0:0:0:
64,192,118502,1,0,0:0:0:0:
192,192,118502,1,0,0:0:0:0:
320,192,118586,1,0,0:0:0:0:
64,192,118669,128,2,118919:0:0:0:0:
192,192,118669,128,4,118919:0:0:0:0:
448,192,118669,1,0,0:0:0:0:
64,192,119002,1,8,0:0:0:0:
320,192,119002,1,2,0:0:0:0:
448,192,119002,1,0,0:0:0:0:
192,192,119086,1,0,0:0:0:0:
448,192,119169,1,0,0:0:0:0:
320,192,119252,1,0,0:0:0:0:
64,192,119336,1,2,0:0:0:0:
192,192,119336,1,0,0:0:0:0:
448,192,119419,1,0,0:0:0:0:
192,192,119502,1,0,0:0:0:0:
320,192,119586,1,0,0:0:0:0:
64,192,119669,1,2,0:0:0:0:
192,192,119669,1,8,0:0:0:0:
448,192,119669,1,0,0:0:0:0:
320,192,119752,1,0,0:0:0:0:
64,192,119836,128,0,120002:0:0:0:0:
320,192,120002,1,2,0:0:0:0:
448,192,120002,1,0,0:0:0:0:
192,192,120086,1,0,0:0:0:0:
64,192,120169,1,0,0:0:0:0:
320,192,120252,1,0,0:0:0:0:
64,192,120336,1,2,0:0:0:0:
192,192,120336,1,8,0:0:0:0:
448,192,120336,1,0,0:0:0:0:
320,192,120419,1,0,0:0:0:0:
64,192,120502,1,0,0:0:0:0:
192,192,120586,1,0,0:0:0:0:
320,192,120669,1,2,0:0:0:0:
448,192,120669,1,0,0:0:0:0:
64,192,120752,1,0,0:0:0:0:
192,192,120836,1,0,0:0:0:0:
320,192,120919,1,0,0:0:0:0:
64,192,121002,1,8,0:0:0:0:
192,192,121002,1,2,0:0:0:0:
448,192,121002,1,0,0:0:0:0:
320,192,121086,1,0,0:0:0:0:
192,192,121169,128,0,121336:0:0:0:0:
64,192,121336,1,2,0:0:0:0:
448,192,121336,1,0,0:0:0:0:
320,192,121419,1,0,0:0:0:0:
192,192,121502,1,0,0:0:0:0:
320,192,121586,1,0,0:0:0:0:
64,192,121669,1,8,0:0:0:0:
192,192,121669,1,2,0:0:0:0:
448,192,121669,1,0,0:0:0:0:
320,192,121752,1,0,0:0:0:0:
64,192,121836,1,0,0:0:0:0:
192,192,121919,1,0,0:0:0:0:
320,192,122002,1,2,0:0:0:0:
448,192,122002,1,0,0:0:0:0:
192,192,122086,1,0,0:0:0:0:
448,192,122169,1,0,0:0:0:0:
320,192,122252,1,0,0:0:0:0:
64,192,122336,1,2,0:0:0:0:
192,192,122336,1,8,0:0:0:0:
448,192,122336,1,0,0:0:0:0:
320,192,122419,1,0,0:0:0:0:
64,192,122502,128,0,122669:0:0:0:0:
320,192,122669,1,2,0:0:0:0:
448,192,122669,1,0,0:0:0:0:
192,192,122752,1,0,0:0:0:0:
320,192,122836,1,0,0:0:0:0:
192,192,122919,1,0,0:0:0:0:
64,192,123002,1,2,0:0:0:0:
320,192,123002,1,8,0:0:0:0:
448,192,123002,1,0,0:0:0:0:
192,192,123086,1,0,0:0:0:0:
448,192,123169,1,0,0:0:0:0:
320,192,123252,1,0,0:0:0:0:
64,192,123336,1,2,0:0:0:0:
192,192,123336,1,0,0:0:0:0:
320,192,123419,1,0,0:0:0:0:
192,192,123502,1,0,0:0:0:0:
320,192,123586,1,2,0:0:0:0:
448,192,123586,1,0,0:0:0:0:
64,192,123669,1,2,0:0:0:0:
192,192,123669,1,8,0:0:0:0:
448,192,123669,1,0,0:0:0:0:
320,192,123752,128,0,123836:0:0:0:0:
64,192,123836,1,2,0:0:0:0:
448,192,123836,128,0,123919:0:0:0:0:
192,192,123919,128,0,124002:0:0:0:0:
320,192,124002,128,4,124169:0:0:0:0:
448,192,124002,1,2,0:0:0:0:
192,192,124169,1,0,0:0:0:0:
64,192,124252,1,2,0:0:0:0:
320,192,124252,1,0,0:0:0:0:
448,192,124252,1,0,0:0:0:0:
192,192,124336,1,0,0:0:0:0:
448,192,124419,1,0,0:0:0:0:
320,192,124502,128,0,124669:0:0:0:0:
64,192,124669,128,2,124836:0:0:0:0:
192,192,124669,1,0,0:0:0:0:
448,192,124669,1,0,0:0:0:0:
320,192,124836,1,0,0:0:0:0:
64,192,124919,1,2,0:0:0:0:
192,192,124919,1,0,0:0:0:0:
448,192,124919,1,0,0:0:0:0:
320,192,125002,1,0,0:0:0:100:Percussion (53).wav
64,192,125086,1,0,0:0:0:0:
192,192,125169,128,0,125336:0:0:0:100:Percussion (54).wav
64,192,125336,1,2,0:0:0:0:
320,192,125336,1,0,0:0:0:0:
448,192,125336,128,0,125502:0:0:0:0:
192,192,125502,1,0,0:0:0:0:
64,192,125586,1,2,0:0:0:0:
320,192,125586,1,0,0:0:0:0:
448,192,125586,1,0,0:0:0:0:
192,192,125669,1,0,0:0:0:0:
448,192,125752,1,0,0:0:0:0:
320,192,125836,128,0,126002:0:0:0:0:
64,192,126002,128,2,126169:0:0:0:0:
192,192,126002,1,0,0:0:0:0:
448,192,126002,1,0,0:0:0:0:
320,192,126169,1,0,0:0:0:0:
64,192,126252,1,2,0:0:0:0:
192,192,126252,1,0,0:0:0:0:
448,192,126252,1,0,0:0:0:0:
320,192,126336,128,0,126419:0:0:0:100:Percussion (53).wav
192,192,126419,128,0,126502:0:0:0:0:
320,192,126502,128,0,126586:0:0:0:100:Percussion (54).wav
192,192,126586,128,0,126669:0:0:0:0:
64,192,126669,1,2,0:0:0:0:
320,192,126669,1,0,0:0:0:0:
448,192,126669,1,0,0:0:0:0:
64,192,126836,1,2,0:0:0:0:
192,192,126836,1,0,0:0:0:0:
192,192,127002,1,2,0:0:0:0:
448,192,127002,1,0,0:0:0:0:
320,192,127169,1,2,0:0:0:0:
448,192,127169,1,0,0:0:0:0:
64,192,127336,1,8,0:0:0:0:
192,192,127336,1,0,0:0:0:0:
320,192,127419,1,8,0:0:0:0:
64,192,127502,1,8,0:0:0:0:
192,192,127502,1,0,0:0:0:0:
320,192,127586,1,8,0:0:0:0:
64,192,127669,1,8,0:0:0:0:
448,192,127669,1,0,0:0:0:0:
192,192,127711,1,8,0:0:0:0:
320,192,127752,1,8,0:0:0:0:
448,192,127794,1,8,0:0:0:0:
64,192,127836,1,8,0:0:0:0:
192,192,127877,1,8,0:0:0:0:
320,192,127919,1,8,0:0:0:0:
64,192,128002,128,0,128336:0:0:0:100:Percussion (55).wav
192,192,128002,1,0,0:0:0:0:
448,192,128086,128,0,128252:0:0:0:0:
320,192,128169,128,0,128419:0:0:0:0:
192,192,128252,128,0,128502:0:0:0:0:
448,192,128336,128,0,128669:0:0:0:0:
64,192,128419,128,0,128669:0:0:0:0:
320,192,128502,128,0,128669:0:0:0:0:
192,192,128586,128,0,128669:0:0:0:0:
320,192,128836,128,0,129002:0:0:0:0:
192,192,129002,128,0,129252:0:0:0:100:String Shots (1).wav
64,192,129002,128,0,129252:0:0:0:0:
64,192,129336,128,2,129586:0:0:0:0:
448,192,129336,128,0,129586:0:0:0:100:String Shots (2).wav
192,192,129336,128,0,129586:0:0:0:0:
64,192,129669,1,4,0:0:0:0:
320,192,129669,1,8,0:0:0:0:
448,192,129669,1,2,0:0:0:0:
192,192,129836,1,0,0:0:0:0:
320,192,129919,1,0,0:0:0:0:
64,192,130002,128,2,130169:0:0:0:0:
448,192,130002,1,0,0:0:0:0:
320,192,130169,1,0,0:0:0:0:
192,192,130252,128,0,130419:0:0:0:0:
64,192,130336,1,2,0:0:0:0:
320,192,130336,1,8,0:0:0:0:
448,192,130336,1,0,0:0:0:0:
448,192,130502,1,0,0:0:0:0:
448,192,130586,1,0,0:0:0:0:
64,192,130669,128,2,130836:0:0:0:0:
192,192,130669,1,0,0:0:0:0:
320,192,130836,1,0,0:0:0:0:
192,192,130919,128,0,131086:0:0:0:0:
64,192,131002,1,2,0:0:0:0:
320,192,131002,1,8,0:0:0:0:
448,192,131002,1,0,0:0:0:0:
320,192,131169,1,0,0:0:0:0:
192,192,131252,1,0,0:0:0:0:
64,192,131336,128,2,131502:0:0:0:0:
448,192,131336,1,0,0:0:0:0:
320,192,131502,1,0,0:0:0:0:
192,192,131586,128,0,131752:0:0:0:0:
64,192,131669,1,8,0:0:0:0:
320,192,131669,1,2,0:0:0:0:
448,192,131669,1,0,0:0:0:0:
448,192,131836,1,0,0:0:0:0:
320,192,131919,1,0,0:0:0:0:
64,192,132002,128,2,132252:0:0:0:0:
192,192,132002,1,0,0:0:0:0:
448,192,132169,1,0,0:0:0:0:
320,192,132252,1,0,0:0:0:0:
64,192,132336,1,8,0:0:0:0:
192,192,132336,1,2,0:0:0:0:
448,192,132336,1,0,0:0:0:0:
320,192,132502,1,0,0:0:0:0:
192,192,132586,1,0,0:0:0:0:
64,192,132669,1,2,0:0:0:0:
448,192,132669,128,0,132836:0:0:0:0:
320,192,132836,1,0,0:0:0:0:
192,192,132919,128,0,133086:0:0:0:0:
64,192,133002,1,2,0:0:0:0:
320,192,133002,1,8,0:0:0:0:
448,192,133002,1,0,0:0:0:0:
192,192,133169,1,0,0:0:0:0:
192,192,133252,1,0,0:0:0:0:
320,192,133336,1,2,0:0:0:0:
448,192,133336,128,0,133502:0:0:0:0:
64,192,133502,1,0,0:0:0:0:
320,192,133586,128,0,133752:0:0:0:0:
64,192,133669,1,2,0:0:0:0:
192,192,133669,1,8,0:0:0:0:
448,192,133669,1,0,0:0:0:0:
192,192,133836,1,0,0:0:0:0:
320,192,133919,1,0,0:0:0:0:
64,192,134002,1,2,0:0:0:0:
448,192,134002,128,0,134169:0:0:0:0:
64,192,134252,1,2,0:0:0:0:
192,192,134252,1,0,0:0:0:0:
448,192,134252,1,0,0:0:0:0:
320,192,134336,1,0,0:0:0:0:
192,192,134419,1,0,0:0:0:0:
320,192,134502,1,2,0:0:0:0:
448,192,134502,1,0,0:0:0:0:
192,192,134586,1,0,0:0:0:0:
64,192,134669,1,2,0:0:0:0:
320,192,134669,1,0,0:0:0:0:
448,192,134669,1,0,0:0:0:0:
192,192,134836,1,0,0:0:0:0:
320,192,134919,1,0,0:0:0:0:
64,192,135002,1,4,0:0:0:0:
192,192,135002,1,2,0:0:0:0:
448,192,135002,1,8,0:0:0:0:
320,192,135086,1,0,0:0:0:0:
320,192,135169,1,0,0:0:0:0:
192,192,135252,1,0,0:0:0:0:
64,192,135336,128,2,135502:0:0:0:0:
448,192,135336,1,0,0:0:0:0:
320,192,135502,1,0,0:0:0:0:
192,192,135586,128,0,135752:0:0:0:0:
64,192,135669,1,2,0:0:0:0:
320,192,135669,1,8,0:0:0:0:
448,192,135669,1,0,0:0:0:0:
192,192,135836,1,0,0:0:0:0:
192,192,135919,1,0,0:0:0:0:
64,192,136002,1,2,0:0:0:0:
448,192,136002,128,0,136169:0:0:0:0:
192,192,136169,1,0,0:0:0:0:
320,192,136252,128,0,136419:0:0:0:0:
64,192,136336,1,8,0:0:0:0:
192,192,136336,1,2,0:0:0:0:
448,192,136336,1,0,0:0:0:0:
448,192,136502,1,0,0:0:0:0:
320,192,136586,1,0,0:0:0:0:
64,192,136669,1,2,0:0:0:0:
192,192,136669,128,0,136836:0:0:0:0:
448,192,136836,1,0,0:0:0:0:
320,192,136919,1,0,0:0:0:0:
64,192,137002,128,0,137086:0:0:0:0:
320,192,137086,128,0,137169:0:0:0:0:
64,192,137169,128,0,137252:0:0:0:0:
320,192,137252,128,0,137336:0:0:0:0:
64,192,137336,1,2,0:0:0:0:
192,192,137336,128,0,137669:0:0:0:0:
448,192,137336,1,0,0:0:0:0:
320,192,137502,128,0,137669:0:0:0:100:Percussion (28).wav
64,192,137669,1,2,0:0:0:0:
448,192,137669,128,8,138002:0:0:0:0:
64,192,137836,128,0,138002:0:0:0:100:Percussion (28).wav
192,192,138002,1,2,0:0:0:0:
320,192,138002,128,0,138336:0:0:0:0:
192,192,138169,128,0,138336:0:0:0:100:Percussion (28).wav
64,192,138336,128,2,138669:0:0:0:0:
448,192,138336,1,8,0:0:0:0:
448,192,138502,128,0,138669:0:0:0:100:Percussion (28).wav
192,192,138669,128,2,139002:0:0:0:0:
320,192,138669,128,0,138836:0:0:0:0:
320,192,139002,1,0,0:0:0:0:
448,192,139002,1,0,0:0:0:0:
192,192,139169,1,0,0:0:0:0:
320,192,139252,1,0,0:0:0:0:
64,192,139336,1,0,0:0:0:0:
448,192,139336,1,0,0:0:0:0:
320,192,139502,1,0,0:0:0:0:
64,192,139586,1,0,0:0:0:0:
448,192,139586,1,0,0:0:0:0:
192,192,139669,128,0,139752:0:0:0:0:
320,192,139752,128,0,139836:0:0:0:0:
192,192,139836,128,0,139919:0:0:0:0:
320,192,139919,128,0,140002:0:0:0:0:
64,192,140002,128,2,140336:0:0:0:0:
192,192,140002,128,0,140336:0:0:0:0:
448,192,140002,1,0,0:0:0:0:
320,192,140336,128,0,140502:0:0:0:0:
64,192,140502,1,4,0:0:0:0:
192,192,140502,1,2,0:0:0:0:
448,192,140502,1,0,0:0:0:0:
320,192,140669,1,0,0:0:0:0:
64,192,140752,1,0,0:0:0:0:
192,192,140836,1,0,0:0:0:0:
320,192,140919,1,0,0:0:0:0:
64,192,141002,1,8,0:0:0:0:
192,192,141002,1,0,0:0:0:0:
448,192,141002,1,0,0:0:0:0:
320,192,141169,1,0,0:0:0:0:
448,192,141169,1,0,0:0:0:0:
64,192,141336,128,2,141502:0:0:0:0:
192,192,141336,1,0,0:0:0:0:
448,192,141336,1,0,0:0:0:0:
320,192,141502,1,0,0:0:0:0:
64,192,141586,1,0,0:0:0:0:
192,192,141669,1,0,0:0:0:0:
320,192,141752,1,0,0:0:0:0:
64,192,141836,128,2,142002:0:0:0:0:
192,192,141836,1,0,0:0:0:0:
448,192,141836,1,0,0:0:0:0:
320,192,142002,1,0,0:0:0:0:
192,192,142086,1,0,0:0:0:0:
64,192,142169,1,0,0:0:0:0:
320,192,142252,1,0,0:0:0:0:
64,192,142336,1,8,0:0:0:0:
192,192,142336,1,0,0:0:0:0:
448,192,142336,1,0,0:0:0:0:
192,192,142502,1,0,0:0:0:0:
320,192,142502,1,0,0:0:0:0:
64,192,142669,1,2,0:0:0:0:
320,192,142669,128,0,142836:0:0:0:0:
448,192,142669,1,0,0:0:0:0:
192,192,142836,1,0,0:0:0:0:
448,192,142919,1,0,0:0:0:0:
320,192,143002,1,0,0:0:0:0:
192,192,143086,1,0,0:0:0:0:
64,192,143169,1,2,0:0:0:0:
320,192,143169,128,0,143336:0:0:0:0:
448,192,143169,1,0,0:0:0:0:
192,192,143336,1,0,0:0:0:0:
448,192,143419,1,0,0:0:0:0:
320,192,143502,1,0,0:0:0:0:
192,192,143586,1,0,0:0:0:0:
64,192,143669,1,8,0:0:0:0:
320,192,143669,1,0,0:0:0:0:
448,192,143669,1,0,0:0:0:0:
64,192,143836,1,0,0:0:0:0:
192,192,143836,1,0,0:0:0:0:
64,192,144002,1,2,0:0:0:0:
320,192,144002,1,0,0:0:0:0:
448,192,144002,128,0,144169:0:0:0:0:
192,192,144169,1,0,0:0:0:0:
448,192,144252,1,0,0:0:0:0:
320,192,144336,1,0,0:0:0:0:
192,192,144419,1,0,0:0:0:0:
64,192,144502,1,2,0:0:0:0:
320,192,144502,1,0,0:0:0:0:
448,192,144502,128,0,144669:0:0:0:0:
192,192,144669,1,0,0:0:0:0:
320,192,144752,1,0,0:0:0:0:
64,192,144836,1,2,0:0:0:0:
192,192,144836,1,8,0:0:0:0:
192,192,144919,1,2,0:0:0:0:
448,192,144919,1,0,0:0:0:0:
64,192,145002,1,8,0:0:0:0:
448,192,145002,1,0,0:0:0:0:
320,192,145086,1,0,0:0:0:0:
64,192,145169,1,2,0:0:0:0:
192,192,145169,1,0,0:0:0:0:
320,192,145252,1,0,0:0:0:0:
64,192,145336,1,2,0:0:0:0:
192,192,145336,128,4,145502:0:0:0:0:
448,192,145336,1,0,0:0:0:0:
320,192,145502,1,0,0:0:0:0:
64,192,145586,1,0,0:0:0:0:
192,192,145669,1,0,0:0:0:0:
320,192,145752,1,0,0:0:0:0:
64,192,145836,1,2,0:0:0:0:
192,192,145836,128,0,146002:0:0:0:0:
448,192,145836,1,0,0:0:0:0:
320,192,146002,1,0,0:0:0:0:
64,192,146086,1,0,0:0:0:0:
192,192,146169,1,0,0:0:0:0:
320,192,146252,1,0,0:0:0:0:
64,192,146336,1,8,0:0:0:0:
192,192,146336,1,0,0:0:0:0:
448,192,146336,1,0,0:0:0:0:
320,192,146502,1,0,0:0:0:0:
448,192,146502,1,0,0:0:0:0:
64,192,146669,128,2,146836:0:0:0:0:
192,192,146669,1,0,0:0:0:0:
448,192,146669,1,0,0:0:0:0:
320,192,146836,1,0,0:0:0:0:
64,192,146919,1,0,0:0:0:0:
192,192,147002,1,0,0:0:0:0:
320,192,147086,1,0,0:0:0:0:
64,192,147169,128,2,147336:0:0:0:0:
192,192,147169,1,0,0:0:0:0:
448,192,147169,1,0,0:0:0:0:
320,192,147336,1,0,0:0:0:0:
192,192,147419,1,0,0:0:0:0:
64,192,147502,1,0,0:0:0:0:
320,192,147586,1,0,0:0:0:0:
64,192,147669,1,8,0:0:0:0:
192,192,147669,1,0,0:0:0:0:
448,192,147669,1,0,0:0:0:0:
320,192,147752,1,0,0:0:0:0:
192,192,147836,1,0,0:0:0:0:
320,192,147919,1,0,0:0:0:0:
64,192,148002,1,2,0:0:0:0:
448,192,148002,1,0,0:0:0:0:
192,192,148086,1,0,0:0:0:0:
320,192,148169,1,2,0:0:0:0:
448,192,148169,1,0,0:0:0:0:
192,192,148252,1,0,0:0:0:0:
64,192,148336,1,2,0:0:0:0:
320,192,148336,1,0,0:0:0:0:
448,192,148419,1,0,0:0:0:0:
64,192,148502,1,2,0:0:0:0:
192,192,148502,1,0,0:0:0:0:
320,192,148586,1,0,0:0:0:0:
64,192,148669,1,2,0:0:0:0:
192,192,148669,1,0,0:0:0:0:
320,192,148752,1,2,0:0:0:0:
448,192,148752,1,0,0:0:0:0:
64,192,148836,1,2,0:0:0:0:
192,192,148836,1,0,0:0:0:0:
320,192,148919,1,2,0:0:0:0:
448,192,148919,1,0,0:0:0:0:
64,192,149002,1,2,0:0:0:0:
192,192,149044,1,2,0:0:0:0:
448,192,149086,1,2,0:0:0:0:
320,192,149127,1,2,0:0:0:0:
192,192,149169,1,2,0:0:0:0:
64,192,149211,1,2,0:0:0:0:
448,192,149252,1,2,0:0:0:0:
320,192,149294,1,2,0:0:0:0:
64,192,149336,1,2,0:0:0:0:
192,192,149336,1,0,0:0:0:0:
320,192,149502,128,0,149586:0:0:0:0:
64,192,149586,128,0,149669:0:0:0:0:
192,192,149669,1,0,0:0:0:0:
448,192,149836,128,0,149919:0:0:0:0:
64,192,149919,128,0,150002:0:0:0:0:
320,192,150002,1,0,0:0:0:0:
192,192,150169,128,0,150252:0:0:0:0:
448,192,150252,128,0,150336:0:0:0:0:
64,192,150336,1,0,0:0:0:0:
320,192,150502,128,0,150586:0:0:0:0:
192,192,150586,128,0,150669:0:0:0:0:
64,192,150669,1,0,0:0:0:0:
448,192,150669,1,0,0:0:0:0:
320,192,150669,1,0,0:0:0:100:Kick + Snare (7).wav
