osu file format v14

[General]
AudioFilename: ZxNX - FORTALiCE.mp3
AudioLeadIn: 0
PreviewTime: 108002
Countdown: 0
SampleSet: Soft
StackLeniency: 0.7
Mode: 3
LetterboxInBreaks: 0
SpecialStyle: 0
WidescreenStoryboard: 0

[Editor]
DistanceSpacing: 2.8
BeatDivisor: 1
GridSize: 16
TimelineZoom: 1.1

[Metadata]
Title:FORTALiCE
TitleUnicode:FORTALiCE
Artist:ZxNX
ArtistUnicode:ZxNX
Creator:FAMoss
Version:Beginner
Source:THE BMS OF FIGHTERS XVI -NEO DYSTOPIA-
Tags:zuna vorticalex team pandora cyber industry tech symphony core BOFXVI 参加作品 uk hardcore trap drum and bass dnb electronic instrumental dynamix kalpa orzmic rizline rhyzinus
BeatmapID:3550471
BeatmapSetID:1737101

[Difficulty]
HPDrainRate:6.5
CircleSize:4
OverallDifficulty:6.5
ApproachRate:5
SliderMultiplier:1.4
SliderTickRate:1

[Events]
//Background and Video events
0,0,"FORTLICE_4_3.jpg",0,0
//Break Periods
//Storyboard Layer 0 (Background)
//Storyboard Layer 1 (Fail)
//Storyboard Layer 2 (Pass)
//Storyboard Layer 3 (Foreground)
//Storyboard Layer 4 (Overlay)
//Storyboard Sound Samples
Sample,11669,0,"Kick + Snare (7).wav",100
Sample,17336,0,"Bells (14).wav",100
Sample,17669,0,"Bells (2).wav",100
Sample,18002,0,"Bells (15).wav",100
Sample,18336,0,"Bells (4).wav",100
Sample,19169,0,"Bells (18).wav",100
Sample,19669,0,"Bells (7).wav",100
Sample,20336,0,"Bells (21).wav",100
Sample,20669,0,"Bells (22).wav",100
Sample,21002,0,"Bells (10).wav",100
Sample,21836,0,"Bells (7).wav",100
Sample,33336,0,"String Shots (2).wav",100
Sample,43669,0,"String Shots (1).wav",100
Sample,44002,0,"String Shots (2).wav",100
Sample,55336,0,"Kick + Snare (26).wav",100
Sample,57669,0,"Percussion (53).wav",100
Sample,57836,0,"Percussion (54).wav",100
Sample,64002,0,"Percussion (55).wav",100
Sample,65002,0,"String Shots (1).wav",100
Sample,65336,0,"String Shots (2).wav",100
Sample,71669,0,"Percussion (53).wav",100
Sample,71836,0,"Percussion (54).wav",100
Sample,76002,0,"Bells (14).wav",100
Sample,76336,0,"Bells (15).wav",100
Sample,76669,0,"Bells (16).wav",100
Sample,77002,0,"Bells (17).wav",100
Sample,77336,0,"Bells (18).wav",100
Sample,77836,0,"Bells (19).wav",100
Sample,78336,0,"Bells (20).wav",100
Sample,79002,0,"Bells (21).wav",100
Sample,79336,0,"Bells (22).wav",100
Sample,79669,0,"Bells (23).wav",100
Sample,80002,0,"Bells (24).wav",100
Sample,80502,0,"Bells (25).wav",100
Sample,81002,0,"Bells (26).wav",100
Sample,81336,0,"Bells (27).wav",100
Sample,81669,0,"Bells (28).wav",100
Sample,82002,0,"Bells (29).wav",100
Sample,82336,0,"Bells (30).wav",100
Sample,82669,0,"Bells (31).wav",100
Sample,83169,0,"Bells (32).wav",100
Sample,83669,0,"Bells (33).wav",100
Sample,84336,0,"Bells (34).wav",100
Sample,84669,0,"Bells (35).wav",100
Sample,85002,0,"Bells (36).wav",100
Sample,85336,0,"Bells (37).wav",100
Sample,85836,0,"Bells (38).wav",100
Sample,86336,0,"Bells (39).wav",100
Sample,86669,0,"Bells (40).wav",100
Sample,86669,0,"Orchestral Percussion (8).wav",100
Sample,86836,0,"Bells (41).wav",100
Sample,87002,0,"Bells (42).wav",100
Sample,87169,0,"Bells (43).wav",100
Sample,87336,0,"Bells (44).wav",100
Sample,87502,0,"Bells (45).wav",100
Sample,87669,0,"Bells (46).wav",100
Sample,87836,0,"Bells (47).wav",100
Sample,88002,0,"Bells (48).wav",100
Sample,88169,0,"Bells (49).wav",100
Sample,88336,0,"Bells (50).wav",100
Sample,88502,0,"Bells (51).wav",100
Sample,88669,0,"Bells (52).wav",100
Sample,88836,0,"Bells (53).wav",100
Sample,89002,0,"Bells (54).wav",100
Sample,89169,0,"Bells (55).wav",100
Sample,89336,0,"Bells (56).wav",100
Sample,89502,0,"Bells (57).wav",100
Sample,89669,0,"Bells (58).wav",100
Sample,89836,0,"Bells (59).wav",100
Sample,90002,0,"Bells (60).wav",100
Sample,90169,0,"Bells (61).wav",100
Sample,90336,0,"Bells (62).wav",100
Sample,90502,0,"Bells (63).wav",100
Sample,90669,0,"Bells (64).wav",100
Sample,90836,0,"Bells (65).wav",100
Sample,91002,0,"Bells (66).wav",100
Sample,91169,0,"Bells (67).wav",100
Sample,91336,0,"Bells (68).wav",100
Sample,91502,0,"Bells (69).wav",100
Sample,91836,0,"Bells (71).wav",100
Sample,92002,0,"Bells (40).wav",100
Sample,92169,0,"Bells (41).wav",100
Sample,92336,0,"Bells (42).wav",100
Sample,92502,0,"Bells (43).wav",100
Sample,92669,0,"Bells (44).wav",100
Sample,92836,0,"Bells (45).wav",100
Sample,93002,0,"Bells (46).wav",100
Sample,93169,0,"Bells (47).wav",100
Sample,93336,0,"Bells (48).wav",100
Sample,93502,0,"Bells (49).wav",100
Sample,93669,0,"Bells (50).wav",100
Sample,93836,0,"Bells (51).wav",100
Sample,94002,0,"Bells (52).wav",100
Sample,94169,0,"Bells (53).wav",100
Sample,94336,0,"Bells (54).wav",100
Sample,94502,0,"Bells (55).wav",100
Sample,94669,0,"Bells (56).wav",100
Sample,94836,0,"Bells (57).wav",100
Sample,95002,0,"Bells (58).wav",100
Sample,95169,0,"Bells (59).wav",100
Sample,95336,0,"Bells (60).wav",100
Sample,95502,0,"Bells (61).wav",100
Sample,95669,0,"Bells (62).wav",100
Sample,95836,0,"Bells (63).wav",100
Sample,96002,0,"Bells (64).wav",100
Sample,96169,0,"Bells (65).wav",100
Sample,96336,0,"Bells (66).wav",100
Sample,96502,0,"Bells (67).wav",100
Sample,96669,0,"Bells (68).wav",100
Sample,96836,0,"Bells (69).wav",100
Sample,97002,0,"Bells (70).wav",100
Sample,97169,0,"Bells (71).wav",100
Sample,125002,0,"Percussion (53).wav",100
Sample,125169,0,"Percussion (54).wav",100
Sample,126336,0,"Percussion (53).wav",100
Sample,126502,0,"Percussion (54).wav",100
Sample,129002,0,"String Shots (1).wav",100
Sample,129336,0,"String Shots (2).wav",100

[TimingPoints]
3,333.333333333333,4,2,1,70,1,0
33669,-100,4,2,1,70,0,1
44002,-100,4,2,1,70,0,0
66336,-100,4,2,1,70,0,1
76002,-100,4,2,1,70,0,0
108336,-100,4,2,1,70,0,1
124002,-100,4,2,1,70,0,0
129669,-100,4,2,1,70,0,1
138669,-100,4,2,1,70,0,0

[HitObjects]
192,192,3,128,2,669:0:0:0:0:
448,192,669,128,0,1336:0:0:0:0:
64,192,1336,1,6,0:0:0:0:
320,192,1669,1,2,0:0:0:0:
192,192,2002,1,2,0:0:0:0:
448,192,2336,1,2,0:0:0:0:
64,192,2669,1,2,0:0:0:0:
320,192,3002,1,2,0:0:0:0:
192,192,3336,1,2,0:0:0:0:
448,192,3669,1,2,0:0:0:0:
64,192,4002,1,2,0:0:0:0:
192,192,4336,1,2,0:0:0:0:
448,192,4669,1,2,0:0:0:0:
320,192,5002,1,2,0:0:0:0:
64,192,5336,1,2,0:0:0:0:
192,192,5669,1,2,0:0:0:0:
448,192,6002,1,2,0:0:0:0:
320,192,6336,1,10,0:0:0:0:
64,192,6669,1,6,0:0:0:0:
192,192,7002,1,10,0:0:0:0:
320,192,7336,1,2,0:0:0:0:
64,192,7669,1,10,0:0:0:0:
448,192,8002,1,2,0:0:0:0:
192,192,8336,1,10,0:0:0:0:
320,192,8669,1,2,0:0:0:0:
64,192,9002,1,10,0:0:0:0:
448,192,9336,1,2,0:0:0:0:
320,192,9669,1,10,0:0:0:0:
64,192,10002,1,2,0:0:0:0:
192,192,10336,1,10,0:0:0:0:
448,192,10669,1,0,0:0:0:100:Kick + Snare (7).wav
320,192,11002,1,0,0:0:0:100:Kick + Snare (7).wav
192,192,11336,1,0,0:0:0:100:Kick + Snare (7).wav
320,192,11669,1,0,0:0:0:100:Percussion (17).wav
64,192,12002,128,6,13336:0:0:0:0:
448,192,13336,128,0,14669:0:0:0:0:
192,192,14669,128,0,16002:0:0:0:0:
320,192,16002,128,0,16669:0:0:0:0:
64,192,16669,128,0,17336:0:0:0:0:
448,192,17336,128,6,18669:0:0:0:0:
64,192,18669,128,0,20002:0:0:0:100:Bells (18).wav
320,192,20002,128,0,21336:0:0:0:0:
192,192,21336,128,0,22002:0:0:0:100:Bells (11).wav
448,192,22002,128,0,22669:0:0:0:0:
192,192,22669,1,12,0:0:0:0:
320,192,23336,1,8,0:0:0:0:
64,192,23669,1,8,0:0:0:0:
448,192,24002,1,8,0:0:0:0:
192,192,24336,1,8,0:0:0:0:
320,192,24669,1,8,0:0:0:0:
64,192,25002,1,8,0:0:0:0:
320,192,25336,1,8,0:0:0:0:
192,192,26002,1,8,0:0:0:0:
448,192,26336,1,8,0:0:0:0:
64,192,26669,1,8,0:0:0:0:
320,192,27002,1,8,0:0:0:0:
192,192,27336,1,8,0:0:0:0:
448,192,27669,1,8,0:0:0:0:
64,192,28002,1,10,0:0:0:0:
192,192,28336,1,10,0:0:0:0:
320,192,28669,1,10,0:0:0:0:
64,192,29002,1,10,0:0:0:0:
448,192,29336,1,10,0:0:0:0:
192,192,29669,1,10,0:0:0:0:
320,192,30002,1,10,0:0:0:0:
64,192,30336,1,10,0:0:0:0:
448,192,30669,128,10,31336:0:0:0:0:
192,192,31336,128,10,32002:0:0:0:0:
320,192,32002,1,2,0:0:0:0:
192,192,32669,1,0,0:0:0:0:
320,192,33002,1,0,0:0:0:100:Percussion (17).wav
192,192,33336,1,2,0:0:0:0:
448,192,33669,1,14,0:0:0:0:
64,192,34002,1,2,0:0:0:0:
320,192,34336,1,10,0:0:0:0:
192,192,34669,1,2,0:0:0:0:
448,192,35002,1,10,0:0:0:0:
64,192,35336,1,2,0:0:0:0:
320,192,35669,1,10,0:0:0:0:
448,192,36002,128,2,36669:0:0:0:0:
64,192,36669,1,2,0:0:0:0:
320,192,37002,1,10,0:0:0:0:
192,192,37336,1,2,0:0:0:0:
448,192,37669,1,10,0:0:0:0:
64,192,38002,1,2,0:0:0:0:
320,192,38336,1,0,0:0:0:0:
64,192,38669,128,6,39336:0:0:0:0:
448,192,39336,1,2,0:0:0:0:
192,192,39669,1,10,0:0:0:0:
320,192,40002,1,2,0:0:0:0:
64,192,40336,1,10,0:0:0:0:
448,192,40669,1,2,0:0:0:0:
192,192,41002,1,10,0:0:0:0:
320,192,41336,1,2,0:0:0:0:
64,192,41669,1,10,0:0:0:0:
448,192,42002,1,2,0:0:0:0:
192,192,42336,1,0,0:0:0:0:
320,192,42669,128,10,43336:0:0:0:0:
192,192,43336,128,10,44002:0:0:0:0:
320,192,44002,1,6,0:0:0:0:
64,192,44336,1,10,0:0:0:0:
448,192,44669,1,2,0:0:0:0:
320,192,45002,1,10,0:0:0:0:
64,192,45336,1,2,0:0:0:0:
192,192,45669,1,10,0:0:0:0:
448,192,46002,1,2,0:0:0:0:
320,192,46336,1,10,0:0:0:0:
64,192,46669,128,2,47336:0:0:0:0:
448,192,47336,1,2,0:0:0:0:
192,192,47669,1,10,0:0:0:0:
320,192,48002,1,2,0:0:0:0:
64,192,48336,1,10,0:0:0:0:
448,192,48669,1,2,0:0:0:0:
192,192,49002,1,10,0:0:0:0:
448,192,49336,128,6,50002:0:0:0:0:
64,192,50002,1,2,0:0:0:0:
320,192,50336,1,10,0:0:0:0:
192,192,50669,1,2,0:0:0:0:
448,192,51002,1,10,0:0:0:0:
64,192,51336,1,2,0:0:0:0:
320,192,51669,1,0,0:0:0:0:
64,192,52002,128,2,52669:0:0:0:0:
448,192,52669,128,2,53336:0:0:0:0:
64,192,53336,1,2,0:0:0:0:
192,192,54002,1,0,0:0:0:0:
320,192,54336,1,0,0:0:0:100:Percussion (17).wav
192,192,54669,1,0,0:0:0:100:Kick + Snare (7).wav
448,192,55336,128,4,56002:0:0:0:0:
64,192,56002,128,0,56669:0:0:0:0:
448,192,56669,128,0,57336:0:0:0:100:Kick + Snare (26).wav
192,192,57336,128,0,58002:0:0:0:100:Kick + Snare (7).wav
448,192,58002,128,0,58669:0:0:0:100:Kick + Snare (26).wav
64,192,58669,128,0,59336:0:0:0:0:
448,192,59336,128,0,60002:0:0:0:100:Kick + Snare (26).wav
64,192,60002,128,6,60669:0:0:0:0:
448,192,60669,1,2,0:0:0:0:
192,192,61002,1,10,0:0:0:0:
320,192,61336,1,2,0:0:0:0:
64,192,61669,1,10,0:0:0:0:
448,192,62002,1,2,0:0:0:0:
192,192,62336,1,10,0:0:0:0:
320,192,62669,1,2,0:0:0:0:
64,192,63002,1,10,0:0:0:0:
448,192,63336,1,2,0:0:0:0:
192,192,63669,1,10,0:0:0:0:
320,192,64002,128,2,64669:0:0:0:0:
64,192,65002,1,0,0:0:0:100:Kick + Snare (7).wav
192,192,65336,1,2,0:0:0:0:
448,192,66002,1,0,0:0:0:100:Kick + Snare (26).wav
192,192,66336,1,6,0:0:0:0:
448,192,66669,1,2,0:0:0:0:
192,192,67002,1,2,0:0:0:0:
448,192,67336,1,2,0:0:0:0:
192,192,67669,1,2,0:0:0:0:
320,192,68002,1,2,0:0:0:0:
64,192,68669,1,0,0:0:0:100:Kick + Snare (26).wav
320,192,69002,1,6,0:0:0:0:
64,192,69336,1,2,0:0:0:0:
320,192,69669,1,2,0:0:0:0:
64,192,70002,1,2,0:0:0:0:
320,192,70336,1,2,0:0:0:0:
192,192,70669,128,6,71336:0:0:0:0:
448,192,71336,128,2,72002:0:0:0:0:
64,192,72002,128,2,72669:0:0:0:0:
320,192,72669,128,2,73336:0:0:0:0:
192,192,73336,128,8,74002:0:0:0:0:
448,192,74002,128,8,74669:0:0:0:0:
64,192,74669,1,6,0:0:0:0:
320,192,75669,1,0,0:0:0:100:Percussion (17).wav
192,192,76002,128,6,78669:0:0:0:0:
448,192,78669,128,0,81336:0:0:0:0:
64,192,81336,128,0,84002:0:0:0:100:Orchestral Percussion (8).wav
320,192,84002,128,0,86669:0:0:0:0:
192,192,86669,1,4,0:0:0:0:
448,192,87169,1,0,0:0:0:100:Orchestral Percussion (8).wav
64,192,87669,1,0,0:0:0:100:Orchestral Percussion (8).wav
192,192,88002,1,0,0:0:0:100:Orchestral Percussion (8).wav
448,192,88502,1,0,0:0:0:100:Orchestral Percussion (8).wav
64,192,89002,1,0,0:0:0:100:Orchestral Percussion (8).wav
320,192,89336,1,0,0:0:0:100:Orchestral Percussion (8).wav
64,192,89836,1,0,0:0:0:100:Orchestral Percussion (8).wav
320,192,90669,1,0,0:0:0:100:Orchestral Percussion (8).wav
64,192,91169,1,0,0:0:0:100:Orchestral Percussion (8).wav
448,192,91669,1,0,0:0:0:100:Bells (70).wav
192,192,92002,1,0,0:0:0:100:Orchestral Percussion (8).wav
448,192,92502,1,0,0:0:0:100:Orchestral Percussion (8).wav
64,192,93002,1,0,0:0:0:100:Orchestral Percussion (8).wav
192,192,93336,1,0,0:0:0:100:Orchestral Percussion (8).wav
448,192,93836,1,0,0:0:0:100:Orchestral Percussion (8).wav
64,192,94336,1,0,0:0:0:100:Orchestral Percussion (8).wav
320,192,94669,1,0,0:0:0:100:Orchestral Percussion (8).wav
64,192,95169,1,0,0:0:0:100:Orchestral Percussion (8).wav
320,192,96002,128,0,97336:0:0:0:100:Orchestral Percussion (8).wav
64,192,97336,128,12,98002:0:0:0:0:
448,192,98002,128,8,98669:0:0:0:0:
192,192,98669,128,8,99336:0:0:0:0:
320,192,99336,128,8,100002:0:0:0:0:
64,192,100002,128,8,100669:0:0:0:0:
448,192,100669,128,8,101336:0:0:0:0:
192,192,101336,128,8,102002:0:0:0:0:
320,192,102002,128,8,102669:0:0:0:0:
64,192,102669,1,10,0:0:0:0:
192,192,103002,1,10,0:0:0:0:
448,192,103336,1,10,0:0:0:0:
320,192,103669,1,10,0:0:0:0:
64,192,104002,1,10,0:0:0:0:
192,192,104336,1,10,0:0:0:0:
448,192,104669,1,10,0:0:0:0:
320,192,105002,1,10,0:0:0:0:
64,192,105336,128,10,105836:0:0:0:0:
448,192,105836,128,10,106336:0:0:0:0:
192,192,106336,1,10,0:0:0:0:
320,192,106669,128,8,107336:0:0:0:0:
64,192,107336,1,0,0:0:0:0:
192,192,107669,1,0,0:0:0:0:
448,192,108002,1,0,0:0:0:100:Kick + Snare (7).wav
64,192,108336,1,14,0:0:0:0:
320,192,108669,1,2,0:0:0:0:
192,192,109002,1,10,0:0:0:0:
448,192,109336,1,2,0:0:0:0:
320,192,109669,1,10,0:0:0:0:
64,192,110002,1,2,0:0:0:0:
192,192,110336,1,10,0:0:0:0:
448,192,110669,1,2,0:0:0:0:
64,192,111002,1,10,0:0:0:0:
192,192,111336,1,2,0:0:0:0:
320,192,111669,1,10,0:0:0:0:
448,192,112002,1,2,0:0:0:0:
192,192,112336,1,10,0:0:0:0:
320,192,112669,128,2,113336:0:0:0:0:
64,192,113336,1,6,0:0:0:0:
448,192,113669,1,10,0:0:0:0:
192,192,114002,1,2,0:0:0:0:
320,192,114336,1,10,0:0:0:0:
64,192,114669,1,2,0:0:0:0:
192,192,115002,1,10,0:0:0:0:
448,192,115336,1,2,0:0:0:0:
320,192,115669,1,10,0:0:0:0:
64,192,116002,1,2,0:0:0:0:
448,192,116336,1,10,0:0:0:0:
320,192,116669,1,2,0:0:0:0:
192,192,117002,1,10,0:0:0:0:
64,192,117336,1,0,0:0:0:100:Kick + Snare (7).wav
320,192,117669,1,0,0:0:0:100:Kick + Snare (7).wav
192,192,118002,128,0,118669:0:0:0:100:Kick + Snare (7).wav
448,192,118669,1,6,0:0:0:0:
64,192,119002,1,10,0:0:0:0:
320,192,119336,1,2,0:0:0:0:
192,192,119669,1,10,0:0:0:0:
64,192,120002,1,2,0:0:0:0:
320,192,120336,1,10,0:0:0:0:
448,192,120669,1,2,0:0:0:0:
64,192,121002,1,10,0:0:0:0:
448,192,121336,1,2,0:0:0:0:
192,192,121669,1,10,0:0:0:0:
320,192,122002,1,2,0:0:0:0:
448,192,122336,1,10,0:0:0:0:
192,192,122669,1,2,0:0:0:0:
448,192,123002,1,10,0:0:0:0:
64,192,123336,128,2,124002:0:0:0:0:
320,192,124002,128,6,124669:0:0:0:0:
64,192,124669,128,2,125336:0:0:0:0:
448,192,125336,128,2,126002:0:0:0:0:
192,192,126002,128,2,126669:0:0:0:0:
320,192,126669,128,2,127336:0:0:0:0:
64,192,127336,128,8,128002:0:0:0:0:
448,192,128002,1,0,0:0:0:100:Percussion (55).wav
192,192,128669,128,0,129336:0:0:0:0:
320,192,129336,1,2,0:0:0:0:
64,192,129669,1,14,0:0:0:0:
448,192,130002,1,2,0:0:0:0:
320,192,130336,1,10,0:0:0:0:
64,192,130669,1,2,0:0:0:0:
192,192,131002,1,10,0:0:0:0:
448,192,131336,1,2,0:0:0:0:
320,192,131669,1,10,0:0:0:0:
64,192,132002,128,2,132669:0:0:0:0:
448,192,132669,1,2,0:0:0:0:
192,192,133002,1,10,0:0:0:0:
320,192,133336,1,2,0:0:0:0:
64,192,133669,1,10,0:0:0:0:
448,192,134002,1,2,0:0:0:0:
192,192,134336,1,0,0:0:0:0:
448,192,134669,128,2,135336:0:0:0:0:
64,192,135336,1,2,0:0:0:0:
320,192,135669,1,10,0:0:0:0:
192,192,136002,1,2,0:0:0:0:
448,192,136336,1,10,0:0:0:0:
64,192,136669,1,2,0:0:0:0:
320,192,137002,1,0,0:0:0:0:
64,192,137336,128,2,138002:0:0:0:0:
448,192,138002,128,2,138669:0:0:0:0:
64,192,138669,1,2,0:0:0:0:
64,192,140002,1,2,0:0:0:0:
320,192,140502,1,6,0:0:0:0:
192,192,141002,1,8,0:0:0:0:
448,192,141336,1,2,0:0:0:0:
192,192,141836,1,2,0:0:0:0:
320,192,142336,1,8,0:0:0:0:
64,192,142669,1,2,0:0:0:0:
320,192,143169,1,2,0:0:0:0:
192,192,143669,1,8,0:0:0:0:
448,192,144002,1,2,0:0:0:0:
192,192,144502,1,2,0:0:0:0:
320,192,145002,1,8,0:0:0:0:
64,192,145336,1,6,0:0:0:0:
320,192,145836,1,2,0:0:0:0:
192,192,146336,1,8,0:0:0:0:
448,192,146669,1,2,0:0:0:0:
192,192,147169,1,2,0:0:0:0:
320,192,147669,1,8,0:0:0:0:
64,192,148002,128,2,148669:0:0:0:0:
320,192,148669,128,2,149336:0:0:0:0:
192,192,149336,128,2,150002:0:0:0:0:
448,192,150002,128,0,150669:0:0:0:0:
64,192,150669,1,0,0:0:0:100:Kick + Snare (7).wav
