osu file format v14

[General]
AudioFilename: audio.mp3
AudioLeadIn: 0
PreviewTime: 233
Countdown: 0
SampleSet: Soft
StackLeniency: 0.3
Mode: 0
LetterboxInBreaks: 0
WidescreenStoryboard: 1

[Editor]
Bookmarks: 13230,29230,42030,54827,67627,80430,93230,99627,107627,120430,133230,146030,158830,171630,184430,190830,198830,205230,211630,224430,230830,243630,259630,272430,285230,291630,299630,314165,317205
DistanceSpacing: 1.7
BeatDivisor: 4
GridSize: 8
TimelineZoom: 2.1

[Metadata]
Title:Lyra
TitleUnicode:ライア
Artist:Zwei
ArtistUnicode:Zwei
Creator:Ninym
Version:"I'm so glad I met you."
Source:シュタインズ・ゲート ゼロ
Tags:s;g 0 Steins;Gate シュタゲゼロ Shutage Zero ending ed full version ver 牧瀬紅莉栖 makise kurisu christina ley line japanese jpop j-pop pop anime video game visual novel vn mages. 志倉千代丸 chiyomaru shikura 大島こうすけ kousuke oshima megu ayumu 科学ADV系列 Science Adventure Series SciADV 科学アドベンチャーシリーズ
BeatmapID:2955900
BeatmapSetID:1436633

[Difficulty]
HPDrainRate:5
CircleSize:4.2
OverallDifficulty:7.5
ApproachRate:8.5
SliderMultiplier:1.5
SliderTickRate:1

[Events]
//Background and Video events
0,0,"makise kurisu.jpg",0,0
//Break Periods
//Storyboard Layer 0 (Background)
//Storyboard Layer 1 (Fail)
//Storyboard Layer 2 (Pass)
//Storyboard Layer 3 (Foreground)
//Storyboard Layer 4 (Overlay)
//Storyboard Sound Samples

[TimingPoints]
430.492084023179,400,4,2,8,30,1,0
1530,-100,4,2,2,5,0,0
1630,-100,4,2,8,30,0,0
2830,-100,4,2,8,35,0,0
4730,-100,4,2,2,5,0,0
4830,-100,4,2,8,35,0,0
6830,-100,4,2,8,40,0,0
11030,-100,4,2,8,30,0,0
11230,-100,4,2,8,45,0,0
12030,-100,4,2,8,50,0,0
12430,-100,4,2,8,60,0,0
12830,-133.333333333333,4,2,8,70,0,0
13130,-133.333333333333,4,2,2,5,0,0
13230,-66.6666666666667,4,2,8,80,0,0
14030,-100,4,2,8,80,0,0
14430,-76.9230769230769,4,2,8,80,0,0
15830,-76.9230769230769,4,2,8,60,0,0
16030,-76.9230769230769,4,2,8,70,0,0
16230,-76.9230769230769,4,2,8,65,0,0
16430,-66.6666666666667,4,2,8,80,0,0
17230,-100,4,2,8,80,0,0
17630,-76.9230769230769,4,2,8,80,0,0
19230,-100,4,2,8,80,0,0
19530,-100,4,2,2,5,0,0
19630,-66.6666666666667,4,2,8,80,0,0
19930,-66.6666666666667,4,2,2,5,0,0
20030,-66.6666666666667,4,2,8,80,0,0
20130,-66.6666666666667,4,2,2,5,0,0
20230,-66.6666666666667,4,2,8,80,0,0
20830,-76.9230769230769,4,2,8,80,0,0
22430,-76.9230769230769,4,2,8,65,0,0
22830,-66.6666666666667,4,2,8,80,0,0
23130,-66.6666666666667,4,2,2,5,0,0
23230,-66.6666666666667,4,2,8,80,0,0
23330,-66.6666666666667,4,2,2,5,0,0
23430,-66.6666666666667,4,2,8,80,0,0
24030,-133.333333333333,4,2,8,80,0,0
25030,-133.333333333333,4,2,8,40,0,0
25230,-133.333333333333,4,2,8,70,0,0
26430,-133.333333333333,4,2,8,55,0,0
27630,-133.333333333333,4,2,8,50,0,0
28230,-133.333333333333,4,2,8,40,0,0
28830,-200,4,2,8,50,0,0
29130,-200,4,2,2,5,0,0
29230,-133.333333333333,4,2,8,50,0,0
33430,-200,4,2,8,50,0,0
34030,-166.666666666667,4,2,8,50,0,0
35230,-166.666666666667,4,2,8,50,0,0
35530,-166.666666666667,4,2,2,5,0,0
35630,-133.333333333333,4,2,8,50,0,0
38430,-200,4,2,8,50,0,0
38730,-200,4,2,2,5,0,0
38830,-133.333333333333,4,2,8,50,0,0
41230,-80,4,2,8,70,0,0
41530,-80,4,2,2,5,0,0
41630,-133.333333333333,4,2,8,50,0,0
42030,-100,4,2,8,60,0,0
43930,-100,4,2,2,5,0,0
44030,-100,4,2,8,60,0,0
44430,-100,4,2,8,40,0,0
44530,-100,4,2,8,60,0,0
47130,-100,4,2,2,5,0,0
47230,-100,4,2,8,60,0,0
47830,-86.9565217391304,4,2,8,60,0,0
48430,-111.111111111111,4,2,8,60,0,0
50030,-125,4,2,8,60,0,0
50330,-125,4,2,2,5,0,0
50430,-133.333333333333,4,2,8,55,0,0
50730,-125,4,2,2,5,0,0
50830,-142.857142857143,4,2,8,50,0,0
51130,-125,4,2,2,5,0,0
51230,-125,4,2,8,60,0,0
51630,-86.9565217391304,4,2,8,60,0,0
53230,-95.2380952380952,4,2,8,65,0,0
54030,-86.9565217391304,4,2,8,65,0,0
54630,-86.9565217391304,4,2,8,40,0,0
54830,-142.857142857143,4,2,8,60,0,0
58030,-90.9090909090909,4,2,8,70,0,0
59630,-100,4,2,8,70,0,0
60930,-100,4,2,2,5,0,0
61030,-100,4,2,8,70,0,0
61230,-125,4,2,8,65,0,0
64430,-100,4,2,8,50,0,0
64830,-100,4,2,8,30,0,0
65230,-100,4,2,8,60,0,0
65630,-100,4,2,8,80,0,0
66030,-100,4,2,8,80,0,0
66430,-133.333333333333,4,2,8,60,0,0
67630,-66.6666666666667,4,2,8,90,0,1
70430,-133.333333333333,4,2,8,90,0,1
70730,-133.333333333333,4,2,2,5,0,1
70830,-66.6666666666667,4,2,8,90,0,1
77830,-76.9230769230769,4,2,8,90,0,1
78430,-66.6666666666667,4,2,8,90,0,1
79030,-58.8235294117647,4,2,8,90,0,1
80430,-66.6666666666667,4,2,8,90,0,1
80730,-66.6666666666667,4,2,2,5,0,1
80830,-66.6666666666667,4,2,8,90,0,1
83230,-133.333333333333,4,2,8,90,0,1
83530,-133.333333333333,4,2,2,5,0,1
83630,-66.6666666666667,4,2,8,90,0,1
85930,-66.6666666666667,4,2,2,5,0,1
86030,-66.6666666666667,4,2,8,90,0,1
89630,-66.6666666666667,4,2,8,70,0,1
90030,-66.6666666666667,4,2,8,90,0,1
91230,-71.4285714285714,4,2,8,90,0,1
93230,-80,4,2,8,90,0,1
94630,-111.111111111111,4,2,8,90,0,1
94930,-80,4,2,2,5,0,1
95030,-80,4,2,8,90,0,1
96430,-66.6666666666667,4,2,8,90,0,1
99630,-100,4,2,8,60,0,0
100130,-100,4,2,2,5,0,0
100230,-100,4,2,8,60,0,0
101830,-100,4,2,8,45,0,0
102030,-100,4,2,8,60,0,0
102630,-100,4,2,8,45,0,0
102830,-133.333333333333,4,2,8,55,0,0
103730,-133.333333333333,4,2,2,5,0,0
103830,-133.333333333333,4,2,8,55,0,0
104130,-133.333333333333,4,2,2,5,0,0
104230,-133.333333333333,4,2,8,55,0,0
105430,-200,4,2,8,60,0,0
106330,-200,4,2,2,5,0,0
106430,-200,4,2,8,60,0,0
106830,-200,4,2,8,65,0,0
107230,-200,4,2,8,75,0,0
107630,-66.6666666666667,4,2,8,80,0,0
108430,-100,4,2,8,80,0,0
108830,-76.9230769230769,4,2,8,80,0,0
110230,-76.9230769230769,4,2,8,60,0,0
110430,-76.9230769230769,4,2,8,70,0,0
110630,-76.9230769230769,4,2,8,65,0,0
110830,-66.6666666666667,4,2,8,80,0,0
111630,-100,4,2,8,80,0,0
112030,-76.9230769230769,4,2,8,80,0,0
114030,-66.6666666666667,4,2,8,80,0,0
114330,-66.6666666666667,4,2,2,5,0,0
114430,-66.6666666666667,4,2,8,80,0,0
114530,-66.6666666666667,4,2,2,5,0,0
114630,-66.6666666666667,4,2,8,80,0,0
115230,-76.9230769230769,4,2,8,80,0,0
116830,-76.9230769230769,4,2,8,65,0,0
117230,-66.6666666666667,4,2,8,80,0,0
117530,-66.6666666666667,4,2,2,5,0,0
117630,-66.6666666666667,4,2,8,80,0,0
117730,-66.6666666666667,4,2,2,5,0,0
117830,-66.6666666666667,4,2,8,80,0,0
118430,-133.333333333333,4,2,8,80,0,0
119430,-133.333333333333,4,2,8,50,0,0
119630,-200,4,2,8,45,0,0
120430,-133.333333333333,4,2,8,50,0,0
121330,-133.333333333333,4,2,2,5,0,0
121430,-133.333333333333,4,2,8,50,0,0
121730,-133.333333333333,4,2,2,5,0,0
121830,-133.333333333333,4,2,8,50,0,0
122830,-133.333333333333,4,2,8,40,0,0
123630,-133.333333333333,4,2,8,50,0,0
123930,-133.333333333333,4,2,2,5,0,0
124030,-133.333333333333,4,2,8,50,0,0
124330,-133.333333333333,4,2,2,5,0,0
124430,-133.333333333333,4,2,8,50,0,0
126430,-200,4,2,8,50,0,0
126630,-200,4,2,8,30,0,0
126830,-133.333333333333,4,2,8,55,0,0
127830,-133.333333333333,4,2,8,35,0,0
128430,-133.333333333333,4,2,8,55,0,0
129230,-133.333333333333,4,2,8,45,0,0
130030,-166.666666666667,4,2,8,55,0,0
131030,-166.666666666667,4,2,8,35,0,0
131630,-166.666666666667,4,2,8,55,0,0
132630,-200,4,2,8,55,0,0
133130,-200,4,2,2,5,0,0
133230,-117.647058823529,4,2,8,60,0,0
134630,-117.647058823529,4,2,8,40,0,0
134830,-117.647058823529,4,2,8,60,0,0
137830,-117.647058823529,4,2,8,30,0,0
138030,-100,4,2,8,60,0,0
138330,-100,4,2,2,5,0,0
138430,-117.647058823529,4,2,8,60,0,0
139030,-200,4,2,8,60,0,0
139630,-100,4,2,8,60,0,0
140630,-100,4,2,8,40,0,0
140830,-111.111111111111,4,2,8,60,0,0
141930,-111.111111111111,4,2,2,5,0,0
142030,-111.111111111111,4,2,8,60,0,0
142830,-90.9090909090909,4,2,8,65,0,0
143130,-90.9090909090909,4,2,2,5,0,0
143230,-90.9090909090909,4,2,8,65,0,0
144430,-83.3333333333333,4,2,8,65,0,0
144730,-83.3333333333333,4,2,2,5,0,0
144830,-83.3333333333333,4,2,8,65,0,0
145130,-83.3333333333333,4,2,2,5,0,0
145230,-83.3333333333333,4,2,8,65,0,0
145430,-125,4,2,8,65,0,0
145930,-125,4,2,2,5,0,0
146030,-166.666666666667,4,2,8,65,0,0
149230,-125,4,2,8,65,0,0
150030,-142.857142857143,4,2,8,65,0,0
150830,-166.666666666667,4,2,8,65,0,0
151430,-166.666666666667,4,2,8,35,0,0
151530,-166.666666666667,4,2,8,65,0,0
151830,-125,4,2,8,65,0,0
152130,-125,4,2,2,5,0,0
152230,-125,4,2,8,65,0,0
152430,-153.846153846153,4,2,8,65,0,0
153630,-133.333333333333,4,2,8,65,0,0
154030,-133.333333333333,4,2,8,35,0,0
154230,-133.333333333333,4,2,8,65,0,0
155430,-133.333333333333,4,2,8,45,0,0
155630,-100,4,2,8,60,0,0
156430,-100,4,2,8,70,0,0
157230,-133.333333333333,4,2,8,75,0,0
157930,-133.333333333333,4,2,8,45,0,0
158030,-133.333333333333,4,2,8,75,0,0
158430,-133.333333333333,4,2,8,65,0,0
158630,-133.333333333333,4,2,8,55,0,0
158830,-66.6666666666667,4,2,8,90,0,1
160730,-66.6666666666667,4,2,2,5,0,1
160830,-66.6666666666667,4,2,8,90,0,1
165030,-66.6666666666667,4,2,8,70,0,1
165230,-66.6666666666667,4,2,8,90,0,1
168230,-66.6666666666667,4,2,8,70,0,1
168430,-66.6666666666667,4,2,8,90,0,1
169030,-80,4,2,8,90,0,1
169630,-66.6666666666667,4,2,8,90,0,1
170230,-58.8235294117647,4,2,8,90,0,1
171630,-66.6666666666667,4,2,8,90,0,1
173030,-66.6666666666667,4,2,8,70,0,1
173230,-66.6666666666667,4,2,8,90,0,1
179230,-80,4,2,8,90,0,1
181230,-66.6666666666667,4,2,8,90,0,1
182430,-80,4,2,8,90,0,1
184030,-80,4,2,8,75,0,1
184430,-80,4,2,8,90,0,1
184730,-80,4,2,2,5,0,1
184830,-80,4,2,8,90,0,1
185830,-111.111111111111,4,2,8,90,0,1
186130,-80,4,2,2,5,0,1
186230,-66.6666666666667,4,2,8,90,0,1
189430,-58.8235294117647,4,2,8,90,0,1
190430,-58.8235294117647,4,2,8,70,0,1
190830,-100,4,2,8,65,0,0
191430,-125,4,2,8,60,0,0
193030,-125,4,2,8,45,0,0
193230,-125,4,2,8,60,0,0
193830,-125,4,2,8,45,0,0
194030,-133.333333333333,4,2,8,60,0,0
194930,-133.333333333333,4,2,2,5,0,0
195030,-133.333333333333,4,2,8,60,0,0
195330,-133.333333333333,4,2,2,5,0,0
195430,-133.333333333333,4,2,8,60,0,0
196630,-200,4,2,8,60,0,0
197530,-200,4,2,2,5,0,0
197630,-200,4,2,8,60,0,0
198030,-200,4,2,8,65,0,0
198830,-100,4,2,8,70,0,0
201930,-100,4,2,2,5,0,0
202230,-80,4,2,8,70,0,0
202830,-66.6666666666667,4,2,8,70,0,0
203430,-62.5,4,2,8,70,0,0
204030,-58.8235294117647,4,2,8,70,0,0
204630,-52.6315789473684,4,2,8,70,0,0
205230,-80,4,2,8,70,0,0
208630,-66.6666666666667,4,2,8,70,0,0
210430,-80,4,2,8,70,0,0
211230,-133.333333333333,4,2,8,70,0,0
211530,-133.333333333333,4,2,2,5,0,0
211630,-80,4,2,8,70,0,0
214830,-66.6666666666667,4,2,8,70,0,0
215630,-80,4,2,8,70,0,0
219630,-86.9565217391304,4,2,8,60,0,0
221230,-80,4,2,8,65,0,0
224430,-100,4,2,8,70,0,0
225030,-80,4,2,8,70,0,0
225630,-66.6666666666667,4,2,8,75,0,0
226430,-80,4,2,8,70,0,0
227630,-71.4285714285714,4,2,8,70,0,0
228230,-83.3333333333333,4,2,8,80,0,0
228630,-83.3333333333333,4,2,8,70,0,0
229630,-66.6666666666667,4,2,8,70,0,0
230830,-76.9230769230769,4,2,8,65,0,0
232230,-100,4,2,8,65,0,0
233830,-100,4,2,8,60,0,0
234030,-100,4,2,8,65,0,0
235230,-83.3333333333333,4,2,8,65,0,0
236630,-100,4,2,8,65,0,0
238830,-83.3333333333333,4,2,8,65,0,0
239030,-83.3333333333333,4,2,8,55,0,0
239230,-83.3333333333333,4,2,8,65,0,0
239430,-83.3333333333333,4,2,8,55,0,0
239530,-83.3333333333333,4,2,8,65,0,0
240430,-100,4,2,8,65,0,0
242630,-100,4,2,8,60,0,0
242830,-100,4,2,8,80,0,0
243230,-100,4,2,8,70,0,0
243430,-100,4,2,8,60,0,0
243630,-76.9230769230769,4,2,8,70,0,0
249230,-86.9565217391304,4,2,8,60,0,0
249630,-100,4,2,8,50,0,0
250030,-133.333333333333,4,2,8,60,0,0
253230,-100,4,2,8,70,0,0
254430,-100,4,2,8,60,0,0
255030,-100,4,2,8,50,0,0
255430,-100,4,2,2,5,0,0
255530,-133.333333333333,4,2,8,40,0,0
256230,-200,4,2,8,40,0,0
256830,-200,4,2,8,35,0,0
257330,-250,4,2,8,35,0,0
257730,-250,4,2,2,5,0,0
257830,-250,4,2,8,35,0,0
258430,-200,4,2,8,35,0,0
258730,-285.714285714286,4,2,2,5,0,0
258830,-133.333333333333,4,2,8,35,0,0
259130,-222.222222222222,4,2,2,5,0,0
259230,-166.666666666667,4,2,8,35,0,0
259530,-400,4,2,2,5,0,0
259630,-133.333333333333,4,2,8,50,0,0
266030,-100,4,2,8,55,0,0
269230,-133.333333333333,4,2,8,60,0,0
269730,-133.333333333333,4,2,2,5,0,0
269830,-100,4,2,8,70,0,0
270330,-100,4,2,2,5,0,0
270430,-80,4,2,8,75,0,0
270930,-80,4,2,2,5,0,0
271030,-50,4,2,8,80,0,0
272030,-50,4,2,8,60,0,0
272230,-50,4,2,8,50,0,0
272430,-66.6666666666667,4,2,8,90,0,1
273430,-66.6666666666667,4,2,2,5,0,1
273497,-66.6666666666667,4,2,8,90,0,1
273697,-80,4,2,2,5,0,1
273763,-80,4,2,8,90,0,1
273963,-66.6666666666667,4,2,2,5,0,1
274030,-57.1428571428571,4,2,8,90,0,1
275030,-57.1428571428571,4,2,2,5,0,1
275097,-66.6666666666667,4,2,8,90,0,1
275297,-66.6666666666667,4,2,2,5,0,1
275363,-57.1428571428571,4,2,8,90,0,1
275563,-57.1428571428571,4,2,2,5,0,1
275630,-50,4,2,8,90,0,1
277030,-66.6666666666667,4,2,8,90,0,1
277430,-44.4444444444445,4,2,8,90,0,1
278030,-40,4,2,8,90,0,1
278330,-40,4,2,8,70,0,1
278430,-50,4,2,8,90,0,1
278630,-50,4,2,8,70,0,1
278830,-66.6666666666667,4,2,8,90,0,1
280030,-80,4,2,8,90,0,1
282030,-66.6666666666667,4,2,8,90,0,1
283230,-80,4,2,8,90,0,1
285230,-57.1428571428571,4,2,8,90,0,1
286630,-100,4,2,8,90,0,1
286930,-80,4,2,2,5,0,1
287030,-66.6666666666667,4,2,8,90,0,1
290230,-57.1428571428571,4,2,8,90,0,1
290530,-57.1428571428571,4,2,2,5,0,1
290630,-57.1428571428571,4,2,8,90,0,1
291428,-80,4,2,8,90,0,1
291630,-100,4,2,8,65,0,0
293830,-100,4,2,8,55,0,0
294030,-100,4,2,8,60,0,0
294830,-133.333333333333,4,2,8,65,0,0
297430,-200,4,2,8,65,0,0
298330,-200,4,2,8,5,0,0
298430,-200,4,2,8,40,0,0
298830,-200,4,2,8,50,0,0
299230,-200,4,2,8,60,0,0
299630,-66.6666666666667,4,2,8,80,0,0
300430,-100,4,2,8,80,0,0
300830,-76.9230769230769,4,2,8,80,0,0
302230,-76.9230769230769,4,2,8,80,0,0
302430,-76.9230769230769,4,2,8,75,0,0
302630,-76.9230769230769,4,2,8,70,0,0
302830,-66.6666666666667,4,2,8,80,0,0
303630,-100,4,2,8,80,0,0
304030,-76.9230769230769,4,2,8,80,0,0
304830,-80,4,2,8,80,0,0
305430,-80,4,2,8,75,0,0
305630,-80,4,2,8,70,0,0
305830,-80,4,2,8,65,0,0
306030,-66.6666666666667,4,2,8,80,0,0
306330,-66.6666666666667,4,2,2,5,0,0
306430,-66.6666666666667,4,2,8,80,0,0
306530,-66.6666666666667,4,2,2,5,0,0
306630,-66.6666666666667,4,2,8,80,0,0
307230,-76.9230769230769,4,2,8,80,0,0
308830,-76.9230769230769,4,2,8,65,0,0
309230,-66.6666666666667,4,2,8,80,0,0
309530,-66.6666666666667,4,2,2,5,0,0
309630,-66.6666666666667,4,2,8,80,0,0
309730,-66.6666666666667,4,2,2,5,0,0
309830,-66.6666666666667,4,2,8,80,0,0
310430,-133.333333333333,4,2,8,60,0,0
311230,-133.333333333333,4,2,8,50,0,0
311630,422.535211267606,4,2,8,50,1,0
311630,-200,4,2,8,50,0,0
314059,-200,4,2,2,5,0,0
314165,405.405405405405,4,2,8,70,1,0
314165,-100,4,2,8,70,0,0
315279,-100,4,2,2,5,0,0
315381,-133.333333333333,4,2,8,70,0,0
316090,-133.333333333333,4,2,2,5,0,0
316192,-83.3333333333333,4,2,8,70,0,0
316496,-100,4,2,2,5,0,0
316597,-100,4,2,8,70,0,0
317002,-100,4,2,8,60,0,0
317205,-227.272727272727,4,2,8,70,0,0
319029,-227.272727272727,4,2,8,60,0,0
320651,-227.272727272727,4,2,8,50,0,0
322273,-227.272727272727,4,2,8,40,0,0
323894,-227.272727272727,4,2,8,30,0,0
325516,-227.272727272727,4,2,8,20,0,0
327137,-227.272727272727,4,2,8,10,0,0
328759,-227.272727272727,4,2,8,5,0,0
330482,-227.272727272727,4,2,2,5,0,0

[Colours]
Combo1 : 210,166,166
Combo2 : 185,66,66
Combo3 : 229,229,229
Combo4 : 153,153,204

[HitObjects]
288,336,430,5,2,0:0:0:0:
368,312,630,1,2,0:0:0:0:
432,256,830,1,2,0:0:0:0:
464,175,1030,2,0,P|404:239|331:193,1,187.5,2|0,0:0|0:0,0:0:0:0:
314,154,1630,5,2,0:0:0:0:
207,273,2830,1,2,0:0:0:0:
224,256,3230,1,2,0:0:0:0:
240,240,3630,5,2,0:0:0:0:
160,216,3830,1,2,0:0:0:0:
96,160,4030,1,2,0:0:0:0:
64,80,4230,2,0,P|105:138|200:90,1,187.5,2|0,0:0|0:0,0:0:0:0:
217,70,4830,5,2,0:0:0:0:
256,200,5630,1,2,0:0:0:0:
264,232,6030,1,2,0:0:0:0:
328,192,6230,1,2,0:0:0:0:
344,120,6430,1,2,0:0:0:0:
344,120,6830,5,2,0:0:0:0:
218,187,7030,1,2,0:0:0:0:
344,232,7230,1,2,0:0:0:0:
265,89,7430,2,0,P|196:76|124:114,1,150,2|0,0:0|0:0,0:0:0:0:
32,192,8030,5,2,0:0:0:0:
72,288,8430,1,2,0:0:0:0:
192,344,8830,1,2,0:0:0:0:
344,320,9230,1,2,0:0:0:0:
408,264,9430,1,2,0:0:0:0:
408,184,9630,1,2,0:0:0:0:
408,184,10030,5,2,0:0:0:0:
272,280,10230,1,2,0:0:0:0:
312,144,10430,1,2,0:0:0:0:
411,281,10630,2,0,B|522:239|522:239|478:227,1,150,2|8,0:0|0:0,0:0:0:0:
418,186,11130,1,8,0:0:0:0:
408,184,11230,5,10,1:2:0:0:
216,104,11630,1,8,1:2:0:0:
344,336,12030,1,8,1:2:0:0:
472,48,12430,1,14,0:0:0:0:
416,112,12630,1,8,0:0:0:0:
432,191,12830,2,0,P|400:219|359:223,1,84.3750032186509,10|0,1:3|0:0,0:0:0:0:
259,207,13230,6,0,B|310:189|354:215|354:241|354:267|397:302|449:284,1,225.000008583069,6|0,1:2|3:0,0:0:0:0:
432,191,13830,1,2,1:2:0:0:
251,133,14030,2,0,P|214:137|187:163,1,75,10|0,0:0|0:0,0:0:0:0:
128,336,14430,6,0,P|141:251|222:278,1,194.999991073609,6|0,1:0|3:0,0:0:0:0:
288,328,15030,1,0,1:0:0:0:
395,274,15230,2,0,P|427:238|432:191,1,97.4999955368044,2|0,1:2|0:0,0:0:0:0:
352,32,15630,1,10,0:0:0:0:
320,48,15830,1,2,1:2:0:0:
328,72,16030,1,6,0:3:0:0:
352,64,16230,1,10,0:3:0:0:
336,56,16430,6,0,B|283:38|240:64|240:90|240:116|196:151|144:134,1,225.000008583069,6|0,1:2|3:0,0:0:0:0:
162,56,17030,1,2,1:2:0:0:
313,148,17230,2,0,P|309:185|284:212,1,75,10|0,0:0|0:0,0:0:0:0:
162,56,17630,6,0,P|81:29|67:114,1,194.999991073609,6|0,1:2|3:0,0:0:0:0:
80,200,18230,1,0,1:0:0:0:
160,272,18430,2,0,B|226:246|226:246|200:239,1,97.4999955368044,2|0,1:2|0:0,0:0:0:0:
248,352,18830,1,10,0:0:0:0:
272,352,19030,1,6,0:3:0:0:
272,327,19230,2,0,P|320:300|375:290,1,112.5,10|0,0:3|0:0,0:0:0:0:
452,321,19630,6,0,B|407:287|407:287|394:165,1,168.750006437302,6|0,1:0|0:0,0:0:0:0:
391,101,20030,2,0,P|418:105|442:119,1,56.2500021457673,2|0,3:2|0:0,0:0:0:0:
496,192,20230,1,2,1:2:0:0:
375,290,20430,1,10,0:0:0:0:
320,192,20630,1,2,0:0:0:0:
272,327,20830,6,0,P|259:242|177:268,1,194.999991073609,6|0,1:2|3:0,0:0:0:0:
120,336,21430,1,0,1:0:0:0:
11,366,21630,1,2,1:2:0:0:
21,208,21830,1,0,1:0:0:0:
21,208,21930,1,0,1:0:0:0:
20,208,22030,2,0,P|69:200|112:179,1,97.4999955368044,10|0,0:0|3:0,0:0:0:0:
200,24,22430,1,10,0:3:0:0:
176,40,22630,1,6,0:3:0:0:
168,24,22830,6,0,B|212:57|212:57|225:179,1,168.750006437302,6|0,1:0|0:0,0:0:0:0:
223,243,23230,2,0,P|250:238|274:224,1,56.2500021457673,2|0,0:0|0:0,0:0:0:0:
320,144,23430,1,2,1:2:0:0:
184,88,23630,1,10,0:0:0:0:
120,216,23830,1,2,0:0:0:0:
264,327,24030,6,0,B|304:320|360:295|392:239|394:166|394:166|383:197|346:215,1,281.250010728836,6|0,1:2|0:0,0:0:0:0:
160,272,25230,6,0,B|143:220|178:176|204:176|230:176|256:133|238:80|238:80|304:88|320:144,1,337.500012874604,2|2,1:2|0:0,0:0:0:0:
320,144,27030,1,2,0:0:0:0:
352,200,27630,1,2,0:0:0:0:
384,216,28230,1,2,3:0:0:0:
399,215,28830,6,0,P|388:190|368:170,1,56.25,2|0,0:0|0:0,0:0:0:0:
328,232,29230,6,0,B|218:213,1,112.500004291535,2|0,0:0|0:0,0:0:0:0:
128,192,29830,2,0,B|17:210,2,112.500004291535,2|2|2,0:0|0:0|0:0,0:0:0:0:
122,284,30830,6,0,B|203:298|203:298|177:268,1,112.500004291535,2|0,0:0|0:0,0:0:0:0:
328,232,31430,2,0,B|247:218|247:218|273:248,1,112.500004291535,2|0,0:0|0:0,0:0:0:0:
350,311,32030,2,0,B|376:325|376:325|460:292,2,112.500004291535,2|2|0,0:0|0:0|0:0,0:0:0:0:
266,240,33030,1,2,0:0:0:0:
264,336,33230,1,2,0:0:0:0:
384,224,33430,2,0,B|396:150,1,75,2|0,0:0|0:0,0:0:0:0:
502,31,34030,6,0,B|478:166,1,134.999995880127,2|0,0:0|0:0,0:0:0:0:
425,280,34830,1,2,3:2:0:0:
405,292,35030,1,2,0:0:0:0:
389,301,35230,2,0,B|366:237,1,67.4999979400635,2|0,0:0|0:0,0:0:0:0:
308,164,35630,6,0,B|356:196|356:196|409:184,1,112.500004291535,2|0,0:0|0:0,0:0:0:0:
489,90,36230,2,0,B|379:109,2,112.500004291535,2|2|2,0:0|0:0|0:0,0:0:0:0:
489,90,37430,1,2,0:0:0:0:
475,176,37630,1,2,0:0:0:0:
378,109,37830,1,2,0:0:0:0:
475,176,38030,1,2,3:2:0:0:
475,176,38430,2,0,B|419:185,1,56.25,2|0,0:0|0:0,0:0:0:0:
365,150,38830,6,0,B|394:226|394:226|381:253,2,112.500004291535,2|2|2,0:0|0:0|0:0,0:0:0:0:
320,80,39830,1,2,0:0:0:0:
320,80,40230,6,0,B|294:95|294:95|282:177,1,112.500004291535,2|0,0:0|3:0,0:0:0:0:
110,169,40830,1,2,0:0:0:0:
91,160,41030,1,2,0:0:0:0:
77,153,41230,2,0,B|143:137|143:137|203:178,1,140.625,2|0,0:0|0:0,0:0:0:0:
228,197,41630,1,2,0:0:0:0:
232,272,41830,1,2,3:2:0:0:
304,304,42030,6,0,B|333:264|333:264|434:254,1,150,2|0,1:2|0:0,0:0:0:0:
512,216,42630,1,2,0:0:0:0:
448,102,42830,2,0,B|467:124|467:124|386:110,2,112.500004291535,2|2|2,3:2|0:0|1:2,0:0:0:0:
288,0,43630,6,0,B|269:110,1,112.5,2|0,1:2|0:0,0:0:0:0:
238,149,44030,1,2,0:0:0:0:
160,88,44230,1,2,0:0:0:0:
208,232,44430,2,0,B|234:246|234:246|318:213,2,112.500004291535,10|2|0,0:0|0:0|1:0,0:0:0:0:
144,192,45130,1,0,1:0:0:0:
144,192,45230,6,0,B|169:341,1,150,2|0,1:2|0:0,0:0:0:0:
169,339,46030,1,2,0:0:0:0:
176,352,46430,1,2,0:0:0:0:
294,306,46630,1,2,1:2:0:0:
144,192,46830,6,0,B|127:215|127:215|45:230,1,112.5,2|0,1:2|0:0,0:0:0:0:
8,240,47230,1,2,0:0:0:0:
102,367,47430,2,0,B|153:357|153:357|166:339,1,75,2|8,0:0|0:0,0:0:0:0:
211,253,47830,2,0,B|224:235|224:235|287:223,1,86.2500016450882,2|0,0:0|3:0,0:0:0:0:
408,208,48230,1,2,1:2:0:0:
419,214,48330,1,0,1:0:0:0:
431,221,48430,6,0,B|453:87,2,134.999995880127,2|2|2,1:2|0:0|0:0,0:0:0:0:
464,376,49630,1,2,0:0:0:0:
424,304,49830,1,2,1:2:0:0:
343,328,50030,6,0,B|300:337|300:337|261:311,1,90,2|0,1:2|0:0,0:0:0:0:
238,238,50430,2,0,B|265:267|265:267|262:310,1,84.3750032186509,2|0,0:0|0:0,0:0:0:0:
214,366,50830,2,0,B|225:329|225:329|261:311,1,78.7499975967408,10|0,0:0|0:0,0:0:0:0:
336,256,51230,1,2,0:0:0:0:
416,272,51430,1,2,0:0:0:0:
480,144,51630,6,0,B|515:113|515:113|493:237,1,172.500003290176,2|2,1:2|3:2,0:0:0:0:
336,256,52230,1,2,0:0:0:0:
336,256,52330,1,2,0:0:0:0:
336,256,52430,1,2,0:0:0:0:
400,176,52630,1,2,0:0:0:0:
480,312,52830,1,2,1:2:0:0:
352,368,53030,1,2,1:2:0:0:
272,232,53230,6,0,B|299:264|299:264|185:244,1,157.499995193482,2|2,1:2|3:2,0:0:0:0:
48,216,53830,1,2,1:2:0:0:
152,24,54030,1,10,0:0:0:0:
208,128,54230,1,6,0:3:0:0:
185,244,54430,1,10,0:3:0:0:
2,145,54630,1,0,1:0:0:0:
0,117,54730,1,0,1:0:0:0:
0,93,54830,6,0,B|60:81|60:81|97:106|97:106|147:97,2,157.499995193482,6|2|2,1:2|0:0|0:0,0:0:0:0:
193,213,56230,1,0,1:0:0:0:
203,201,56330,1,0,1:0:0:0:
213,189,56430,6,0,B|245:215|245:215|225:101,1,157.499995193482,6|2,1:2|0:0,0:0:0:0:
224,100,57430,1,2,0:0:0:0:
324,126,57630,1,2,0:0:0:0:
398,197,57830,1,2,3:2:0:0:
424,296,58030,6,0,B|260:322,1,165.000005035401,6|0,1:0|0:0,0:0:0:0:
261,321,58630,1,2,1:2:0:0:
189,81,58830,6,0,B|222:105|222:105|244:226,1,165.000005035401,6|0,1:2|0:0,0:0:0:0:
244,227,59430,1,2,1:2:0:0:
480,237,59630,6,0,B|414:193|414:193|344:208,1,150,6|0,1:0|0:0,0:0:0:0:
244,226,60230,1,0,1:0:0:0:
244,226,60330,1,0,1:0:0:0:
244,226,60430,1,10,0:0:0:0:
87,60,60630,2,0,B|135:92|135:92|188:80,1,112.5,6|0,1:2|0:0,0:0:0:0:
224,72,61030,1,2,1:2:0:0:
376,194,61230,6,0,B|337:200|337:200|309:182|309:182|263:190,1,120,6|2,1:0|0:0,0:0:0:0:
176,288,61830,2,0,B|294:269,1,120,2|2,0:0|0:0,0:0:0:0:
472,248,62430,1,2,0:0:0:0:
504,176,62630,1,2,0:0:0:0:
456,112,62830,1,2,3:2:0:0:
263,190,63030,5,2,1:2:0:0:
376,194,63230,1,2,3:2:0:0:
336,56,63430,1,10,0:0:0:0:
376,194,63630,1,10,0:0:0:0:
344,328,63830,1,6,0:3:0:0:
344,328,64230,1,10,0:3:0:0:
112,176,64430,5,6,1:2:0:0:
327,83,64830,1,10,1:2:0:0:
240,328,65230,1,10,1:2:0:0:
153,43,65630,1,10,1:2:0:0:
445,257,66030,1,14,1:2:0:0:
464,280,66430,6,0,B|408:271,1,56.2500021457673,2|8,0:0|0:0,0:0:0:0:
352,232,66730,1,8,0:0:0:0:
352,232,66830,5,10,0:0:0:0:
267,283,67030,1,10,0:0:0:0:
200,330,67230,1,6,0:3:0:0:
155,338,67430,1,10,0:3:0:0:
133,331,67630,6,0,P|238:324|265:222,1,225.000008583069,6|2,1:2|3:2,0:0:0:0:
216,80,68230,1,2,0:0:0:0:
80,203,68430,1,10,0:0:0:0:
344,248,68630,2,0,P|336:193|299:151,1,112.500004291535,2|0,0:0|3:0,0:0:0:0:
177,249,69030,1,10,0:0:0:0:
177,249,69130,1,8,0:0:0:0:
177,249,69230,6,0,P|122:241|80:204,1,112.500004291535,2|8,1:2|0:0,0:0:0:0:
27,66,69630,1,2,1:2:0:0:
292,11,69830,2,0,P|237:18|195:55,1,112.500004291535,2|10,0:0|0:0,0:0:0:0:
152,168,70230,1,0,1:0:0:0:
384,160,70430,2,0,P|382:128|382:160,1,84.3750032186509,2|0,3:2|0:0,0:0:0:0:
367,172,70830,6,0,B|316:154|272:180|272:206|272:232|229:267|177:249,1,225.000008583069,6|2,1:2|3:2,0:0:0:0:
189,159,71430,1,2,0:0:0:0:
356,263,71630,2,0,P|411:255|453:218,1,112.500004291535,10|2,0:0|0:0,0:0:0:0:
340,18,72030,1,2,3:0:0:0:
200,175,72230,1,2,1:2:0:0:
112,40,72430,6,0,P|109:91|82:147,1,112.500004291535,2|8,1:2|0:0,0:0:0:0:
231,0,72830,2,0,P|239:55|276:97,1,112.500004291535,2|0,1:2|0:0,0:0:0:0:
452,218,73230,1,10,0:0:0:0:
384,32,73430,1,2,1:2:0:0:
320,224,73630,1,2,3:2:0:0:
275,96,73830,1,2,1:0:0:0:
192,168,74030,6,0,P|165:66|60:58,1,225.000008583069,6|2,1:2|3:2,0:0:0:0:
179,261,74630,2,0,P|234:253|276:216,1,112.500004291535,2|10,0:0|0:0,0:0:0:0:
275,96,75030,1,2,0:0:0:0:
105,139,75230,1,2,3:2:0:0:
275,216,75430,1,2,1:2:0:0:
463,152,75630,6,0,P|357:144|331:42,1,225.000008583069,6|2,1:2|1:2,0:0:0:0:
372,261,76230,2,0,P|317:253|275:216,1,112.500004291535,2|10,0:0|0:0,0:0:0:0:
341,90,76630,1,2,1:2:0:0:
496,128,76830,1,2,3:0:0:0:
456,288,77030,1,2,0:0:0:0:
419,75,77230,6,0,B|368:57|324:83|324:109|324:135|281:170|229:152,1,225.000008583069,6|2,1:2|3:2,0:0:0:0:
80,143,77830,1,6,1:2:0:0:
80,143,78030,2,0,P|121:167|133:214,1,97.4999955368044,10|10,0:0|0:0,0:0:0:0:
127,329,78430,6,0,B|179:347|222:312|222:286|222:260|266:234|317:252,1,225.000008583069,6|8,1:2|0:0,0:0:0:0:
512,127,79030,6,0,P|393:128|409:236,1,255.000004863739,6|0,1:2|1:0,0:0:0:0:
299,337,79630,5,14,0:0:0:0:
149,248,79830,1,10,0:0:0:0:
253,77,80030,1,6,0:3:0:0:
454,175,80230,1,10,0:3:0:0:
163,339,80430,6,0,P|83:333|54:258,1,168.750006437302,6|0,1:2|0:0,0:0:0:0:
54,215,80830,1,2,3:2:0:0:
272,368,81030,1,2,0:0:0:0:
252,211,81230,2,0,P|173:155|148:247,1,225.000008583069,10|0,0:0|3:0,0:0:0:0:
464,220,81830,1,2,1:2:0:0:
464,220,81930,1,0,1:0:0:0:
464,220,82030,6,0,P|456:165|419:123,1,112.500004291535,2|8,1:2|0:0,0:0:0:0:
310,280,82430,1,2,1:2:0:0:
300,67,82630,1,2,0:0:0:0:
376,206,82830,6,0,P|321:198|279:161,1,112.500004291535,14|0,0:0|1:0,0:0:0:0:
370,10,83230,2,0,P|390:-13|384:17,1,84.3750032186509,2|0,3:2|0:0,0:0:0:0:
371,27,83630,6,0,B|320:9|276:35|276:61|276:87|233:122|181:104,1,225.000008583069,6|2,1:2|3:2,0:0:0:0:
36,116,84230,2,0,P|43:61|80:19,1,112.500004291535,2|8,0:0|0:0,0:0:0:0:
350,104,84630,1,2,0:0:0:0:
148,246,84830,1,2,3:2:0:0:
199,21,85030,1,10,0:0:0:0:
199,21,85130,1,8,0:0:0:0:
199,21,85230,6,0,P|251:38|285:82,1,112.500004291535,2|8,1:2|0:0,0:0:0:0:
164,285,85630,2,0,P|147:203|180:126,1,168.750006437302,2|0,1:2|0:0,0:0:0:0:
202,107,86030,1,10,0:0:0:0:
48,208,86230,1,2,1:2:0:0:
276,215,86430,1,6,3:3:0:0:
216,352,86630,1,10,0:3:0:0:
48,208,86830,6,0,P|75:106|180:98,1,225.000008583069,6|2,1:0|3:2,0:0:0:0:
360,216,87430,1,2,1:2:0:0:
134,269,87630,2,0,P|82:252|48:208,1,112.500004291535,10|0,0:0|0:0,0:0:0:0:
180,98,88030,6,0,B|232:116|275:81|275:55|275:29|319:3|370:21,1,225.000008583069,6|0,1:2|0:0,0:0:0:0:
456,192,88630,1,4,0:3:0:0:
488,96,88830,1,8,0:3:0:0:
301,196,89030,1,0,1:0:0:0:
278,184,89130,1,0,1:0:0:0:
266,159,89230,2,0,P|232:114|179:97,1,112.500004291535,10|0,0:0|1:0,0:0:0:0:
175,194,89630,1,2,3:2:0:0:
104,256,89830,1,2,1:2:0:0:
9,281,90030,6,0,P|36:179|141:171,1,225.000008583069,6|2,1:0|3:2,0:0:0:0:
240,248,90630,1,2,1:2:0:0:
416,319,90830,2,0,P|468:301|502:257,1,112.500004291535,10|8,0:0|0:0,0:0:0:0:
483,43,91230,6,0,B|500:91|476:132|451:132|427:132|394:172|412:222,1,209.999993591309,6|2,1:2|0:0,0:0:0:0:
416,320,91830,1,4,0:3:0:0:
328,352,92030,1,8,0:3:0:0:
240,336,92230,1,0,1:0:0:0:
256,152,92430,5,10,0:0:0:0:
304,240,92630,1,2,1:2:0:0:
160,280,92830,1,2,3:2:0:0:
72,256,93030,1,8,0:3:0:0:
32,176,93230,6,0,P|76:161|104:124,1,93.75,6|0,1:2|0:0,0:0:0:0:
152,16,93630,1,2,3:2:0:0:
262,139,93830,1,2,1:2:0:0:
400,64,94030,1,10,0:0:0:0:
260,57,94230,2,0,P|216:71|187:108,1,93.75,2|0,0:0|1:0,0:0:0:0:
32,176,94630,2,0,P|30:125|20:75,1,101.249996910095,2|0,0:0|0:0,0:0:0:0:
29,43,95030,6,0,B|71:28|108:50|108:72|108:94|144:123|189:108,1,187.5,6|0,1:2|0:0,0:0:0:0:
336,0,95630,1,10,0:0:0:0:
400,96,95830,1,2,1:2:0:0:
344,216,96030,1,2,3:2:0:0:
188,108,96230,1,2,1:2:0:0:
82,222,96430,6,0,P|182:210|195:310,1,225.000008583069,6|2,1:2|3:2,0:0:0:0:
188,108,97030,2,0,P|240:124|275:168,1,112.500004291535,2|8,1:2|0:0,0:0:0:0:
348,69,97430,1,2,1:2:0:0:
398,230,97630,1,10,0:0:0:0:
511,51,97830,1,10,0:0:0:0:
511,51,98230,6,0,B|460:33|416:58|416:84|416:110|373:145|320:127,1,225.000008583069,6|0,1:2|1:0,0:0:0:0:
208,48,98830,5,14,0:0:0:0:
200,216,99030,1,6,1:3:0:0:
376,272,99230,1,10,1:3:0:0:
496,136,99430,1,2,1:2:0:0:
273,228,99630,6,0,B|198:215,1,75,6|0,1:2|0:0,0:0:0:0:
96,112,100030,2,0,B|82:147,1,37.5,2|0,0:0|0:0,0:0:0:0:
57,219,100230,2,0,B|114:229|114:229|150:206|150:206|198:215,2,150,2|2|2,0:0|0:0|0:0,0:0:0:0:
8,152,101230,5,2,0:0:0:0:
152,129,101430,1,2,0:0:0:0:
311,77,101630,1,2,0:0:0:0:
356,214,101830,1,8,0:3:0:0:
311,77,102030,5,10,0:0:0:0:
227,166,102230,1,6,0:3:0:0:
227,258,102430,1,10,0:3:0:0:
238,277,102630,1,10,1:3:0:0:
318,314,102830,6,0,B|341:297|341:297|356:215,1,112.5,6|2,1:2|0:0,0:0:0:0:
400,88,103430,2,0,B|391:128|391:128|415:164,1,84.3750032186509,2|0,0:0|0:0,0:0:0:0:
488,189,103830,2,0,B|457:161|457:161|413:164,1,84.3750032186509,2|0,3:2|0:0,0:0:0:0:
357,215,104230,1,2,0:0:0:0:
296,112,104430,5,2,0:0:0:0:
224,88,104630,1,2,0:0:0:0:
131,196,104830,1,2,0:0:0:0:
152,120,105030,1,2,1:2:0:0:
296,280,105230,1,10,0:0:0:0:
56,256,105430,6,0,B|24:295|24:295|141:273,1,168.75,6|0,1:2|0:0,0:0:0:0:
176,269,106430,1,8,1:2:0:0:
408,240,106830,1,8,1:2:0:0:
256,40,107230,1,8,1:2:0:0:
159,272,107630,6,0,B|210:254|254:280|254:306|254:332|297:367|349:349,1,225.000008583069,6|0,1:2|3:0,0:0:0:0:
335,255,108230,1,2,1:2:0:0:
154,179,108430,2,0,P|117:183|90:209,1,75,8|0,0:0|0:0,0:0:0:0:
335,255,108830,6,0,P|348:170|429:197,1,194.999991073609,6|0,1:2|3:0,0:0:0:0:
349,348,109430,1,0,1:0:0:0:
476,267,109630,2,0,P|508:231|513:184,1,97.4999955368044,2|0,1:2|0:0,0:0:0:0:
336,56,110030,1,10,0:0:0:0:
368,72,110230,1,2,1:2:0:0:
360,96,110430,1,6,3:3:0:0:
336,88,110630,1,10,3:3:0:0:
343,74,110830,6,0,B|290:56|247:82|247:108|247:134|203:169|151:152,1,225.000008583069,6|0,1:0|3:0,0:0:0:0:
169,74,111430,1,2,1:2:0:0:
321,167,111630,2,0,P|317:203|292:230,1,75,10|0,0:0|0:0,0:0:0:0:
151,152,112030,6,0,P|69:124|55:209,1,194.999991073609,6|0,1:2|3:0,0:0:0:0:
160,280,112630,1,0,1:0:0:0:
272,304,112830,2,0,B|246:297|246:297|312:271,1,97.4999955368044,2|0,1:2|0:0,0:0:0:0:
472,319,113230,1,10,0:0:0:0:
491,353,113430,1,2,1:2:0:0:
464,369,113630,1,6,0:3:0:0:
452,350,113830,1,10,0:3:0:0:
459,339,114030,6,0,B|414:305|414:305|401:183,1,168.750006437302,6|0,1:0|0:0,0:0:0:0:
449,137,114430,2,0,P|425:123|398:119,1,56.2500021457673,2|0,0:0|0:0,0:0:0:0:
320,112,114630,1,2,0:0:0:0:
488,216,114830,1,10,0:0:0:0:
512,56,115030,1,2,0:0:0:0:
320,112,115230,6,0,P|307:27|225:52,1,194.999991073609,6|0,1:2|3:0,0:0:0:0:
184,184,115830,1,0,1:0:0:0:
120,31,116030,1,6,1:0:0:0:
5,155,116230,1,0,1:0:0:0:
5,155,116330,1,0,1:0:0:0:
5,155,116430,2,0,P|48:176|96:183,1,97.4999955368044,10|4,0:0|1:3,0:0:0:0:
207,42,116830,1,10,0:3:0:0:
183,58,117030,1,10,0:3:0:0:
175,42,117230,6,0,B|219:75|219:75|232:197,1,168.750006437302,6|0,1:0|0:0,0:0:0:0:
281,241,117630,2,0,P|257:255|230:261,1,56.2500021457673,2|0,0:0|0:0,0:0:0:0:
152,204,117830,1,2,1:2:0:0:
304,168,118030,1,10,0:0:0:0:
344,312,118230,1,10,0:0:0:0:
152,204,118430,6,0,B|105:217|98:272|98:272|142:257|178:279|178:301|178:323|215:352|259:338,1,281.250010728836,6|4,1:2|0:3,0:0:0:0:
432,296,119630,1,10,0:3:0:0:
480,232,120030,1,2,0:0:0:0:
464,272,120230,1,2,0:0:0:0:
432,296,120430,6,0,B|322:277,1,112.500004291535,2|2,1:2|0:0,0:0:0:0:
232,144,121030,2,0,B|241:205|241:205|219:186,1,84.3750032186509,2|0,0:0|0:0,0:0:0:0:
179,208,121430,2,0,B|227:168|227:168|222:198,1,84.3750032186509,2|0,0:0|0:0,0:0:0:0:
262,221,121830,1,2,1:0:0:0:
201,313,122030,6,0,B|175:327|175:327|91:294,1,112.500004291535,2|2,1:2|0:0,0:0:0:0:
49,209,122630,1,2,0:0:0:0:
128,160,122830,1,8,0:0:0:0:
185,233,123030,2,0,B|198:240|198:240|236:224,2,56.2500021457673,2|2|2,1:0|0:0|1:0,0:0:0:0:
57,129,123630,6,0,B|70:44,1,84.3750032186509,2|0,1:2|0:0,0:0:0:0:
57,14,124030,2,0,B|141:1,1,84.3750032186509,2|0,0:0|0:0,0:0:0:0:
176,0,124430,1,0,3:0:0:0:
270,12,124630,1,2,0:0:0:0:
323,91,124830,1,10,1:3:0:0:
418,101,125030,1,6,1:3:0:0:
512,56,125230,6,0,B|526:82|526:82|495:159,1,112.500004291535,2|0,1:2|3:0,0:0:0:0:
432,216,125830,1,0,1:0:0:0:
279,239,126030,1,10,0:0:0:0:
305,247,126230,1,2,1:2:0:0:
325,254,126430,2,0,B|337:289,1,37.5,2|0,0:0|1:0,0:0:0:0:
462,384,126830,6,0,B|350:366,1,112.500004291535,2|2,1:2|0:0,0:0:0:0:
268,307,127430,2,0,B|156:324,1,112.500004291535,2|2,0:0|0:0,0:0:0:0:
80,368,128030,1,2,3:0:0:0:
16,304,128230,1,2,1:2:0:0:
120,200,128430,5,2,1:2:0:0:
94,274,128630,1,2,0:0:0:0:
8,168,128830,1,2,3:0:0:0:
94,274,129030,2,0,B|131:268|131:268|119:282,2,56.2500021457673,2|8|0,0:0|0:0|1:0,0:0:0:0:
80,368,129630,1,6,1:3:0:0:
16,304,129830,1,10,1:3:0:0:
80,200,130030,6,0,B|141:175|141:175|162:186,1,89.9999972534181,2|2,1:2|0:0,0:0:0:0:
240,248,130630,2,0,B|260:259|260:259|322:234,1,89.9999972534181,2|2,0:0|0:0,0:0:0:0:
392,160,131230,1,2,3:0:0:0:
480,192,131430,1,2,1:0:0:0:
440,304,131630,5,2,1:2:0:0:
400,240,131830,1,2,0:0:0:0:
512,104,132030,1,2,1:0:0:0:
440,104,132230,1,2,0:0:0:0:
392,160,132430,1,8,0:0:0:0:
312,296,132630,2,0,B|291:307|291:307|225:281,1,93.75,6|0,1:0|0:0,0:0:0:0:
192,272,133230,6,0,B|211:143,1,127.50000243187,6|0,1:0|3:0,0:0:0:0:
226,48,133830,1,2,0:0:0:0:
336,168,134030,1,10,0:0:0:0:
352,64,134230,2,0,B|415:73,1,63.7500012159348,2|0,0:0|1:0,0:0:0:0:
512,88,134630,1,2,1:0:0:0:
399,177,134830,6,0,B|336:168,1,63.7500012159348,2|0,1:2|0:0,0:0:0:0:
160,176,135230,1,2,1:2:0:0:
144,72,135430,2,0,B|187:65|187:65|173:81,1,63.7500012159348,2|8,0:0|0:0,0:0:0:0:
72,144,135830,2,0,B|44:109|44:109|65:113,2,63.7500012159348,2|0|2,1:2|3:0|1:0,0:0:0:0:
179,292,136430,6,0,B|194:262|194:262|159:176,2,127.50000243187,2|0|8,1:2|3:0|0:0,0:0:0:0:
120,352,137430,1,10,0:3:0:0:
32,304,137630,1,2,3:0:0:0:
48,208,137830,1,2,1:2:0:0:
158,174,138030,6,0,B|269:157,1,112.5,2|0,1:2|0:0,0:0:0:0:
311,152,138430,1,2,1:2:0:0:
232,288,138630,1,2,1:2:0:0:
213,165,138830,1,10,0:0:0:0:
328,272,139030,2,0,B|402:261,1,75,2|2,1:2|0:0,0:0:0:0:
496,112,139630,6,0,B|458:79|458:79|475:179,1,150,6|0,1:2|3:0,0:0:0:0:
504,256,140230,1,2,1:2:0:0:
424,368,140430,1,10,0:0:0:0:
352,344,140630,1,10,0:0:0:0:
332,204,140830,6,0,B|365:174|365:174|351:265,1,134.999995880127,6|0,1:0|0:0,0:0:0:0:
288,304,141430,1,0,1:0:0:0:
288,304,141630,2,0,B|187:289,1,101.249996910095,2|0,1:2|0:0,0:0:0:0:
160,248,142030,1,10,0:0:0:0:
88,288,142230,1,2,1:2:0:0:
104,368,142430,1,2,3:0:0:0:
184,376,142630,1,2,1:2:0:0:
288,304,142830,6,0,B|322:220|322:220|307:191,1,123.75000377655,6|0,1:2|0:0,0:0:0:0:
272,168,143230,1,2,3:0:0:0:
224,240,143430,1,2,1:2:0:0:
192,136,143630,2,0,B|204:54,2,82.5000025177003,10|2|0,0:0|0:0|3:0,0:0:0:0:
112,208,144230,1,2,1:2:0:0:
0,115,144430,6,0,B|91:77|91:77|123:93,1,134.999995880127,2|0,1:2|0:0,0:0:0:0:
152,117,144830,2,0,B|183:132|183:132|275:95,1,134.999995880127,2|0,1:2|0:0,0:0:0:0:
304,80,145230,1,10,0:0:0:0:
456,199,145430,2,0,B|473:163|473:163|432:61,1,150,6|0,1:0|0:0,0:0:0:0:
408,32,146030,6,0,B|355:22|355:22|323:43|323:43|266:32,2,134.999995880127,6|2|2,1:2|0:0|0:0,0:0:0:0:
352,184,147430,1,4,0:3:0:0:
360,168,147530,1,8,0:3:0:0:
368,152,147630,6,0,B|401:122|401:122|387:213,1,134.999995880127,6|2,1:2|0:0,0:0:0:0:
352,368,148430,1,10,0:0:0:0:
424,312,148630,1,6,0:3:0:0:
336,288,148830,1,2,0:0:0:0:
264,336,149030,1,10,0:3:0:0:
152,352,149230,6,0,B|33:334,1,120,6|0,1:2|0:0,0:0:0:0:
33,334,149830,1,2,1:0:0:0:
208,256,150030,6,0,B|311:240,1,104.999996795654,6|0,1:0|0:0,0:0:0:0:
311,240,150630,1,2,1:0:0:0:
120,136,150830,6,0,B|87:106|87:106|101:197,1,134.999995880127,6|8,1:2|0:0,0:0:0:0:
112,224,151530,1,8,0:0:0:0:
112,224,151630,1,10,0:0:0:0:
208,256,151830,2,0,B|296:269,1,90,6|0,1:0|0:0,0:0:0:0:
328,272,152230,1,10,1:3:0:0:
475,294,152430,6,0,B|486:270|486:270|459:203,1,97.4999955368044,6|2,1:2|0:0,0:0:0:0:
425,98,153030,2,0,B|398:100|398:100|354:157,1,97.4999955368044,2|2,0:0|0:0,0:0:0:0:
286,244,153630,2,0,B|303:268|303:268|384:280,1,112.500004291535,14|0,3:2|3:0,0:0:0:0:
459,204,154230,5,10,0:3:0:0:
425,98,154430,1,6,0:3:0:0:
354,155,154630,1,2,1:0:0:0:
425,98,154830,1,10,0:0:0:0:
259,155,155030,1,6,1:3:0:0:
259,155,155430,1,10,1:3:0:0:
176,283,155630,5,6,1:0:0:0:
432,192,156030,1,10,1:0:0:0:
168,48,156430,1,14,1:0:0:0:
360,336,156830,1,14,1:0:0:0:
426,0,157230,1,14,1:0:0:0:
426,0,157630,6,0,B|337:13,1,84.3750032186509,2|0,0:0|0:0,0:0:0:0:
295,2,158030,5,10,0:0:0:0:
286,43,158130,1,8,0:0:0:0:
293,86,158230,1,4,0:3:0:0:
314,123,158330,1,4,0:3:0:0:
348,149,158430,5,10,0:3:0:0:
375,170,158530,1,8,0:3:0:0:
396,198,158630,1,8,0:3:0:0:
402,225,158730,1,8,0:3:0:0:
399,246,158830,6,0,B|348:228|304:254|304:280|304:306|261:341|209:323,1,225.000008583069,6|2,1:2|0:0,0:0:0:0:
64,296,159430,1,2,0:0:0:0:
184,138,159630,2,0,P|221:180|229:235,1,112.500004291535,10|0,0:0|1:0,0:0:0:0:
320,376,160030,1,2,3:0:0:0:
304,176,160230,1,2,1:0:0:0:
145,366,160430,6,0,P|65:362|39:287,1,168.750006437302,2|0,1:2|0:0,0:0:0:0:
56,256,160830,1,2,3:0:0:0:
302,290,161030,2,0,P|357:282|399:246,1,112.500004291535,2|8,0:0|0:0,0:0:0:0:
304,128,161430,1,2,1:0:0:0:
188,286,161630,2,0,P|195:340|232:382,1,112.500004291535,2|0,3:0|1:0,0:0:0:0:
492,213,162030,6,0,B|441:195|397:221|397:247|397:273|354:308|302:290,1,225.000008583069,6|2,1:2|3:0,0:0:0:0:
228,135,162630,2,0,P|282:133|312:178,1,112.500004291535,2|8,0:0|0:0,0:0:0:0:
188,286,163030,1,2,1:0:0:0:
120,112,163230,1,2,3:0:0:0:
301,289,163430,1,0,1:0:0:0:
301,289,163530,1,0,1:0:0:0:
301,289,163630,5,2,1:0:0:0:
360,104,163830,1,10,0:0:0:0:
133,220,164030,2,0,P|78:212|36:175,1,112.500004291535,2|0,1:0|0:0,0:0:0:0:
200,32,164430,1,10,0:0:0:0:
272,232,164630,1,2,1:0:0:0:
352,72,164830,1,2,3:0:0:0:
400,192,165030,1,2,1:0:0:0:
437,39,165230,6,0,P|410:140|305:148,1,225.000008583069,6|2,1:2|3:0,0:0:0:0:
144,48,165830,2,0,P|198:55|240:92,1,112.500004291535,2|8,0:0|0:0,0:0:0:0:
268,231,166230,1,2,0:0:0:0:
352,72,166430,1,2,3:0:0:0:
157,147,166630,1,2,1:0:0:0:
400,192,166830,6,0,P|294:198|266:300,1,225.000008583069,6|2,1:2|1:0,0:0:0:0:
467,282,167430,2,0,P|503:240|511:185,1,112.500004291535,2|8,0:0|0:0,0:0:0:0:
440,80,167830,1,2,1:0:0:0:
359,276,168030,1,2,3:0:0:0:
264,120,168230,1,10,0:3:0:0:
167,352,168430,6,0,B|219:370|262:335|262:309|262:283|306:257|357:275,1,225.000008583069,6|2,1:0|3:0,0:0:0:0:
457,117,169030,1,6,1:2:0:0:
457,117,169230,2,0,P|497:139|510:184,1,93.75,10|8,0:0|0:0,0:0:0:0:
355,384,169630,6,0,B|337:333|363:289|389:289|415:289|450:246|431:193,1,225.000008583069,6|8,1:2|0:0,0:0:0:0:
392,8,170230,6,0,P|359:125|238:133,1,255.000004863739,6|2,1:2|1:0,0:0:0:0:
56,64,170830,5,14,0:0:0:0:
128,280,171030,1,8,0:0:0:0:
344,224,171230,1,6,1:3:0:0:
284,32,171430,1,10,1:3:0:0:
50,211,171630,6,0,B|102:229|145:194|145:168|145:142|189:116|240:134,1,225.000008583069,6|2,1:2|3:0,0:0:0:0:
384,175,172230,1,2,0:0:0:0:
266,333,172430,2,0,P|229:291|220:236,1,112.500004291535,10|0,0:0|0:0,0:0:0:0:
296,64,172830,1,2,3:0:0:0:
456,224,173030,1,10,0:0:0:0:
456,224,173130,1,8,0:0:0:0:
456,224,173230,6,0,P|407:249|353:235,1,112.500004291535,2|8,1:2|0:0,0:0:0:0:
296,64,173630,1,2,1:0:0:0:
240,134,173830,1,2,0:0:0:0:
378,277,174030,6,0,L|402:167,1,112.500004291535,14|0,0:0|1:0,0:0:0:0:
220,236,174430,1,2,3:2:0:0:
240,134,174630,1,2,3:0:0:0:
354,342,174830,6,0,P|324:240|219:235,1,225.000008583069,6|2,1:2|3:0,0:0:0:0:
143,368,175430,2,0,P|198:359|249:335,1,112.500004291535,2|8,0:0|0:0,0:0:0:0:
376,192,175830,1,2,0:0:0:0:
174,57,176030,2,0,P|153:109|149:164,1,112.500004291535,2|8,3:0|0:0,0:0:0:0:
176,208,176330,1,8,0:0:0:0:
176,208,176430,5,2,1:2:0:0:
354,342,176630,1,10,0:0:0:0:
143,368,176830,2,0,P|90:365|51:322,1,112.500004291535,2|0,1:0|0:0,0:0:0:0:
149,164,177230,1,10,0:0:0:0:
249,334,177430,1,2,1:0:0:0:
430,192,177630,2,0,P|427:139|384:100,1,112.500004291535,2|0,3:0|1:0,0:0:0:0:
205,212,178030,6,0,P|259:196|316:193,1,112.500004291535,6|0,1:0|0:0,0:0:0:0:
440,272,178430,1,2,3:0:0:0:
385,100,178630,1,2,1:0:0:0:
277,297,178830,2,0,P|236:257|205:211,1,112.500004291535,10|0,0:0|0:0,0:0:0:0:
160,35,179230,6,0,B|174:78|145:113|124:113|102:113|81:150|96:193,1,187.5,6|0,1:2|0:0,0:0:0:0:
160,296,179830,1,6,0:3:0:0:
277,297,180030,1,10,0:3:0:0:
360,104,180230,1,0,1:0:0:0:
360,104,180330,1,0,1:0:0:0:
360,104,180430,2,0,P|367:149|398:183,1,93.75,10|0,0:0|1:0,0:0:0:0:
456,106,180830,1,2,3:0:0:0:
416,32,181030,1,2,1:0:0:0:
204,17,181230,6,0,P|309:22|338:124,1,225.000008583069,6|2,1:0|3:0,0:0:0:0:
184,208,181830,2,0,P|238:216|279:253,1,112.500004291535,2|10,0:0|0:0,0:0:0:0:
336,376,182230,1,10,0:0:0:0:
439,190,182430,6,0,B|396:176|361:205|361:226|361:248|324:269|279:253,1,187.5,6|2,1:2|0:0,0:0:0:0:
112,208,183030,1,6,0:3:0:0:
152,128,183230,1,2,1:0:0:0:
240,120,183430,1,10,0:3:0:0:
144,288,183630,1,10,0:0:0:0:
56,280,183830,1,2,1:0:0:0:
184,48,184030,1,2,3:0:0:0:
240,120,184230,1,10,0:3:0:0:
304,176,184430,6,0,P|374:172|441:152,1,140.625,6|0,1:2|0:0,0:0:0:0:
464,120,184830,1,2,3:0:0:0:
276,35,185030,2,0,P|229:36|183:48,1,93.75,2|8,1:0|0:0,0:0:0:0:
80,192,185430,2,0,P|122:171|167:157,1,93.75,2|0,0:0|1:0,0:0:0:0:
346,228,185830,2,0,P|394:214|438:189,1,101.249996910095,2|0,1:0|3:0,0:0:0:0:
480,160,186230,6,0,B|427:178|384:143|384:117|384:91|340:65|289:83,1,225.000008583069,6|0,1:2|0:0,0:0:0:0:
269,262,186830,1,10,0:0:0:0:
303,175,187030,1,2,1:0:0:0:
191,55,187230,1,2,3:0:0:0:
88,160,187430,1,2,3:0:0:0:
268,261,187630,6,0,P|163:267|134:369,1,225.000008583069,6|2,1:0|3:0,0:0:0:0:
381,270,188230,2,0,P|373:215|336:173,1,112.500004291535,2|8,1:0|0:0,0:0:0:0:
172,154,188630,1,2,0:0:0:0:
321,44,188830,1,10,0:0:0:0:
85,0,189030,1,10,0:0:0:0:
85,0,189430,6,0,B|64:59|104:108|133:108|162:108|192:158|172:216,1,255.000004863739,6|0,1:2|1:0,0:0:0:0:
328,368,190030,5,14,0:0:0:0:
360,168,190230,1,6,0:3:0:0:
248,288,190430,1,2,3:0:0:0:
112,320,190630,1,10,0:3:0:0:
112,320,190730,1,8,0:3:0:0:
112,320,190830,6,0,B|103:272|103:272|126:236|126:236|115:177,1,150,6|2,1:2|0:0,0:0:0:0:
40,80,191430,2,0,B|48:126|48:126|29:154|29:154|37:193,2,120,2|2|2,0:0|0:0|0:0,0:0:0:0:
96,16,192430,5,2,0:0:0:0:
192,80,192630,1,2,0:0:0:0:
359,39,192830,1,2,0:0:0:0:
192,80,193030,1,10,0:0:0:0:
272,192,193230,5,10,0:0:0:0:
224,288,193430,1,2,1:0:0:0:
256,352,193630,1,6,1:3:0:0:
288,368,193830,1,10,1:3:0:0:
327,270,194030,6,0,B|299:257|299:257|222:288,1,112.500004291535,6|2,1:2|0:0,0:0:0:0:
72,320,194630,2,0,B|63:280|63:280|87:244,1,84.3750032186509,2|0,0:0|0:0,0:0:0:0:
160,218,195030,2,0,B|129:246|129:246|85:243,1,84.3750032186509,2|0,0:0|0:0,0:0:0:0:
29,193,195430,1,2,0:0:0:0:
120,96,195630,5,2,0:0:0:0:
224,136,195830,1,2,0:0:0:0:
288,32,196030,1,2,0:0:0:0:
224,136,196230,1,2,1:0:0:0:
352,200,196430,1,10,0:0:0:0:
504,56,196630,6,0,B|536:17|536:17|420:37,1,168.75,6|0,1:2|0:0,0:0:0:0:
386,40,197630,1,8,1:2:0:0:
256,320,198030,1,8,1:2:0:0:
112,39,198430,1,8,1:2:0:0:
399,39,198830,6,0,P|381:111|373:186,1,150,6|0,1:2|3:0,0:0:0:0:
296,360,199430,1,2,1:0:0:0:
272,216,199630,1,10,0:0:0:0:
424,288,199830,1,10,0:0:0:0:
224,304,200030,6,0,P|149:296|76:277,1,150,6|0,1:2|0:0,0:0:0:0:
24,128,200630,1,2,1:0:0:0:
24,128,200830,2,0,P|27:165|37:201,1,75,2|0,1:0|0:0,0:0:0:0:
192,320,201230,1,10,0:0:0:0:
137,150,201430,1,6,0:3:0:0:
56,296,201630,1,10,0:3:0:0:
243,173,201830,2,0,P|261:168|279:166,1,37.5,6|0,3:2|0:0,0:0:0:0:
279,166,202230,6,0,B|322:152|357:181|357:202|357:224|394:245|439:229,1,187.5,6|0,1:2|1:0,0:0:0:0:
279,66,202830,1,14,0:0:0:0:
277,267,203030,1,6,0:3:0:0:
185,109,203230,1,10,0:3:0:0:
103,384,203430,6,0,B|120:327|82:284|56:284|28:284|1:236|22:180,1,240,6|0,1:2|1:0,0:0:0:0:
133,29,204030,2,0,P|121:132|242:128,1,255.000004863739,14|8,0:0|0:0,0:0:0:0:
512,91,204630,2,0,B|496:7|411:1|411:1|349:52|388:124,1,284.999992389679,6|8,1:0|0:3,0:0:0:0:
204,156,205230,6,0,P|294:133|387:124,1,187.5,6|0,1:2|3:0,0:0:0:0:
489,183,205830,1,2,1:0:0:0:
369,255,206030,1,10,0:0:0:0:
387,123,206230,1,2,0:0:0:0:
511,308,206430,2,0,P|468:327|419:324,1,93.75,2|0,3:0|1:0,0:0:0:0:
311,160,206830,5,2,1:2:0:0:
280,320,207030,1,10,0:0:0:0:
216,200,207230,1,2,3:0:0:0:
369,255,207430,1,2,1:0:0:0:
152,336,207630,6,0,P|105:330|66:305,1,93.75,14|0,0:0|1:0,0:0:0:0:
246,244,208030,1,10,0:0:0:0:
55,170,208230,1,10,0:0:0:0:
55,170,208630,6,0,B|106:153|148:187|148:213|148:239|192:264|246:245,1,225.000008583069,6|0,1:2|1:0,0:0:0:0:
379,28,209230,2,0,B|367:80|316:99|294:87|272:74|228:99|217:156,1,225.000008583069,14|0,0:0|1:0,0:0:0:0:
344,384,209830,2,0,B|303:347|312:294|334:281|357:268|357:217|313:180,1,225.000008583069,6|0,1:2|1:0,0:0:0:0:
202,22,210430,6,0,P|245:3|293:6,1,93.75,6|0,1:0|0:0,0:0:0:0:
400,48,210830,1,10,0:0:0:0:
440,152,211030,1,6,0:3:0:0:
384,256,211230,2,0,B|300:243,1,84.3750032186509,10|0,0:3|0:0,0:0:0:0:
248,184,211630,6,0,P|252:276|188:344,1,187.5,6|0,1:2|3:0,0:0:0:0:
72,344,212230,1,2,1:2:0:0:
127,228,212430,1,10,0:0:0:0:
191,342,212630,1,2,1:0:0:0:
187,157,212830,2,0,P|144:138|95:141,1,93.75,2|0,3:0|1:0,0:0:0:0:
8,184,213230,5,2,1:0:0:0:
127,228,213430,1,10,0:0:0:0:
192,72,213630,1,2,1:0:0:0:
98,140,213830,1,2,0:0:0:0:
296,184,214030,6,0,B|388:169,1,93.75,14|0,0:0|1:0,0:0:0:0:
456,96,214430,1,2,3:0:0:0:
408,8,214630,1,2,1:0:0:0:
252,49,214830,6,0,B|308:18|352:74|352:74|344:141|276:142,1,225.000008583069,6|0,1:2|3:0,0:0:0:0:
168,184,215430,1,2,1:0:0:0:
8,80,215630,2,0,B|50:94|85:65|85:44|85:22|121:1|166:17,1,187.5,10|0,0:0|3:0,0:0:0:0:
252,49,216230,1,2,0:0:0:0:
352,208,216430,5,2,1:0:0:0:
388,55,216630,1,8,0:0:0:0:
248,136,216830,1,2,1:0:0:0:
421,144,217030,2,0,P|466:155|512:160,1,93.75,2|8,0:0|0:0,0:0:0:0:
388,55,217430,2,0,P|355:88|328:126,1,93.75,2|0,1:0|3:0,0:0:0:0:
352,208,217830,1,2,1:0:0:0:
480,63,218030,6,0,P|396:81|373:-1,1,187.5,6|0,1:2|3:0,0:0:0:0:
372,0,218630,1,2,1:0:0:0:
264,112,218830,2,0,B|171:97,1,93.75,10|0,0:0|1:0,0:0:0:0:
250,204,219230,2,0,B|264:111,1,93.75,2|0,0:0|1:0,0:0:0:0:
159,0,219630,6,0,P|143:77|63:75,1,172.500003290176,6|2,1:0|3:0,0:0:0:0:
151,191,220230,1,2,1:0:0:0:
151,191,220330,1,2,0:0:0:0:
151,191,220430,2,0,B|165:276,1,86.2500016450882,10|0,0:0|0:0,0:0:0:0:
65,204,220830,2,0,B|150:191,1,86.2500016450882,0|2,3:0|1:0,0:0:0:0:
312,128,221230,6,0,P|265:132|220:144,1,93.75,6|0,1:2|0:0,0:0:0:0:
320,216,221630,1,2,3:0:0:0:
384,48,221830,2,0,P|338:36|292:31,1,93.75,2|8,1:0|0:0,0:0:0:0:
392,280,222230,2,0,P|403:234|408:188,1,93.75,2|0,0:0|3:0,0:0:0:0:
312,128,222630,1,2,1:0:0:0:
256,272,222830,5,2,1:2:0:0:
128,160,223030,2,0,P|173:148|219:143,1,93.75,10|0,0:0|1:0,0:0:0:0:
260,320,223430,2,0,P|227:286|200:248,1,93.75,2|8,0:0|0:0,0:0:0:0:
336,128,223830,2,0,P|323:173|303:215,2,93.75,2|0|2,1:0|3:0|1:0,0:0:0:0:
315,2,224430,6,0,B|280:-9|252:13|252:30|252:48|223:64|187:52,1,150,6|0,1:0|3:0,0:0:0:0:
23,40,225030,1,6,1:2:0:0:
23,40,225230,2,0,P|36:85|56:128,1,93.75,10|8,0:0|0:0,0:0:0:0:
215,272,225630,6,0,B|158:302|115:247|115:247|123:180|187:179,1,225.000008583069,6|0,1:2|0:0,0:0:0:0:
296,160,226230,1,0,1:0:0:0:
296,160,226430,2,0,B|388:174,1,93.75,2|10,1:0|0:0,0:0:0:0:
432,200,226730,1,8,0:0:0:0:
432,200,226830,5,6,1:3:0:0:
480,336,227030,1,10,1:3:0:0:
400,384,227230,1,10,0:3:0:0:
304,360,227430,1,6,0:3:0:0:
247,231,227630,6,0,P|197:219|144:213,1,104.999996795654,6|0,1:0|0:0,0:0:0:0:
32,240,228030,1,10,0:0:0:0:
192,128,228230,2,0,P|278:105|367:97,1,179.999994506836,6|0,1:2|0:0,0:0:0:0:
512,56,228830,5,6,1:0:0:0:
488,128,229030,1,10,3:2:0:0:
368,176,229230,1,10,0:0:0:0:
400,264,229430,1,10,0:0:0:0:
311,343,229630,6,0,P|257:329|201:323,1,112.500004291535,6|2,1:2|1:0,0:0:0:0:
160,344,229930,1,0,1:0:0:0:
160,344,230030,1,10,0:0:0:0:
192,128,230230,1,10,1:3:0:0:
192,128,230330,1,4,1:3:0:0:
192,128,230430,1,8,1:3:0:0:
64,272,230630,1,10,0:3:0:0:
311,343,230830,6,0,B|356:352|389:317|386:295|383:272|418:246|467:257,1,194.999991073609,6|0,1:2|3:0,0:0:0:0:
467,257,231430,1,2,1:0:0:0:
299,251,231630,2,0,P|251:239|206:222,1,97.4999955368044,10|0,0:0|0:0,0:0:0:0:
32,112,232030,5,6,1:2:0:0:
62,259,232230,2,0,P|131:231|205:222,1,150,2|0,0:0|1:0,0:0:0:0:
377,262,232830,1,2,1:0:0:0:
328,120,233030,1,2,3:0:0:0:
328,120,233130,1,2,0:0:0:0:
328,120,233230,1,10,0:0:0:0:
206,222,233430,1,6,1:3:0:0:
80,152,233630,2,0,P|66:116|57:79,1,75,10|0,1:3|1:0,0:0:0:0:
136,0,234030,5,6,1:0:0:0:
328,120,234230,2,0,P|293:133|206:77,1,150,2|0,0:0|1:0,0:0:0:0:
198,45,234730,1,0,1:0:0:0:
198,45,234830,1,10,0:0:0:0:
144,208,235030,1,8,0:0:0:0:
284,50,235230,6,0,P|356:27|461:24,1,179.999994506836,6|0,1:2|0:0,0:0:0:0:
491,208,235830,1,0,1:0:0:0:
491,208,236030,2,0,P|477:172|467:118,1,89.9999972534181,2|0,1:0|0:0,0:0:0:0:
459,23,236430,1,10,0:0:0:0:
368,144,236630,6,0,P|354:178|345:215,1,75,6|0,1:0|3:0,0:0:0:0:
345,215,237030,1,10,1:3:0:0:
288,370,237230,6,0,P|268:301|199:283,1,150,6|0,1:2|3:0,0:0:0:0:
152,210,237830,1,0,1:0:0:0:
152,210,237930,1,0,1:0:0:0:
152,210,238030,1,10,0:0:0:0:
214,356,238230,1,2,0:0:0:0:
280,192,238430,5,6,1:2:0:0:
408,256,238630,1,2,0:0:0:0:
296,64,238830,1,2,1:0:0:0:
422,126,239030,2,0,P|466:117|508:101,1,89.9999972534181,6|0,1:2|3:0,0:0:0:0:
294,240,239430,2,0,P|330:254|382:262,1,89.9999972534181,6|8,1:2|0:0,0:0:0:0:
512,344,239830,2,0,P|476:358|423:368,1,89.9999972534181,14|0,1:2|3:0,0:0:0:0:
257,384,240230,1,10,0:3:0:0:
257,384,240330,1,10,0:3:0:0:
257,384,240430,6,0,P|285:315|294:241,1,150,6|0,1:0|0:0,0:0:0:0:
192,144,241030,1,2,1:0:0:0:
176,264,241230,1,10,0:0:0:0:
294,240,241430,1,2,0:0:0:0:
72,184,241630,5,6,1:2:0:0:
204,327,241830,2,0,P|224:258|293:240,1,150,2|8,0:0|0:0,0:0:0:0:
512,256,242430,2,0,P|502:219|489:184,1,75,10|2,0:0|1:0,0:0:0:0:
512,47,242830,5,14,0:0:0:0:
468,42,242930,1,4,0:3:0:0:
424,49,243030,1,10,0:3:0:0:
391,69,243130,1,8,0:3:0:0:
367,101,243230,1,2,1:3:0:0:
352,129,243330,1,4,1:3:0:0:
333,154,243430,1,10,1:3:0:0:
314,167,243530,1,8,1:3:0:0:
299,170,243630,6,0,B|254:179|221:144|224:122|227:99|192:73|143:84,1,194.999991073609,6|2,1:2|1:0,0:0:0:0:
24,160,244230,1,2,0:0:0:0:
88,264,244430,2,0,B|184:278,1,97.4999955368044,10|0,0:0|0:0,0:0:0:0:
299,170,244830,2,0,B|202:184,1,97.4999955368044,2|8,3:0|0:0,0:0:0:0:
264,344,245230,5,6,1:2:0:0:
341,266,245430,1,10,0:0:0:0:
299,170,245630,1,2,1:0:0:0:
299,170,245830,1,2,0:0:0:0:
480,144,246030,2,0,B|494:47,1,97.4999955368044,10|2,0:0|1:0,0:0:0:0:
497,19,246330,1,2,1:0:0:0:
497,19,246430,2,0,B|400:33,1,97.4999955368044,2|8,1:0|0:0,0:0:0:0:
224,80,246830,6,0,B|321:94,1,97.4999955368044,6|0,1:2|0:0,0:0:0:0:
408,181,247230,1,2,1:0:0:0:
239,250,247430,1,2,0:0:0:0:
239,250,247530,1,2,0:0:0:0:
239,250,247630,2,0,B|212:183|212:183|224:160,1,97.4999955368044,10|0,0:0|1:0,0:0:0:0:
311,18,248030,2,0,B|323:40|323:40|296:107,1,97.4999955368044,2|8,1:0|0:0,0:0:0:0:
127,66,248430,6,0,B|224:80,1,97.4999955368044,6|0,1:2|0:0,0:0:0:0:
311,194,248830,2,0,B|408:180,1,97.4999955368044,2|0,1:0|0:0,0:0:0:0:
512,311,249230,2,0,B|426:298,1,86.2500016450882,14|8,0:0|0:0,0:0:0:0:
336,344,249630,2,0,B|261:354,1,75,6|8,0:3|0:3,0:0:0:0:
168,328,250030,5,6,1:2:0:0:
78,255,250230,1,2,0:0:0:0:
69,249,250330,1,2,0:0:0:0:
60,241,250430,2,0,B|143:228,2,84.3750032186509,2|2|10,0:0|0:0|0:0,0:0:0:0:
0,176,251230,1,10,0:0:0:0:
24,96,251430,1,10,0:3:0:0:
30,86,251530,6,0,B|113:73,1,84.3750032186509,6|8,1:3|0:3,0:0:0:0:
296,48,252230,1,10,0:3:0:0:
272,128,252430,1,10,0:0:0:0:
344,176,252630,5,6,1:0:0:0:
296,48,252830,2,0,B|240:56,1,56.2500021457673,2|0,0:0|0:0,0:0:0:0:
113,73,253230,6,0,B|103:89|103:89|124:141,2,75,6|2|2,1:2|0:0|0:0,0:0:0:0:
272,128,253830,1,2,1:0:0:0:
272,128,253930,1,0,1:0:0:0:
272,128,254030,1,10,0:0:0:0:
422,186,254230,1,10,0:0:0:0:
432,328,254430,6,0,B|379:338|340:297|344:271|347:245|307:214|249:227,1,225,6|0,1:2|0:0,0:0:0:0:
154,266,255230,2,0,B|79:255,1,75,2|0,0:0|0:0,0:0:0:0:
56,240,255530,6,0,B|43:156,1,84.3750032186509,2|0,0:0|3:0,0:0:0:0:
108,74,256030,1,2,3:2:0:0:
114,61,256130,1,2,0:0:0:0:
121,49,256230,6,0,B|232:66,1,112.5,2|0,0:0|0:0,0:0:0:0:
304,112,257030,2,0,B|341:106,1,37.5,2|0,0:0|0:0,0:0:0:0:
360,80,257330,6,0,L|419:88,1,60,2|0,0:0|0:0,0:0:0:0:
436,93,257830,1,2,0:0:0:0:
512,136,258030,1,2,3:2:0:0:
499,243,258430,6,0,P|471:253|444:261,1,56.25,2|0,0:0|0:0,0:0:0:0:
405,196,258830,2,0,P|369:174|327:166,1,84.3750032186509,2|0,0:0|0:0,0:0:0:0:
314,192,259230,2,0,P|280:201|250:213,1,67.4999979400635,2|0,0:0|0:0,0:0:0:0:
240,218,259630,5,2,0:0:0:0:
152,200,260030,1,2,0:0:0:0:
104,120,260430,1,2,0:0:0:0:
229,206,261230,5,2,0:0:0:0:
161,146,261630,1,2,0:0:0:0:
160,53,262030,1,2,0:0:0:0:
225,191,262830,5,2,0:0:0:0:
197,105,263230,1,2,0:0:0:0:
242,24,263630,1,2,0:0:0:0:
230,176,264430,5,2,0:0:0:0:
248,88,264830,1,2,0:0:0:0:
328,40,265230,1,2,0:0:0:0:
421,52,265630,1,2,0:0:0:0:
328,40,266030,5,2,0:0:0:0:
280,56,266230,1,2,0:0:0:0:
248,88,266430,1,2,0:0:0:0:
230,176,266830,1,2,0:0:0:0:
242,24,267630,5,2,0:0:0:0:
208,62,267830,1,2,0:0:0:0:
197,105,268030,1,2,0:0:0:0:
225,191,268430,1,2,0:0:0:0:
208,200,269230,6,0,B|203:172,3,28.1250010728836,14|8|8|8,1:2|0:0|0:0|0:0,0:0:0:0:
136,85,269630,2,0,B|145:111,1,28.1250010728836,10|0,0:0|0:0,0:0:0:0:
288,168,269830,6,0,B|300:133,3,37.5,14|8|8|8,1:2|0:0|0:0|0:0,0:0:0:0:
232,32,270230,2,0,B|253:61,1,37.5,10|0,0:0|0:0,0:0:0:0:
400,144,270430,6,0,B|429:108,3,46.875,14|8|10|8,1:2|0:0|0:0|0:0,0:0:0:0:
328,8,270830,2,0,B|365:34,1,46.875,10|0,0:0|0:0,0:0:0:0:
512,144,271030,5,6,1:2:0:0:
464,256,271230,1,2,0:0:0:0:
343,210,271430,1,8,0:0:0:0:
340,217,271530,1,8,0:0:0:0:
337,224,271630,5,6,1:3:0:0:
300,233,271730,1,4,1:3:0:0:
263,239,271830,1,4,1:3:0:0:
226,247,271930,1,4,1:3:0:0:
214,287,272030,5,10,1:3:0:0:
162,277,272130,1,8,1:3:0:0:
102,279,272230,1,8,1:3:0:0:
43,293,272330,1,8,1:3:0:0:
0,344,272430,6,0,P|103:301|215:288,1,225.000008583069,6|2,1:2|0:0,0:0:0:0:
214,287,273030,1,10,0:3:0:0:
271,152,273230,6,0,P|323:172|378:179,1,112.500004291535,10|0,0:0|0:0,0:0:0:0:
459,101,273497,6,0,P|415:136|378:178,1,112.500004291535,14|0,0:0|0:0,0:0:0:0:
398,269,273763,6,0,P|393:221|376:174,1,93.75,14|0,0:0|0:0,0:0:0:0:
490,228,274030,6,0,B|428:249|378:208|378:178|378:148|327:117|267:138,1,262.500002503395,6|2,1:2|3:2,0:0:0:0:
127,346,274630,1,2,1:2:0:0:
127,346,274730,1,0,1:2:0:0:
127,346,274830,6,0,P|146:283|196:243,1,131.250001251698,10|0,0:0|0:0,0:0:0:0:
304,215,275097,6,0,P|249:236|192:244,1,112.500004291535,14|0,1:2|0:0,0:0:0:0:
102,153,275363,6,0,P|155:191|196:243,1,131.250001251698,14|0,1:2|0:0,0:0:0:0:
238,119,275630,6,0,B|161:78|103:152|103:152|114:242|198:244,1,300,6|2,1:2|3:2,0:0:0:0:
440,112,276230,1,2,1:0:0:0:
440,112,276330,1,0,1:0:0:0:
440,112,276430,1,10,0:0:0:0:
272,0,276630,1,10,0:0:0:0:
293,278,276830,5,14,1:2:0:0:
448,192,277030,1,10,0:3:0:0:
191,122,277230,1,10,0:0:0:0:
302,381,277430,6,0,B|384:363|415:285|395:250|376:217|411:151|491:136,1,337.500012874604,6|0,1:2|1:0,0:0:0:0:
446,350,278030,2,0,P|355:329|325:239,1,187.5,14|0,0:0|1:0,0:0:0:0:
327,162,278330,1,14,0:0:0:0:
338,147,278430,2,0,P|402:182|422:253,1,150,2|10,0:0|0:0,0:0:0:0:
132,326,278830,6,0,B|182:344|225:317|225:292|225:265|269:231|322:248,1,225.000008583069,6|2,1:2|3:0,0:0:0:0:
446,350,279430,1,2,0:0:0:0:
495,193,279630,2,0,P|480:140|438:103,1,112.500004291535,10|0,0:0|0:0,0:0:0:0:
252,29,280030,6,0,P|334:58|338:146,1,187.5,6|0,1:2|0:0,0:0:0:0:
208,240,280630,1,6,0:3:0:0:
120,176,280830,1,10,0:3:0:0:
172,21,281030,1,0,1:0:0:0:
172,21,281130,1,0,1:0:0:0:
172,21,281230,2,0,P|188:64|197:110,1,93.75,10|0,0:0|1:0,0:0:0:0:
94,265,281630,2,0,P|102:219|119:175,1,93.75,2|2,3:2|1:0,0:0:0:0:
312,224,282030,6,0,P|256:217|204:195,1,112.500004291535,2|0,1:2|0:0,0:0:0:0:
0,120,282430,1,2,0:0:0:0:
107,88,282630,1,2,1:0:0:0:
228,175,282830,1,10,0:0:0:0:
206,19,283030,1,10,0:0:0:0:
80,184,283230,6,0,B|124:169|161:198|161:221|161:242|198:265|240:249,1,187.5,6|0,1:2|0:0,0:0:0:0:
392,216,283830,1,6,0:3:0:0:
336,344,284030,1,10,0:3:0:0:
238,250,284230,1,10,0:3:0:0:
280,128,284430,5,10,0:0:0:0:
124,227,284630,1,8,0:0:0:0:
124,227,284730,1,0,1:0:0:0:
124,227,284830,2,0,L|70:241,1,46.875,2|0,1:2|1:0,0:0:0:0:
0,305,285030,2,0,L|53:319,1,46.875,10|4,1:3|1:3,0:0:0:0:
234,379,285230,6,0,P|119:351|127:223,1,262.500002503395,6|2,1:0|3:0,0:0:0:0:
405,161,285830,2,0,P|344:135|280:127,1,131.250001251698,2|8,1:0|0:0,0:0:0:0:
104,136,286230,1,2,0:0:0:0:
192,56,286430,1,2,3:2:0:0:
220,246,286630,2,0,P|274:268|331:276,1,112.5,2|8,1:0|0:0,0:0:0:0:
358,291,287030,6,0,B|304:272|260:307|260:335|260:360|215:388|166:369,1,225.000008583069,6|0,1:2|0:0,0:0:0:0:
120,179,287630,2,0,P|161:215|177:269,1,112.500004291535,10|0,0:0|1:0,0:0:0:0:
88,320,288030,1,2,3:2:0:0:
0,216,288230,1,2,1:0:0:0:
241,121,288430,6,0,B|182:90|138:145|138:145|147:213|208:215,1,225.000008583069,6|0,1:0|3:0,0:0:0:0:
358,291,289030,2,0,P|335:239|326:184,1,112.500004291535,2|8,1:0|0:0,0:0:0:0:
307,41,289430,1,2,1:2:0:0:
307,41,289530,1,0,1:0:0:0:
307,41,289630,1,10,0:0:0:0:
163,192,289830,1,10,0:0:0:0:
163,192,290230,6,0,B|216:147|291:140|291:140|329:189,1,196.875001877546,6|0,1:2|0:0,0:0:0:0:
352,216,290630,1,2,1:0:0:0:
464,8,290830,5,14,0:0:0:0:
376,112,291030,1,2,1:0:0:0:
448,200,291230,1,6,0:3:0:0:
400,264,291430,2,0,L|413:313,1,46.875,10|8,0:3|0:3,0:0:0:0:
474,371,291630,6,0,B|426:362|426:362|390:385|390:385|331:374,1,150,6|2,1:2|0:0,0:0:0:0:
213,273,292230,2,0,B|362:295,2,150,2|6|10,3:2|0:3|0:3,0:0:0:0:
144,336,293230,5,2,0:0:0:0:
72,288,293430,1,6,0:3:0:0:
88,208,293630,1,2,0:0:0:0:
176,192,293830,1,10,0:3:0:0:
72,288,294030,5,10,0:0:0:0:
213,273,294230,1,6,0:3:0:0:
320,216,294430,1,2,0:0:0:0:
384,144,294630,1,10,0:3:0:0:
397,43,294830,6,0,B|371:60|371:60|360:142,1,112.500004291535,6|2,1:2|0:0,0:0:0:0:
432,215,295430,2,0,B|449:103,2,112.500004291535,2|2|6,0:0|3:2|0:3,0:0:0:0:
328,264,296430,5,10,0:3:0:0:
248,248,296630,1,2,0:0:0:0:
192,192,296830,1,2,0:0:0:0:
112,200,297030,1,2,1:0:0:0:
40,240,297230,1,10,0:0:0:0:
176,72,297430,6,0,B|207:109|207:109|272:103|317:64,1,168.75,6|8,1:2|1:2,0:0:0:0:
344,40,298430,1,8,1:2:0:0:
80,24,298830,1,8,1:2:0:0:
320,200,299230,1,8,1:2:0:0:
8,304,299630,6,0,B|59:286|103:312|103:338|103:364|146:399|198:381,1,225.000008583069,6|0,1:2|3:0,0:0:0:0:
357,324,300230,1,2,1:0:0:0:
263,232,300430,2,0,P|225:231|191:246,1,75,8|0,0:0|0:0,0:0:0:0:
357,324,300830,6,0,P|269:322|263:233,1,194.999991073609,6|0,1:2|3:0,0:0:0:0:
448,160,301430,1,6,1:3:0:0:
488,320,301630,1,10,1:3:0:0:
346,238,301830,1,0,1:0:0:0:
346,238,301930,1,0,1:0:0:0:
346,238,302030,1,10,0:0:0:0:
488,104,302230,1,2,1:2:0:0:
368,56,302430,1,2,3:2:0:0:
456,200,302630,1,10,0:3:0:0:
319,146,302830,6,0,B|266:128|223:154|223:180|223:206|179:241|127:224,1,225.000008583069,6|0,1:2|3:0,0:0:0:0:
131,107,303430,1,2,1:0:0:0:
298,236,303630,2,0,P|294:273|269:300,1,75,8|0,0:0|0:0,0:0:0:0:
131,107,304030,6,0,P|49:80|36:165,1,194.999991073609,6|0,1:2|0:0,0:0:0:0:
215,237,304630,1,8,0:0:0:0:
328,80,304830,2,0,B|321:54|321:54|296:116,1,93.75,2|0,1:2|0:0,0:0:0:0:
304,248,305230,1,10,0:0:0:0:
131,107,305430,1,6,0:3:0:0:
321,55,305630,1,10,0:3:0:0:
136,208,305830,1,10,1:3:0:0:
304,328,306030,6,0,B|415:316|415:316|449:271,1,168.750006437302,6|0,1:0|0:0,0:0:0:0:
503,205,306430,2,0,P|479:191|452:187,1,56.2500021457673,2|0,0:0|0:0,0:0:0:0:
320,219,306630,1,2,1:2:0:0:
448,80,306830,1,10,0:0:0:0:
449,270,307030,1,2,0:0:0:0:
321,55,307230,6,0,P|238:29|225:114,1,194.999991073609,6|0,1:2|3:0,0:0:0:0:
320,219,307830,1,0,1:0:0:0:
412,83,308030,2,0,P|368:61|320:55,1,97.4999955368044,2|0,1:0|0:0,0:0:0:0:
176,208,308430,1,10,0:0:0:0:
56,112,308630,1,2,1:2:0:0:
160,0,308830,1,6,0:3:0:0:
288,96,309030,1,10,0:3:0:0:
22,157,309230,6,0,B|55:113|55:113|177:100,1,168.750006437302,6|0,1:0|0:0,0:0:0:0:
225,161,309630,2,0,P|201:175|174:181,1,56.2500021457673,2|0,0:0|0:0,0:0:0:0:
95,197,309830,1,2,1:2:0:0:
272,256,310030,1,10,0:0:0:0:
232,48,310230,1,10,0:0:0:0:
157,322,310430,6,0,P|60:291|94:196,1,225.000008583069,6|8,1:2|0:3,0:0:0:0:
386,140,311630,6,0,B|448:147|453:64|384:28|319:36|264:76|239:138|262:219|331:242|384:243|404:231,1,431.25,2|0,0:0|0:0,0:0:0:0:
432,216,314165,6,0,P|402:284|389:358,1,150,6|0,1:0|3:0,0:0:0:0:
388,358,314773,1,2,1:0:0:0:
253,252,314975,2,0,P|243:196|221:145,1,112.5,8|0,0:0|0:0,0:0:0:0:
144,110,315381,6,0,P|229:146|331:146,1,196.875007510186,6|0,1:2|0:0,0:0:0:0:
421,160,316192,6,0,P|353:170|303:214,1,134.999995880127,6|0,1:2|0:0,0:0:0:0:
288,240,316597,1,10,0:0:0:0:
118,140,316800,1,14,1:2:0:0:
170,253,317002,1,10,0:3:0:0:
267,66,317205,6,0,B|273:-4|213:-54|133:-62|77:-6|75:63|109:122|165:130|237:130|285:178|253:266|165:314|57:268|17:182|17:182|195:52|219:268|371:124|371:124|331:172|326:210|352:245|385:270|435:268|489:234|504:169|466:141|437:119|437:119|437:119|437:119|466:141|508:173|505:267|418:361|418:361|278:268|292:403|153:341|153:341|116:391|85:400|30:377|36:321|94:308|111:349,1,2161.50006596375,6|0,1:2|0:0,0:0:0:0:
