osu file format v14

[General]
AudioFilename: audio.mp3
AudioLeadIn: 0
PreviewTime: 50682
Countdown: 0
SampleSet: Soft
StackLeniency: 0.7
Mode: 0
LetterboxInBreaks: 0
WidescreenStoryboard: 0

[Editor]
DistanceSpacing: 0.3
BeatDivisor: 4
GridSize: 8
TimelineZoom: 1.6

[Metadata]
Title:Teiketsu Bolt
TitleUnicode:低血ボルト
Artist:Zutto Mayonaka de Ii no ni.
ArtistUnicode:ずっと真夜中でいいのに。
Creator:Akito
Version:head
Source:
Tags:maid Nightlys ImpurePug KineticDog Fixxis Black Man Deca Decaedeus FuJu Keqing Iljaaz coco cococolaco loli catgirl loli_catgirl zutomayo ztmy fastening acane acaね japanese pop 朗らかな皮膚とて不服 hogaraka na hifu tote fufuku
BeatmapID:2538808
BeatmapSetID:1220456

[Difficulty]
HPDrainRate:6
CircleSize:4
OverallDifficulty:8
ApproachRate:9
SliderMultiplier:2
SliderTickRate:1

[Events]
//Background and Video events
0,0,"fuck i love zutomayo.png",0,0
//Break Periods
//Storyboard Layer 0 (Background)
//Storyboard Layer 1 (Fail)
//Storyboard Layer 2 (Pass)
//Storyboard Layer 3 (Foreground)
//Storyboard Layer 4 (Overlay)
//Storyboard Sound Samples

[TimingPoints]
782,340.909090909091,4,2,2,40,1,0
782,-166.666666666667,4,2,2,40,0,0
5895,-166.666666666667,4,2,2,55,0,0
6236,-100,4,2,2,70,0,0
17145,-100,4,2,2,45,0,0
18509,-166.666666666667,4,2,2,45,0,0
22100,340.909090909091,4,2,2,45,1,0
22100,-166.666666666667,4,2,2,55,0,0
26531,-166.666666666667,4,2,2,55,0,0
27714,327.868852459016,4,2,2,55,1,0
28054,338.983050847458,4,2,2,60,1,0
28054,-125,4,2,2,60,0,0
30087,346.820809248555,4,2,2,60,1,0
30087,-125,4,2,2,60,0,0
31474,342.857142857143,4,2,2,60,1,0
31474,-125,4,2,2,60,0,0
32845,337.078651685393,4,2,2,60,1,0
32845,-125,4,2,2,60,0,0
33519,340.909090909091,4,2,2,60,1,0
33519,-125,4,2,2,60,0,0
36928,333.333333333333,4,2,2,60,1,0
36928,-125,4,2,2,60,0,0
37428,342.857142857143,4,2,2,60,1,0
37428,-125,4,2,2,60,0,0
38799,329.67032967033,4,2,2,60,1,0
38963,340.909090909091,4,2,2,65,1,0
38963,-125,4,2,2,65,0,0
48338,-100,4,2,2,65,0,0
50213,-100,4,2,2,70,0,0
51236,-83.3333333333333,4,2,2,80,0,0
51918,-100,4,2,2,80,0,0
52259,-125,4,2,2,80,0,0
52600,-83.3333333333333,4,2,2,80,0,0
53962,-125,4,2,2,80,0,0
54303,-83.3333333333333,4,2,2,80,0,0
55327,-100,4,2,2,80,0,0
61122,-83.3333333333333,4,2,2,80,0,0
62827,-100,4,2,2,80,0,0
67088,-83.3333333333333,4,2,2,80,0,0
68793,-100,4,2,2,80,0,0
70327,-83.3333333333333,4,2,2,80,0,0
71520,-83.3333333333333,4,2,2,80,0,0
71839,476.190476190476,4,2,2,65,1,0
72077,545.454545454546,4,2,2,65,1,0
72349,394.736842105263,4,2,2,65,1,0
72526,389.61038961039,4,2,2,65,1,0
72623,307.692307692308,4,2,2,65,1,0
72699,375,4,2,2,65,1,0
73052,-100,4,2,2,65,0,0
73062,340.909090909091,4,2,2,65,1,0
82266,-100,4,2,2,50,0,0
83961,-125,4,2,2,50,0,0
93516,-125,4,2,2,60,0,0
94880,-125,4,2,2,65,0,0
95211,-100,4,2,2,65,0,0
116357,-100,4,2,2,70,0,0
118052,-83.3333333333333,4,2,2,80,0,0
118733,-100,4,2,2,80,0,0
119074,-125,4,2,2,80,0,0
119415,-83.3333333333333,4,2,2,80,0,0
120779,-125,4,2,2,80,0,0
121120,-83.3333333333333,4,2,2,80,0,0
122142,-100,4,2,2,80,0,0
122824,-83.3333333333333,4,2,2,80,0,0
123506,-100,4,2,2,80,0,0
127938,-83.3333333333333,4,2,2,80,0,0
129642,-100,4,2,2,80,0,0
134415,-83.3333333333333,4,2,2,80,0,0
135949,-100,4,2,2,80,0,0
140221,375,4,2,2,60,1,0
140221,-83.3333333333333,4,2,2,60,0,0
140686,500,4,2,2,60,1,0
140936,526.315789473684,4,2,2,60,1,0
140936,-76.9230769230769,4,2,2,60,0,0
141067,517.241379310345,4,2,2,60,1,0
141227,500,4,2,2,60,1,0
141737,500,4,2,2,60,1,0
142098,500,4,2,2,60,1,0
142264,500,4,2,2,60,1,0
142389,416.666666666667,4,2,2,60,1,0
142596,500,4,2,2,60,1,0
143470,340.909090909091,4,2,2,65,1,0
143981,340.909090909091,4,2,2,65,1,0
144321,-100,4,2,2,65,0,0
145344,-100,4,2,2,75,0,0
154529,405.405405405406,4,2,3,30,1,0
154934,340.909090909091,4,2,3,30,1,0
160359,340.909090909091,4,2,3,50,1,0
160359,-166.666666666667,4,2,3,50,0,0
163794,361.44578313253,4,2,3,50,1,0
163794,-166.666666666667,4,2,3,50,0,0
164154,340.909090909091,4,2,3,50,1,0
164424,312.5,4,2,3,50,1,0
164788,301.507537688442,4,2,3,50,1,0
165099,384.615384615385,4,2,3,50,1,0
165382,309.278350515464,4,2,3,50,1,0
165382,-166.666666666667,4,2,3,50,0,0
165614,324.324324324324,4,2,3,50,1,0
165776,348.837209302326,4,2,3,50,1,0
166118,-166.666666666667,4,2,3,50,0,0
166517,340.909090909091,4,2,3,50,1,0
166892,320.855614973262,4,2,3,50,1,0
166892,-166.666666666667,4,2,3,50,0,0
167179,346.820809248555,4,2,3,50,1,0
167523,291.26213592233,4,2,3,50,1,0
167668,-166.666666666667,4,2,3,50,0,0
167814,394.736842105264,4,2,3,50,1,0
168208,285.714285714286,4,2,3,50,1,0
168493,408.163265306123,4,2,3,50,1,0
168901,304.568527918782,4,2,3,50,1,0
169205,370.370370370371,4,2,3,50,1,0
169205,-166.666666666667,4,2,3,50,0,0
169575,320.855614973262,4,2,3,50,1,0
169895,389.61038961039,4,2,3,50,1,0
170603,368.098159509203,4,2,3,50,1,0
170603,-166.666666666667,4,2,3,50,0,0
171260,416.666666666667,4,2,3,50,1,0
171919,333.333333333333,4,2,3,50,1,0
172252,270.27027027027,4,2,3,50,1,0
172252,-166.666666666667,4,2,3,50,0,0
172388,340.909090909091,4,2,3,50,1,0
172558,340.909090909091,4,2,3,55,1,0
173154,340.909090909091,4,2,3,55,1,0
173969,419.58041958042,4,2,3,50,1,0
175656,618.556701030928,4,2,3,25,1,0
176893,-200,4,2,3,25,0,0
177202,681.818181818182,4,2,3,25,1,0
177542,714.285714285714,4,2,3,25,1,0
177900,923.076923076923,4,2,3,25,1,0
178612,322.58064516129,4,2,2,70,1,0
179418,340.909090909092,4,2,2,85,1,0
179418,-71.4285714285714,4,2,2,85,0,0
180091,-100,4,2,2,85,0,0
180432,-142.857142857143,4,2,2,85,0,0
180773,-71.4285714285714,4,2,2,85,0,0
182137,-142.857142857143,4,2,2,85,0,0
182478,-71.4285714285714,4,2,2,85,0,0
183500,-100,4,2,2,85,0,0
198500,-71.4285714285714,4,2,2,85,0,0
201228,-100,4,2,2,75,0,0
213508,-100,4,2,2,5,0,0

[Colours]
Combo1 : 176,244,219
Combo2 : 253,123,123
Combo3 : 205,205,205

[HitObjects]
118,67,782,6,0,L|137:207,1,119.999996337891,2|0,0:0|0:0,0:0:0:0:
88,252,1293,1,2,0:0:0:0:
320,384,1634,1,0,0:0:0:0:
364,319,1804,1,0,0:0:0:0:
293,262,1975,2,0,L|231:275,1,59.9999981689454,2|0,0:0|0:0,0:0:0:0:
147,384,2316,5,0,0:0:0:0:
244,169,2486,1,0,0:0:0:0:
231,135,2657,1,2,0:0:0:0:
269,65,2997,5,0,0:0:0:0:
354,40,3167,1,0,0:0:0:0:
163,0,3338,2,0,P|165:35|163:81,1,59.9999981689454,2|0,0:0|0:0,0:0:0:0:
455,182,3679,5,0,0:0:0:0:
342,224,3850,1,0,0:0:0:0:
413,273,4020,1,2,0:0:0:0:
100,242,4361,5,0,0:0:0:0:
111,314,4532,1,0,0:0:0:0:
100,242,4702,2,0,L|88:164,1,59.9999981689454,2|0,0:0|0:0,0:0:0:0:
236,63,5043,5,2,0:0:0:0:
285,124,5213,1,2,0:0:0:0:
277,149,5384,1,2,0:0:0:0:
334,199,5554,1,2,0:0:0:0:
305,269,5725,1,2,3:2:0:0:
361,329,5895,5,8,0:0:0:0:
361,329,6236,6,0,B|248:304|290:376|165:376,1,200,6|0,3:2|3:0,0:0:0:0:
37,243,6747,2,0,P|107:263|197:279,1,150,2|0,0:2|0:0,0:0:0:0:
182,277,7088,1,2,0:2:0:0:
237,218,7259,1,8,0:2:0:0:
142,78,7429,2,0,B|167:122|167:122|143:190,1,100,2|0,0:0|3:0,0:0:0:0:
364,27,7770,6,0,P|420:18|477:3,1,100,2|8,0:0|0:0,0:0:0:0:
326,151,8111,2,0,P|337:199|345:248,1,100,2|0,0:0|3:0,0:0:0:0:
478,330,8452,1,2,0:2:0:0:
489,253,8622,1,8,0:2:0:0:
357,331,8793,1,2,0:0:0:0:
357,331,8963,1,0,3:0:0:0:
178,238,9134,5,2,0:2:0:0:
125,337,9304,1,8,0:2:0:0:
178,238,9475,2,0,B|187:141|144:179|155:48,1,150,2|0,0:0|0:0,0:0:0:0:
153,91,9816,5,2,0:2:0:0:
81,68,9986,1,8,0:2:0:0:
48,140,10157,1,2,0:2:0:0:
48,140,10327,1,0,3:0:0:0:
285,229,10497,5,2,0:0:0:0:
361,203,10668,1,4,3:2:0:0:
401,269,10838,1,2,0:2:0:0:
65,299,11009,5,2,3:2:0:0:
174,354,11179,1,0,3:0:0:0:
174,354,11264,1,0,3:0:0:0:
174,354,11350,1,8,3:2:0:0:
163,313,11435,1,0,3:0:0:0:
156,273,11520,1,0,3:0:0:0:
149,231,11605,1,0,3:0:0:0:
141,187,11691,6,0,B|231:144|231:144|335:180,1,200,6|0,3:2|3:0,0:0:0:0:
429,257,12202,2,0,L|442:157,1,100,2|0,0:2|3:0,0:0:0:0:
321,326,12543,5,2,0:2:0:0:
250,211,12713,1,8,0:0:0:0:
169,323,12884,1,2,0:2:0:0:
169,323,13054,1,0,3:0:0:0:
249,290,13225,5,2,0:2:0:0:
266,211,13395,1,8,0:0:0:0:
292,135,13566,2,0,P|276:86|264:38,1,100,2|0,0:2|3:0,0:0:0:0:
190,17,13907,5,2,0:2:0:0:
141,77,14077,1,8,0:0:0:0:
66,59,14247,2,0,P|65:115|68:171,1,100,2|0,0:2|3:0,0:0:0:0:
301,143,14588,5,2,0:2:0:0:
341,208,14759,1,8,0:0:0:0:
417,197,14929,2,0,P|418:258|421:296,1,100,2|8,0:2|0:0,0:0:0:0:
213,266,15270,5,0,3:0:0:0:
116,352,15441,1,8,0:0:0:0:
0,287,15611,1,4,3:2:0:0:
69,246,15952,5,8,3:2:0:0:
69,246,16037,1,8,3:2:0:0:
69,246,16122,1,8,3:2:0:0:
108,246,16207,1,0,3:0:0:0:
144,228,16292,1,0,3:0:0:0:
167,196,16377,1,0,3:0:0:0:
129,128,16462,5,8,3:2:0:0:
116,91,16548,1,0,3:0:0:0:
131,51,16634,1,0,3:0:0:0:
170,39,16719,1,0,3:0:0:0:
244,58,16804,1,8,3:2:0:0:
272,94,16889,1,0,3:0:0:0:
316,110,16975,1,0,3:0:0:0:
363,97,17060,1,0,3:0:0:0:
363,97,17145,5,6,3:2:0:0:
373,128,17827,1,0,0:0:0:0:
227,310,18338,5,0,0:0:0:0:
227,310,18509,2,0,P|160:305|94:311,1,119.999996337891,2|0,0:0|0:0,0:0:0:0:
22,206,19020,2,0,P|11:261|3:327,2,119.999996337891,0|0|0,0:0|3:0|0:0,0:0:0:0:
148,192,19872,6,0,L|137:130,1,59.9999981689454,2|0,3:2|3:0,0:0:0:0:
123,59,20213,1,0,0:0:0:0:
123,59,20554,1,0,0:0:0:0:
362,303,22100,5,2,3:0:0:0:
461,111,22611,6,0,L|392:100,1,59.9999981689454,2|0,3:2|3:0,0:0:0:0:
295,159,23122,1,0,0:0:0:0:
295,159,23293,1,0,0:0:0:0:
150,56,23975,2,0,P|154:119|152:177,1,119.999996337891,2|0,0:0|0:0,0:0:0:0:
104,233,24487,1,0,0:0:0:0:
157,285,24828,1,0,0:0:0:0:
255,243,25169,5,0,0:0:0:0:
255,243,25339,2,0,L|330:254,1,59.9999981689454,2|0,3:2|3:0,0:0:0:0:
377,200,25680,1,0,0:0:0:0:
330,133,26021,1,0,0:0:0:0:
486,170,26532,5,0,3:0:0:0:
486,170,26873,1,0,3:0:0:0:
486,170,27214,1,0,3:0:0:0:
486,170,27555,1,0,3:0:0:0:
176,52,27714,5,8,0:0:0:0:
210,84,27795,1,8,0:0:0:0:
190,115,27877,1,8,0:0:0:0:
213,137,27959,1,8,0:0:0:0:
206,161,28054,2,0,P|203:242|209:334,1,160,6|8,3:2|0:0,0:0:0:0:
283,358,28562,1,2,0:0:0:0:
119,296,28731,2,0,L|39:316,1,80,2|0,0:0|3:0,0:0:0:0:
309,240,29070,1,8,0:0:0:0:
395,278,29240,1,0,3:0:0:0:
463,112,29409,6,0,B|371:94|400:152|275:141,1,160,2|8,0:0|0:0,0:0:0:0:
126,24,29918,2,0,P|139:61|152:112,1,80,2|0,0:0|0:0,0:0:0:0:
227,39,30260,1,0,3:2:0:0:
20,213,30433,2,0,P|62:200|115:208,1,80,10|0,0:0|0:0,0:0:0:0:
245,309,30780,6,0,P|203:317|150:332,1,80,2|0,3:2|0:0,0:0:0:0:
395,338,31127,2,0,P|380:282|368:201,1,120,10|0,0:0|0:0,0:0:0:0:
369,220,31474,2,0,P|376:179|393:122,1,80,2|0,0:0|3:0,0:0:0:0:
213,75,31816,1,8,0:0:0:0:
213,75,31988,6,0,P|258:132|235:247,1,160,0|0,3:0|3:0,0:0:0:0:
137,138,32502,2,0,L|42:158,1,80,8|0,0:0|0:0,0:0:0:0:
309,23,33013,1,0,3:0:0:0:
309,23,33182,2,0,L|391:39,1,80,8|0,0:0|0:0,0:0:0:0:
257,170,33519,6,0,P|255:259|262:343,1,160,2|8,3:2|0:0,0:0:0:0:
196,373,34030,1,0,0:0:0:0:
366,245,34200,2,0,P|412:250|442:269,1,80,2|0,0:0|3:0,0:0:0:0:
351,148,34541,2,0,P|354:108|363:59,1,80,8|0,0:0|3:0,0:0:0:0:
150,98,34882,6,0,P|145:158|135:251,1,120,2|0,0:0|0:0,0:0:0:0:
126,236,35223,2,0,P|119:202|108:159,1,80,10|0,0:0|0:0,0:0:0:0:
270,325,35734,1,0,3:2:0:0:
270,325,35905,2,0,L|167:344,1,80,10|0,0:0|0:0,0:0:0:0:
391,238,36246,6,0,L|289:214,1,80,2|0,3:2|0:0,0:0:0:0:
498,215,36587,2,0,P|484:156|475:97,1,120,10|0,0:0|0:0,0:0:0:0:
397,37,36928,2,0,P|371:80|394:134,1,80,2|0,0:0|3:0,0:0:0:0:
215,235,37261,1,10,0:0:0:0:
113,139,37428,6,0,P|172:130|231:118,1,120,6|0,3:2|0:0,0:0:0:0:
231,118,37770,1,2,3:2:0:0:
325,174,37942,1,8,0:0:0:0:
296,366,38113,5,6,0:2:0:0:
232,242,38285,1,0,3:0:0:0:
430,183,38456,1,10,0:0:0:0:
424,204,38542,1,8,0:0:0:0:
420,226,38628,1,8,0:0:0:0:
417,247,38713,1,8,0:0:0:0:
414,270,38799,1,8,0:0:0:0:
376,88,38963,6,0,P|366:46|358:-6,1,80,6|0,3:2|0:0,0:0:0:0:
250,205,39304,1,10,0:0:0:0:
250,205,39475,2,0,P|240:163|232:111,1,80,0|0,1:0|0:0,0:0:0:0:
479,249,39816,1,0,3:0:0:0:
398,331,39986,2,0,P|388:289|380:237,1,80,0|8,1:0|0:0,0:0:0:0:
217,304,40497,5,0,3:2:0:0:
186,235,40668,1,10,0:0:0:0:
119,269,40838,1,2,0:0:0:0:
2,205,41009,5,2,0:0:0:0:
66,89,41179,5,2,3:2:0:0:
135,116,41350,1,10,0:0:0:0:
158,46,41520,1,2,0:0:0:0:
269,57,41691,6,0,P|307:61|356:70,1,80,6|0,3:2|0:0,0:0:0:0:
199,232,42032,1,8,0:0:0:0:
199,232,42202,2,0,P|159:224|119:220,1,80,0|0,1:0|0:0,0:0:0:0:
352,167,42543,1,2,3:2:0:0:
352,167,42713,2,0,P|391:171|430:178,1,80,0|8,1:0|0:0,0:0:0:0:
266,352,43225,5,0,3:2:0:0:
266,352,43395,2,0,P|257:313|250:263,1,80,10|0,0:0|0:0,0:0:0:0:
136,101,43736,1,0,3:0:0:0:
125,210,43907,1,8,0:0:0:0:
148,199,43992,1,8,0:0:0:0:
173,193,44077,1,10,0:0:0:0:
369,270,44247,1,0,1:0:0:0:
306,72,44418,6,0,B|270:160|317:137|283:233,1,160,6|8,3:2|0:0,0:0:0:0:
402,128,44929,2,0,P|408:88|419:48,1,80,0|0,1:0|0:0,0:0:0:0:
195,176,45270,1,0,3:0:0:0:
177,250,45441,1,0,1:0:0:0:
38,58,45611,6,0,P|75:105|63:180,1,120,8|0,0:0|0:0,0:0:0:0:
73,163,45952,1,0,3:2:0:0:
174,50,46122,2,0,P|213:44|252:35,1,80,10|2,0:0|0:0,0:0:0:0:
327,15,46463,1,2,3:2:0:0:
464,149,46634,5,8,3:2:0:0:
464,149,46719,1,8,3:2:0:0:
464,149,46804,1,10,3:2:0:0:
410,141,46889,1,0,3:0:0:0:
387,172,46975,1,2,3:0:0:0:
336,161,47060,1,0,3:0:0:0:
311,192,47145,5,6,3:2:0:0:
128,120,47316,1,2,3:2:0:0:
84,190,47486,5,8,0:0:0:0:
356,64,47657,1,2,3:2:0:0:
360,267,47827,5,8,0:0:0:0:
203,72,47997,1,2,3:2:0:0:
184,323,48168,1,8,0:0:0:0:
476,130,48338,6,0,B|357:111|400:176|279:174,1,200,6|0,3:2|3:0,0:0:0:0:
13,346,48850,1,8,0:0:0:0:
76,175,49191,5,0,3:0:0:0:
76,175,49276,1,0,3:0:0:0:
192,219,49446,1,0,3:0:0:0:
192,219,49532,1,0,3:0:0:0:
268,48,49702,5,0,3:0:0:0:
268,48,49787,1,0,3:0:0:0:
268,48,49872,1,6,0:3:0:0:
439,322,50213,6,0,P|432:219|434:122,1,200,4|8,0:0|0:0,0:0:0:0:
379,60,50639,1,8,0:0:0:0:
322,33,50724,1,10,0:2:0:0:
261,41,50809,1,8,0:0:0:0:
216,84,50894,1,10,0:2:0:0:
169,123,50979,1,8,0:0:0:0:
109,123,51065,1,10,0:2:0:0:
59,88,51150,1,8,0:0:0:0:
73,76,51236,6,0,P|126:151|110:238,1,179.999994506836,6|0,3:2|0:0,0:0:0:0:
112,233,51577,1,10,0:2:0:0:
377,338,51747,1,0,0:0:0:0:
188,320,51918,2,0,P|127:332|83:346,1,100,0|0,3:2|0:0,0:0:0:0:
284,221,52259,2,0,P|311:180|286:95,1,120,10|0,0:0|0:0,0:1:0:0:
266,46,52600,6,0,B|229:197|340:114|301:274,1,239.999992675781,4|8,3:1|0:0,0:1:0:0:
410,104,53111,1,0,0:0:0:0:
481,159,53282,1,2,3:2:0:0:
442,240,53452,1,2,0:2:0:0:
167,380,53622,5,10,0:0:0:0:
226,206,53793,1,2,0:2:0:0:
83,275,53963,6,0,P|75:209|58:136,1,120,2|0,3:2|0:0,0:1:0:0:
70,74,54303,6,0,B|61:139|39:180|39:180|43:189|43:189|18:229|2:325,1,239.999992675781,8|0,0:2|3:0,0:1:0:0:
70,74,54816,1,0,0:0:0:0:
173,212,54986,2,0,P|243:214|287:169,1,119.999996337891,8|0,0:0|0:0,0:1:0:0:
219,11,55327,6,0,P|206:60|236:118,1,100,0|2,3:0|0:0,0:0:0:0:
461,173,55668,1,10,0:0:0:0:
400,99,55838,1,2,0:2:0:0:
324,277,56009,2,0,P|335:230|341:175,1,100,2|0,3:2|0:0,0:0:0:0:
189,113,56350,2,0,P|178:160|172:215,1,100,10|0,0:0|0:0,0:0:0:0:
77,362,56691,6,0,B|131:312|131:312|233:338,1,150,0|0,3:1|0:0,0:0:0:0:
205,330,57032,2,0,L|305:305,1,100,10|0,0:0|0:0,0:0:0:0:
0,235,57372,2,0,L|100:210,1,100,2|0,3:2|0:0,0:0:0:0:
236,44,57713,1,8,0:0:0:0:
219,221,57884,6,0,P|194:185|201:119,1,100,2|0,0:2|3:0,0:0:0:0:
311,317,58225,1,2,0:2:0:0:
508,227,58395,1,8,0:0:0:0:
311,317,58566,1,2,0:2:0:0:
381,153,58736,2,0,P|369:108|362:54,1,100,2|0,3:2|0:0,0:0:0:0:
443,292,59077,1,10,0:0:0:0:
404,369,59247,1,0,0:0:0:0:
177,303,59418,6,0,L|72:326,1,100,0|0,3:0|0:0,0:0:0:0:
268,205,59759,1,14,0:0:0:0:
144,133,59929,1,0,0:0:0:0:
363,68,60100,6,0,P|449:93|460:178,1,150,2|0,3:2|0:0,0:0:0:0:
412,200,60441,1,14,0:0:0:0:
252,99,60611,2,0,L|240:-9,1,100,2|0,0:2|3:0,0:0:0:0:
215,203,60952,1,12,0:0:0:0:
125,365,61122,6,0,B|174:224|68:277|110:137,1,239.999992675781,6|10,3:2|0:0,0:0:0:0:
27,56,61634,1,8,0:0:0:0:
27,56,61719,1,8,0:0:0:0:
27,56,61804,2,0,P|21:89|7:136,1,59.9999981689454,10|8,0:0|0:0,0:0:0:0:
204,184,61975,5,8,0:0:0:0:
204,184,62060,1,8,0:0:0:0:
204,184,62145,2,0,P|210:151|224:104,1,59.9999981689454,14|0,0:0|0:0,0:0:0:0:
281,241,62316,1,2,0:2:0:0:
96,266,62486,5,10,0:2:0:0:
225,86,62657,1,0,0:0:0:0:
424,132,62827,2,0,P|434:186|440:238,1,100,4|0,3:1|0:0,0:0:0:0:
306,335,63168,5,10,0:2:0:0:
316,303,63338,1,2,0:2:0:0:
86,362,63509,5,2,3:2:0:0:
67,338,63679,1,2,0:2:0:0:
200,368,63850,6,0,P|191:314|178:256,1,100,8|0,0:1|0:0,0:0:0:0:
57,98,64191,1,2,3:2:0:0:
22,167,64361,1,2,0:2:0:0:
210,125,64532,2,0,P|288:110|383:102,1,150,8|0,0:1|0:0,0:0:0:0:
451,131,64872,6,0,P|453:81|430:37,1,100,0|0,3:0|0:0,0:0:0:0:
347,224,65213,2,0,P|405:232|459:244,1,100,10|0,0:0|0:0,0:0:0:0:
171,13,65554,2,0,P|229:21|283:33,1,100,2|0,3:2|0:0,0:0:0:0:
0,232,65895,2,0,P|58:240|112:252,1,100,14|0,0:0|0:0,0:0:0:0:
337,113,66236,5,2,3:2:0:0:
225,358,66407,1,8,0:0:0:0:
85,129,66577,2,0,P|73:73|60:25,1,100,8|0,0:0|0:0,0:0:0:0:
218,210,66918,1,2,3:2:0:0:
344,120,67088,5,8,0:0:0:0:
344,120,67174,1,8,0:0:0:0:
344,120,67259,2,0,P|311:114|275:110,1,59.9999981689454,8|8,0:0|0:0,0:0:0:0:
49,343,67429,5,8,0:2:0:0:
49,343,67514,1,8,0:2:0:0:
49,343,67600,2,0,P|136:325|237:316,1,179.999994506836,4|0,3:2|0:0,0:0:0:0:
226,316,67941,1,2,3:2:0:0:
77,230,68111,1,0,0:2:0:0:
184,75,68282,5,2,3:2:0:0:
251,141,68452,1,2,0:0:0:0:
344,116,68622,1,8,0:0:0:0:
344,116,68793,2,0,P|353:63|325:-10,1,100,2|0,0:2|3:0,0:0:0:0:
512,343,69134,5,2,0:2:0:0:
466,178,69304,1,8,0:0:0:0:
512,343,69475,1,2,0:2:0:0:
322,225,69645,5,2,3:2:0:0:
305,300,69816,1,0,0:0:0:0:
156,146,69986,5,10,0:0:0:0:
175,222,70157,1,0,0:0:0:0:
37,33,70327,6,0,P|21:128|-3:221,1,179.999994506836,6|2,3:2|0:0,0:0:0:0:
0,209,70668,1,8,0:0:0:0:
263,162,70838,5,2,0:2:0:0:
146,327,71009,1,10,0:2:0:0:
125,318,71094,1,8,0:0:0:0:
102,309,71179,1,8,0:0:0:0:
304,256,71350,1,8,0:0:0:0:
197,81,71520,1,0,3:0:0:0:
419,28,71839,5,8,0:0:0:0:
457,90,72077,1,8,0:3:0:0:
407,143,72349,1,4,3:0:0:0:
454,202,72526,5,8,0:0:0:0:
458,237,72623,1,8,0:0:0:0:
462,264,72699,1,8,0:0:0:0:
404,314,72886,5,8,3:0:0:0:
259,276,73062,6,0,B|178:291|178:291|156:323|156:323|69:340,1,200,6|0,3:2|3:0,0:0:0:0:
102,139,73573,2,0,B|77:184|77:184|95:244,1,100,2|0,0:2|3:0,0:0:0:0:
308,66,73915,5,2,0:2:0:0:
239,130,74085,1,8,0:2:0:0:
217,40,74255,1,2,0:0:0:0:
217,40,74425,1,0,3:0:0:0:
466,179,74596,5,2,0:0:0:0:
393,195,74767,1,8,0:0:0:0:
320,217,74937,2,0,P|372:238|432:270,1,100,2|0,0:0|3:0,0:0:0:0:
167,341,75278,5,2,0:2:0:0:
100,250,75449,1,8,0:2:0:0:
167,341,75619,2,0,P|179:288|192:243,1,100,2|0,0:0|3:0,0:0:0:0:
25,71,75960,5,2,0:2:0:0:
105,34,76130,1,8,0:2:0:0:
162,107,76301,1,2,0:0:0:0:
162,107,76471,1,0,0:0:0:0:
379,0,76642,5,2,0:2:0:0:
430,54,76812,1,8,0:2:0:0:
502,30,76983,2,0,P|502:80|508:143,1,100,2|0,0:2|3:0,0:0:0:0:
410,338,77324,5,2,0:0:0:0:
428,263,77494,1,4,3:2:0:0:
484,314,77665,1,2,0:2:0:0:
267,268,77835,5,2,3:2:0:0:
208,203,78005,1,0,3:0:0:0:
208,203,78091,1,0,3:0:0:0:
208,203,78175,1,8,3:2:0:0:
161,195,78261,1,0,3:0:0:0:
119,223,78346,1,0,3:0:0:0:
83,257,78432,1,0,3:0:0:0:
35,254,78516,5,6,3:2:0:0:
74,116,78687,1,0,3:0:0:0:
215,90,78857,1,8,0:0:0:0:
50,267,79027,2,0,P|66:318|78:373,1,100,2|0,3:2|0:0,0:0:0:0:
161,195,79368,5,2,0:2:0:0:
243,225,79539,1,8,0:0:0:0:
323,254,79709,2,0,P|274:266|227:281,1,100,6|0,3:2|0:0,0:0:0:0:
315,25,80050,5,2,0:2:0:0:
382,127,80221,1,8,0:0:0:0:
496,100,80391,2,0,P|481:175|473:256,1,150,2|0,0:2|0:0,0:0:0:0:
473,248,80732,5,2,0:2:0:0:
253,226,80902,1,8,0:0:0:0:
415,336,81073,5,2,0:2:0:0:
253,226,81243,1,4,3:2:0:0:
429,140,81414,1,10,0:0:0:0:
302,318,81584,1,8,0:0:0:0:
159,91,81755,5,2,3:2:0:0:
151,67,81840,1,0,3:0:0:0:
136,47,81925,1,0,3:0:0:0:
115,33,82010,1,0,3:0:0:0:
91,26,82095,1,0,3:0:0:0:
66,28,82181,1,0,3:0:0:0:
43,37,82266,2,0,P|51:117|48:202,1,150,12|0,0:0|0:0,0:0:0:0:
49,186,82607,1,0,3:0:0:0:
208,341,82777,6,0,B|161:321|161:321|108:337,1,100,10|0,0:0|3:0,0:0:0:0:
256,228,83118,2,0,B|302:247|302:247|355:231,1,100,10|0,0:0|3:0,0:0:0:0:
438,109,83459,1,2,3:2:0:0:
444,137,83544,1,0,3:0:0:0:
450,163,83630,1,2,3:2:0:0:
467,245,83800,1,8,0:0:0:0:
310,91,83971,6,0,B|216:74|247:135|136:128,1,160,6|2,3:2|0:0,0:0:0:0:
51,236,84482,1,0,3:0:0:0:
51,236,84567,1,0,3:0:0:0:
51,236,84652,2,0,P|93:230|151:229,1,80,8|0,0:0|0:0,0:0:0:0:
299,337,84993,1,0,3:0:0:0:
312,241,85164,6,0,P|303:206|294:162,1,80,0|0,3:0|0:0,0:0:0:0:
204,333,85505,1,0,0:0:0:0:
204,333,85675,2,0,P|162:338|117:308,1,80,2|0,3:2|0:0,0:0:0:0:
175,128,86016,2,0,P|184:163|193:207,1,80,10|2,0:0|0:0,0:0:0:0:
397,299,86357,1,2,3:2:0:0:
397,299,86527,1,2,0:0:0:0:
462,192,86698,6,0,B|401:181|401:181|370:193|370:193|282:178,1,160,2|0,3:2|0:0,0:0:0:0:
225,237,87209,1,0,3:0:0:0:
100,141,87380,1,10,0:0:0:0:
174,118,87550,1,2,0:0:0:0:
137,277,87721,2,0,P|81:261|9:245,1,120,0|0,3:0|0:0,0:0:0:0:
20,247,88062,5,0,3:0:0:0:
225,237,88232,2,0,B|242:275|242:275|230:324,1,80,10|0,0:0|0:0,0:0:0:0:
296,359,88573,1,2,3:2:0:0:
375,207,88743,2,0,B|438:168|426:205|488:166,2,120,8|8|0,0:0|0:0|3:0,0:0:0:0:
321,90,89425,6,0,P|280:67|196:80,1,120,2|0,0:2|0:0,0:0:0:0:
209,72,89766,1,2,0:0:0:0:
92,148,89937,1,0,3:0:0:0:
20,29,90107,1,12,0:0:0:0:
150,256,90448,6,0,P|191:246|250:240,1,80,0|0,0:0|3:0,0:0:0:0:
131,336,90789,2,0,P|91:341|52:350,1,80
328,380,91130,6,0,P|381:329|376:262,1,120,2|0,3:2|0:0,0:0:0:0:
384,285,91471,1,8,0:0:0:0:
339,224,91641,1,2,0:0:0:0:
451,144,91812,2,0,P|469:181|463:222,1,80,2|2,0:0|0:0,0:0:0:0:
177,75,92152,5,2,0:0:0:0:
272,24,92323,2,0,P|275:68|286:121,1,80,10|0,0:0|0:0,0:0:0:0:
105,225,92664,5,2,3:2:0:0:
10,174,92835,2,0,P|6:218|-4:271,1,80,8|2,0:0|0:0,0:0:0:0:
153,384,93175,5,0,3:0:0:0:
153,384,93346,1,8,0:3:0:0:
307,306,93516,5,2,3:2:0:0:
258,178,93687,1,0,3:0:0:0:
394,127,93857,1,8,0:0:0:0:
441,253,94027,1,0,3:0:0:0:
265,185,94198,5,8,0:0:0:0:
265,185,94283,1,8,0:0:0:0:
265,185,94368,2,0,L|272:146,1,40,2|0,3:2|3:0,0:0:0:0:
199,41,94539,1,2,3:2:0:0:
155,33,94624,1,0,3:0:0:0:
119,63,94709,1,10,0:0:0:0:
78,82,94794,1,8,0:0:0:0:
34,72,94880,5,6,3:2:0:0:
103,165,95050,1,0,0:0:0:0:
21,243,95221,2,0,P|6:297|28:345,1,100,10|0,0:0|3:0,0:0:0:0:
201,178,95562,2,0,P|142:172|95:163,1,100,2|0,3:2|0:0,0:0:0:0:
207,314,95902,2,0,P|277:296|377:283,1,150,10|0,0:0|0:0,0:0:0:0:
353,284,96243,5,2,3:2:0:0:
448,212,96414,1,0,0:0:0:0:
380,173,96584,1,10,0:0:0:0:
496,117,96755,2,0,L|513:18,1,100,0|0,3:0|3:0,0:0:0:0:
240,54,97096,5,2,0:0:0:0:
240,54,97266,2,0,B|260:102|260:102|239:170,1,100,8|2,0:0|0:0,0:0:0:0:
12,117,97607,5,2,3:2:0:0:
64,180,97777,1,0,0:0:0:0:
64,180,97948,1,10,0:0:0:0:
140,155,98118,1,0,0:0:0:0:
82,333,98289,5,2,3:2:0:0:
210,228,98459,1,2,0:0:0:0:
260,384,98630,1,10,0:0:0:0:
188,326,98800,6,0,B|292:313|248:350|361:347,1,150,2|0,0:0|0:0,0:0:0:0:
334,346,99141,2,0,P|379:335|438:327,1,100,2|8,0:0|0:0,0:0:0:0:
499,181,99482,2,0,P|429:164|371:223,1,150,2|0,3:2|0:0,0:0:0:0:
375,212,99823,1,0,3:0:0:0:
292,129,99993,2,0,P|268:83|278:27,1,100,10|2,0:0|0:0,0:0:0:0:
216,203,100334,5,2,3:2:0:0:
216,203,100505,1,0,0:0:0:0:
67,139,100675,2,0,P|103:101|152:103,1,100,10|0,0:0|3:0,0:0:0:0:
142,371,101016,2,0,P|134:296|117:223,1,150,2|0,3:2|0:0,0:0:0:0:
117,223,101357,1,8,0:0:0:0:
240,297,101527,6,0,P|287:319|340:301,1,100,2|0,0:0|3:0,0:0:0:0:
512,247,101868,1,0,0:0:0:0:
442,141,102039,1,8,0:0:0:0:
512,247,102209,2,0,L|403:231,1,100,0|0,3:0|0:0,0:0:0:0:
221,80,102550,1,2,3:2:0:0:
270,25,102721,1,10,0:0:0:0:
336,57,102891,1,2,0:0:0:0:
233,258,103062,6,0,B|144:246|190:211|93:199,1,150,2|0,3:2|0:0,0:0:0:0:
36,248,103402,2,0,P|66:297|41:361,1,100,8|0,0:0|3:2,0:0:0:0:
118,92,103743,2,0,P|66:106|15:115,1,100,0|0,3:0|0:0,0:0:0:0:
220,145,104084,1,10,0:0:0:0:
220,145,104255,1,0,0:0:0:0:
406,40,104425,5,0,3:0:0:0:
377,112,104596,2,0,B|415:199|360:169|390:275,1,150
385,258,104937,1,0,3:0:0:0:
408,372,105107,2,0,B|360:352|360:352|288:370,1,100,0|0,0:0|3:2,0:0:0:0:
172,281,105448,2,0,B|212:270|212:270|228:275|228:275|293:259,1,100,8|2,0:0|0:0,0:0:0:0:
36,119,105789,6,0,B|143:96|111:170|226:153,1,200,4|8,3:2|0:0,0:0:0:0:
290,332,106300,1,0,3:0:0:0:
290,332,106471,2,0,P|319:291|312:234,1,100,2|2,3:2|0:0,0:0:0:0:
467,77,106812,1,10,0:0:0:0:
509,164,106982,1,2,0:0:0:0:
338,131,107152,6,0,B|269:99|269:99|182:128,1,150,2|0,3:2|0:0,0:0:0:0:
184,142,107493,2,0,L|202:240,1,100,10|0,0:0|3:0,0:0:0:0:
157,300,107834,1,0,0:0:0:0:
60,259,108005,5,0,3:2:0:0:
238,364,108175,2,0,P|296:348|367:336,1,100,10|0,0:0|3:0,0:0:0:0:
386,206,108516,5,2,3:2:0:0:
299,179,108687,1,0,0:0:0:0:
401,77,108857,5,10,0:2:0:0:
488,50,109028,1,0,0:0:0:0:
401,77,109198,2,0,P|361:53|300:66,1,100,2|0,3:2|0:0,0:0:0:0:
468,258,109539,1,8,0:0:0:0:
299,179,109709,6,0,B|210:193|257:231|167:245,1,150,2|0,0:0|0:0,0:0:0:0:
169,245,110050,2,0,P|229:256|294:276,1,100,2|8,0:0|0:0,0:0:0:0:
89,338,110391,1,0,3:2:0:0:
52,269,110562,1,2,0:0:0:0:
124,159,110732,2,0,P|148:119|127:55,1,100,2|8,3:2|0:0,0:0:0:0:
290,66,111073,6,0,P|375:66|424:166,1,200,2|0,0:0|0:0,0:0:0:0:
321,276,111584,2,0,B|303:230|303:230|319:177,1,100,10|0,0:0|3:0,0:0:0:0:
465,250,111925,1,2,3:2:0:0:
465,250,112096,2,0,B|483:296|483:296|467:349,1,100,0|8,0:0|0:0,0:0:0:0:
287,357,112437,1,2,0:0:0:0:
195,194,112607,5,0,3:0:0:0:
295,236,112777,1,2,0:0:0:0:
124,366,112948,1,8,0:0:0:0:
124,366,113118,2,0,P|119:318|123:254,1,100,2|0,3:2|0:0,0:0:0:0:
306,49,113459,2,0,B|330:93|330:93|303:167,1,100,0|8,3:0|0:0,0:0:0:0:
187,15,113800,1,2,0:0:0:0:
130,100,113971,6,0,B|92:113|92:113|74:192|74:192|36:208,1,150,4|0,3:2|0:0,0:0:0:0:
47,203,114312,1,8,0:0:0:0:
218,141,114482,1,0,0:0:0:0:
283,262,114652,6,0,P|233:250|176:246,1,100,0|0,3:0|0:0,0:0:0:0:
426,155,114993,2,0,P|376:143|319:139,1,100,10|0,0:0|0:0,0:0:0:0:
438,383,115334,6,0,P|399:337|428:239,1,150,2|0,3:2|0:0,0:0:0:0:
413,253,115675,1,8,0:0:0:0:
250,44,115846,2,0,B|226:175|298:116|278:263,1,200,2|0,3:2|3:0,0:0:0:0:
213,307,116357,1,8,0:0:0:0:
213,307,116442,1,8,0:0:0:0:
213,307,116527,1,8,0:0:0:0:
28,204,116868,5,8,0:2:0:0:
80,196,116954,1,8,0:2:0:0:
132,187,117039,1,8,0:2:0:0:
185,179,117124,1,8,0:2:0:0:
239,169,117209,1,8,0:2:0:0:
70,82,117550,5,10,0:2:0:0:
70,82,117721,1,2,0:0:0:0:
70,82,117891,1,2,0:0:0:0:
237,331,118062,6,0,B|193:160|333:282|269:77,1,239.999992675781,6|10,3:2|3:2,0:0:0:0:
223,55,118573,1,0,0:0:0:0:
346,269,118743,2,0,P|409:283|464:293,1,100,2|0,3:2|0:0,0:0:0:0:
167,159,119084,2,0,P|100:157|64:220,1,120,10|0,0:0|0:0,0:0:0:0:
186,178,119425,6,0,B|269:4|53:10|53:10,1,239.999992675781,4|8,3:1|0:0,0:0:0:0:
136,269,119937,1,0,0:0:0:0:
283,210,120107,1,2,3:2:0:0:
251,39,120277,5,2,0:2:0:0:
305,197,120448,1,8,0:0:0:0:
368,360,120618,1,2,0:2:0:0:
388,110,120789,6,0,B|417:28|498:77|498:77,1,120,2|0,3:2|0:0,0:0:0:0:
486,177,121130,6,0,B|418:199|362:155|391:140|332:95|261:123,1,239.999992675781,8|0,0:1|3:0,0:0:0:0:
383,258,121641,1,0,0:0:0:0:
143,271,121812,2,0,B|217:257|176:227|256:212,1,119.999996337891,10|0,0:0|0:0,0:0:0:0:
54,80,122152,6,0,P|66:130|74:183,1,100,0|0,3:0|0:0,0:0:0:0:
24,343,122493,1,8,0:0:0:0:
176,174,122664,1,2,0:2:0:0:
394,281,122834,6,0,P|312:259|237:315,1,179.999994506836,2|0,3:2|0:0,0:0:0:0:
240,311,123175,1,10,0:0:0:0:
88,210,123346,1,0,0:0:0:0:
264,125,123516,6,0,P|278:79|242:21,1,100,2|0,3:2|0:0,0:0:0:0:
374,167,123857,2,0,B|465:177|429:223|521:232,1,150,10|0,0:0|0:0,0:0:0:0:
506,230,124198,2,0,P|458:240|408:256,1,100,2|0,3:2|0:0,0:0:0:0:
428,78,124539,1,8,0:0:0:0:
276,246,124709,6,0,P|307:290|289:362,1,100,2|0,0:2|3:0,0:0:0:0:
98,279,125050,2,0,P|116:233|162:210,1,100,2|8,0:2|0:0,0:0:0:0:
215,384,125391,1,2,0:2:0:0:
316,119,125562,6,0,P|243:132|183:87,1,150,2|0,3:2|0:0,0:0:0:0:
184,89,125902,2,0,P|119:89|79:135,1,100,10|0,0:0|0:0,0:0:0:0:
22,264,126243,6,0,B|70:247|70:247|131:275,1,100,0|0,3:0|0:0,0:0:0:0:
265,379,126584,2,0,L|252:274,1,100,14|0,0:0|0:0,0:0:0:0:
366,34,126925,1,2,3:2:0:0:
332,184,127096,1,0,0:0:0:0:
183,147,127266,1,14,0:0:0:0:
218,0,127437,1,2,0:2:0:0:
276,85,127607,5,0,3:0:0:0:
220,278,127777,1,8,0:0:0:0:
467,351,127948,2,0,P|448:272|434:158,1,179.999994506836,6|0,3:2|0:0,0:0:0:0:
435,174,128289,1,10,0:0:0:0:
379,63,128459,5,8,0:0:0:0:
379,63,128544,1,8,0:0:0:0:
379,63,128630,2,0,P|369:91|362:120,1,59.9999981689454,10|8,0:0|0:0,0:0:0:0:
265,289,128800,5,8,0:0:0:0:
265,289,128885,1,8,0:0:0:0:
265,289,128971,2,0,P|294:296|322:306,1,59.9999981689454,14|0,0:0|0:0,0:0:0:0:
137,353,129141,1,2,0:2:0:0:
241,113,129312,1,10,0:2:0:0:
139,65,129482,1,0,0:0:0:0:
201,203,129652,6,0,P|120:218|52:238,1,150,4|0,3:1|0:0,0:0:0:0:
55,236,129993,1,10,0:2:0:0:
24,169,130164,1,0,0:0:0:0:
107,97,130334,5,2,3:2:0:0:
0,320,130505,1,0,0:0:0:0:
107,97,130675,2,0,P|75:40|77:3,1,100,8|0,0:1|0:0,0:0:0:0:
187,310,131016,5,2,3:2:0:0:
305,238,131187,1,2,0:2:0:0:
305,238,131357,2,0,B|394:245|355:286|457:295,1,150,8|0,0:1|0:0,0:0:0:0:
441,293,131698,2,0,P|390:304|335:324,1,100,0|0,3:0|0:0,0:0:0:0:
290,134,132039,6,0,P|269:88|254:40,1,100,10|0,0:0|0:0,0:0:0:0:
100,223,132380,2,0,P|149:228|198:239,1,100,2|0,3:2|0:0,0:0:0:0:
116,19,132721,2,0,P|86:59|52:96,1,100,10|0,0:0|0:0,0:0:0:0:
168,125,133062,5,10,0:0:0:0:
327,90,133232,1,8,0:0:0:0:
247,111,133402,1,8,0:0:0:0:
256,119,133488,1,8,0:0:0:0:
256,119,133573,1,8,0:0:0:0:
439,210,133743,5,2,3:2:0:0:
381,330,133914,5,8,0:0:0:0:
341,324,133999,1,8,0:0:0:0:
311,298,134084,1,8,3:2:0:0:
295,262,134169,1,8,0:0:0:0:
270,231,134254,1,8,0:0:0:0:
231,223,134340,1,8,0:0:0:0:
174,280,134425,6,0,B|67:298|126:343|19:361,1,179.999994506836,4|0,3:2|0:0,0:0:0:0:
22,366,134766,1,10,0:2:0:0:
81,275,134937,1,2,0:2:0:0:
0,59,135107,5,2,3:2:0:0:
182,108,135277,1,2,0:0:0:0:
71,154,135448,1,10,0:0:0:0:
113,18,135618,1,2,0:2:0:0:
113,18,135789,1,0,3:0:0:0:
236,192,135959,6,0,P|292:199|334:148,1,100,2|10,0:2|0:0,0:0:0:0:
359,10,136300,1,2,0:2:0:0:
476,167,136471,5,2,3:2:0:0:
280,82,136641,1,0,0:0:0:0:
299,311,136812,5,10,0:0:0:0:
328,229,136982,1,0,0:0:0:0:
104,100,137152,6,0,B|105:189|145:155|140:248,1,150,6|0,3:2|0:0,0:0:0:0:
140,242,137493,2,0,P|78:257|40:270,1,100,8|0,0:0|0:2,0:0:0:0:
255,120,137834,2,0,B|371:98|336:166|449:157,1,200,0|0,3:1|3:0,0:0:0:0:
194,42,138346,1,12,0:2:0:0:
336,251,138516,5,0,3:0:0:0:
407,29,138687,1,14,0:0:0:0:
471,244,138857,5,4,3:2:0:0:
262,127,139027,1,8,0:0:0:0:
262,127,139113,1,8,0:0:0:0:
262,127,139198,1,8,0:0:0:0:
438,133,139368,5,0,3:0:0:0:
234,324,139539,2,0,P|226:274|213:226,1,100,8|0,0:0|3:0,0:0:0:0:
156,52,139880,5,2,0:0:0:0:
269,252,140221,5,2,0:0:0:0:
193,261,140314,1,2,0:0:0:0:
234,324,140408,2,0,P|270:329|335:345,2,59.9999981689454,10|8|8,0:0|0:0|0:0,0:0:0:0:
139,146,140686,5,2,0:0:0:0:
101,213,140811,1,2,0:0:0:0:
59,147,140936,2,0,P|66:122|74:52,1,64.9999970245363,2|0,0:0|3:0,0:0:0:0:
261,120,141227,5,2,0:0:0:0:
308,178,141352,1,2,0:0:0:0:
337,106,141477,1,2,0:0:0:0:
270,167,141737,5,10,0:0:0:0:
344,147,141862,1,2,0:0:0:0:
290,92,141987,1,2,0:0:0:0:
306,9,142098,5,6,0:2:0:0:
356,26,142181,1,2,0:0:0:0:
358,35,142264,1,2,0:0:0:0:
410,14,142389,5,10,0:0:0:0:
455,27,142493,1,2,0:0:0:0:
459,36,142596,1,2,3:2:0:0:
494,101,142721,5,2,0:0:0:0:
497,111,142846,2,0,L|511:152,1,33.3333333333333
453,190,143012,5,2,0:0:0:0:
453,190,143096,1,2,3:2:0:0:
455,209,143179,1,2,3:2:0:0:
458,230,143262,1,2,3:2:0:0:
267,257,143470,6,0,B|294:188|294:188|259:152|259:152|268:45,2,200,0|0|8,3:0|3:0|0:2,0:0:0:0:
313,318,144321,1,0,3:0:0:0:
165,214,144492,1,0,3:0:0:0:
165,214,144577,1,0,3:0:0:0:
165,214,144662,1,0,3:0:0:0:
165,214,144748,1,0,3:0:0:0:
165,214,144833,2,0,B|107:217|107:217|74:258|74:258|12:284,1,150,4|0,3:2|0:0,0:0:0:0:
21,268,145174,2,0,L|-7:187,1,50,8|0,0:0|3:0,0:0:0:0:
217,312,145344,6,0,B|342:283|305:362|423:353,1,200,4|8,3:2|0:0,0:0:0:0:
500,158,145856,2,0,P|457:171|366:187,1,100,0|0,0:0|3:0,0:0:0:0:
261,21,146196,1,2,0:0:0:0:
322,61,146367,1,8,0:0:0:0:
291,126,146537,1,2,0:0:0:0:
0,169,146707,5,2,3:2:0:0:
166,133,146878,1,0,0:0:0:0:
52,27,147049,1,10,0:0:0:0:
49,54,147134,1,2,0:0:0:0:
47,80,147219,1,2,0:0:0:0:
230,212,147390,5,2,3:2:0:0:
151,28,147560,1,2,0:0:0:0:
100,292,147731,2,0,B|139:199|88:228|129:140,1,150,12|0,0:0|0:0,0:0:0:0:
126,147,148071,5,6,3:2:0:0:
240,200,148242,1,0,0:0:0:0:
364,255,148412,1,8,0:0:0:0:
504,107,148583,5,2,0:0:0:0:
359,153,148753,1,0,3:0:0:0:
313,8,148924,1,2,0:0:0:0:
247,297,149094,5,10,0:0:0:0:
242,319,149264,1,0,0:0:0:0:
391,256,149435,5,2,3:2:0:0:
408,328,149605,1,10,0:0:0:0:
164,185,149776,5,2,3:2:0:0:
239,160,149946,1,10,0:0:0:0:
124,384,150117,5,0,3:0:0:0:
117,372,150202,1,0,3:0:0:0:
111,359,150287,1,0,3:0:0:0:
106,347,150373,1,0,3:0:0:0:
100,336,150458,1,12,0:0:0:0:
65,269,150628,1,0,3:0:0:0:
431,87,150799,5,8,0:0:0:0:
404,196,150969,1,0,3:0:0:0:
295,169,151139,1,8,0:0:0:0:
322,60,151310,1,0,3:0:0:0:
364,128,151480,5,8,0:0:0:0:
305,341,151651,5,8,0:0:0:0:
305,341,151736,1,8,0:0:0:0:
305,341,151821,1,8,0:0:0:0:
312,348,151907,1,8,0:0:0:0:
312,348,151992,1,12,0:0:0:0:
106,136,154529,5,2,0:0:0:0:
106,136,154934,1,2,0:0:0:0:
179,151,156297,5,2,0:0:0:0:
248,124,157661,5,2,0:0:0:0:
314,162,159024,5,2,0:0:0:0:
382,129,160047,5,0,0:0:0:0:
382,129,160359,1,2,3:2:0:0:
238,24,161040,2,0,P|244:89|239:169,1,119.999996337891,10|0,0:0|0:0,0:0:0:0:
144,109,161552,5,2,0:0:0:0:
144,109,161637,1,2,0:0:0:0:
144,109,161722,2,0,P|83:118|53:188,1,119.999996337891,2|0,3:2|0:0,0:0:0:0:
106,222,162404,1,8,0:0:0:0:
253,331,163086,5,2,3:2:0:0:
224,263,163512,1,0,0:0:0:0:
274,206,163794,6,0,P|268:149|269:86,1,119.999996337891,10|0,0:0|0:0,0:0:0:0:
322,36,164239,1,8,0:0:0:0:
322,36,164324,1,0,3:0:0:0:
322,36,164424,1,0,3:0:0:0:
498,213,164788,5,2,0:0:0:0:
437,171,165099,1,10,0:0:0:0:
367,189,165382,1,10,0:0:0:0:
328,250,165613,1,10,0:0:0:0:
349,320,165776,5,4,3:2:0:0:
229,263,166124,2,0,P|205:260|155:262,1,59.9999981689454,2|0,0:0|0:0,0:0:0:0:
96,270,166517,1,10,0:0:0:0:
166,124,166892,2,0,P|197:120|247:121,1,59.9999981689454,2|0,0:0|3:0,0:0:0:0:
251,129,167179,5,2,3:2:0:0:
360,74,167523,1,0,0:0:0:0:
387,118,167668,1,0,0:0:0:0:
371,167,167814,1,8,0:0:0:0:
449,281,168208,1,0,0:0:0:0:
486,196,168493,5,0,3:0:0:0:
362,316,168901,1,2,0:0:0:0:
304,272,169053,1,2,0:0:0:0:
240,307,169205,2,0,P|181:300|109:305,1,119.999996337891,10|0,0:0|0:0,0:0:0:0:
120,303,169655,1,0,3:0:0:0:
120,303,169735,1,0,3:0:0:0:
0,247,169895,5,0,3:0:0:0:
119,20,170603,6,0,P|126:85|127:155,1,119.999996337891,10|0,0:0|0:0,0:0:0:0:
81,197,171260,1,2,3:2:0:0:
126,261,171676,1,2,0:0:0:0:
126,261,171919,1,10,0:0:0:0:
223,141,172252,6,0,P|248:144|283:154,1,59.9999981689454,0|0,0:0|3:0,0:0:0:0:
348,184,172558,1,8,0:0:0:0:
442,258,173154,5,0,3:0:0:0:
442,258,173324,1,0,3:0:0:0:
473,378,173969,5,4,0:0:0:0:
10,185,175656,5,2,0:0:0:0:
85,213,176274,1,2,0:0:0:0:
85,213,176583,1,2,0:0:0:0:
153,182,176893,2,0,L|204:190,1,50,2|0,0:0|0:0,0:0:0:0:
265,231,177542,2,0,P|263:276|265:339,1,100,2|0,0:0|0:0,0:0:0:0:
317,384,178361,1,2,0:0:0:0:
468,49,178934,5,2,0:2:0:0:
468,49,179095,1,2,0:2:0:0:
468,49,179257,1,2,0:2:0:0:
305,276,179418,6,0,B|363:93|209:194|259:13,1,279.999991455078,6|8,3:2|0:0,0:0:0:0:
183,182,179929,1,2,0:2:0:0:
369,29,180099,2,0,P|429:44|454:70,1,100,2|0,3:2|0:0,0:0:0:0:
349,193,180440,2,0,B|276:166|321:92|321:92,1,104.999996795654,10|0,0:0|0:0,0:0:0:0:
445,215,180781,6,0,B|262:193|372:314|155:298,1,279.999991455078,4|8,3:1|0:0,0:0:0:0:
83,48,181293,1,2,0:2:0:0:
289,133,181463,1,2,3:2:0:0:
52,195,181633,1,2,0:2:0:0:
221,334,181804,5,8,0:2:0:0:
185,238,181974,1,2,0:2:0:0:
387,169,182145,6,0,B|363:215|363:215|384:263,1,104.999996795654,2|0,3:2|0:0,0:0:0:0:
480,119,182486,6,0,B|279:225|404:5|184:140|184:140,1,279.999991455078,8|0,0:1|3:0,0:0:0:0:
331,240,182997,1,0,0:0:0:0:
81,228,183168,2,0,B|137:240|137:240|158:277|158:277|206:296,1,139.999995727539,8|0,0:0|0:0,0:0:0:0:
267,321,183508,1,0,3:0:0:0:
245,13,183679,5,2,0:2:0:0:
218,184,183849,1,14,0:0:0:0:
179,57,184020,1,2,0:2:0:0:
371,143,184190,6,0,P|378:92|397:29,1,100,2|8,3:2|0:0,0:0:0:0:
390,45,184446,1,8,0:0:0:0:
390,45,184531,1,10,0:0:0:0:
504,259,184702,5,8,0:0:0:0:
504,259,184787,1,8,0:0:0:0:
504,259,184872,2,0,P|430:243|356:318,1,150,6|0,3:2|0:0,0:0:0:0:
371,281,185213,2,0,P|318:270|253:266,1,100,12|0,0:0|0:0,0:0:0:0:
88,359,185554,6,0,P|140:348|229:341,1,100,0|0,3:0|0:0,0:0:0:0:
292,146,185895,1,8,0:0:0:0:
72,102,186065,6,0,P|110:136|114:200,1,100,2|0,0:2|3:0,0:0:0:0:
308,298,186406,1,2,0:2:0:0:
317,272,186577,1,8,0:0:0:0:
227,55,186747,5,2,0:2:0:0:
449,141,186918,2,0,P|374:152|302:171,1,150,2|0,3:2|0:0,0:0:0:0:
302,171,187258,2,0,P|357:180|420:196,1,100,8|0,0:0|0:0,0:0:0:0:
149,213,187599,5,0,3:0:0:0:
61,97,187770,1,2,0:2:0:0:
149,213,187940,2,0,P|159:164|175:116,1,100,12|0,0:0|0:0,0:0:0:0:
15,289,188281,6,0,B|112:300|71:332|157:344,1,150,2|0,3:2|0:0,0:0:0:0:
151,343,188622,1,12,0:0:0:0:
241,299,188793,1,2,0:2:0:0:
361,384,188963,1,2,3:2:0:0:
388,82,189133,5,8,0:0:0:0:
388,82,189219,1,8,0:0:0:0:
388,82,189304,2,0,L|396:32,1,50,2|0,3:2|3:0,0:0:0:0:
278,107,189474,5,8,0:0:0:0:
278,107,189560,1,8,0:0:0:0:
278,107,189645,2,0,L|286:57,1,50,2|0,3:2|3:0,0:0:0:0:
465,194,189815,5,0,3:0:0:0:
465,194,189900,1,0,3:0:0:0:
465,194,189986,1,0,3:2:0:0:
465,194,190071,1,0,3:0:0:0:
465,194,190156,1,0,3:0:0:0:
465,194,190241,1,0,3:0:0:0:
465,194,190327,5,6,3:2:0:0:
402,296,190497,1,2,0:2:0:0:
300,233,190668,1,10,0:2:0:0:
363,131,190838,1,2,0:2:0:0:
383,215,191008,6,0,P|273:228|179:247,1,200,0|10,3:1|0:0,0:0:0:0:
12,292,191520,1,0,0:2:0:0:
127,142,191690,5,2,3:2:0:0:
100,69,191861,1,2,0:2:0:0:
165,24,192031,2,0,P|225:63|219:157,1,150,8|0,0:1|0:0,0:0:0:0:
231,136,192372,2,0,P|240:191|252:239,1,100,2|2,3:2|0:0,0:0:0:0:
117,247,192713,2,0,P|126:302|138:350,1,100,10|0,0:0|0:0,0:0:0:0:
406,364,193054,6,0,P|394:315|386:266,1,100,0|0,3:0|0:0,0:0:0:0:
488,71,193395,2,0,B|404:87|443:118|348:136,1,150,10|0,0:0|0:0,0:0:0:0:
355,135,193736,1,0,3:0:0:0:
225,80,193906,1,0,0:0:0:0:
201,257,194077,2,0,P|247:240|296:229,1,100,10|0,0:0|0:0,0:0:0:0:
143,159,194418,6,0,P|83:148|26:243,1,150,4|0,3:1|0:0,0:0:0:0:
25,207,194758,1,8,0:0:0:0:
242,94,194929,1,0,0:0:0:0:
242,94,195099,2,0,P|251:40|226:-10,1,100,2|0,3:2|0:0,0:0:0:0:
267,198,195440,1,8,0:0:0:0:
323,191,195525,1,8,0:0:0:0:
376,213,195611,1,8,0:0:0:0:
421,249,195696,1,8,0:0:0:0:
477,248,195781,6,0,L|496:144,1,100,4|0,3:2|0:0,0:0:0:0:
369,26,196122,1,10,0:2:0:0:
385,98,196293,1,2,0:2:0:0:
306,290,196463,5,2,3:2:0:0:
202,343,196633,1,2,0:2:0:0:
306,290,196804,1,0,3:0:0:0:
147,228,196974,2,0,P|125:190|135:122,1,100,10|0,0:0|3:0,0:0:0:0:
274,21,197315,5,2,0:2:0:0:
224,79,197486,1,10,0:2:0:0:
281,131,197656,1,2,0:2:0:0:
469,221,197827,5,2,3:2:0:0:
397,245,197997,1,2,0:2:0:0:
435,93,198168,5,2,3:2:0:0:
508,70,198338,1,10,0:0:0:0:
269,277,198508,6,0,B|194:255|194:255|170:210|170:210|91:188,1,209.999993591309,4|0,3:1|0:0,0:0:0:0:
92,188,198849,1,10,0:2:0:0:
214,383,199020,1,2,0:2:0:0:
380,301,199190,2,0,B|424:105|290:235|337:7,1,279.999991455078,4|8,3:1|0:0,0:0:0:0:
220,67,199702,1,0,0:0:0:0:
500,217,199872,5,6,3:2:0:0:
284,241,200043,1,8,0:0:0:0:
246,262,200128,1,8,0:0:0:0:
204,260,200213,1,8,0:2:0:0:
166,238,200298,1,8,0:0:0:0:
130,215,200383,1,8,0:0:0:0:
88,214,200469,1,8,0:0:0:0:
49,232,200554,2,0,P|57:269|61:308,1,69.9999978637696,10|8,0:0|0:0,0:0:0:0:
115,72,200724,5,8,0:0:0:0:
153,94,200810,1,8,0:0:0:0:
195,81,200895,2,0,P|187:44|183:5,1,69.9999978637696,8|0,0:0|3:0,0:0:0:0:
412,58,201065,5,0,3:0:0:0:
401,113,201150,1,0,3:0:0:0:
391,168,201236,2,0,P|396:233|394:281,1,100,6|0,3:2|0:0,0:0:0:0:
282,349,201577,2,0,P|282:299|277:249,1,100,10|0,0:0|0:0,0:0:0:0:
125,199,201918,1,2,3:2:0:0:
238,83,202088,1,0,0:0:0:0:
248,118,202173,1,2,0:0:0:0:
238,83,202258,1,8,0:0:0:0:
105,45,202429,6,0,P|47:38|1:81,1,100,4|0,0:1|3:0,0:0:0:0:
15,62,202685,1,0,3:0:0:0:
15,62,202770,1,2,0:0:0:0:
120,221,202940,2,0,P|176:212|242:208,1,100,8|0,0:0|0:0,0:0:0:0:
329,304,203281,1,2,3:2:0:0:
407,154,203452,1,8,0:0:0:0:
369,159,203537,1,10,0:0:0:0:
407,154,203622,1,8,0:0:0:0:
479,213,203793,1,2,0:0:0:0:
507,50,203963,6,0,P|430:12|357:48,1,150,2|0,3:2|0:0,0:0:0:0:
373,31,204304,2,0,P|323:23|262:19,1,100,10|0,0:2|0:0,0:0:0:0:
117,108,204645,2,0,P|166:111|216:119,1,100,2|0,3:2|0:0,0:0:0:0:
433,261,204986,1,10,0:0:0:0:
391,166,205156,1,4,0:1:0:0:
391,166,205327,6,0,P|304:224|336:332,1,200,0|0,3:0|3:0,0:0:0:0:
496,180,205838,1,12,0:0:0:0:
293,36,206008,5,2,3:2:0:0:
219,110,206179,1,8,0:0:0:0:
132,70,206349,1,8,0:0:0:0:
132,70,206435,1,8,0:0:0:0:
132,70,206520,1,8,0:0:0:0:
333,190,206690,6,0,P|330:237|331:289,1,100,6|0,3:2|0:0,0:0:0:0:
215,349,207031,2,0,P|213:299|216:249,1,100,10|0,0:0|0:0,0:0:0:0:
38,76,207372,2,0,P|129:119|133:187,1,150,2|2,3:2|0:0,0:0:0:0:
138,159,207713,1,8,0:0:0:0:
313,39,207883,6,0,P|262:48|209:56,1,100,2|0,0:0|3:0,0:0:0:0:
429,250,208224,2,0,P|378:259|325:267,1,100,2|0,0:0|3:0,0:0:0:0:
466,115,208565,1,2,0:0:0:0:
466,115,208736,2,0,P|415:124|362:132,1,100,4|0,3:1|0:0,0:0:0:0:
256,164,209077,1,8,0:0:0:0:
256,164,209247,1,0,0:0:0:0:
58,47,209418,5,6,3:2:0:0:
139,107,209588,1,8,0:2:0:0:
145,139,209673,1,8,0:2:0:0:
144,172,209758,1,10,0:2:0:0:
130,202,209843,1,8,0:2:0:0:
113,231,209928,1,8,0:2:0:0:
106,263,210014,1,8,0:2:0:0:
108,297,210099,1,10,0:2:0:0:
195,353,210270,5,8,0:0:0:0:
195,353,210355,1,2,3:2:0:0:
275,295,210525,5,8,0:0:0:0:
275,295,210611,1,6,3:2:0:0:
256,192,210696,12,0,213508,0:0:0:0:
