osu file format v14

[General]
AudioFilename: audio.mp3
AudioLeadIn: 0
PreviewTime: 50682
Countdown: 0
SampleSet: Soft
StackLeniency: 0.7
Mode: 0
LetterboxInBreaks: 0
WidescreenStoryboard: 1

[Editor]
Bookmarks: 6236,17486,39304,51576,73039,95210,118392,140210,160664,179755,190664,201573
DistanceSpacing: 0.2
BeatDivisor: 4
GridSize: 8
TimelineZoom: 1.7

[Metadata]
Title:Teiketsu Bolt
TitleUnicode:低血ボルト
Artist:Zutto Mayonaka de Ii no ni.
ArtistUnicode:ずっと真夜中でいいのに。
Creator:Akito
Version:Collab Insane
Source:
Tags:maid Nightlys ImpurePug KineticDog Fixxis Black Man Deca Decaedeus FuJu Keqing Iljaaz coco cococolaco loli catgirl loli_catgirl zutomayo ztmy fastening acane acaね japanese pop 朗らかな皮膚とて不服 hogaraka na hifu tote fufuku
BeatmapID:2722977
BeatmapSetID:1220456

[Difficulty]
HPDrainRate:6
CircleSize:4
OverallDifficulty:8
ApproachRate:9
SliderMultiplier:2
SliderTickRate:1

[Events]
//Background and Video events
0,0,"fuck i love zutomayo.png",0,0
//Break Periods
2,174169,178818
//Storyboard Layer 0 (Background)
//Storyboard Layer 1 (Fail)
//Storyboard Layer 2 (Pass)
//Storyboard Layer 3 (Foreground)
//Storyboard Layer 4 (Overlay)
//Storyboard Sound Samples

[TimingPoints]
782,340.909090909091,4,2,2,40,1,0
782,-166.666666666667,4,2,2,40,0,0
1293,-333.333333333334,4,2,2,40,0,0
4702,-166.666666666667,4,2,2,40,0,0
5895,-166.666666666667,4,2,2,55,0,0
6236,-111.111111111111,4,2,2,70,0,0
17145,-111.111111111111,4,2,2,45,0,0
18508,-400,4,2,2,45,0,0
19361,-166.666666666667,4,2,2,45,0,0
22100,340.909090909091,4,2,2,45,1,0
22100,-166.666666666667,4,2,2,45,0,0
26520,-166.666666666667,4,2,2,55,0,0
27714,327.868852459016,4,2,2,55,1,0
28054,338.983050847458,4,2,2,60,1,0
28054,-125,4,2,2,60,0,0
30087,346.820809248555,4,2,2,60,1,0
30087,-125,4,2,2,60,0,0
31474,342.857142857143,4,2,2,60,1,0
31474,-125,4,2,2,60,0,0
32845,337.078651685393,4,2,2,60,1,0
32845,-125,4,2,2,60,0,0
33519,340.909090909091,4,2,2,60,1,0
33519,-125,4,2,2,60,0,0
36928,333.333333333333,4,2,2,60,1,0
36928,-125,4,2,2,60,0,0
37428,342.857142857143,4,2,2,60,1,0
37428,-125,4,2,2,60,0,0
38799,329.67032967033,4,2,2,60,1,0
38963,340.909090909091,4,2,2,65,1,0
38963,-111.111111111111,4,2,2,65,0,0
48338,-100,4,2,2,65,0,0
50213,-250,4,2,2,70,0,0
51236,-83.3333333333333,4,2,2,80,0,0
51917,-100,4,2,2,80,0,0
52599,-83.3333333333333,4,2,2,80,0,0
53963,-111.111111111111,4,2,2,80,0,0
54304,-100,4,2,2,80,0,0
55327,-100,4,2,2,80,0,0
61122,-83.3333333333333,4,2,2,80,0,0
62826,-100,4,2,2,80,0,0
67088,-83.3333333333333,4,2,2,80,0,0
68792,-100,4,2,2,80,0,0
70327,-83.3333333333333,4,2,2,80,0,0
71839,476.190476190476,4,2,2,65,1,0
72077,545.454545454546,4,2,2,65,1,0
72349,394.736842105263,4,2,2,65,1,0
72526,389.61038961039,4,2,2,65,1,0
72623,307.692307692308,4,2,2,65,1,0
72699,375,4,2,2,65,1,0
73062,340.909090909091,4,2,2,65,1,0
73062,-111.111111111111,4,2,2,65,0,0
82266,-111.111111111111,4,2,2,50,0,0
83961,-125,4,2,2,50,0,0
93516,-125,4,2,2,60,0,0
94880,-125,4,2,2,65,0,0
95221,-111.111111111111,4,2,2,65,0,0
96755,-125,4,2,2,65,0,0
98800,-111.111111111111,4,2,2,65,0,0
100675,-125,4,2,2,65,0,0
103062,-125,4,2,2,65,0,0
105789,-100,4,2,2,65,0,0
106300,-125,4,2,2,65,0,0
109198,-111.111111111111,4,2,2,65,0,0
113971,-100,4,2,2,65,0,0
114482,-125,4,2,2,65,0,0
114993,-100,4,2,2,65,0,0
115505,-111.111111111111,4,2,2,65,0,0
116357,-111.111111111111,4,2,2,70,0,0
117550,-400,4,2,2,70,0,0
118052,-83.3333333333333,4,2,2,80,0,0
118733,-100,4,2,2,80,0,0
134084,-83.3333333333333,4,2,2,80,0,0
134425,-100,4,2,2,80,0,0
140221,375,4,2,2,60,1,0
140686,500,4,2,2,60,1,0
140936,526.315789473684,4,2,2,60,1,0
141067,517.241379310345,4,2,2,60,1,0
141227,500,4,2,2,60,1,0
141737,500,4,2,2,60,1,0
142098,500,4,2,2,60,1,0
142264,500,4,2,2,60,1,0
142389,416.666666666667,4,2,2,60,1,0
142596,500,4,2,2,60,1,0
143470,340.909090909091,4,2,2,65,1,0
143981,340.909090909091,4,2,2,65,1,0
145344,-100,4,2,2,75,0,0
151992,-185.185185185185,4,2,2,75,0,0
154529,405.405405405406,4,2,3,30,1,0
154934,340.909090909091,4,2,3,30,1,0
160359,340.909090909091,4,2,3,50,1,0
161040,-142.857142857143,4,2,3,50,0,0
163794,361.44578313253,4,2,3,50,1,0
164154,340.909090909091,4,2,3,50,1,0
164424,312.5,4,2,3,50,1,0
164424,-133.333333333333,4,2,3,50,0,0
164788,301.507537688442,4,2,3,50,1,0
165099,384.615384615385,4,2,3,50,1,0
165382,309.278350515464,4,2,3,50,1,0
165614,324.324324324324,4,2,3,50,1,0
165776,348.837209302326,4,2,3,50,1,0
166124,-142.857142857143,4,2,3,50,0,0
166517,340.909090909091,4,2,3,50,1,0
166892,320.855614973262,4,2,3,50,1,0
167179,346.820809248555,4,2,3,50,1,0
167523,291.26213592233,4,2,3,50,1,0
167814,394.736842105264,4,2,3,50,1,0
167814,-142.857142857143,4,2,3,50,0,0
168208,285.714285714286,4,2,3,50,1,0
168493,408.163265306123,4,2,3,50,1,0
168901,304.568527918782,4,2,3,50,1,0
169205,370.370370370371,4,2,3,50,1,0
169575,320.855614973262,4,2,3,50,1,0
169895,389.61038961039,4,2,3,50,1,0
169895,-142.857142857143,4,2,3,50,0,0
170603,368.098159509203,4,2,3,50,1,0
170603,-142.857142857143,4,2,3,50,0,0
171260,416.666666666667,4,2,3,50,1,0
171260,-142.857142857143,4,2,3,50,0,0
171919,333.333333333333,4,2,3,50,1,0
171919,-142.857142857143,4,2,3,50,0,0
172252,270.27027027027,4,2,3,50,1,0
172388,340.909090909091,4,2,3,50,1,0
172558,340.909090909091,4,2,3,55,1,0
173154,340.909090909091,4,2,3,55,1,0
173969,419.58041958042,4,2,3,50,1,0
175656,618.556701030928,4,2,3,25,1,0
177202,681.818181818182,4,2,3,25,1,0
177542,714.285714285714,4,2,3,25,1,0
177900,923.076923076923,4,2,3,25,1,0
178612,322.58064516129,4,2,2,70,1,0
179418,340.909090909092,4,2,2,85,1,0
179418,-100,4,2,2,85,0,0
190327,-90.9090909090909,4,2,2,85,0,0
201228,-90.9090909090909,4,2,2,75,0,0
201236,-111.111111111111,4,2,2,75,0,0
213168,-111.111111111111,4,2,2,5,0,0

[Colours]
Combo1 : 176,244,219
Combo2 : 253,123,123
Combo3 : 205,205,205

[HitObjects]
78,30,782,6,0,P|38:49|48:122,1,119.999996337891,2|0,0:0|0:0,0:0:0:0:
50,195,1293,2,0,P|80:191|104:163,1,59.9999981689454,2|0,0:0|0:0,0:0:0:0:
184,178,1804,1,0,0:0:0:0:
184,178,1975,1,2,0:0:0:0:
499,140,2316,5,0,0:0:0:0:
449,133,2487,1,0,0:0:0:0:
397,154,2657,1,2,0:0:0:0:
364,265,2997,5,0,0:0:0:0:
389,226,3168,1,0,0:0:0:0:
385,177,3338,1,2,0:0:0:0:
305,74,3679,5,0,0:0:0:0:
326,125,3850,1,0,0:0:0:0:
370,156,4020,1,2,0:0:0:0:
232,211,4361,5,0,0:0:0:0:
188,235,4531,1,0,0:0:0:0:
167,276,4702,2,0,P|177:313|186:352,1,59.9999981689454,2|0,0:0|0:0,0:0:0:0:
20,269,5043,5,2,0:0:0:0:
67,255,5213,1,2,0:0:0:0:
88,207,5384,1,2,0:0:0:0:
73,153,5554,1,2,0:0:0:0:
26,136,5725,1,2,3:2:0:0:
220,253,5895,6,0,L|209:359,1,89.9999972534181,8|0,0:0|0:0,0:0:0:0:
207,367,6236,6,0,B|196:176,1,179.999994506836,6|0,3:2|3:0,0:0:0:0:
99,142,6747,2,0,P|83:188|101:229,1,89.9999972534181,2|0,0:2|3:0,0:0:0:0:
307,244,7088,1,2,0:2:0:0:
219,279,7259,1,8,0:2:0:0:
371,307,7429,2,0,P|391:268|381:200,1,89.9999972534181,2|0,0:0|3:0,0:0:0:0:
185,181,7770,5,2,0:0:0:0:
276,149,7941,1,8,0:0:0:0:
125,113,8111,2,0,P|103:154|106:207,1,89.9999972534181,2|0,0:0|3:0,0:0:0:0:
240,298,8452,1,2,0:2:0:0:
316,232,8622,1,8,0:2:0:0:
248,136,8793,1,2,0:0:0:0:
178,211,8963,1,0,3:0:0:0:
401,306,9134,5,2,0:2:0:0:
414,227,9304,1,8,0:2:0:0:
421,150,9475,2,0,B|407:57,1,89.9999972534181,2|0,0:0|3:0,0:0:0:0:
125,29,9816,5,2,0:2:0:0:
106,107,9986,1,8,0:2:0:0:
95,183,10157,2,0,L|111:281,1,89.9999972534181,2|0,0:2|3:0,0:0:0:0:
321,342,10497,5,2,0:0:0:0:
184,254,10668,1,4,3:2:0:0:
330,177,10838,1,2,0:2:0:0:
155,97,11009,5,2,3:2:0:0:
299,5,11179,1,0,3:0:0:0:
331,18,11264,1,0,3:0:0:0:
359,32,11350,1,8,3:2:0:0:
387,43,11435,1,0,3:0:0:0:
423,60,11520,1,0,3:0:0:0:
450,72,11605,1,0,3:0:0:0:
468,58,11691,6,0,B|410:35|410:35|354:74|272:42,1,179.999994506836,6|0,3:2|3:0,0:0:0:0:
474,160,12202,2,0,L|454:264,1,89.9999972534181,2|0,0:2|3:0,0:0:0:0:
340,249,12543,5,2,0:2:0:0:
194,195,12713,1,8,0:0:0:0:
297,167,12884,1,2,0:2:0:0:
235,276,13054,1,0,3:0:0:0:
297,167,13225,5,2,0:2:0:0:
139,272,13395,1,8,0:0:0:0:
309,340,13566,2,0,P|355:354|410:368,1,89.9999972534181,2|0,0:2|3:0,0:0:0:0:
189,198,13907,5,2,0:2:0:0:
326,260,14077,1,8,0:0:0:0:
189,198,14247,2,0,P|180:148|171:104,1,89.9999972534181,2|0,0:2|3:0,0:0:0:0:
350,20,14588,5,2,0:2:0:0:
369,97,14759,1,8,0:0:0:0:
388,172,14929,2,0,L|298:197,1,89.9999972534181,2|8,0:2|0:0,0:0:0:0:
71,358,15270,5,0,3:0:0:0:
86,278,15441,1,8,0:0:0:0:
100,201,15611,1,4,3:2:0:0:
432,299,15952,5,8,3:2:0:0:
407,290,16037,1,8,3:2:0:0:
386,298,16122,1,8,3:2:0:0:
364,287,16208,1,0,3:0:0:0:
343,297,16293,1,0,3:0:0:0:
322,285,16378,1,0,3:0:0:0:
305,296,16463,1,8,3:2:0:0:
288,286,16549,1,0,3:0:0:0:
275,300,16634,6,0,L|224:313,1,44.999998626709,0|0,3:0|3:0,0:0:0:0:
161,249,16804,2,0,L|168:198,1,44.999998626709,0|0,3:0|3:0,0:0:0:0:
270,169,16975,2,0,L|265:227,1,44.999998626709,0|0,3:0|3:0,0:0:0:0:
191,109,17145,5,4,3:2:0:0:
308,221,18508,6,0,P|363:207|424:195,1,112.5,2|0,0:0|0:0,0:0:0:0:
426,199,19361,2,0,B|437:170|437:170|418:124,1,59.9999981689454,0|0,3:0|0:0,0:0:0:0:
391,75,19701,1,0,0:0:0:0:
342,134,19872,5,2,3:2:0:0:
396,62,20042,1,0,3:0:0:0:
125,30,22100,2,0,P|107:60|72:54,1,59.9999981689454,0|0,3:0|0:0,0:0:0:0:
84,61,22611,5,2,3:2:0:0:
84,61,22781,2,0,P|128:60|195:119,1,119.999996337891,0|0,3:0|0:0,0:0:0:0:
207,173,23293,1,0,0:0:0:0:
36,283,23804,5,0,0:0:0:0:
27,276,23975,2,0,L|5:198,1,59.9999981689454,2|0,0:0|0:0,0:0:0:0:
127,300,24315,1,0,0:0:0:0:
122,311,24486,2,0,L|138:368,1,59.9999981689454
214,275,24827,2,0,P|251:269|316:328,1,119.999996337891
240,347,25338,5,2,3:2:0:0:
343,218,25509,1,0,3:0:0:0:
343,218,26531,2,0,B|407:232|407:232|441:226|440:195,3,119.999996337891,0|0|0|0,3:0|3:0|3:0|3:0,0:0:0:0:
413,70,27714,1,8,0:0:0:0:
427,44,27795,1,8,0:0:0:0:
453,29,27877,1,8,0:0:0:0:
482,29,27959,1,8,0:0:0:0:
482,29,28054,6,0,L|314:6,1,160,6|8,3:2|0:0,0:0:0:0:
217,118,28562,1,2,0:0:0:0:
283,164,28731,2,0,B|303:128|303:128|287:68,1,80,2|0,0:0|3:0,0:0:0:0:
151,64,29070,2,0,L|52:80,1,80,8|0,0:0|3:0,0:0:0:0:
55,197,29409,5,2,0:0:0:0:
55,274,29579,1,0,0:0:0:0:
26,236,29748,1,8,0:0:0:0:
139,191,29918,2,0,P|190:217|208:253,1,80,2|0,0:0|0:0,0:0:0:0:
135,369,30260,1,0,3:2:0:0:
132,286,30433,1,10,0:0:0:0:
201,234,30607,1,0,0:0:0:0:
287,242,30780,6,0,B|325:256|325:256|368:234,1,80,2|0,3:2|0:0,0:0:0:0:
227,95,31127,2,0,L|131:117,1,80,10|0,0:0|0:0,0:0:0:0:
303,160,31474,2,0,P|304:97|332:-2,2,160,2|8|0,0:0|0:0|0:0,0:0:0:0:
303,160,32331,1,0,3:0:0:0:
403,125,32502,2,0,B|425:145|425:145|457:80|539:87,1,160,8|0,0:0|0:0,0:0:0:0:
486,15,33013,1,0,3:0:0:0:
416,46,33182,2,0,L|403:125,1,80,8|0,0:0|0:0,0:0:0:0:
358,354,33519,6,0,B|390:369|390:369|430:310|380:253,1,160,2|8,3:2|0:0,0:0:0:0:
309,239,34030,1,0,0:0:0:0:
387,263,34200,2,0,P|417:250|423:197,1,80,2|0,0:0|3:0,0:0:0:0:
263,306,34541,2,0,L|177:327,1,80,8|0,0:0|3:0,0:0:0:0:
24,366,34882,6,0,P|29:327|63:309,1,80,2|0,0:0|0:0,0:0:0:0:
71,312,35138,1,0,0:0:0:0:
77,316,35223,1,10,0:0:0:0:
104,160,35394,2,0,L|83:68,1,80
169,244,35734,2,0,L|190:336,1,80,0|10,3:2|0:0,0:0:0:0:
111,168,36075,1,0,0:0:0:0:
12,258,36246,6,0,B|-29:266|-29:266|20:228,1,80,2|0,3:2|0:0,0:0:0:0:
206,176,36587,2,0,P|196:215|168:246,1,80,10|0,0:0|0:0,0:0:0:0:
169,85,36928,2,0,B|171:65|171:65|219:14|301:32,1,160,2|10,0:0|0:0,0:0:0:0:
512,220,37428,6,0,P|462:254|359:252,1,160,6|2,3:2|3:2,0:0:0:0:
310,204,37942,1,8,0:0:0:0:
479,31,38113,1,6,3:2:0:0:
479,31,38199,1,0,3:0:0:0:
479,31,38285,1,8,3:2:0:0:
479,70,38370,1,8,0:0:0:0:
456,102,38456,1,10,0:0:0:0:
419,116,38542,1,8,0:0:0:0:
381,106,38628,2,0,L|349:61,1,40,8|8,0:0|0:0,0:0:0:0:
162,120,38799,5,8,0:0:0:0:
126,107,38881,1,8,0:0:0:0:
88,117,38963,2,0,B|62:151|62:151|78:197,1,89.9999972534181,6|0,3:2|0:0,0:0:0:0:
101,321,39304,5,10,0:0:0:0:
35,369,39474,2,0,P|20:344|24:283,1,89.9999972534181,0|0,1:0|0:0,0:0:0:0:
186,313,39815,5,0,3:0:0:0:
89,236,39986,2,0,P|117:207|170:197,1,89.9999972534181,0|8,1:0|0:0,0:0:0:0:
263,350,40326,5,0,0:0:0:0:
237,161,40497,2,0,P|276:173|311:213,1,89.9999972534181,0|10,3:2|0:0,0:0:0:0:
502,323,40838,1,2,0:0:0:0:
426,303,41008,1,2,0:0:0:0:
358,291,41179,1,2,3:2:0:0:
358,291,41264,1,2,0:0:0:0:
358,291,41349,6,0,L|261:303,1,89.9999972534181,10|2,0:0|0:0,0:0:0:0:
75,205,41691,6,0,P|82:258|195:258,1,179.999994506836,6|8,3:2|0:0,0:0:0:0:
99,120,42201,2,0,P|61:116|13:144,1,89.9999972534181,0|0,1:0|0:0,0:0:0:0:
75,205,42542,1,2,3:2:0:0:
173,78,42713,6,0,P|136:42|67:33,1,89.9999972534181,0|8,1:0|0:0,0:0:0:0:
160,235,43054,1,0,0:0:0:0:
257,112,43224,6,0,P|300:94|355:79,1,89.9999972534181,0|10,3:2|0:0,0:0:0:0:
271,24,43565,1,0,0:0:0:0:
501,183,43736,5,0,3:0:0:0:
494,182,43821,1,0,3:0:0:0:
488,180,43906,1,8,0:0:0:0:
479,179,43992,1,8,0:0:0:0:
473,177,44076,2,0,L|420:166,1,44.999998626709,10|0,0:0|3:0,0:0:0:0:
362,206,44247,2,0,L|309:217,1,44.999998626709,0|0,1:0|3:0,0:0:0:0:
227,163,44417,2,0,P|203:200|154:212,1,89.9999972534181,6|0,3:2|0:0,0:0:0:0:
38,50,44758,5,8,0:0:0:0:
111,62,44929,2,0,P|146:83|154:133,1,89.9999972534181,0|0,1:0|0:0,0:0:0:0:
89,326,45270,5,0,3:0:0:0:
7,222,45440,2,0,P|40:193|89:179,1,89.9999972534181,0|8,1:0|0:0,0:0:0:0:
170,211,45781,1,0,0:0:0:0:
411,163,45951,5,0,3:2:0:0:
342,205,46122,2,0,L|222:227,1,89.9999972534181,10|2,0:0|0:0,0:0:0:0:
181,57,46463,2,0,L|302:39,1,89.9999972534181,2|8,3:2|3:2,0:0:0:0:
288,37,46718,1,8,3:2:0:0:
302,33,46804,1,10,3:2:0:0:
319,29,46889,1,0,3:0:0:0:
334,26,46974,1,2,3:0:0:0:
348,23,47059,1,0,3:0:0:0:
380,51,47145,6,0,P|355:94|364:155,1,89.9999972534181,6|2,3:2|3:2,0:0:0:0:
398,290,47486,5,8,0:0:0:0:
454,202,47656,1,2,3:2:0:0:
288,275,47826,1,8,0:0:0:0:
240,139,47997,1,2,3:2:0:0:
240,139,48083,1,2,0:0:0:0:
240,139,48167,1,8,0:0:0:0:
198,323,48338,1,6,3:2:0:0:
198,323,48679,5,0,3:0:0:0:
0,292,48849,1,8,0:0:0:0:
143,83,49190,5,0,3:0:0:0:
379,168,49446,1,0,3:0:0:0:
260,374,49701,1,0,3:0:0:0:
260,374,49872,1,6,0:3:0:0:
253,10,50213,6,0,L|245:71,1,60,4|0,0:0|0:0,0:0:0:0:
208,144,50554,5,8,0:0:0:0:
211,154,50639,1,8,0:0:0:0:
213,164,50724,2,0,L|221:196,1,20,10|8,0:2|0:0,0:0:0:0:
281,235,50895,5,10,0:2:0:0:
278,245,50980,1,8,0:0:0:0:
276,255,51065,2,0,L|268:287,1,20,10|8,0:2|0:0,0:0:0:0:
234,350,51236,5,6,3:2:0:0:
30,228,51406,1,0,0:0:0:0:
99,354,51576,5,10,0:2:0:0:
132,289,51747,1,0,0:0:0:0:
165,224,51917,2,0,P|153:175|141:126,1,100,0|0,3:2|0:0,0:0:0:0:
351,2,52258,2,0,P|362:50|374:99,1,100,10|0,0:0|0:0,0:1:0:0:
84,49,52599,2,0,B|179:28|179:28|242:90,1,179.999994506836,4|0,3:1|0:0,0:1:0:0:
237,86,52940,1,8,0:0:0:0:
429,175,53111,5,0,0:0:0:0:
460,98,53281,1,2,3:2:0:0:
347,138,53452,1,2,0:2:0:0:
399,254,53622,1,10,0:0:0:0:
512,214,53793,1,2,0:2:0:0:
297,207,53963,6,0,B|233:227|249:309|249:309,1,89.9999972534181,2|0,3:2|0:0,0:1:0:0:
314,356,54218,1,2,0:0:0:0:
314,356,54304,2,0,B|235:247|119:300|119:300,1,200,12|0,0:1|3:0,0:1:0:0:
72,212,54815,1,0,0:0:0:0:
114,301,54986,2,0,P|147:315|190:257,1,100,8|0,0:0|0:0,0:1:0:0:
203,31,55326,5,0,3:0:0:0:
129,102,55497,1,2,0:0:0:0:
320,120,55668,5,10,0:0:0:0:
255,202,55838,1,2,0:2:0:0:
219,89,56009,2,0,P|191:45|145:16,1,100,2|0,3:2|0:0,0:0:0:0:
323,136,56349,2,0,P|344:91|413:53,1,100,10|0,0:0|0:0,0:0:0:0:
174,289,56690,6,0,P|112:272|138:188,1,150,4|0,3:1|0:0,0:0:0:0:
41,165,57031,2,0,P|26:203|-31:203,1,100,10|0,0:0|0:0,0:0:0:0:
290,367,57372,5,2,3:2:0:0:
396,287,57542,1,0,0:0:0:0:
512,348,57713,1,8,0:0:0:0:
482,85,57883,6,0,P|468:160|394:125,1,150,2|0,0:2|0:0,0:0:0:0:
329,47,58224,2,0,P|309:87|351:102,1,100,2|8,0:2|0:0,0:0:0:0:
425,10,58565,1,2,0:2:0:0:
339,189,58736,2,0,L|292:292,1,100,2|0,3:2|0:0,0:0:0:0:
55,103,59076,2,0,L|96:12,1,100,10|0,0:0|0:0,0:0:0:0:
201,154,59417,5,0,3:0:0:0:
201,154,59588,1,0,0:0:0:0:
91,318,59758,2,0,B|65:347|13:347|-11:317|-11:317|21:295,1,150,14|0,0:0|0:0,0:0:0:0:
104,308,60099,1,2,3:2:0:0:
186,358,60270,1,0,0:0:0:0:
292,168,60440,1,14,0:0:0:0:
308,261,60611,5,2,0:2:0:0:
224,100,60781,1,0,3:0:0:0:
386,180,60951,1,12,0:0:0:0:
208,211,61122,1,6,3:2:0:0:
334,81,61292,1,0,0:0:0:0:
308,261,61463,5,10,0:0:0:0:
304,290,61548,1,8,0:0:0:0:
314,318,61633,1,8,0:0:0:0:
334,340,61718,1,8,0:0:0:0:
362,350,61803,1,10,0:0:0:0:
392,348,61889,1,8,0:0:0:0:
418,333,61974,1,8,0:0:0:0:
435,309,62059,1,8,0:0:0:0:
435,279,62145,5,14,0:0:0:0:
344,142,62315,1,2,0:2:0:0:
308,261,62486,5,10,0:2:0:0:
478,182,62656,1,0,0:0:0:0:
278,46,62826,2,0,P|234:63|205:126,1,100,4|0,3:1|0:0,0:0:0:0:
382,1,63167,5,10,0:2:0:0:
344,142,63338,1,2,0:2:0:0:
443,97,63508,5,2,3:2:0:0:
278,46,63679,1,2,0:2:0:0:
266,213,63849,2,0,P|344:190|400:195,1,100,12|0,0:1|0:0,0:0:0:0:
210,132,64190,5,2,3:2:0:0:
262,298,64361,1,2,0:2:0:0:
91,251,64531,2,0,B|17:257|26:336|26:336,1,100,12|0,0:1|0:0,0:0:0:0:
193,221,64872,6,0,B|243:145|168:69|98:118,2,200,0|10|2,3:0|0:0|3:2,0:0:0:0:
26,315,65724,1,0,0:0:0:0:
136,369,65895,2,0,B|153:322|153:322|118:252,1,100,14|0,0:0|0:0,0:0:0:0:
15,130,66236,5,2,3:2:0:0:
67,197,66406,1,8,0:0:0:0:
191,29,66576,1,8,0:0:0:0:
105,115,66747,5,2,0:0:0:0:
89,100,66832,1,2,0:0:0:0:
85,77,66917,2,0,P|87:47|123:16,1,50,2|0,3:2|0:0,0:0:0:0:
221,133,67088,5,8,0:0:0:0:
251,168,67173,1,8,0:0:0:0:
256,204,67259,2,0,P|254:229|229:258,1,59.9999981689454,8|8,0:0|0:0,0:0:0:0:
104,209,67429,6,0,B|152:199|204:194,1,59.9999981689454,8|8,0:2|0:2,0:0:0:0:
334,131,67600,6,0,B|362:110|362:110|445:96|468:186,1,179.999994506836,4|0,3:2|0:0,0:0:0:0:
467,184,67940,5,2,3:2:0:0:
400,73,68111,1,0,0:2:0:0:
408,239,68281,5,2,3:2:0:0:
470,108,68451,1,2,0:0:0:0:
324,82,68622,5,8,0:0:0:0:
376,315,68792,2,0,P|434:318|477:283,1,100,2|0,0:2|3:0,0:0:0:0:
270,210,69133,5,2,0:2:0:0:
208,255,69304,1,8,0:0:0:0:
157,197,69474,1,2,0:2:0:0:
58,57,69645,6,0,P|75:110|80:177,1,100,2|0,3:2|0:0,0:0:0:0:
29,375,69986,2,0,P|12:322|7:255,1,100,10|0,0:0|0:0,0:0:0:0:
165,187,70327,6,0,P|225:218|217:299,1,119.999996337891,6|0,3:2|0:0,0:0:0:0:
345,372,70667,1,8,0:0:0:0:
357,207,70838,1,2,0:2:0:0:
403,308,71008,5,10,0:2:0:0:
275,223,71179,1,8,0:0:0:0:
456,159,71349,1,8,0:0:0:0:
328,74,71520,1,0,3:0:0:0:
315,67,71839,5,8,0:0:0:0:
338,72,72077,1,4,0:3:0:0:
307,54,72349,1,8,0:3:0:0:
279,125,72526,1,8,0:0:0:0:
285,151,72623,1,8,0:0:0:0:
304,165,72699,1,8,0:0:0:0:
385,198,72886,1,8,0:3:0:0:
456,139,73062,6,0,B|401:245|497:220|426:339,1,179.999994506836,6|0,3:2|3:0,0:0:0:0:
306,370,73573,2,0,P|318:326|324:282,1,89.9999972534181,2|0,0:2|3:0,0:0:0:0:
117,232,73914,5,2,0:2:0:0:
90,147,74084,1,8,0:2:0:0:
216,199,74255,2,0,P|207:243|203:302,1,89.9999972534181,2|0,0:0|3:0,0:0:0:0:
315,110,74596,5,2,0:0:0:0:
250,39,74766,1,8,0:0:0:0:
396,50,74937,2,0,P|411:81|407:147,1,89.9999972534181,2|0,0:0|3:0,0:0:0:0:
308,331,75277,5,2,0:2:0:0:
388,286,75448,1,8,0:2:0:0:
226,272,75618,2,0,P|211:303|215:369,1,89.9999972534181,2|0,0:0|3:0,0:0:0:0:
148,181,75959,5,2,0:2:0:0:
79,245,76130,1,8,0:2:0:0:
15,179,76300,1,2,0:0:0:0:
15,179,76471,1,0,3:0:0:0:
155,50,76641,5,2,0:2:0:0:
229,66,76812,1,8,0:2:0:0:
304,84,76982,2,0,P|307:132|300:190,1,89.9999972534181,2|0,0:2|3:0,0:0:0:0:
492,331,77323,5,2,0:0:0:0:
362,279,77493,1,4,3:2:0:0:
473,190,77664,1,2,0:2:0:0:
442,266,77834,1,2,3:2:0:0:
303,362,78005,5,0,3:0:0:0:
303,362,78090,1,0,3:0:0:0:
303,362,78175,2,0,P|281:364|251:373,1,44.999998626709,8|0,3:2|3:0,0:0:0:0:
156,251,78346,1,0,3:0:0:0:
176,253,78431,1,0,3:0:0:0:
202,258,78516,5,6,3:2:0:0:
127,345,78687,1,0,3:0:0:0:
282,185,78857,1,8,0:0:0:0:
126,74,79027,2,0,B|98:180|164:136|132:258,1,179.999994506836,2|2,3:2|0:2,0:0:0:0:
126,74,79539,1,8,0:0:0:0:
237,131,79709,2,0,B|278:148|278:148|323:136,1,89.9999972534181,6|0,3:2|0:0,0:0:0:0:
506,180,80050,5,2,0:2:0:0:
396,71,80221,1,8,0:0:0:0:
356,231,80391,2,0,P|372:275|383:343,1,89.9999972534181,2|0,0:2|3:0,0:0:0:0:
416,162,80732,5,2,0:2:0:0:
321,137,80902,1,8,0:0:0:0:
150,261,81073,5,2,0:2:0:0:
232,229,81243,1,4,3:2:0:0:
264,311,81414,1,10,0:0:0:0:
182,343,81584,1,8,0:0:0:0:
232,229,81755,5,2,3:2:0:0:
226,207,81840,1,0,3:0:0:0:
222,185,81925,1,0,3:0:0:0:
220,162,82010,1,0,3:0:0:0:
220,140,82095,1,0,3:0:0:0:
221,117,82181,1,0,3:0:0:0:
225,95,82266,1,12,0:0:0:0:
478,43,82437,6,0,P|502:80|512:124,1,89.9999972534181,0|0,0:0|3:0,0:0:0:0:
363,189,82777,2,0,P|339:152|329:108,1,89.9999972534181,10|0,0:0|3:0,0:0:0:0:
423,117,83118,1,10,0:0:0:0:
423,117,83289,1,0,3:0:0:0:
471,266,83459,5,2,3:2:0:0:
471,266,83544,1,0,3:0:0:0:
471,266,83630,1,2,3:2:0:0:
392,275,83800,1,8,0:0:0:0:
317,289,83971,1,6,3:2:0:0:
383,103,84482,5,0,3:0:0:0:
302,13,84652,2,0,P|282:104|294:179,1,160,8|0,0:0|3:0,0:0:0:0:
179,91,85164,6,0,B|79:102|129:142|21:156,1,160,0|0,3:0|0:0,0:0:0:0:
216,185,85675,2,0,P|253:164|273:122,1,80,2|0,3:2|0:0,0:0:0:0:
218,279,86016,2,0,P|260:279|299:253,1,80,10|2,0:0|0:0,0:0:0:0:
160,357,86357,2,0,P|196:378|243:375,1,80,2|2,3:2|0:0,0:0:0:0:
117,225,86698,6,0,P|60:227|14:320,1,160,2|0,3:2|0:0,0:0:0:0:
121,116,87209,1,0,3:0:0:0:
121,116,87380,2,0,P|160:121|199:131,1,80,10|2,0:0|0:0,0:0:0:0:
276,157,87721,1,0,3:0:0:0:
416,28,87891,6,0,P|393:67|402:123,1,80,0|0,0:0|3:0,0:0:0:0:
472,159,88232,1,10,0:0:0:0:
352,243,88402,2,0,P|312:248|274:260,1,80,0|2,0:0|3:2,0:0:0:0:
443,297,88743,5,8,0:0:0:0:
276,157,88999,1,8,0:0:0:0:
144,333,89255,1,0,3:0:0:0:
201,256,89425,6,0,B|184:186|184:186|162:171|162:171|147:93,1,160,2|2,0:2|0:0,0:0:0:0:
80,210,89937,1,0,3:0:0:0:
80,210,90107,1,12,0:0:0:0:
220,10,90448,5,0,0:0:0:0:
268,75,90618,2,0,P|335:65|404:43,1,120,0|0,3:0|0:0,0:0:0:0:
385,50,90959,2,0,B|361:84|361:84|373:142,1,80,0|2,0:0|3:2,0:0:0:0:
469,102,91300,1,0,0:0:0:0:
285,247,91471,2,0,B|292:209|292:209|268:175,2,80,8|2|2,0:0|0:0|0:0,0:0:0:0:
358,309,91982,1,2,0:0:0:0:
159,367,92152,5,2,0:0:0:0:
179,275,92323,1,10,0:0:0:0:
322,39,92664,5,2,3:2:0:0:
342,131,92835,1,8,0:0:0:0:
92,107,93175,5,0,3:0:0:0:
72,15,93346,1,2,3:2:0:0:
211,91,93516,6,0,L|192:207,2,80,2|0|8,3:2|3:0|0:0,0:0:0:0:
364,238,94027,2,0,L|351:316,1,80,0|8,3:0|0:0,0:0:0:0:
351,316,94283,1,8,0:0:0:0:
351,316,94368,2,0,L|369:367,1,40,2|0,3:2|3:0,0:0:0:0:
234,290,94539,5,2,3:2:0:0:
197,274,94624,1,0,3:0:0:0:
160,259,94709,1,10,0:0:0:0:
129,283,94794,1,8,0:0:0:0:
98,309,94879,1,6,3:2:0:0:
171,368,95050,1,0,0:0:0:0:
246,185,95221,6,0,B|249:143|288:121|288:121|252:24,1,179.999994506836,10|2,0:0|3:2,0:0:0:0:
176,15,95732,1,2,0:0:0:0:
176,15,95817,1,2,0:0:0:0:
176,15,95902,1,10,0:0:0:0:
121,68,96073,1,0,0:0:0:0:
233,268,96243,5,2,3:2:0:0:
153,313,96414,1,0,0:0:0:0:
96,246,96584,1,10,0:0:0:0:
169,203,96755,2,0,P|208:188|275:189,1,80,0|0,3:0|3:0,0:0:0:0:
363,348,97096,2,0,B|379:313|379:313|360:263,1,80,2|8,0:0|0:0,0:0:0:0:
474,71,97437,5,2,0:0:0:0:
474,71,97522,1,2,0:0:0:0:
474,71,97607,2,0,P|479:118|439:163,1,80,2|0,3:2|0:0,0:0:0:0:
372,132,97948,2,0,P|367:85|407:40,1,80,10|0,0:0|0:0,0:0:0:0:
364,274,98289,5,2,3:2:0:0:
283,281,98459,1,2,0:0:0:0:
215,234,98630,1,10,0:0:0:0:
174,33,98800,2,0,P|179:65|202:126,1,89.9999972534181,2|0,0:0|0:0,0:0:0:0:
16,64,99141,2,0,P|49:34|78:0,1,89.9999972534181,2|8,0:0|0:0,0:0:0:0:
122,184,99482,2,0,P|90:172|26:162,1,89.9999972534181,2|0,3:2|0:0,0:0:0:0:
215,234,99823,5,0,3:0:0:0:
106,89,99993,1,10,0:0:0:0:
25,256,100164,1,2,0:0:0:0:
172,110,100334,6,0,P|141:68|88:105,1,89.9999972534181,2|0,3:2|0:0,0:0:0:0:
10,243,100675,2,0,P|83:252|167:190,1,160,10|2,0:0|3:2,0:0:0:0:
248,249,101187,1,2,0:0:0:0:
248,249,101272,1,2,0:0:0:0:
248,249,101357,1,8,0:0:0:0:
288,96,101527,2,0,B|325:33|401:60|401:60|378:89,1,160,2|0,0:0|0:0,0:0:0:0:
351,160,102039,1,8,0:0:0:0:
427,306,102209,2,0,P|405:255|376:216,1,80,0|0,3:0|0:0,0:0:0:0:
507,254,102550,5,2,3:2:0:0:
345,340,102721,1,10,0:0:0:0:
284,292,102891,1,2,0:0:0:0:
48,352,103062,6,0,P|56:312|66:274,1,80,2|0,3:2|0:0,0:0:0:0:
108,172,103402,1,8,0:0:0:0:
91,167,103573,1,0,3:2:0:0:
94,184,103743,1,0,3:0:0:0:
97,175,103914,1,0,0:0:0:0:
196,28,104084,6,0,P|204:67|214:105,1,80,10|0,0:0|0:0,0:0:0:0:
256,208,104424,1,0,3:0:0:0:
239,213,104595,1,0,0:0:0:0:
242,196,104765,1,0,1:0:0:0:
245,205,104936,1,0,3:0:0:0:
349,311,105107,6,0,P|357:271|367:233,1,80,0|0,0:0|3:2,0:0:0:0:
416,111,105448,1,8,0:0:0:0:
489,254,105618,1,2,0:0:0:0:
311,141,105789,6,0,B|283:112|283:112|231:90|160:118|152:178,1,200,4|8,3:2|0:0,0:0:0:0:
35,299,106300,1,0,3:0:0:0:
35,299,106385,1,0,3:0:0:0:
35,299,106471,2,0,B|71:314|71:314|135:290,1,80,2|2,3:2|0:0,0:0:0:0:
72,148,106812,5,10,0:0:0:0:
34,212,106982,1,2,0:0:0:0:
200,369,107152,2,0,L|235:275,1,80,2|0,3:2|0:0,0:0:0:0:
57,130,107493,2,0,L|29:204,1,80,10|0,0:0|3:0,0:0:0:0:
227,294,107834,2,0,B|323:301|267:247|397:254,1,160,0|10,0:0|0:0,0:0:0:0:
448,304,108346,1,0,3:0:0:0:
484,133,108516,5,2,3:2:0:0:
417,170,108687,1,0,0:0:0:0:
354,123,108857,2,0,B|342:83|342:83|362:33,1,80,10|0,0:2|0:0,0:0:0:0:
443,320,109198,2,0,B|405:379|319:368|298:306,1,179.999994506836,2|8,3:2|0:0,0:0:0:0:
390,188,109709,6,0,P|378:237|372:285,1,89.9999972534181,2|0,0:0|0:0,0:0:0:0:
183,97,110050,2,0,P|176:52|165:8,1,89.9999972534181,2|8,0:0|0:0,0:0:0:0:
20,228,110391,5,0,3:2:0:0:
154,306,110562,1,2,0:0:0:0:
20,228,110732,1,2,3:2:0:0:
98,89,110902,2,0,P|158:83|197:112,1,89.9999972534181,8|2,0:0|0:0,0:0:0:0:
256,298,111243,6,0,B|284:340|331:326|331:326|346:271|399:262,1,179.999994506836,0|10,3:0|0:0,0:0:0:0:
479,112,111755,1,0,3:0:0:0:
479,112,111840,1,0,3:0:0:0:
479,112,111925,2,0,P|464:157|451:216,1,89.9999972534181,2|0,3:2|0:0,0:0:0:0:
483,285,112266,1,8,0:0:0:0:
366,167,112437,6,0,P|274:148|182:127,1,179.999994506836,2|2,0:0|0:0,0:0:0:0:
366,167,112948,1,8,0:0:0:0:
454,198,113118,2,0,P|464:154|478:111,1,89.9999972534181,2|0,3:2|0:0,0:0:0:0:
359,62,113459,1,0,3:0:0:0:
295,301,113630,2,0,P|286:256|268:211,1,89.9999972534181,8|2,0:0|0:0,0:0:0:0:
1,336,113971,6,0,B|32:303|32:303|93:377|187:331,1,200,4|8,3:2|0:0,0:0:0:0:
343,296,114482,1,0,0:0:0:0:
209,259,114652,2,0,P|249:255|287:243,1,80,0|0,3:0|0:0,0:0:0:0:
500,28,114993,6,0,P|392:24|303:89,1,200,10|2,0:0|3:2,0:0:0:0:
279,156,115505,1,0,0:0:0:0:
436,288,115675,2,0,P|445:239|476:186,1,89.9999972534181,8|2,0:0|3:2,0:0:0:0:
463,204,116016,1,0,0:0:0:0:
352,233,116187,1,0,3:0:0:0:
186,59,116357,1,8,0:0:0:0:
154,52,116442,1,8,0:0:0:0:
121,44,116527,1,8,0:0:0:0:
121,44,116869,5,8,0:2:0:0:
131,77,116954,1,8,0:2:0:0:
141,109,117039,1,8,0:2:0:0:
151,141,117124,1,8,0:2:0:0:
161,173,117209,1,8,0:2:0:0:
62,359,117550,6,0,P|46:353|63:358,1,50,10|2,0:2|0:0,0:0:0:0:
204,339,118062,5,6,3:2:0:0:
373,226,118232,1,0,0:0:0:0:
330,375,118402,1,10,3:2:0:0:
287,288,118573,1,0,0:0:0:0:
241,206,118743,2,0,P|248:166|258:100,1,100,2|0,3:2|0:0,0:0:0:0:
164,69,119084,2,0,P|154:120|142:175,1,100,10|0,0:0|0:0,0:0:0:0:
0,287,119425,2,0,P|42:259|201:278,1,200,4|8,3:1|0:0,0:0:0:0:
185,267,119851,1,2,0:0:0:0:
185,267,119937,1,2,0:0:0:0:
201,362,120107,5,2,3:2:0:0:
298,275,120277,1,2,0:2:0:0:
363,341,120448,5,8,0:0:0:0:
396,241,120618,1,2,0:2:0:0:
478,296,120789,5,2,3:2:0:0:
453,99,120959,1,2,0:0:0:0:
453,99,121044,1,2,0:0:0:0:
453,99,121130,2,0,P|466:177|495:315,2,200,14|2|10,0:1|3:0|0:0,0:0:0:0:
506,19,121982,1,0,0:0:0:0:
380,56,122152,2,0,P|372:114|359:159,1,100,0|0,3:0|0:0,0:0:0:0:
287,215,122493,1,8,0:0:0:0:
287,215,122664,1,2,0:2:0:0:
110,146,122834,6,0,P|151:143|229:139,1,100,2|0,3:2|0:0,0:0:0:0:
336,328,123175,2,0,P|295:325|229:320,1,100,10|0,0:0|0:0,0:0:0:0:
76,364,123516,6,0,B|46:292|122:288|77:215,1,150,6|0,3:2|0:0,0:0:0:0:
80,221,123857,2,0,P|33:215|-21:209,1,100,10|0,0:0|0:0,0:0:0:0:
246,153,124198,1,2,3:2:0:0:
165,103,124368,1,0,0:0:0:0:
163,192,124539,1,8,0:0:0:0:
352,237,124709,6,0,P|363:190|381:135,1,100,2|0,0:2|3:0,0:0:0:0:
285,2,125050,2,0,P|297:47|312:106,1,100,2|8,0:2|0:0,0:0:0:0:
266,272,125391,1,2,0:2:0:0:
465,217,125562,2,0,P|364:202|258:184,1,200,2|10,3:2|0:0,0:0:0:0:
161,238,126073,5,2,0:0:0:0:
161,238,126158,1,2,0:0:0:0:
161,238,126243,2,0,P|151:188|138:124,1,100,0|0,3:0|0:0,0:0:0:0:
197,12,126584,2,0,P|205:57|221:117,1,100,14|0,0:0|0:0,0:0:0:0:
312,261,126925,1,2,3:2:0:0:
397,171,127096,1,0,0:0:0:0:
312,261,127266,1,14,0:0:0:0:
307,62,127437,5,2,0:2:0:0:
286,174,127607,1,0,3:0:0:0:
307,62,127777,1,8,0:0:0:0:
213,118,127948,6,0,P|167:129|91:140,1,100,6|0,3:2|0:0,0:0:0:0:
42,232,128289,5,10,0:0:0:0:
80,224,128374,1,8,0:0:0:0:
115,242,128459,1,8,0:0:0:0:
130,279,128544,1,8,0:0:0:0:
131,311,128630,1,10,0:0:0:0:
150,345,128715,1,8,0:0:0:0:
186,359,128800,1,8,0:0:0:0:
223,346,128885,1,8,0:0:0:0:
243,319,128971,5,14,0:0:0:0:
273,226,129141,1,2,0:2:0:0:
396,278,129312,1,10,0:2:0:0:
307,135,129482,1,0,0:0:0:0:
438,102,129652,2,0,P|382:79|328:50,1,100,4|0,3:1|0:0,0:0:0:0:
71,37,129993,5,10,0:2:0:0:
101,130,130163,1,0,0:0:0:0:
210,78,130334,1,2,3:2:0:0:
115,232,130504,1,0,0:0:0:0:
265,267,130675,2,0,P|209:290|158:321,1,100,12|0,0:1|0:0,0:0:0:0:
418,219,131016,5,2,3:2:0:0:
272,136,131187,1,2,0:2:0:0:
418,219,131357,2,0,P|466:236|522:269,1,100,12|0,0:1|0:0,0:0:0:0:
287,348,131698,2,0,P|309:265|357:153,2,200,0|10|2,3:0|0:0|3:2,0:0:0:0:
167,235,132550,1,0,0:0:0:0:
167,235,132635,1,2,0:0:0:0:
167,235,132721,2,0,P|156:183|139:130,1,100,10|0,0:0|0:0,0:0:0:0:
262,34,133062,5,10,0:0:0:0:
453,71,133232,1,8,0:0:0:0:
252,146,133402,5,8,0:0:0:0:
252,146,133488,1,8,0:0:0:0:
402,7,133658,1,8,0:0:0:0:
402,7,133743,1,2,3:2:0:0:
178,80,133914,5,8,0:0:0:0:
178,80,133999,1,8,0:0:0:0:
178,80,134084,2,0,P|149:89|107:102,1,59.9999981689454,8|8,3:2|0:0,0:0:0:0:
29,205,134255,2,0,P|68:195|106:192,1,59.9999981689454,8|8,0:0|0:0,0:0:0:0:
194,288,134425,6,0,P|207:236|222:170,1,100,4|0,3:2|0:0,0:0:0:0:
314,37,134766,1,10,0:2:0:0:
364,143,134937,1,2,0:2:0:0:
269,119,135107,5,2,3:2:0:0:
412,56,135277,1,2,0:0:0:0:
269,119,135448,1,10,0:0:0:0:
412,56,135618,2,0,P|456:103|431:218,1,150,2|0,0:2|0:0,0:0:0:0:
429,224,135959,1,2,0:2:0:0:
337,269,136130,1,10,0:0:0:0:
429,224,136300,1,2,0:2:0:0:
329,372,136471,5,2,3:2:0:0:
247,209,136641,1,0,0:0:0:0:
182,301,136812,5,10,0:0:0:0:
244,112,136982,1,0,0:0:0:0:
65,204,137152,6,0,P|139:184|187:176,1,100,6|0,3:2|0:0,0:0:0:0:
166,101,137408,2,0,P|163:77|159:38,1,50,8|0,0:0|0:0,0:0:0:0:
247,209,137664,1,0,0:2:0:0:
453,142,137834,2,0,P|397:128|248:83,1,200,4|0,3:1|3:0,0:0:0:0:
390,247,138346,1,12,0:2:0:0:
462,26,138516,5,0,3:0:0:0:
367,105,138687,1,14,0:0:0:0:
485,168,138857,1,4,3:2:0:0:
390,247,139028,1,8,0:0:0:0:
259,123,139198,5,8,0:0:0:0:
259,123,139283,1,0,3:0:0:0:
259,123,139368,2,0,P|299:116|334:108,1,50,0|0,3:0|0:0,0:0:0:0:
301,322,139539,5,8,0:0:0:0:
301,322,139624,1,0,3:0:0:0:
301,322,139709,2,0,P|341:329|376:337,1,50,0|0,3:0|0:0,0:0:0:0:
414,233,139880,5,2,3:2:0:0:
414,233,140221,5,2,0:0:0:0:
420,180,140314,1,2,0:0:0:0:
387,134,140408,1,10,0:0:0:0:
343,122,140502,6,0,L|293:137,1,50,8|0,0:0|0:0,0:0:0:0:
218,204,140686,5,2,0:0:0:0:
163,195,140811,1,2,0:0:0:0:
137,146,140936,1,2,0:0:0:0:
149,99,141067,2,0,L|208:87,1,50,0|0,3:0|0:0,0:0:0:0:
250,36,141352,1,2,0:0:0:0:
260,39,141477,1,2,0:0:0:0:
102,298,141737,5,10,0:0:0:0:
91,243,141862,1,2,0:0:0:0:
125,200,141987,1,2,0:0:0:0:
170,189,142098,6,0,L|226:207,1,33.3333333333333,6|2,0:2|0:0,0:0:0:0:
253,255,142264,6,0,L|319:242,1,50,2|10,0:0|0:0,0:0:0:0:
360,195,142493,1,2,0:0:0:0:
370,202,142596,6,0,P|416:214|474:226,1,100,2|0,0:2|0:0,0:0:0:0:
503,198,142971,2,0,P|497:230|493:270,1,50,0|2,0:0|3:2,0:0:0:0:
477,273,143179,6,0,P|476:255|469:231,1,33.3333333333333,2|0,3:2|0:0,0:0:0:0:
322,77,143470,6,0,L|212:98,1,100,0|0,3:0|0:0,0:0:0:0:
54,132,143810,1,0,3:0:0:0:
45,134,144151,5,8,0:2:0:0:
128,82,144321,1,0,3:0:0:0:
192,164,144492,5,0,3:0:0:0:
200,170,144577,1,0,3:0:0:0:
209,170,144662,1,0,3:0:0:0:
128,82,144833,6,0,L|106:251,1,150,4|0,3:2|0:0,0:0:0:0:
127,257,145174,2,0,P|104:250|78:247,1,50,8|0,0:0|3:0,0:0:0:0:
197,354,145344,6,0,P|265:367|299:285,1,150,4|0,3:2|0:0,0:0:0:0:
363,257,145685,2,0,P|370:184|391:100,1,150,8|0,0:0|0:0,0:0:0:0:
344,51,146026,1,0,3:0:0:0:
466,131,146196,5,2,0:0:0:0:
406,183,146367,1,8,0:0:0:0:
333,164,146537,1,2,0:0:0:0:
228,72,146708,6,0,P|183:48|132:48,1,100,2|0,3:2|0:0,0:0:0:0:
31,179,147049,1,10,0:0:0:0:
45,174,147134,1,2,0:0:0:0:
54,164,147219,1,2,0:0:0:0:
196,243,147390,6,0,L|212:350,1,100,2|2,3:2|0:0,0:0:0:0:
137,187,147731,6,0,B|195:206|195:206|206:217|206:217|295:248,1,150,12|0,0:0|0:0,0:0:0:0:
292,247,148071,5,6,3:2:0:0:
210,341,148242,1,0,0:0:0:0:
241,173,148412,5,8,0:0:0:0:
377,286,148583,1,2,0:0:0:0:
241,173,148753,2,0,B|248:140|248:140|262:127|262:127|276:59,1,100,0|2,3:0|0:0,0:0:0:0:
466,296,149094,6,0,B|458:245|458:245|433:222|433:222|418:146,1,150,10|0,0:0|0:0,0:0:0:0:
418,137,149435,5,2,3:2:0:0:
275,241,149606,1,10,0:0:0:0:
381,290,149776,1,2,3:2:0:0:
271,80,149946,5,10,0:0:0:0:
381,290,150117,1,0,3:0:0:0:
382,279,150202,1,0,3:0:0:0:
386,266,150287,1,0,3:0:0:0:
391,252,150373,1,0,3:0:0:0:
400,231,150458,5,12,0:0:0:0:
465,334,150628,1,0,3:0:0:0:
275,241,150799,6,0,L|156:270,1,100,8|0,0:0|3:0,0:0:0:0:
396,50,151140,2,0,L|501:82,1,100,8|0,0:0|3:0,0:0:0:0:
334,180,151481,5,8,0:0:0:0:
216,65,151651,1,8,0:0:0:0:
171,46,151736,1,8,0:0:0:0:
121,55,151821,1,8,0:0:0:0:
95,97,151907,1,8,0:0:0:0:
92,145,151992,6,0,B|136:142|159:179|159:179|171:72|70:46|70:46|-17:90|-9:198|55:246,1,486.000011865235,12|0,0:0|0:0,0:0:0:0:
399,232,154934,5,2,0:0:0:0:
333,169,156297,5,2,0:0:0:0:
264,229,157661,5,2,0:0:0:0:
198,171,158343,5,2,0:0:0:0:
198,171,158684,1,2,0:0:0:0:
129,227,159024,5,2,0:0:0:0:
409,210,159706,5,2,0:3:0:0:
316,289,160359,5,2,3:2:0:0:
316,289,160699,1,2,0:0:0:0:
316,289,161040,2,0,P|233:283|151:293,1,139.999995727539,10|0,0:0|0:0,0:0:0:0:
44,169,161552,1,0,3:0:0:0:
44,169,161637,1,0,3:0:0:0:
44,169,161722,2,0,L|201:158,1,139.999995727539,2|0,3:2|0:0,0:0:0:0:
274,39,162404,1,8,0:0:0:0:
452,155,163086,6,0,P|376:179|367:259,1,139.999995727539,0|0,3:0|0:0,0:0:0:0:
404,291,163794,1,10,0:0:0:0:
366,360,164154,1,0,3:0:0:0:
366,360,164239,1,0,3:0:0:0:
366,360,164324,1,0,3:0:0:0:
366,360,164424,6,0,L|268:368,1,75.0000028610231,0|0,3:0|0:0,0:0:0:0:
123,304,164788,5,2,0:0:0:0:
153,236,165099,5,10,0:0:0:0:
111,175,165382,5,10,0:0:0:0:
151,112,165613,5,10,0:0:0:0:
151,112,165776,1,4,3:2:0:0:
288,37,166124,6,0,P|286:83|293:132,1,69.9999978637696,2|0,0:0|0:0,0:0:0:0:
297,182,166517,1,8,0:0:0:0:
440,81,166892,5,2,0:0:0:0:
500,132,167052,5,0,3:0:0:0:
500,132,167179,1,0,3:0:0:0:
414,310,167814,6,0,P|342:309|258:315,1,139.999995727539,10|0,0:0|0:0,0:0:0:0:
202,327,168493,1,0,3:0:0:0:
315,217,168901,5,2,0:0:0:0:
316,142,169205,5,10,0:0:0:0:
197,33,169575,5,0,3:0:0:0:
197,33,169655,1,0,3:0:0:0:
197,33,169735,1,0,3:0:0:0:
109,99,169895,6,0,P|117:170|117:247,1,139.999995727539,0|0,3:0|0:0,0:0:0:0:
278,354,170603,6,0,P|270:283|270:206,1,139.999995727539,10|0,0:0|0:0,0:0:0:0:
439,80,171260,6,0,P|431:149|430:219,1,139.999995727539,2|0,3:2|0:0,0:0:0:0:
291,118,171919,6,0,P|213:146|197:215,1,139.999995727539,10|0,0:0|0:0,0:0:0:0:
195,194,172388,1,0,3:0:0:0:
195,194,172558,1,8,0:0:0:0:
361,297,173154,5,0,3:0:0:0:
361,297,173324,1,0,3:0:0:0:
242,384,173969,5,4,0:0:0:0:
485,62,179418,5,6,3:2:0:0:
389,18,179588,1,0,0:0:0:0:
346,113,179758,1,8,0:0:0:0:
441,157,179929,1,2,0:2:0:0:
329,108,180099,6,0,P|281:124|232:131,1,100,2|0,3:2|0:0,0:0:0:0:
126,319,180440,2,0,P|173:302|222:295,1,100,10|0,0:0|0:0,0:0:0:0:
390,250,180781,2,0,P|447:293|436:363,1,150,4|0,3:1|0:0,0:0:0:0:
436,363,181122,1,8,0:0:0:0:
292,211,181293,5,2,0:2:0:0:
315,124,181463,1,2,3:2:0:0:
338,37,181633,1,2,0:2:0:0:
232,131,181804,5,8,0:2:0:0:
376,260,181974,1,2,0:2:0:0:
232,382,182145,6,0,P|206:340|218:293,1,100,2|0,3:2|0:0,0:0:0:0:
173,210,182400,1,2,0:0:0:0:
170,203,182486,2,0,B|133:155|65:172|65:172|38:217|-5:202,1,200,12|0,0:1|3:0,0:0:0:0:
232,131,182997,1,0,0:0:0:0:
291,331,183168,2,0,P|332:304|382:300,1,100,8|0,0:0|0:0,0:0:0:0:
232,131,183508,5,0,3:0:0:0:
318,229,183679,1,2,0:2:0:0:
232,382,183849,5,14,0:0:0:0:
146,284,184020,1,2,0:2:0:0:
354,146,184190,6,0,P|395:172|445:176,1,100,2|8,3:2|0:0,0:0:0:0:
489,114,184446,1,8,0:0:0:0:
494,105,184531,2,0,L|482:56,1,50,10|0,0:0|0:0,0:0:0:0:
366,0,184702,2,0,L|377:48,1,50,8|8,0:0|0:0,0:0:0:0:
286,208,184872,6,0,P|226:164|152:166,1,150,6|0,3:2|0:0,0:0:0:0:
63,127,185213,2,0,P|39:84|55:38,1,100,12|0,0:0|0:0,0:0:0:0:
198,254,185554,2,0,P|162:287|113:292,1,100,0|0,3:0|0:0,0:0:0:0:
153,165,185895,1,8,0:0:0:0:
300,296,186065,6,0,P|323:338|307:384,1,100,2|0,0:2|3:0,0:0:0:0:
378,213,186406,2,0,P|338:151|357:81,1,150,2|0,0:2|0:0,0:0:0:0:
357,81,186747,1,2,0:2:0:0:
292,0,186918,1,2,3:2:0:0:
463,99,187088,1,0,0:0:0:0:
291,197,187258,2,0,P|228:157|155:162,1,150,8|0,0:0|0:0,0:0:0:0:
155,162,187599,5,0,3:0:0:0:
195,311,187770,1,2,0:2:0:0:
86,369,187940,2,0,B|101:320|101:320|80:276,1,100,12|0,0:0|0:0,0:0:0:0:
201,320,188281,2,0,P|250:323|296:342,1,100,2|0,3:2|0:0,0:0:0:0:
386,207,188622,1,12,0:0:0:0:
283,233,188793,1,2,0:2:0:0:
396,356,188963,5,2,3:2:0:0:
389,349,189048,2,0,L|375:300,1,50,8|0,0:0|0:0,0:0:0:0:
283,233,189219,5,8,0:0:0:0:
277,226,189304,2,0,L|290:177,1,50,2|0,3:2|0:0,0:0:0:0:
354,127,189474,5,8,0:0:0:0:
349,122,189560,1,8,0:0:0:0:
344,117,189645,1,2,3:2:0:0:
214,281,189815,5,0,3:0:0:0:
219,286,189901,1,0,3:0:0:0:
224,291,189986,2,0,L|174:298,1,50,0|0,3:2|3:0,0:0:0:0:
65,366,190156,2,0,L|114:358,1,50,0|0,3:0|3:0,0:0:0:0:
281,367,190327,5,6,3:2:0:0:
200,170,190497,1,2,0:2:0:0:
108,225,190668,2,0,P|49:215|-2:209,1,110.000003356934,10|2,0:2|0:2,0:0:0:0:
241,22,191008,2,0,B|140:39|205:76|53:99,1,165.000005035401,4|0,3:1|0:0,0:0:0:0:
74,83,191349,5,10,0:0:0:0:
151,30,191520,1,0,0:2:0:0:
200,170,191690,1,2,3:2:0:0:
59,74,191861,1,2,0:2:0:0:
200,170,192031,2,0,L|331:150,1,110.000003356934,12|0,0:1|0:0,0:0:0:0:
389,107,192372,5,2,3:2:0:0:
387,337,192543,1,2,0:0:0:0:
477,282,192713,2,0,P|392:237|249:260,2,220.000006713867,10|0|10,0:0|3:0|0:0,0:0:0:0:
166,358,193736,5,0,3:0:0:0:
183,264,193906,1,0,0:0:0:0:
17,93,194077,2,0,P|5:152|30:202,1,110.000003356934,10|0,0:0|0:0,0:0:0:0:
90,261,194418,5,4,3:1:0:0:
109,66,194588,2,0,L|221:35,1,110.000003356934,0|8,0:0|0:0,0:0:0:0:
270,212,194929,2,0,B|286:262|286:262|260:322,1,110.000003356934,0|2,0:0|3:2,0:0:0:0:
179,162,195270,1,0,0:0:0:0:
308,120,195440,1,8,0:0:0:0:
297,118,195525,1,8,0:0:0:0:
286,116,195611,1,8,0:0:0:0:
275,114,195696,1,8,0:0:0:0:
264,112,195781,5,4,3:2:0:0:
386,74,195952,1,0,0:0:0:0:
442,242,196122,1,10,0:2:0:0:
442,242,196293,1,2,0:2:0:0:
485,161,196463,2,0,B|430:149|430:149|379:171,1,110.000003356934,2|2,3:2|0:2,0:0:0:0:
338,262,196804,1,0,3:0:0:0:
467,366,196974,6,0,L|220:328,1,220.000006713867,10|2,0:0|0:2,0:0:0:0:
50,209,197486,2,0,P|59:264|67:321,1,110.000003356934,10|2,0:2|0:2,0:0:0:0:
143,145,197827,1,2,3:2:0:0:
162,362,197997,1,2,0:2:0:0:
231,211,198168,2,0,P|238:156|247:102,1,110.000003356934,2|10,3:2|0:0,0:0:0:0:
357,71,198508,5,4,3:1:0:0:
357,71,198594,1,8,0:0:0:0:
416,135,198764,1,0,3:0:0:0:
416,135,198849,1,10,0:2:0:0:
353,191,199020,1,2,0:2:0:0:
178,46,199190,2,0,P|50:59|0:136,1,220.000006713867,4|8,3:1|0:0,0:0:0:0:
9,135,199702,1,0,0:0:0:0:
9,135,199872,6,0,P|13:167|15:197,1,55.0000016784668,6|0,3:2|0:0,0:0:0:0:
103,276,200043,1,8,0:0:0:0:
103,276,200128,1,8,0:0:0:0:
103,276,200213,2,0,P|105:248|108:221,1,55.0000016784668,8|0,0:2|0:0,0:0:0:0:
172,167,200383,1,8,0:0:0:0:
182,164,200469,1,8,0:0:0:0:
192,162,200554,1,10,0:0:0:0:
277,213,200724,1,8,0:0:0:0:
391,171,200895,1,8,0:0:0:0:
381,168,200981,1,0,3:0:0:0:
371,166,201066,1,0,3:0:0:0:
361,163,201150,1,0,3:0:0:0:
351,161,201236,6,0,P|340:69|333:2,1,134.999995880127,6|0,3:2|0:0,0:0:0:0:
337,2,201577,2,0,P|329:49|321:107,1,89.9999972534181,10|0,0:0|0:0,0:0:0:0:
469,267,201918,2,0,P|475:222|482:178,1,89.9999972534181,2|0,3:2|0:0,0:0:0:0:
482,178,202173,1,2,0:0:0:0:
482,178,202258,1,8,0:0:0:0:
322,318,202429,6,0,B|290:297|290:297|212:291|234:334|153:328,1,179.999994506836,4|2,0:1|0:0,0:0:0:0:
71,181,202940,1,8,0:0:0:0:
187,215,203111,1,0,0:0:0:0:
276,131,203281,2,0,B|295:91|295:91|274:36,1,89.9999972534181,2|8,3:2|0:0,0:0:0:0:
220,0,203537,2,0,L|131:12,1,89.9999972534181,10|0,0:0|0:0,0:0:0:0:
130,12,203793,1,2,0:0:0:0:
290,147,203963,6,0,L|307:285,1,134.999995880127,2|0,3:2|0:0,0:0:0:0:
301,312,204304,2,0,L|313:217,1,89.9999972534181,10|0,0:2|0:0,0:0:0:0:
424,8,204645,1,2,3:2:0:0:
507,73,204815,1,2,0:0:0:0:
507,73,204900,1,2,0:0:0:0:
427,133,205071,1,2,0:0:0:0:
427,133,205156,2,0,B|406:172|406:172|429:232,1,89.9999972534181,4|0,0:1|3:0,0:0:0:0:
301,312,205497,5,0,0:0:0:0:
151,233,205668,1,0,3:0:0:0:
82,267,205838,1,12,0:0:0:0:
120,136,206008,5,2,3:2:0:0:
208,344,206179,1,8,0:0:0:0:
246,96,206349,1,8,0:0:0:0:
246,96,206435,1,8,0:0:0:0:
246,96,206520,1,8,0:0:0:0:
246,96,206605,1,8,0:0:0:0:
246,96,206690,6,0,B|302:107|302:107|311:118|311:118|383:131,1,134.999995880127,6|0,3:2|0:0,0:0:0:0:
405,115,207031,2,0,L|311:142,1,89.9999972534181,10|0,0:0|0:0,0:0:0:0:
306,310,207372,2,0,L|393:285,1,89.9999972534181,2|0,3:2|0:0,0:0:0:0:
392,285,207628,1,2,0:0:0:0:
392,285,207713,1,8,0:0:0:0:
193,219,207883,5,2,0:0:0:0:
193,219,208054,1,0,3:0:0:0:
113,358,208224,2,0,P|158:364|202:374,2,89.9999972534181,2|0|2,0:0|3:0|0:0,0:0:0:0:
84,229,208736,2,0,P|51:168|73:84,1,134.999995880127,4|0,3:1|0:0,0:0:0:0:
63,109,209077,1,8,0:0:0:0:
245,32,209247,1,0,0:0:0:0:
177,174,209418,6,0,L|279:188,1,89.9999972534181,6|8,3:2|0:2,0:0:0:0:
266,186,209673,1,8,0:2:0:0:
266,186,209758,1,10,0:2:0:0:
361,131,209929,1,8,0:2:0:0:
361,131,210014,1,8,0:2:0:0:
361,131,210099,1,10,0:2:0:0:
443,214,210270,1,8,0:0:0:0:
443,214,210355,1,2,3:2:0:0:
351,278,210525,1,8,0:0:0:0:
351,278,210611,1,6,3:2:0:0:
256,192,210632,12,0,213168,0:0:0:0:
