osu file format v14

[General]
AudioFilename: audio.mp3
AudioLeadIn: 0
PreviewTime: 16611
Countdown: 0
SampleSet: Soft
StackLeniency: 0.5
Mode: 0
LetterboxInBreaks: 0
WidescreenStoryboard: 1

[Editor]
Bookmarks: 16685,46207,77592,107130,136669,151438,173592,192053,214207,228976,254839
DistanceSpacing: 1.4
BeatDivisor: 4
GridSize: 32
TimelineZoom: 1.8

[Metadata]
Title:Byoushin o Kamu
TitleUnicode:秒針を噛む
Artist:Zutto Mayonaka de Ii no ni.
ArtistUnicode:ずっと真夜中でいいのに。
Creator:Irohas
Version:schoolhas' Insane
Source:
Tags:mugiwarasekai moph schoolboy komore zutomayo 正しい偽りからの起床 tadashii itsuwari kara no kishou ACAね ぬゆり nuyuri waboku iinoni
BeatmapID:1746519
BeatmapSetID:833772

[Difficulty]
HPDrainRate:5
CircleSize:4.2
OverallDifficulty:7
ApproachRate:9
SliderMultiplier:2.3
SliderTickRate:1

[Events]
//Background and Video events
0,0,"bg.jpg",0,0
//Break Periods
2,94869,106530
2,168253,172992
2,207023,213607
//Storyboard Layer 0 (Background)
//Storyboard Layer 1 (Fail)
//Storyboard Layer 2 (Pass)
//Storyboard Layer 3 (Foreground)
Sprite,Foreground,Centre,"sb\t1.png",482,428 F,0,16207,16669,0,1 MX,1,16207,16669,442,482 S,0,16207,46207,0.3 F,30,45746,46207,1,0 MY,30,45746,46207,428,468
Sprite,Foreground,Centre,"sb\t2.png",482,428 F,29,45746,46207,0,1 MY,29,45746,46207,388,428 S,0,45746,77592,0.3 F,30,77130,77592,1,0 MY,30,77130,77592,428,468
Sprite,Foreground,Centre,"sb\t1.png",482,428 F,29,77130,77592,0,1 MY,29,77130,77592,388,428 S,0,77130,92361,0.3 F,0,91900,92361,1,0
Sprite,Foreground,Centre,"sb\t2.png",482,428 F,0,106669,107130,0,1 MX,1,106669,107130,442,482 S,0,106669,136669,0.3 F,30,136207,136669,1,0 MY,30,136207,136669,428,468
Sprite,Foreground,Centre,"sb\t1.png",482,428 F,29,136207,136669,0,1 MY,29,136207,136669,388,428 S,0,136207,151438,0.3 F,30,150976,151438,1,0 MY,30,150976,151438,428,468
Sprite,Foreground,Centre,"sb\t2.png",482,428 F,29,150976,151438,0,1 MY,29,150976,151438,388,428 S,0,150976,166207,0.3 F,0,165746,166207,1,0
Sprite,Foreground,Centre,"sb\t1.png",482,428 F,0,173130,173592,0,1 MX,1,173130,173592,442,482 S,0,173130,192053,0.3 F,30,191592,192053,1,0 MY,30,191592,192053,428,468
Sprite,Foreground,Centre,"sb\t2.png",482,428 F,29,191592,192053,0,1 MY,29,191592,192053,388,428 S,0,191592,206823,0.3 F,0,206361,206823,1,0
Sprite,Foreground,Centre,"sb\t1.png",482,428 F,0,213746,214207,0,1 MX,1,213746,214207,442,482 S,0,213746,228976,0.3 F,30,228515,228976,1,0 MY,30,228515,228976,428,468
Sprite,Foreground,Centre,"sb\t2.png",482,428 F,29,228515,228976,0,1 MY,29,228515,228976,388,428 S,0,228515,254823,0.3 F,0,254361,254823,1,0
//Storyboard Sound Samples

[TimingPoints]
1900,461.538461538462,4,2,5,40,1,0
12976,-100,4,2,5,40,0,0
16669,-83.3333333333333,4,2,5,60,0,0
23534,-83.3333333333333,4,2,5,5,0,0
23592,-83.3333333333333,4,2,5,60,0,0
23707,-83.3333333333333,4,2,5,5,0,0
23823,-83.3333333333333,4,2,5,60,0,0
29592,-125,4,2,5,60,0,0
29707,-125,4,2,5,5,0,0
29823,-125,4,2,5,60,0,0
29938,-125,4,2,5,5,0,0
30056,-111.111111111111,4,2,5,60,0,0
30169,-111.111111111111,4,2,5,5,0,0
30284,-111.111111111111,4,2,5,60,0,0
30400,-105.263157894737,4,2,5,60,0,0
31438,-133.333333333334,4,2,5,60,0,0
73900,-200,4,2,5,60,0,0
77592,-83.3333333333333,4,2,1,80,0,1
78053,-83.3333333333333,4,2,5,80,0,1
86823,-142.857142857143,4,2,5,80,0,1
87226,-142.857142857143,4,2,5,5,0,1
87284,-117.647058823529,4,2,5,80,0,1
87688,-142.857142857143,4,2,5,5,0,1
87746,-117.647058823529,4,2,5,80,0,1
88669,-83.3333333333333,4,2,5,80,0,1
90515,-100,4,2,5,60,0,0
107130,-133.333333333333,4,2,5,60,0,0
136669,-117.647058823529,4,2,5,60,0,0
149592,-181.818181818181,4,2,5,60,0,0
150169,-181.818181818181,4,2,5,5,0,0
150284,-117.647058823529,4,2,5,60,0,0
150515,-117.647058823529,4,2,5,60,0,0
151207,-117.647058823529,4,2,5,60,0,0
151438,-83.3333333333333,4,2,1,80,0,1
151900,-83.3333333333333,4,2,5,80,0,1
164361,-100,4,2,5,80,0,0
173592,-133.333333333333,4,2,5,80,0,0
184669,-133.333333333333,4,2,5,80,0,0
189284,-111.111111111111,4,2,5,80,0,0
189400,-111.111111111111,4,2,5,5,0,0
189515,-111.111111111111,4,2,5,80,0,0
189630,-111.111111111111,4,2,5,5,0,0
189746,-111.111111111111,4,2,5,80,0,0
189861,-111.111111111111,4,2,5,5,0,0
189976,-111.111111111111,4,2,5,80,0,0
190092,-111.111111111111,4,2,5,5,0,0
190207,-111.111111111111,4,2,5,80,0,0
190669,-111.111111111111,4,2,5,80,0,0
192053,-71.4285714285714,4,2,5,80,0,1
192284,-83.3333333333333,4,2,5,80,0,0
216976,-125,4,2,5,80,0,0
219746,-100,4,2,5,80,0,1
221592,-142.857142857143,4,2,5,50,0,0
222053,-83.3333333333333,4,2,1,80,0,1
222400,-83.3333333333333,4,2,5,80,0,1
230823,-142.857142857143,4,2,5,80,0,1
231746,-83.3333333333333,4,2,5,80,0,1
238207,-100,4,2,5,60,0,0
240053,-83.3333333333333,4,2,5,60,0,0
254592,-166.666666666667,4,2,5,50,0,0

[Colours]
Combo1 : 208,126,239
Combo2 : 247,122,62
Combo3 : 255,85,85
Combo4 : 245,216,126

[HitObjects]
256,192,12976,12,2,14823,0:0:0:0:
58,94,15976,5,8,0:1:0:0:
6,188,16207,2,0,L|15:153,10,19.1666666666667,2|2|2|2|2|2|2|2|2|2|2,0:3|0:3|0:3|0:3|0:3|0:3|0:3|0:0|0:0|0:0|0:0,0:0:0:0:
0,201,16669,6,0,P|49:214|122:140,1,137.999995788574,4|4,0:0|0:1,0:0:0:0:
171,258,17015,1,2,3:2:0:0:
171,258,17130,2,0,P|147:290|143:337,1,68.9999978942872,8|2,0:0|0:0,0:0:0:0:
213,159,17361,1,0,3:1:0:0:
209,166,17476,6,0,P|259:210|332:202,1,137.999995788574,0|10,3:0|0:3,0:0:0:0:
398,130,17823,2,0,P|386:95|371:47,1,68.9999978942872,8|0,3:1|0:1,0:0:0:0:
429,236,18053,6,0,P|423:271|414:319,1,68.9999978942872,10|0,0:0|0:0,0:0:0:0:
410,134,18284,2,0,P|398:99|382:41,1,68.9999978942872,8|8,3:1|0:0,0:0:0:0:
290,270,18515,1,4,3:1:0:0:
344,191,18630,2,0,P|290:181|189:162,1,137.999995788574,8|2,0:3|3:2,0:0:0:0:
72,66,18976,6,0,P|115:50|149:55,1,68.9999978942872,8|2,0:2|0:0,0:0:0:0:
131,138,19207,1,0,3:1:0:0:
125,141,19323,2,0,P|88:176|78:270,1,137.999995788574,2|10,3:2|0:3,0:0:0:0:
183,350,19669,6,0,P|159:325|148:270,1,68.9999978942872,8|0,3:1|0:0,0:0:0:0:
275,228,19900,2,0,P|249:251|235:305,1,68.9999978942872,10|0,0:0|0:0,0:0:0:0:
374,353,20130,2,0,P|344:335|320:284,1,68.9999978942872,8|8,3:1|0:0,0:0:0:0:
494,241,20361,5,4,3:1:0:0:
422,283,20476,2,0,P|398:218|421:154,1,137.999995788574,8|0,0:3|3:0,0:0:0:0:
368,73,20823,2,0,P|408:65|455:56,1,68.9999978942872,8|2,0:0|0:0,0:0:0:0:
299,149,21053,1,0,3:1:0:0:
302,154,21169,2,0,P|248:144|160:125,1,137.999995788574,0|10,3:0|0:3,0:0:0:0:
24,146,21515,6,0,P|57:152|91:159,1,68.9999978942872,8|0,3:1|0:0,0:0:0:0:
190,245,21746,2,0,P|156:238|115:230,1,68.9999978942872,10|0,0:0|0:0,0:0:0:0:
274,277,21976,6,0,P|293:319|293:347,1,68.9999978942872,8|0,0:3|3:0,0:0:0:0:
231,163,22207,1,4,0:1:0:0:
306,199,22323,2,0,P|391:194|431:144,1,137.999995788574,8|2,0:3|3:2,0:0:0:0:
508,197,22669,2,0,P|484:233|481:270,1,68.9999978942872,8|2,0:0|0:0,0:0:0:0:
461,359,22900,1,8,3:2:0:0:
461,359,23015,2,0,P|431:327|333:323,1,137.999995788574,2|10,3:2|0:3,0:0:0:0:
143,371,23361,6,0,P|193:377|236:351,1,103.499996841431,10|0,3:2|0:0,0:0:0:0:
241,377,23592,2,0,P|252:356|254:298,1,68.9999978942872,10|0,0:0|0:0,0:0:0:0:
193,146,23823,1,10,0:2:0:0:
258,199,23938,1,10,0:0:0:0:
184,244,24053,6,0,P|117:227|49:211,1,137.999995788574,4|4,0:0|0:1,0:0:0:0:
12,131,24400,1,2,3:2:0:0:
12,131,24515,2,0,P|20:166|33:217,1,68.9999978942872,8|2,0:0|0:0,0:0:0:0:
94,85,24746,5,0,3:1:0:0:
91,80,24861,2,0,B|171:86|127:128|223:138,1,137.999995788574,0|10,3:0|0:3,0:0:0:0:
291,84,25207,6,0,L|276:15,1,68.9999978942872,8|0,3:1|0:0,0:0:0:0:
364,157,25438,2,0,L|380:89,1,68.9999978942872,8|0,0:0|0:0,0:0:0:0:
301,239,25669,2,0,L|283:171,1,68.9999978942872,8|10,3:1|0:0,0:0:0:0:
402,269,25900,5,4,3:1:0:0:
343,329,26015,2,0,P|278:340|220:287,1,137.999995788574,8|2,0:0|3:2,0:0:0:0:
99,380,26361,2,0,P|139:372|186:363,1,68.9999978942872,8|0,0:0|3:2,0:0:0:0:
30,326,26592,1,0,3:3:0:0:
85,262,26707,2,0,P|152:276|220:289,1,137.999995788574,0|10,3:0|0:3,0:0:0:0:
309,287,27053,6,0,P|335:247|334:208,1,68.9999978942872,8|0,3:1|0:0,0:0:0:0:
399,164,27284,2,0,P|425:204|424:243,1,68.9999978942872,10|0,0:0|0:0,0:0:0:0:
345,93,27515,2,0,P|388:74|427:82,1,68.9999978942872,8|0,3:1|3:0,0:0:0:0:
296,170,27746,5,4,3:1:0:0:
234,122,27861,2,0,P|210:80|254:-12,1,137.999995788574,8|2,0:3|3:2,0:0:0:0:
161,165,28207,2,0,P|117:183|78:175,1,68.9999978942872,8|2,0:0|0:0,0:0:0:0:
29,12,28438,5,0,3:1:0:0:
0,86,28553,2,0,P|11:139|33:235,1,137.999995788574,0|10,3:0|0:3,0:0:0:0:
92,303,28900,6,0,P|131:298|170:266,1,68.9999978942872,8|0,3:1|0:0,0:0:0:0:
291,236,29130,2,0,P|257:215|206:222,1,68.9999978942872,10|0,0:0|0:0,0:0:0:0:
353,301,29361,2,0,P|387:298|415:278,1,68.9999978942872,8|8,3:1|0:0,0:0:0:0:
272,329,29592,6,0,P|265:360|258:385,1,46,14|0,0:0|0:0,0:0:0:0:
291,236,29823,2,0,P|296:213|301:191,1,46,10|0,3:2|0:0,0:0:0:0:
191,293,30053,2,0,P|186:315|177:355,1,46,10|2,0:0|0:0,0:0:0:0:
134,214,30284,1,8,0:1:0:0:
62,270,30400,6,0,P|66:294|85:388,1,109.24999708271,4|10,3:2|0:3,0:0:0:0:
191,293,30746,1,8,3:1:0:0:
57,166,30976,1,10,3:2:0:0:
62,156,31092,1,8,3:1:0:0:
68,146,31207,1,8,0:1:0:0:
51,175,31438,6,0,P|119:192|196:115,1,172.500006580353,4|8,0:0|0:0,0:0:0:0:
305,28,32130,1,2,3:2:0:0:
299,25,32246,1,0,0:3:0:0:
294,22,32361,2,0,P|280:50|276:79,1,43.1250016450883,8|0,0:1|0:0,0:0:0:0:
370,124,32592,2,0,P|358:105|354:84,1,43.1250016450883,2|8,0:0|3:1,0:0:0:0:
430,48,32823,1,2,3:3:0:0:
269,156,33053,1,8,0:0:0:0:
451,268,33284,6,0,P|399:258|341:248,1,86.2500032901765,8|0,3:1|0:3,0:0:0:0:
295,287,33630,1,0,0:0:0:0:
289,292,33746,2,0,P|275:320|271:349,1,43.1250016450883,8|0,0:0|0:0,0:0:0:0:
286,207,33976,1,2,3:2:0:0:
281,203,34092,2,0,P|267:175|263:146,1,43.1250016450883,2|8,0:0|0:1,0:0:0:0:
208,255,34323,2,0,P|166:260|103:269,1,86.2500032901765,8|0,0:0|3:0,0:0:0:0:
48,223,34669,5,8,0:0:0:0:
188,103,34900,1,8,3:1:0:0:
118,39,35130,6,0,P|89:77|95:119,1,86.2500032901765,8|0,3:1|0:0,0:0:0:0:
150,191,35476,1,0,3:0:0:0:
157,194,35592,2,0,P|203:203|238:179,1,86.2500032901765,8|2,0:0|0:0,0:0:0:0:
287,115,35938,5,0,0:0:0:0:
287,115,36053,2,0,P|282:93|272:74,1,43.1250016450883,0|0,3:0|0:0,0:0:0:0:
359,167,36284,2,0,P|369:148|373:126,1,43.1250016450883,2|8,0:0|0:1,0:0:0:0:
437,68,36515,5,2,0:0:0:0:
289,216,36746,1,8,0:0:0:0:
487,187,36976,6,0,P|474:236|465:293,1,86.2500032901765,8|2,0:1|0:0,0:0:0:0:
474,286,37323,1,0,3:0:0:0:
478,292,37438,1,8,0:0:0:0:
289,216,37669,2,0,P|302:265|320:375,1,129.375004935265,8|8,0:1|0:0,0:0:0:0:
326,350,38130,1,0,3:0:0:0:
152,273,38361,2,0,P|146:299|139:331,1,43.1250016450883,8|0,0:0|0:0,0:0:0:0:
174,384,38592,1,8,3:1:0:0:
0,212,38823,6,0,B|95:203|52:278|173:263,1,172.500006580353,8|8,0:1|0:0,0:0:0:0:
234,77,39515,1,0,3:0:0:0:
228,73,39630,1,2,0:0:0:0:
223,69,39746,2,0,P|214:99|204:134,1,43.1250016450883,8|0,3:1|0:0,0:0:0:0:
301,201,39976,2,0,P|294:180|288:159,1,43.1250016450883,2|8,0:0|3:1,0:0:0:0:
366,116,40207,1,2,0:3:0:0:
213,235,40438,1,8,0:0:0:0:
409,328,40669,6,0,P|357:318|299:308,1,86.2500032901765,8|2,0:1|0:0,0:0:0:0:
235,316,41015,1,0,3:0:0:0:
235,317,41130,2,0,P|241:337|247:358,1,43.1250016450883,8|0,0:0|0:0,0:0:0:0:
148,282,41361,1,8,0:1:0:0:
148,283,41476,2,0,P|141:303|135:324,1,43.1250016450883,2|0,0:0|0:0,0:0:0:0:
47,343,41707,1,8,0:0:0:0:
42,347,41823,5,2,0:0:0:0:
237,218,42053,1,8,0:0:0:0:
237,218,42169,2,0,P|287:235|330:221,1,86.2500032901765,2|2,0:0|0:0,0:0:0:0:
385,179,42515,5,0,0:1:0:0:
176,74,42746,1,2,0:0:0:0:
177,81,42861,1,0,0:0:0:0:
179,87,42976,1,8,0:0:0:0:
296,48,43207,6,0,P|288:94|279:145,1,86.2500032901765,0|8,3:0|0:1,0:0:0:0:
200,170,43553,1,0,0:0:0:0:
200,170,43669,2,0,P|207:199|214:234,1,43.1250016450883,2|0,0:0|3:0,0:0:0:0:
296,245,43900,1,2,0:0:0:0:
138,301,44130,6,0,B|227:292|204:363|322:347,1,172.500006580353,12|8,3:2|3:2,0:0:0:0:
401,168,44823,1,8,0:0:0:0:
317,235,45053,1,0,1:0:0:0:
458,307,45284,6,0,L|399:297,2,43.1250016450883,0|8|10,0:0|0:0|0:0,0:0:0:0:
242,144,45746,1,8,0:0:0:0:
258,141,45861,1,8,0:0:0:0:
274,137,45976,1,8,3:1:0:0:
336,83,46207,6,0,P|294:85|259:61,1,86.2500032901765,4|2,0:0|0:0,0:0:0:0:
183,23,46553,1,0,0:0:0:0:
179,28,46669,6,0,L|112:48,1,43.1250016450883,8|0,0:0|0:0,0:0:0:0:
70,97,46900,2,0,L|-4:85,1,43.1250016450883,8|2,0:1|0:0,0:0:0:0:
125,173,47130,6,0,P|179:140|241:153,1,129.375004935265,0|0,0:0|3:0,0:0:0:0:
253,165,47592,1,2,0:0:0:0:
414,60,47823,1,8,0:0:0:0:
328,33,48053,5,8,3:1:0:0:
331,45,48169,1,10,0:0:0:0:
334,57,48284,1,2,3:2:0:0:
337,69,48400,1,0,3:0:0:0:
340,81,48515,6,0,L|323:143,1,43.1250016450883,10|2,0:0|0:0,0:0:0:0:
389,190,48746,1,8,0:1:0:0:
397,199,48861,1,2,0:0:0:0:
405,208,48976,6,0,P|469:188|495:197,1,86.2500032901765,0|8,0:0|0:1,0:0:0:0:
320,347,49438,1,8,0:0:0:0:
314,341,49553,2,0,P|320:296|329:243,1,86.2500032901765,2|0,0:0|0:0,0:0:0:0:
405,208,49900,5,8,3:1:0:0:
284,125,50130,2,0,L|221:138,1,43.1250016450883,2|2,0:0|0:0,0:0:0:0:
159,178,50361,2,0,P|144:143|162:93,1,86.2500032901765,8|2,0:0|3:2,0:0:0:0:
93,50,50707,1,0,0:0:0:0:
84,42,50823,6,0,L|-20:62,1,86.2500032901765,8|2,3:1|0:0,0:0:0:0:
3,70,51169,1,2,3:2:0:0:
7,82,51284,5,2,0:0:0:0:
159,178,51515,1,8,0:0:0:0:
63,337,51746,5,8,3:1:0:0:
68,329,51861,2,0,L|75:265,1,43.1250016450883,8|2,0:0|0:3,0:0:0:0:
8,215,52092,1,2,3:0:0:0:
0,222,52207,6,0,P|65:232|112:188,1,129.375004935265,8|0,0:0|0:0,0:0:0:0:
151,119,52669,2,0,L|132:72,2,43.1250016450883,0|10|0,0:0|0:3|3:0,0:0:0:0:
264,218,53130,6,0,L|324:205,1,43.1250016450883,0|2,0:0|0:0,0:0:0:0:
371,155,53361,2,0,L|431:168,1,43.1250016450883,8|8,0:3|0:0,0:0:0:0:
506,108,53592,6,0,P|494:171|482:235,1,129.375004935265,4|0,3:2|0:0,0:0:0:0:
489,251,54053,1,10,0:0:0:0:
359,368,54284,2,0,P|354:342|349:311,1,43.1250016450883,0|0,3:0|0:0,0:0:0:0:
281,274,54515,2,0,P|218:279|184:331,2,129.375004935265,8|8|8,0:1|0:1|0:0,0:0:0:0:
136,214,55438,6,0,L|36:242,1,86.2500032901765,8|2,3:1|0:0,0:0:0:0:
41,231,55784,1,0,3:0:0:0:
30,223,55900,1,8,0:0:0:0:
200,113,56130,1,0,3:0:0:0:
104,37,56361,6,0,P|102:81|94:131,1,86.2500032901765,0|0,0:0|3:0,0:0:0:0:
277,265,56823,1,8,0:0:0:0:
269,260,56938,2,0,P|271:216|279:166,1,86.2500032901765,2|0,0:0|0:0,0:0:0:0:
354,130,57284,6,0,L|447:152,1,86.2500032901765,8|2,3:1|0:0,0:0:0:0:
237,27,57746,2,0,L|330:5,1,86.2500032901765,8|8,0:0|0:0,0:0:0:0:
165,137,58207,5,0,3:0:0:0:
154,142,58323,2,0,P|104:146|60:113,1,86.2500032901765,2|0,0:0|3:0,0:0:0:0:
11,61,58669,2,0,L|79:46,1,43.1250016450883,8|0,0:0|0:0,0:0:0:0:
167,232,58900,6,0,P|103:241|40:251,1,129.375004935265,12|0,0:0|0:0,0:0:0:0:
29,266,59361,1,2,0:0:0:0:
234,363,59592,1,8,0:0:0:0:
321,300,59823,1,8,0:1:0:0:
333,296,59938,1,8,0:0:0:0:
344,291,60053,6,0,L|334:226,1,43.1250016450883,2|0,3:2|3:0,0:0:0:0:
275,189,60284,2,0,L|281:146,1,43.1250016450883,2|0,0:0|3:0,0:0:0:0:
344,70,60515,5,8,0:1:0:0:
373,52,60630,1,0,3:0:0:0:
407,54,60746,1,8,3:1:0:0:
434,75,60861,1,8,0:0:0:0:
444,107,60976,6,0,L|424:212,1,86.2500032901765,4|0,3:2|0:0,0:0:0:0:
411,192,61323,2,0,L|417:249,1,43.1250016450883,8|8,0:1|0:0,0:0:0:0:
478,293,61553,2,0,L|462:349,1,43.1250016450883,0|4,0:0|0:1,0:0:0:0:
373,382,61784,5,8,0:1:0:0:
361,373,61900,2,0,L|300:379,1,43.1250016450883,2|8,0:0|0:0,0:0:0:0:
232,335,62130,2,0,P|217:299|246:247,1,86.2500032901765,0|8,3:0|0:0,0:0:0:0:
338,87,62592,2,0,L|351:179,1,86.2500032901765,4|0,0:0|0:0,0:0:0:0:
354,190,62938,1,8,0:0:0:0:
357,206,63053,5,0,3:0:0:0:
456,111,63284,1,8,0:0:0:0:
257,33,63515,2,0,L|251:83,1,43.1250016450883,4|0,0:1|3:0,0:0:0:0:
189,134,63746,1,2,0:0:0:0:
182,145,63861,1,8,0:0:0:0:
175,156,63976,2,0,P|133:147|73:137,1,86.2500032901765,8|8,0:1|0:0,0:0:0:0:
4,286,64438,5,8,0:1:0:0:
19,277,64553,1,8,0:3:0:0:
36,279,64669,1,8,0:1:0:0:
139,344,64900,2,0,L|195:330,1,43.1250016450883,2|8,0:0|0:1,0:0:0:0:
245,275,65130,2,0,P|287:272|325:291,1,86.2500032901765,8|4,0:0|3:1,0:0:0:0:
391,342,65476,1,8,0:0:0:0:
401,336,65592,6,0,P|410:313|414:276,1,43.1250016450883,2|0,0:0|0:0,0:0:0:0:
489,244,65823,2,0,P|487:222|463:174,1,43.1250016450883,0|2,3:0|0:0,0:0:0:0:
395,142,66053,1,8,0:0:0:0:
512,30,66284,1,2,0:0:0:0:
501,44,66400,1,8,0:0:0:0:
489,57,66515,6,0,P|448:51|375:41,1,86.2500032901765,8|0,3:1|0:0,0:0:0:0:
315,101,66861,1,8,0:1:0:0:
305,110,66976,2,0,P|256:118|212:95,1,86.2500032901765,8|12,0:0|0:1,0:0:0:0:
153,53,67323,1,0,3:0:0:0:
144,62,67438,5,8,0:0:0:0:
31,182,67669,2,8,L|40:225,1,43.1250016450883,0|8,3:0|0:0,0:0:0:0:
109,272,67900,5,8,0:1:0:0:
126,268,68015,1,2,0:0:0:0:
144,265,68130,1,2,3:2:0:0:
162,262,68246,1,0,0:0:0:0:
181,259,68361,6,0,P|206:293|189:352,1,86.2500032901765,4|2,3:2|0:0,0:0:0:0:
279,375,68707,1,0,3:0:0:0:
290,369,68823,2,0,L|398:386,1,86.2500032901765,8|4,0:0|0:1,0:0:0:0:
448,341,69169,1,8,0:0:0:0:
457,333,69284,6,0,L|444:254,1,43.1250016450883,2|0,0:0|3:0,0:0:0:0:
375,234,69515,2,0,L|387:174,1,43.1250016450883,8|0,0:1|3:0,0:0:0:0:
456,129,69746,5,8,0:0:0:0:
448,95,69861,1,8,0:0:0:0:
417,79,69976,1,2,3:2:0:0:
382,82,70092,1,0,3:0:0:0:
354,102,70207,6,0,L|236:92,1,86.2500032901765,12|8,0:0|0:1,0:0:0:0:
182,211,70669,2,0,L|64:221,1,86.2500032901765,12|8,0:0|0:1,0:0:0:0:
41,154,71015,1,0,0:0:0:0:
33,147,71130,6,0,B|73:125|73:125|118:133,1,86.2500032901765,12|8,0:0|0:1,0:0:0:0:
140,318,71592,1,4,3:2:0:0:
123,321,71707,1,0,0:0:0:0:
105,324,71823,1,2,0:0:0:0:
88,327,71938,1,0,3:0:0:0:
71,330,72053,5,8,3:2:0:0:
186,239,72284,1,8,3:2:0:0:
101,192,72515,5,8,3:2:0:0:
271,303,72746,1,8,3:2:0:0:
195,362,72976,5,8,3:2:0:0:
367,267,73207,1,4,3:1:0:0:
381,257,73323,1,8,0:1:0:0:
387,240,73438,6,0,L|436:254,1,43.1250016450883,0|8,3:0|3:1,0:0:0:0:
319,172,73669,2,0,L|253:182,1,43.1250016450883,8|0,3:1|3:0,0:0:0:0:
424,109,73900,5,4,0:0:0:0:
424,109,75053,5,0,3:0:0:0:
314,7,75284,2,0,P|288:28|298:88,1,86.25,0|2,3:0|0:0,0:0:0:0:
301,93,75746,5,4,3:1:0:0:
217,141,75976,1,12,3:1:0:0:
140,86,76207,5,8,0:0:0:0:
281,225,76438,1,4,3:1:0:0:
291,229,76553,1,8,0:0:0:0:
300,234,76669,6,0,P|352:197|417:213,1,115,4|8,3:1|0:0,0:0:0:0:
408,213,77592,6,0,P|340:219|282:152,1,137.999995788574,14|0,3:0|0:0,0:0:0:0:
291,30,77938,1,2,3:2:0:0:
291,30,78053,2,0,P|319:64|320:105,1,68.9999978942872,8|2,0:0|3:2,0:0:0:0:
197,183,78284,2,0,P|227:150|229:109,1,68.9999978942872,0|8,3:0|0:1,0:0:0:0:
82,19,78515,1,0,0:0:0:0:
148,113,78630,2,0,P|80:106|22:173,1,137.999995788574,8|0,0:0|0:0,0:0:0:0:
103,258,78976,2,0,L|120:172,1,68.9999978942872,8|0,0:0|0:0,0:0:0:0:
17,324,79207,2,0,L|1:245,1,68.9999978942872,8|0,0:1|0:0,0:0:0:0:
96,380,79438,6,0,P|177:334|236:361,1,137.999995788574,0|0,3:0|3:1,0:0:0:0:
282,260,79784,1,0,3:1:0:0:
282,260,79900,2,0,P|310:299|309:340,1,68.9999978942872,8|0,0:0|0:0,0:0:0:0:
497,358,80130,1,0,3:1:0:0:
407,384,80246,6,0,P|418:317|433:234,1,137.999995788574,8|8,3:1|3:3,0:0:0:0:
480,149,80592,2,0,P|505:177|512:213,1,68.9999978942872,0|0,3:0|0:0,0:0:0:0:
429,65,80823,2,0,P|462:48|501:51,1,68.9999978942872,8|0,0:0|0:0,0:0:0:0:
374,136,81053,1,0,3:0:0:0:
367,141,81169,1,8,0:0:0:0:
361,148,81284,6,0,P|293:154|235:87,1,137.999995788574,0|2,3:1|0:0,0:0:0:0:
170,16,81630,1,0,3:0:0:0:
255,101,81746,2,0,P|187:95|129:162,1,137.999995788574,8|0,0:0|0:0,0:0:0:0:
66,204,82092,2,0,P|38:165|39:124,1,68.9999978942872,2|0,3:2|0:0,0:0:0:0:
140,253,82323,1,8,0:3:0:0:
73,309,82438,2,0,P|45:348|46:389,1,68.9999978942872,8|0,0:1|0:0,0:0:0:0:
229,214,82669,5,8,0:0:0:0:
133,356,82900,1,0,3:0:0:0:
137,362,83015,1,8,0:0:0:0:
143,368,83130,6,0,L|222:352,1,68.9999978942872,8|8,3:1|0:0,0:0:0:0:
295,300,83361,1,8,0:1:0:0:
290,306,83476,1,0,3:0:0:0:
284,312,83592,6,0,P|357:299|404:341,1,137.999995788574,8|0,0:0|3:1,0:0:0:0:
490,294,83938,2,0,P|441:228|455:163,1,137.999995788574,8|8,0:1|0:3,0:0:0:0:
363,159,84284,2,0,P|340:187|293:200,1,68.9999978942872,8|0,0:1|0:0,0:0:0:0:
461,98,84515,2,0,P|491:112|512:140,1,68.9999978942872,8|0,0:0|0:0,0:0:0:0:
336,2,84746,1,0,3:0:0:0:
405,45,84861,1,8,0:0:0:0:
331,87,84976,6,0,P|264:76|175:61,1,137.999995788574,4|0,0:0|0:1,0:0:0:0:
102,115,85323,1,0,3:0:0:0:
102,115,85438,2,0,P|94:80|85:30,1,68.9999978942872,8|2,0:0|0:0,0:0:0:0:
133,209,85669,1,0,0:0:0:0:
133,209,85784,2,0,P|65:215|7:148,1,137.999995788574,0|8,3:0|0:0,0:0:0:0:
14,171,86130,1,8,0:1:0:0:
212,266,86361,6,0,P|235:308|236:347,1,68.9999978942872,8|2,0:0|0:0,0:0:0:0:
213,151,86592,2,0,P|234:108|233:69,1,68.9999978942872,0|2,3:0|0:0,0:0:0:0:
294,206,86823,6,0,P|330:173|426:187,1,140.874995700836,12|0,3:2|0:0,0:0:0:0:
429,81,87284,6,12,P|473:101|502:220,1,171.062503262758,12|0,3:2|0:0,0:0:0:0:
454,297,87746,6,0,P|432:281|416:254,1,48.8750009322167,12|0,3:2|0:0,0:0:0:0:
407,298,87976,2,0,P|398:272|400:241,1,48.8750009322167,8|0,0:1|3:0,0:0:0:0:
258,221,88207,6,0,P|236:237|223:261,1,48.8750009322167,8|8,0:0|3:1,0:0:0:0:
212,231,88438,2,0,P|203:256|204:286,1,48.8750009322167,0|0,3:0|3:0,0:0:0:0:
319,338,88669,6,0,P|329:287|351:185,1,137.999995788574,4|4,0:0|0:1,0:0:0:0:
243,153,89015,1,0,3:0:0:0:
243,153,89130,2,0,P|251:188|260:238,1,68.9999978942872,8|0,0:0|0:0,0:0:0:0:
308,87,89361,1,0,3:0:0:0:
304,82,89476,6,0,P|385:36|444:63,1,137.999995788574,8|8,0:0|0:3,0:0:0:0:
432,184,89823,1,8,0:1:0:0:
384,124,89938,1,8,0:0:0:0:
458,114,90053,5,8,0:0:0:0:
463,117,90169,1,8,3:0:0:0:
468,120,90284,1,8,3:1:0:0:
473,123,90400,1,8,3:1:0:0:
477,125,90515,5,4,0:0:0:0:
418,47,91669,5,4,3:1:0:0:
487,133,91900,2,0,L|497:99,6,28.75,2|0|2|0|2|0|2,0:3|0:0|0:3|0:0|0:3|0:0|0:2,0:0:0:0:
489,148,92361,5,4,0:0:0:0:
256,192,92476,12,8,94669,0:0:0:0:
34,238,107130,6,0,B|134:218|103:292|193:278,1,172.500006580353,4|10,0:0|0:0,0:0:0:0:
300,131,107823,1,0,3:0:0:0:
291,129,107938,1,2,0:0:0:0:
283,132,108053,2,0,L|300:209,1,43.1250016450883,8|0,0:1|0:0,0:0:0:0:
199,107,108284,2,0,L|216:30,1,43.1250016450883,2|8,0:0|3:1,0:0:0:0:
288,28,108515,1,2,0:3:0:0:
91,106,108746,1,8,0:0:0:0:
260,251,108976,6,0,P|302:243|345:237,1,86.2500032901765,8|2,0:1|0:0,0:0:0:0:
498,161,109438,1,8,0:0:0:0:
488,157,109553,2,0,L|472:232,1,43.1250016450883,2|8,0:0|0:1,0:0:0:0:
397,145,109784,2,0,P|380:103|400:56,1,86.2500032901765,2|2,0:0|0:0,0:0:0:0:
402,57,110130,5,0,3:0:0:0:
239,144,110361,1,8,0:0:0:0:
230,148,110476,2,0,L|140:134,1,86.2500032901765,0|8,0:0|0:0,0:0:0:0:
61,181,110823,6,0,P|42:148|66:82,1,86.2500032901765,8|2,0:1|0:0,0:0:0:0:
171,262,111284,1,8,0:0:0:0:
175,269,111400,1,2,0:0:0:0:
178,276,111515,2,0,P|140:309|86:303,1,86.2500032901765,0|8,3:1|0:1,0:0:0:0:
33,260,111861,5,0,0:0:0:0:
23,256,111976,2,0,L|34:201,1,43.1250016450883,0|8,0:0|0:1,0:0:0:0:
99,162,112207,1,2,0:3:0:0:
107,155,112323,2,0,P|97:111|87:67,1,86.2500032901765,0|2,0:0|0:0,0:0:0:0:
8,35,112669,5,8,3:1:0:0:
189,92,112900,2,2,L|227:79,2,28.7500010967255,2|2|2,0:0|0:3|0:3,0:0:0:0:
180,110,113130,2,0,P|218:136|262:131,1,86.2500032901765,10|8,0:3|0:1,0:0:0:0:
327,88,113476,5,10,0:3:0:0:
333,79,113592,2,0,L|314:16,1,43.1250016450883,0|2,3:0|0:3,0:0:0:0:
414,136,113823,2,0,L|427:85,1,43.1250016450883,2|0,0:3|3:0,0:0:0:0:
334,188,114053,5,8,0:0:0:0:
335,200,114169,1,2,0:0:0:0:
336,212,114284,1,2,0:0:0:0:
337,224,114400,1,0,3:0:0:0:
339,236,114515,6,0,L|326:302,1,43.1250016450883,4|0,0:0|0:0,0:0:0:0:
401,357,114746,1,2,0:0:0:0:
390,351,114861,2,0,P|322:357|301:374,1,86.2500032901765,0|0,0:0|0:0,0:0:0:0:
232,321,115207,2,0,L|187:327,1,43.1250016450883,8|0,0:1|0:0,0:0:0:0:
100,361,115438,2,0,B|82:304|114:290|100:233,2,129.375004935265,8|8|8,0:1|0:1|0:0,0:0:0:0:
0,231,116361,5,0,3:1:0:0:
8,240,116476,1,2,0:0:0:0:
16,249,116592,2,0,L|120:231,1,86.2500032901765,0|10,3:0|0:0,0:0:0:0:
113,221,116938,2,0,L|121:175,1,43.1250016450883,0|8,0:0|0:1,0:0:0:0:
18,50,117169,2,0,L|38:157,1,86.2500032901765,2|8,0:0|0:0,0:0:0:0:
38,152,117515,5,0,3:0:0:0:
202,44,117746,1,8,0:0:0:0:
214,36,117861,2,0,P|261:47|284:80,1,86.2500032901765,0|0,3:0|0:0,0:0:0:0:
294,87,118207,6,0,L|393:65,1,86.2500032901765,8|2,0:1|0:0,0:0:0:0:
392,199,118669,2,0,P|434:208|491:221,1,86.2500032901765,8|4,0:0|3:1,0:0:0:0:
308,360,119130,6,0,L|321:314,1,43.1250016450883,8|8,0:1|0:0,0:0:0:0:
227,252,119361,2,0,L|236:299,1,43.1250016450883,4|0,0:1|3:0,0:0:0:0:
172,355,119592,1,8,0:0:0:0:
6,250,119823,6,0,P|84:246|123:178,1,129.375004935265,12|0,3:2|3:0,0:0:0:0:
122,195,120284,1,8,0:1:0:0:
296,102,120515,1,8,0:0:0:0:
204,67,120746,5,8,1:0:0:0:
192,61,120861,1,8,0:0:0:0:
180,54,120976,2,0,P|185:80|187:109,1,43.1250016450883,8|8,0:1|0:0,0:0:0:0:
341,195,121207,2,0,L|345:167,2,21.5625008225441,0|0|2,1:2|0:0|0:0,0:0:0:0:
335,212,121438,2,0,P|381:194|435:210,1,86.2500032901765,10|8,1:2|3:1,0:0:0:0:
489,236,121784,1,0,3:0:0:0:
498,227,121900,5,4,1:2:0:0:
355,318,122130,2,0,L|254:297,1,86.2500032901765,4|8,1:0|0:0,0:0:0:0:
140,225,122592,1,8,1:0:0:0:
132,229,122707,2,0,P|180:239|225:207,1,86.2500032901765,2|0,3:2|0:0,0:0:0:0:
275,163,123053,2,0,L|258:98,1,43.1250016450883,2|8,0:0|0:1,0:0:0:0:
189,59,123284,5,4,1:0:0:0:
361,133,123515,1,8,1:2:0:0:
475,87,123746,5,12,1:0:0:0:
483,72,123861,1,10,0:0:0:0:
474,56,123976,1,4,0:1:0:0:
410,202,124207,2,0,P|452:208|495:216,1,86.2500032901765,8|8,0:0|1:0,0:0:0:0:
512,298,124553,6,0,P|455:340|387:320,1,129.375004935265,8|8,0:0|0:1,0:0:0:0:
261,236,125130,2,0,L|271:285,1,43.1250016450883,10|0,1:2|3:0,0:0:0:0:
185,351,125361,2,0,L|192:303,1,43.1250016450883,8|8,1:0|0:0,0:0:0:0:
121,248,125592,5,8,1:0:0:0:
113,243,125707,2,0,P|72:252|28:263,1,86.2500032901765,8|0,0:0|3:0,0:0:0:0:
16,255,126053,1,8,1:2:0:0:
193,133,126284,1,8,0:1:0:0:
180,128,126400,1,8,0:0:0:0:
167,124,126515,6,0,L|179:188,1,43.1250016450883,4|2,3:1|0:0,0:0:0:0:
251,245,126746,2,0,L|260:191,1,43.1250016450883,0|0,3:0|3:0,0:0:0:0:
337,150,126976,2,0,P|386:149|424:192,1,86.2500032901765,4|8,1:0|1:2,0:0:0:0:
503,91,127438,5,12,0:0:0:0:
351,232,127669,1,0,3:0:0:0:
342,241,127784,1,8,1:0:0:0:
332,249,127900,2,0,L|215:230,1,86.2500032901765,12|4,0:0|1:0,0:0:0:0:
69,323,128361,5,12,0:0:0:0:
137,227,128592,1,8,0:1:0:0:
134,214,128707,1,0,3:0:0:0:
129,201,128823,6,4,L|51:225,1,43.1250016450883,2|8,3:0|3:1,0:0:0:0:
192,135,129053,2,0,L|233:147,1,43.1250016450883,8|0,1:0|3:0,0:0:0:0:
107,99,129284,6,0,P|88:65|111:16,1,86.2500032901765,2|4,1:3|0:1,0:0:0:0:
114,17,129630,1,0,3:0:0:0:
126,15,129746,1,8,0:0:0:0:
233,147,129976,2,0,L|221:197,1,43.1250016450883,8|8,1:0|0:0,0:0:0:0:
296,248,130207,2,0,P|356:236|425:223,1,129.375004935265,4|0,3:1|3:0,0:0:0:0:
438,233,130669,1,4,1:0:0:0:
294,350,130900,1,8,0:0:0:0:
175,253,131130,6,0,P|161:213|186:167,1,86.2500032901765,2|0,1:3|3:0,0:0:0:0:
249,113,131476,1,8,0:1:0:0:
257,107,131592,2,0,L|325:116,1,43.1250016450883,8|0,1:2|0:0,0:0:0:0:
377,51,131823,2,0,L|361:-4,1,43.1250016450883,0|8,1:0|0:0,0:0:0:0:
470,109,132053,5,0,0:0:0:0:
479,117,132169,1,8,0:0:0:0:
485,128,132284,2,0,L|470:217,1,86.2500032901765,8|8,1:0|0:0,0:0:0:0:
401,259,132630,1,0,3:0:0:0:
396,266,132746,2,0,L|409:316,1,43.1250016450883,4|8,3:1|0:0,0:0:0:0:
489,361,132976,5,4,1:2:0:0:
310,273,133207,1,8,0:1:0:0:
297,269,133323,1,2,1:3:0:0:
284,266,133438,6,0,L|215:287,1,43.1250016450883,8|0,0:0|3:0,0:0:0:0:
167,327,133669,2,0,P|139:323|110:311,1,43.1250016450883,8|2,1:0|0:0,0:0:0:0:
35,361,133900,5,8,1:2:0:0:
177,196,134130,1,4,0:1:0:0:
185,186,134246,1,8,1:0:0:0:
188,173,134361,6,0,L|173:99,1,43.1250016450883,2|0,3:0|3:0,0:0:0:0:
271,47,134592,2,0,L|256:121,1,43.1250016450883,8|0,1:2|0:0,0:0:0:0:
326,146,134823,5,0,1:3:0:0:
409,125,135284,1,2,1:2:0:0:
472,183,135746,1,4,1:0:0:0:
424,256,135976,6,8,L|376:248,1,43.1250016450883,8|8,0:0|0:0,0:0:0:0:
313,310,136207,1,8,0:0:0:0:
286,327,136323,1,8,0:0:0:0:
255,332,136438,1,8,0:0:0:0:
224,325,136553,1,8,0:0:0:0:
192,304,136669,6,0,P|247:293|301:282,1,97.7500018644333,4|0,0:0|0:0,0:0:0:0:
352,208,137015,1,8,0:1:0:0:
345,212,137130,2,0,P|310:206|276:200,1,48.8750009322167,12|0,3:0|0:0,0:0:0:0:
189,150,137361,1,0,3:0:0:0:
200,147,137476,1,8,0:0:0:0:
210,144,137592,5,4,3:1:0:0:
412,69,137823,1,0,3:0:0:0:
401,66,137938,1,8,0:0:0:0:
391,63,138053,5,12,3:0:0:0:
310,10,138284,6,0,P|276:55|288:95,1,97.7500018644333,12|8,0:0|0:1,0:0:0:0:
360,158,138630,2,0,P|418:149|473:141,1,97.7500018644333,8|0,0:0|0:0,0:0:0:0:
490,245,138976,2,0,L|436:235,1,48.8750009322167,12|0,3:0|0:0,0:0:0:0:
250,292,139207,5,8,0:1:0:0:
254,297,139323,2,0,P|321:298|358:256,1,97.7500018644333,8|0,0:0|3:0,0:0:0:0:
370,205,139669,2,0,P|364:181|359:157,1,48.8750009322167,4|0,0:1|3:0,0:0:0:0:
459,173,139900,1,8,0:0:0:0:
288,75,140130,1,2,0:0:0:0:
294,72,140246,1,8,0:0:0:0:
299,68,140361,6,0,P|293:91|288:115,1,48.8750009322167,4|0,3:0|0:0,0:0:0:0:
187,153,140592,1,2,0:0:0:0:
193,156,140707,1,8,0:1:0:0:
198,160,140823,2,0,L|178:55,1,97.7500018644333,12|8,3:0|3:1,0:0:0:0:
174,57,141169,5,0,3:0:0:0:
10,146,141400,1,8,0:0:0:0:
20,150,141515,2,0,L|71:142,1,48.8750009322167,4|0,0:1|3:0,0:0:0:0:
198,160,141746,2,0,L|149:167,1,48.8750009322167,8|0,0:0|3:0,0:0:0:0:
54,224,141976,1,0,3:0:0:0:
77,221,142092,5,8,0:0:0:0:
86,225,142207,1,2,3:0:0:0:
102,240,142323,6,0,P|90:298|79:353,1,97.7500018644333,8|0,0:0|0:0,0:0:0:0:
156,370,142669,2,0,B|182:343|182:343|260:363,1,97.7500018644333,14|8,3:0|0:0,0:0:0:0:
317,304,143015,1,10,0:0:0:0:
311,312,143130,6,0,B|337:339|337:339|415:319,1,97.7500018644333,2|10,0:0|0:3,0:0:0:0:
478,356,143476,1,0,3:1:0:0:
474,349,143592,2,0,L|486:298,1,48.8750009322167,8|8,0:0|0:3,0:0:0:0:
409,251,143823,2,0,L|397:200,1,48.8750009322167,8|8,3:1|3:2,0:0:0:0:
467,134,144053,6,0,P|420:109|361:126,1,97.7500018644333,12|2,0:0|0:0,0:0:0:0:
328,49,144400,1,8,0:1:0:0:
321,52,144515,2,0,P|302:80|299:114,1,48.8750009322167,8|0,0:0|0:0,0:0:0:0:
227,157,144746,2,0,P|208:129|205:95,1,48.8750009322167,4|0,0:1|3:0,0:0:0:0:
112,93,144976,1,2,0:0:0:0:
118,89,145092,1,8,0:0:0:0:
124,85,145207,5,4,0:1:0:0:
304,181,145438,1,8,0:0:0:0:
125,220,145669,5,4,0:1:0:0:
123,214,145784,1,8,0:0:0:0:
110,205,145900,6,0,B|216:210|161:271|288:284,2,195.500003728867,12|12|12,0:0|0:0|0:0,0:0:0:0:
85,320,147053,1,8,3:1:0:0:
92,326,147169,1,8,0:0:0:0:
99,332,147284,6,0,P|114:295|115:273,1,48.8750009322167,4|2,3:2|3:2,0:0:0:0:
264,196,147515,2,0,P|249:159|248:137,1,48.8750009322167,0|0,3:0|3:0,0:0:0:0:
157,96,147746,5,8,3:2:0:0:
348,193,147976,1,8,3:2:0:0:
263,280,148207,5,8,3:2:0:0:
453,176,148438,1,8,3:2:0:0:
369,105,148669,5,8,3:2:0:0:
494,276,148900,1,4,3:1:0:0:
491,285,149015,1,8,0:0:0:0:
487,293,149130,6,0,L|422:276,1,48.8750009322167,8|0,3:1|3:0,0:0:0:0:
369,342,149361,2,0,L|321:354,1,48.8750009322167,8|0,0:0|3:0,0:0:0:0:
234,299,149592,6,0,P|315:281|374:342,1,158.125004825592,4|0,0:0|0:0,0:0:0:0:
369,342,150284,1,4,3:1:0:0:
511,171,150515,5,8,0:0:0:0:
512,180,150630,2,0,P|476:172|454:161,1,48.8750009322167,8|0,3:0|0:0,0:0:0:0:
331,240,150861,5,8,0:1:0:0:
334,233,150976,2,0,P|356:224|380:220,1,48.8750009322167,2|2,0:3|0:3,0:0:0:0:
465,258,151207,2,0,P|457:291|454:320,1,48.8750009322167,2|2,0:3|0:0,0:0:0:0:
391,139,151438,6,0,P|354:108|262:125,1,137.999995788574,14|0,3:0|0:0,0:0:0:0:
187,84,151784,1,2,3:2:0:0:
179,83,151900,2,0,P|160:46|162:11,1,68.9999978942872,8|2,0:0|3:2,0:0:0:0:
75,108,152130,2,0,P|56:145|58:180,1,68.9999978942872,0|8,3:0|0:1,0:0:0:0:
129,233,152361,1,0,0:0:0:0:
60,298,152476,2,0,P|126:288|196:278,1,137.999995788574,8|0,0:0|0:0,0:0:0:0:
300,206,152823,2,0,L|216:192,1,68.9999978942872,8|0,0:0|3:0,0:0:0:0:
350,287,153053,2,0,P|381:290|426:270,1,68.9999978942872,8|0,3:1|0:0,0:0:0:0:
512,212,153284,6,0,P|499:279|486:347,1,137.999995788574,0|0,3:0|3:1,0:0:0:0:
421,188,153630,1,0,3:0:0:0:
489,122,153746,2,0,P|410:151|350:113,1,137.999995788574,8|0,0:0|3:0,0:0:0:0:
293,73,154092,1,8,0:1:0:0:
289,67,154207,2,0,P|299:31|310:-7,1,68.9999978942872,0|8,3:1|0:0,0:0:0:0:
207,113,154438,2,0,P|169:128|118:115,1,68.9999978942872,8|0,0:1|3:0,0:0:0:0:
63,64,154669,5,8,0:0:0:0:
213,216,154900,1,8,0:1:0:0:
222,225,155015,1,8,0:0:0:0:
231,235,155130,6,0,P|286:187|361:200,1,137.999995788574,4|0,0:0|0:1,0:0:0:0:
498,26,155476,1,8,0:1:0:0:
408,42,155592,2,0,P|400:75|392:109,1,68.9999978942872,8|2,0:0|0:0,0:0:0:0:
512,223,155823,1,0,3:0:0:0:
507,209,155938,1,8,0:1:0:0:
497,199,156053,6,0,P|446:217|430:237,1,68.9999978942872,0|8,0:0|0:0,0:0:0:0:
346,316,156284,2,0,P|292:308|272:295,1,68.9999978942872,8|0,0:1|0:0,0:0:0:0:
188,227,156515,2,0,L|104:249,1,68.9999978942872,8|2,0:0|0:0,0:0:0:0:
10,325,156746,1,0,3:0:0:0:
23,329,156861,1,8,0:0:0:0:
35,333,156976,6,0,L|15:212,1,68.9999978942872,0|8,3:1|0:0,0:0:0:0:
211,150,157207,1,0,3:0:0:0:
134,107,157323,2,0,P|126:175|120:244,1,137.999995788574,0|0,0:0|3:0,0:0:0:0:
212,313,157669,1,8,0:0:0:0:
201,306,157784,6,0,P|257:269|323:284,1,137.999995788574,8|8,0:1|3:0,0:0:0:0:
388,364,158130,2,0,L|314:381,1,68.9999978942872,0|0,0:0|3:0,0:0:0:0:
512,283,158361,2,0,L|444:267,1,68.9999978942872,0|0,0:0|3:0,0:0:0:0:
384,176,158592,1,8,0:0:0:0:
444,105,158707,1,8,3:2:0:0:
370,32,158823,6,0,P|298:9|234:57,1,137.999995788574,4|0,0:0|0:1,0:0:0:0:
175,96,159169,1,0,3:0:0:0:
170,101,159284,2,0,L|73:85,1,68.9999978942872,8|2,0:0|3:2,0:0:0:0:
79,249,159515,1,0,3:0:0:0:
1,202,159630,2,0,P|68:217|128:175,1,137.999995788574,8|8,0:1|0:0,0:0:0:0:
126,169,159976,1,8,0:1:0:0:
222,307,160207,6,0,P|257:310|289:299,1,68.9999978942872,8|0,0:0|0:0,0:0:0:0:
439,252,160438,2,0,P|409:234|375:231,1,68.9999978942872,0|0,3:1|0:0,0:0:0:0:
382,325,160669,5,12,3:2:0:0:
432,149,160900,1,4,0:1:0:0:
250,45,161130,5,12,3:2:0:0:
282,214,161361,1,4,0:1:0:0:
105,317,161592,5,12,0:0:0:0:
155,141,161823,1,8,0:1:0:0:
151,127,161938,1,0,3:0:0:0:
144,114,162053,6,0,P|122:149|126:195,1,68.9999978942872,8|8,0:0|3:1,0:0:0:0:
41,247,162284,2,0,P|19:220|10:187,1,68.9999978942872,0|0,3:0|3:0,0:0:0:0:
55,66,162515,6,0,P|124:79|168:28,1,137.999995788574,4|4,0:0|0:1,0:0:0:0:
244,83,162861,1,0,0:0:0:0:
248,88,162976,2,0,L|233:166,1,68.9999978942872,8|0,0:0|0:0,0:0:0:0:
374,220,163207,1,8,0:1:0:0:
333,293,163323,6,0,P|324:224|316:156,1,137.999995788574,8|8,0:0|0:0,0:0:0:0:
236,239,163669,2,0,P|202:241|169:230,1,68.9999978942872,0|0,3:0|3:0,0:0:0:0:
61,166,163900,2,0,P|96:158|136:150,1,68.9999978942872,8|0,0:0|3:0,0:0:0:0:
225,49,164130,1,8,3:1:0:0:
203,84,164246,1,8,0:0:0:0:
217,122,164361,5,4,0:0:0:0:
217,122,165053,1,4,0:1:0:0:
289,192,165284,5,8,0:0:0:0:
296,198,165400,2,0,P|346:169|420:180,1,115,8|0,0:1|3:0,0:0:0:0:
511,112,165746,2,0,L|450:101,1,57.5,8|0,0:0|0:0,0:0:0:0:
390,37,165976,1,0,3:0:0:0:
488,214,166207,5,4,3:2:0:0:
256,192,166323,12,0,168053,3:0:0:0:
35,224,173592,5,4,3:2:0:0:
35,224,173707,2,0,P|93:213|140:205,1,86.2500032901765,2|0,0:0|0:0,0:0:0:0:
212,172,174053,5,8,0:1:0:0:
212,172,174169,2,0,P|202:218|189:280,1,86.2500032901765,2|0,0:0|3:0,0:0:0:0:
125,302,174515,5,8,0:1:0:0:
307,246,174746,1,0,0:0:0:0:
307,246,174861,6,0,P|314:283|322:314,1,43.1250016450883,2|8,0:0|0:1,0:0:0:0:
404,313,175092,2,0,P|408:284|420:207,1,86.2500032901765,0|0,0:0|0:0,0:0:0:0:
481,161,175438,5,8,0:1:0:0:
483,168,175553,1,2,0:0:0:0:
360,107,175784,5,0,0:0:0:0:
358,114,175900,1,8,0:1:0:0:
355,120,176015,1,2,0:0:0:0:
444,47,176246,5,0,0:0:0:0:
444,47,176361,2,0,P|422:30|353:31,1,86.2500032901765,8|0,0:1|0:0,0:0:0:0:
289,67,176707,2,0,P|280:39|279:10,1,43.1250016450883,2|8,0:0|0:1,0:0:0:0:
246,143,176938,6,0,P|205:134|141:123,1,86.2500032901765,0|0,0:0|0:0,0:0:0:0:
98,77,177284,5,8,0:1:0:0:
100,84,177400,1,2,0:0:0:0:
49,216,177630,1,0,0:0:0:0:
49,216,177746,2,0,P|41:168|32:111,1,86.2500032901765,8|0,0:1|0:0,0:0:0:0:
157,195,178092,5,0,0:0:0:0:
157,195,178207,2,0,L|148:242,1,43.1250016450883,8|0,0:1|0:0,0:0:0:0:
97,308,178438,1,0,2:0:0:0:
97,308,178553,2,0,P|55:332|-3:317,1,86.2500032901765,2|2,0:0|0:0,0:0:0:0:
164,360,178900,2,0,P|200:369|219:380,1,43.1250016450883,2|0,0:0|0:0,0:0:0:0:
288,329,179130,5,8,0:1:0:0:
288,329,179246,2,0,P|283:296|273:231,1,86.2500032901765,2|0,0:0|0:0,0:0:0:0:
371,258,179592,1,8,0:1:0:0:
371,258,179707,2,0,P|376:225|386:160,1,86.2500032901765,2|0,0:0|0:0,0:0:0:0:
299,157,180053,6,0,L|289:101,1,43.1250016450883,8|0,0:1|0:0,0:0:0:0:
383,91,180284,2,0,L|393:35,1,43.1250016450883,2|0,0:0|3:0,0:0:0:0:
314,12,180515,5,12,0:1:0:0:
459,135,180746,1,2,0:0:0:0:
279,241,180976,1,4,0:0:0:0:
362,310,181207,5,2,0:0:0:0:
359,305,181323,1,0,3:0:0:0:
356,300,181438,2,0,L|366:251,1,43.1250016450883,8|0,0:1|0:0,0:0:0:0:
382,183,181669,5,0,3:0:0:0:
239,358,181900,1,8,0:1:0:0:
242,353,182015,1,2,0:0:0:0:
245,349,182130,1,2,0:0:0:0:
248,346,182246,2,0,L|236:283,1,43.1250016450883,2|8,0:0|0:1,0:0:0:0:
170,240,182476,2,0,P|160:286|147:348,1,86.2500032901765,0|0,0:0|0:0,0:0:0:0:
80,363,182823,5,8,0:1:0:0:
16,185,183053,1,2,0:0:0:0:
65,276,183284,1,8,0:1:0:0:
192,180,183515,5,2,0:0:0:0:
188,177,183630,1,2,0:0:0:0:
184,174,183746,2,0,P|154:167|128:162,1,43.1250016450883,8|0,0:1|0:0,0:0:0:0:
279,133,183976,1,2,0:0:0:0:
279,133,184092,2,0,P|309:126|335:121,1,43.1250016450883,0|8,0:0|0:1,0:0:0:0:
190,82,184323,2,0,P|175:51|184:0,1,86.2500032901765,2|0,0:0|0:0,0:0:0:0:
265,45,184669,5,4,0:0:0:0:
137,192,184900,1,2,0:0:0:0:
97,92,185130,5,4,3:2:0:0:
226,237,185361,1,2,0:0:0:0:
15,164,185592,6,0,B|-7:206|-7:206|22:261,1,86.2500032901765,4|0,3:2|0:0,0:0:0:0:
234,305,186053,2,0,B|255:266|255:266|227:208,1,86.2500032901765,4|2,3:2|1:2,0:0:0:0:
233,221,186361,6,2,L|226:272,2,28.7500010967255,2|0|0,0:0|1:3|1:3,0:3:0:0:
69,109,187900,5,8,0:0:0:0:
154,306,188130,1,8,3:1:0:0:
12,250,188361,5,8,3:2:0:0:
83,219,188592,1,8,3:1:0:0:
153,192,188823,1,8,3:2:0:0:
221,169,189053,1,10,3:2:0:0:
467,209,189284,6,0,P|483:165|481:144,1,51.7499984207154,8|0,3:2|0:0,0:0:0:0:
381,98,189515,2,0,P|397:117|406:142,1,51.7499984207154,10|0,3:2|0:0,0:0:0:0:
307,232,189746,6,0,P|315:207|332:187,1,51.7499984207154,8|0,3:1|0:0,0:0:0:0:
416,291,189976,2,0,P|399:271|390:246,1,51.7499984207154,10|0,3:2|0:0,0:0:0:0:
338,334,190207,5,12,0:0:0:0:
271,361,190323,1,0,3:0:0:0:
204,333,190438,1,8,3:2:0:0:
176,265,190553,1,8,0:3:0:0:
172,252,190669,6,0,L|155:324,1,51.7499984207154,8|8,0:1|3:1,0:0:0:0:
0,216,190900,2,0,L|12:266,1,51.7499984207154,0|0,3:0|3:0,0:0:0:0:
122,124,191130,2,0,L|128:99,6,25.8749992103577,2|0|2|0|8|0|0,0:0|0:0|0:0|0:0|3:1|0:0|0:0,0:0:0:0:
95,216,191592,5,8,3:1:0:0:
151,12,191823,1,8,3:1:0:0:
279,192,192053,6,0,P|332:162|390:175,1,120.749996315003,4|0,3:2|0:0,0:0:0:0:
403,186,192284,2,0,P|416:143|392:98,1,68.9999978942872,4|0,0:1|3:0,0:0:0:0:
342,250,192515,1,8,0:0:0:0:
426,277,192630,2,0,L|501:262,1,68.9999978942872,0|0,0:0|3:0,0:0:0:0:
350,353,192861,6,0,P|282:342|214:333,1,137.999995788574,10|8,0:1|0:0,0:0:0:0:
125,302,193207,2,0,P|130:335|140:392,1,68.9999978942872,8|8,0:1|0:1,0:0:0:0:
171,228,193438,6,0,B|91:234|135:276|39:286,1,137.999995788574,8|0,0:0|3:0,0:0:0:0:
0,209,193784,2,0,L|56:198,2,34.4999989471436,8|0|8,0:0|0:0|0:1,0:0:0:0:
100,145,194015,6,0,B|123:107|123:107|88:20,1,137.999995788574,8|10,0:0|0:1,0:0:0:0:
198,77,194361,2,0,P|266:65|334:54,1,137.999995788574,8|0,0:0|3:0,0:0:0:0:
413,122,194707,1,0,3:0:0:0:
407,115,194823,2,0,P|427:76|425:38,1,68.9999978942872,2|8,0:1|0:0,0:0:0:0:
324,161,195053,1,8,3:1:0:0:
382,231,195169,1,2,0:1:0:0:
327,303,195284,2,0,P|386:271|456:290,1,137.999995788574,8|8,0:0|0:1,0:0:0:0:
397,358,195630,1,8,3:2:0:0:
390,361,195688,1,0,0:0:0:0:
382,363,195746,6,0,P|314:351|246:341,1,137.999995788574,6|2,3:1|0:0,0:0:0:0:
175,272,196092,2,0,P|105:293|118:364,1,137.999995788574,2|2,3:1|0:0,0:0:0:0:
254,228,196438,2,0,P|247:193|239:151,1,68.9999978942872,2|0,0:1|3:0,0:0:0:0:
330,90,196669,6,0,P|364:96|411:104,1,68.9999978942872,6|8,0:1|0:0,0:0:0:0:
492,189,196900,1,0,3:0:0:0:
485,179,197015,2,0,P|417:179|370:235,1,137.999995788574,2|2,0:1|0:1,0:0:0:0:
443,333,197361,2,0,P|449:295|458:241,1,68.9999978942872,10|8,0:1|0:0,0:0:0:0:
272,175,197592,6,0,L|285:255,1,68.9999978942872,8|8,3:1|0:0,0:0:0:0:
179,355,197823,1,4,0:1:0:0:
107,378,197938,1,2,3:1:0:0:
45,333,198053,2,0,L|59:281,2,34.4999989471436,8|0|2,0:0|0:0|0:1,0:0:0:0:
185,197,198284,1,8,3:2:0:0:
110,149,198400,2,0,L|138:301,1,137.999995788574,10|8,3:1|0:0,0:0:0:0:
138,294,198746,1,8,0:1:0:0:
259,351,198861,6,0,L|334:338,1,68.9999978942872,2|8,1:0|3:2,0:0:0:0:
460,278,199092,2,0,P|426:272|385:265,1,68.9999978942872,2|8,1:1|0:0,0:0:0:0:
328,201,199323,1,10,0:1:0:0:
385,123,199438,6,0,P|289:160|244:124,1,137.999995788574,4|4,0:0|0:1,0:0:0:0:
194,87,199784,2,0,L|212:14,1,68.9999978942872,2|8,3:1|0:0,0:0:0:0:
112,140,200015,2,0,P|118:175|128:220,1,68.9999978942872,2|2,0:1|0:0,0:0:0:0:
31,348,200246,2,0,P|6:282|52:209,1,137.999995788574,10|8,0:1|0:0,0:0:0:0:
98,290,200592,2,0,P|130:304|168:306,1,68.9999978942872,6|0,3:1|0:0,0:0:0:0:
303,222,200823,2,0,P|268:224|237:237,1,68.9999978942872,8|2,0:0|0:1,0:0:0:0:
267,383,201053,5,10,0:1:0:0:
284,312,201169,1,8,0:0:0:0:
341,361,201284,5,6,3:1:0:0:
348,367,201400,2,0,P|421:355|506:342,1,137.999995788574,8|2,0:0|3:1,0:0:0:0:
439,210,201746,1,8,0:0:0:0:
433,215,201861,2,0,P|416:244|413:286,1,68.9999978942872,2|6,0:1|0:1,0:0:0:0:
512,149,202092,2,0,P|426:171|375:122,1,137.999995788574,0|0,0:0|0:0,0:0:0:0:
327,66,202438,2,0,P|362:59|415:50,1,68.9999978942872,2|0,3:1|3:0,0:0:0:0:
229,157,202669,2,0,P|264:163|317:173,1,68.9999978942872,8|0,0:0|0:0,0:0:0:0:
208,58,202900,5,10,0:1:0:0:
128,76,203015,1,8,0:0:0:0:
47,49,203130,5,4,3:2:0:0:
55,44,203246,2,0,P|43:112|32:180,1,137.999995788574,0|0,0:0|0:0,0:0:0:0:
111,251,203592,2,0,P|175:239|190:169,1,137.999995788574,8|2,0:1|0:0,0:0:0:0:
271,118,203938,6,0,B|351:124|307:166|403:176,1,137.999995788574,0|8,3:0|0:0,0:0:0:0:
470,65,204284,2,0,L|375:90,1,68.9999978942872,2|0,0:1|3:0,0:0:0:0:
462,229,204515,1,8,0:0:0:0:
471,223,204630,2,0,P|483:171|477:143,1,68.9999978942872,2|8,0:1|0:1,0:0:0:0:
392,174,204861,1,0,3:0:0:0:
403,283,204976,6,0,P|491:281|531:336,1,137.999995788574,4|0,0:0|3:0,0:0:0:0:
448,358,205323,1,10,0:1:0:0:
434,355,205438,1,4,3:1:0:0:
420,353,205553,1,2,3:1:0:0:
406,349,205669,5,2,3:1:0:0:
342,377,205784,1,0,3:0:0:0:
283,341,205900,5,4,0:0:0:0:
283,341,206823,5,0,0:0:0:0:
197,305,214207,5,4,0:0:0:0:
383,227,214669,1,0,3:0:0:0:
302,191,215592,1,0,3:0:0:0:
312,276,216053,5,4,3:1:0:0:
470,129,216515,1,4,3:1:0:0:
369,61,216746,5,0,3:0:0:0:
362,57,216861,1,2,0:3:0:0:
356,54,216976,2,0,P|366:108|377:162,1,92,0|8,3:0|0:1,0:0:0:0:
450,30,217438,5,8,0:0:0:0:
263,122,217669,1,0,3:0:0:0:
512,176,217900,5,8,3:2:0:0:
440,159,218130,1,8,3:2:0:0:
380,202,218361,1,8,3:2:0:0:
367,274,218592,1,8,3:2:0:0:
409,333,218823,5,8,3:2:0:0:
356,282,219053,1,8,3:2:0:0:
283,268,219284,1,8,3:2:0:0:
217,301,219515,1,8,3:2:0:0:
170,362,219746,6,0,P|195:338|234:327,1,57.5,8|0,3:2|3:0,0:0:0:0:
342,212,219976,2,8,P|317:188|281:178,1,57.5,8|8,3:1|3:1,0:0:0:0:
140,341,220207,6,8,P|171:324|209:321,1,57.5,8|8,3:2|0:0,0:0:0:0:
350,187,220438,2,8,P|319:170|280:170,1,57.5,8|8,0:0|0:0,0:0:0:0:
162,70,220669,5,8,3:2:0:0:
115,128,220784,1,8,0:0:0:0:
172,176,220900,1,8,0:0:0:0:
221,120,221015,5,8,0:0:0:0:
149,82,221130,1,8,0:0:0:0:
78,121,221246,1,8,0:0:0:0:
55,197,221361,1,8,0:0:0:0:
99,264,221476,1,8,0:0:0:0:
109,269,221592,5,10,0:3:0:0:
430,165,221900,6,8,L|397:157,1,26.833332514445,2|2,0:0|0:0,0:0:0:0:
404,159,222053,6,0,P|462:210|463:281,1,137.999995788574,14|4,3:0|0:0,0:0:0:0:
301,342,222400,2,0,P|368:305|385:236,1,137.999995788574,8|8,0:0|3:2,0:0:0:0:
264,174,222746,6,0,P|294:206|302:249,1,68.9999978942872,8|0,0:1|3:0,0:0:0:0:
171,315,222976,2,0,P|214:306|250:275,1,68.9999978942872,8|0,0:0|0:0,0:0:0:0:
123,201,223207,2,0,P|156:205|185:223,1,68.9999978942872,8|0,0:1|3:0,0:0:0:0:
53,266,223438,6,0,B|13:207|13:207|67:133,1,137.999995788574,0|0,3:0|3:1,0:0:0:0:
122,10,223784,1,0,3:0:0:0:
56,70,223899,2,0,B|136:76|92:118|188:128,1,137.999995788574,8|0,0:0|3:0,0:0:0:0:
359,42,224246,1,8,0:1:0:0:
355,37,224361,2,0,P|304:14|245:70,1,137.999995788574,0|0,3:0|3:0,0:0:0:0:
432,0,224823,6,0,B|465:19|465:19|448:134,1,137.999995788574,8|8,0:0|0:1,0:0:0:0:
404,281,225169,1,0,3:0:0:0:
480,236,225284,6,0,P|441:200|350:210,1,137.999995788574,0|0,3:0|0:1,0:0:0:0:
300,127,225630,1,0,3:0:0:0:
300,127,225746,2,0,P|274:161|269:196,1,68.9999978942872,8|2,0:0|0:0,0:0:0:0:
324,325,225976,1,0,3:0:0:0:
328,319,226092,1,8,0:1:0:0:
256,269,226207,5,0,0:0:0:0:
250,265,226323,2,0,P|205:255|117:318,1,137.999995788574,8|0,0:0|0:0,0:0:0:0:
66,239,226669,2,0,P|42:274|41:308,1,68.9999978942872,8|0,0:0|3:0,0:0:0:0:
73,144,226900,2,0,P|49:109|48:75,1,68.9999978942872,0|8,3:0|0:0,0:0:0:0:
143,199,227130,5,4,3:2:0:0:
150,190,227246,1,8,3:2:0:0:
159,182,227361,2,0,P|206:172|251:163,1,68.9999978942872,8|0,0:1|3:0,0:0:0:0:
375,100,227592,6,0,P|304:111|255:47,1,137.999995788574,8|8,3:1|0:0,0:0:0:0:
406,183,227938,2,0,P|427:218|420:272,1,68.9999978942872,8|0,0:1|0:0,0:0:0:0:
379,330,228169,5,8,0:0:0:0:
376,322,228284,1,8,0:1:0:0:
229,227,228515,1,8,0:0:0:0:
296,191,228630,1,0,0:0:0:0:
301,266,228746,1,8,3:1:0:0:
79,368,228976,6,0,P|57:315|85:239,1,137.999995788574,4|2,0:0|3:2,0:0:0:0:
149,182,229323,1,0,3:0:0:0:
75,134,229438,2,0,P|38:141|-8:150,1,68.9999978942872,8|0,0:0|0:0,0:0:0:0:
139,57,229669,1,0,3:1:0:0:
134,63,229784,2,0,P|199:91|283:63,1,137.999995788574,8|8,0:1|0:0,0:0:0:0:
331,21,230130,2,0,P|350:50|346:101,1,68.9999978942872,0|0,3:1|3:0,0:0:0:0:
436,138,230361,6,0,P|470:128|512:118,1,68.9999978942872,8|0,0:0|0:0,0:0:0:0:
356,239,230592,2,0,P|390:248|432:259,1,68.9999978942872,8|0,0:0|3:0,0:0:0:0:
512,345,230823,6,0,B|435:330|451:390|364:371,1,140.874995700836,12|0,3:2|0:0,0:0:0:0:
274,315,231284,6,0,P|252:269|292:186,1,120.749996315003,12|0,3:2|0:0,0:0:0:0:
353,139,231746,6,0,P|386:148|423:160,1,68.9999978942872,12|0,3:2|0:0,0:0:0:0:
262,74,231976,2,0,P|228:84|195:93,1,68.9999978942872,4|0,0:1|3:0,0:0:0:0:
85,36,232207,6,0,P|78:69|71:103,1,68.9999978942872,8|0,0:1|3:0,0:0:0:0:
138,190,232438,1,8,0:0:0:0:
76,260,232553,1,8,0:0:0:0:
138,329,232669,6,0,B|173:306|173:306|145:201,1,137.999995788574,4|4,3:2|3:1,0:0:0:0:
220,156,233015,1,8,3:1:0:0:
157,90,233130,2,0,P|230:98|298:105,1,137.999995788574,8|0,0:0|3:0,0:0:0:0:
368,19,233476,1,8,0:1:0:0:
363,15,233592,6,0,P|326:22|271:33,1,68.9999978942872,0|8,3:1|0:0,0:0:0:0:
458,77,233823,2,0,P|470:44|483:13,1,68.9999978942872,0|0,1:3|0:0,0:0:0:0:
373,114,234053,2,0,B|352:203|352:203|401:245,1,137.999995788574,8|0,0:0|1:0,0:0:0:0:
455,287,234400,1,8,0:0:0:0:
389,352,234515,5,8,3:1:0:0:
391,345,234630,2,0,P|327:315|241:342,1,137.999995788574,8|8,0:0|0:1,0:0:0:0:
169,302,234976,2,0,L|183:375,1,68.9999978942872,8|2,0:0|0:0,0:0:0:0:
71,235,235207,2,0,P|65:268|59:309,1,68.9999978942872,0|0,3:1|3:0,0:0:0:0:
145,176,235438,5,8,0:0:0:0:
138,170,235553,2,0,P|68:183|-26:199,1,137.999995788574,8|8,0:0|0:3,0:0:0:0:
145,272,235900,2,0,P|169:281|226:276,1,68.9999978942872,8|0,0:0|0:0,0:0:0:0:
353,221,236130,2,8,L|275:205,1,68.9999978942872,0|2,1:0|0:0,0:0:0:0:
397,320,236361,5,4,3:2:0:0:
471,265,236476,2,0,B|501:233|501:233|479:128,1,137.999995788574,8|8,0:0|0:0,0:0:0:0:
403,80,236823,1,8,0:1:0:0:
422,74,236938,1,2,3:2:0:0:
341,148,237053,1,0,3:0:0:0:
322,142,237168,1,8,0:1:0:0:
253,84,237284,2,0,P|246:52|267:-1,1,68.9999978942872,0|8,0:0|0:0,0:0:0:0:
166,120,237515,2,0,P|121:137|69:119,1,68.9999978942872,8|0,0:0|0:0,0:0:0:0:
3,262,237746,5,8,0:0:0:0:
72,231,237861,1,0,3:0:0:0:
144,252,237976,1,4,3:1:0:0:
178,319,238092,1,4,3:1:0:0:
96,329,238207,5,4,3:2:0:0:
487,205,239130,5,8,0:0:0:0:
491,212,239246,2,0,B|360:200,1,115,8|8,0:1|0:1,0:0:0:0:
287,172,239592,2,0,P|292:201|300:236,1,57.5,8|0,0:3|3:0,0:0:0:0:
317,309,239823,1,0,3:0:0:0:
317,318,240053,6,0,P|240:314|188:366,1,137.999995788574,4|4,0:0|0:1,0:0:0:0:
111,311,240400,2,0,P|92:282|88:249,1,68.9999978942872,2|0,3:2|0:0,0:0:0:0:
12,196,240630,2,0,P|40:166|83:153,1,68.9999978942872,2|0,0:0|3:0,0:0:0:0:
40,60,240861,6,0,P|108:70|176:79,1,137.999995788574,0|10,3:0|0:3,0:0:0:0:
246,164,241207,2,0,L|155:177,1,68.9999978942872,8|0,3:1|0:0,0:0:0:0:
314,79,241438,2,0,L|382:88,1,68.9999978942872,8|0,0:0|0:0,0:0:0:0:
478,153,241669,1,8,0:1:0:0:
488,140,241784,1,8,0:0:0:0:
479,126,241900,6,0,L|451:238,1,68.9999978942872,4|8,3:1|0:0,0:0:0:0:
512,269,242130,1,4,3:1:0:0:
447,337,242246,2,0,P|377:363|302:302,1,137.999995788574,2|2,0:0|0:0,0:0:0:0:
249,270,242592,1,0,3:0:0:0:
243,277,242707,2,0,P|307:293|358:251,1,137.999995788574,0|10,3:1|0:3,0:0:0:0:
288,199,243053,1,8,0:1:0:0:
102,358,243284,6,0,L|130:212,1,137.999995788574,8|8,0:0|0:1,0:0:0:0:
141,215,243630,1,0,3:0:0:0:
42,199,243746,5,4,0:0:0:0:
48,204,243861,2,0,B|124:187|92:148|163:137,1,137.999995788574,8|2,0:0|3:2,0:0:0:0:
229,64,244207,2,0,P|196:47|142:44,1,68.9999978942872,8|2,0:0|0:0,0:0:0:0:
259,153,244438,1,0,3:0:0:0:
264,159,244553,2,0,P|340:167|377:88,1,137.999995788574,0|10,3:1|0:3,0:0:0:0:
437,45,244900,2,0,L|338:21,1,68.9999978942872,8|0,0:1|0:0,0:0:0:0:
375,124,245130,5,8,0:0:0:0:
490,304,245361,1,8,0:1:0:0:
422,261,245476,1,0,3:0:0:0:
358,320,245592,5,4,3:1:0:0:
350,311,245707,2,0,P|280:339|208:304,1,137.999995788574,8|8,0:0|0:1,0:0:0:0:
160,245,246053,2,0,P|193:229|239:227,1,68.9999978942872,8|2,0:0|0:0,0:0:0:0:
89,331,246284,2,0,P|41:326|2:298,1,68.9999978942872,8|8,0:0|0:1,0:0:0:0:
49,92,246515,5,8,3:2:0:0:
60,166,246630,1,8,3:0:0:0:
72,241,246746,1,8,0:0:0:0:
295,359,246976,5,8,0:0:0:0:
500,227,247207,1,8,3:2:0:0:
429,189,247323,1,8,0:0:0:0:
345,228,247438,6,0,P|319:156|379:88,1,137.999995788574,4|4,0:0|0:1,0:0:0:0:
448,27,247784,2,0,P|439:59|431:93,1,68.9999978942872,2|8,3:2|0:0,0:0:0:0:
292,29,248015,2,0,P|325:21|361:13,1,68.9999978942872,2|0,0:0|3:0,0:0:0:0:
238,118,248246,6,0,B|163:105|178:159|88:145,1,137.999995788574,0|10,3:1|0:3,0:0:0:0:
29,77,248592,2,0,L|112:57,1,68.9999978942872,0|0,0:1|0:0,0:0:0:0:
170,221,248823,2,0,P|101:255|36:214,1,137.999995788574,8|8,0:0|0:1,0:0:0:0:
106,147,249169,1,8,0:0:0:0:
170,221,249284,5,4,3:1:0:0:
170,221,249400,2,0,P|236:210|331:195,1,137.999995788574,8|0,0:0|3:0,0:0:0:0:
384,131,249746,2,0,B|339:82|339:82|263:111,1,137.999995788574,8|0,0:0|3:0,0:0:0:0:
442,212,250092,2,0,B|482:179|482:179|463:64,1,137.999995788574,0|10,3:1|0:3,0:0:0:0:
357,210,250438,2,0,L|342:285,1,68.9999978942872,8|0,0:1|0:0,0:0:0:0:
487,358,250669,2,0,P|457:323|424:309,1,68.9999978942872,8|0,0:0|0:0,0:0:0:0:
299,382,250900,5,8,0:1:0:0:
372,358,251015,1,8,0:0:0:0:
267,305,251130,5,4,3:1:0:0:
262,300,251246,2,0,L|117:328,1,137.999995788574,8|0,0:0|3:0,0:0:0:0:
0,207,251592,2,0,P|70:191|120:257,1,137.999995788574,8|0,0:0|0:0,0:0:0:0:
196,173,251938,2,0,P|206:137|190:89,1,68.9999978942872,0|0,3:1|0:0,0:0:0:0:
128,44,252169,1,10,0:3:0:0:
124,40,252284,6,0,L|19:62,1,68.9999978942872,8|0,0:1|0:0,0:0:0:0:
295,131,252515,2,0,L|447:106,1,137.999995788574,8|8,0:0|0:1,0:0:0:0:
497,165,252861,2,0,L|484:223,1,34.4999989471436,8|0,0:0|0:0,0:0:0:0:
489,198,252976,6,0,L|386:217,1,68.9999978942872,4|8,0:0|0:0,0:0:0:0:
289,291,253207,1,8,0:0:0:0:
375,318,253323,6,0,L|271:299,1,68.9999978942872,8|8,0:0|3:1,0:0:0:0:
196,209,253553,2,8,L|92:227,1,68.9999978942872,8|8,0:0|0:0,0:0:0:0:
46,317,253784,6,0,B|25:259|62:245|42:180,1,137.999995788574,4|8,3:2|3:2,0:0:0:0:
1,99,254130,1,8,0:1:0:0:
112,31,254361,6,0,P|149:33|187:37,1,68.9999978942872,0|0,3:0|0:0,0:0:0:0:
255,94,254592,6,0,L|302:89,1,34.4999989471436,0|2,3:0|0:0,0:0:0:0:
