osu file format v14

[General]
AudioFilename: audio.mp3
AudioLeadIn: 0
PreviewTime: 49682
Countdown: 0
SampleSet: Normal
StackLeniency: 0.3
Mode: 0
LetterboxInBreaks: 0
WidescreenStoryboard: 0

[Editor]
DistanceSpacing: 2.1
BeatDivisor: 8
GridSize: 32
TimelineZoom: 3.099999

[Metadata]
Title:Humanoid
TitleUnicode:ヒユマノイド
Artist:Zutto Mayonaka de Ii no ni
ArtistUnicode:ずっと真夜中でいいのに
Creator:Lud5_Beats
Version:beep boop
Source:
Tags:
BeatmapID:2004793
BeatmapSetID:957589

[Difficulty]
HPDrainRate:6.5
CircleSize:4
OverallDifficulty:6.5
ApproachRate:9.5
SliderMultiplier:1.8
SliderTickRate:1

[Events]
//Background and Video events
0,0,"sdf.png",0,0
//Break Periods
//Storyboard Layer 0 (Background)
//Storyboard Layer 1 (Fail)
//Storyboard Layer 2 (Pass)
//Storyboard Layer 3 (Foreground)
//Storyboard Sound Samples

[TimingPoints]
60,377.358490566038,4,1,0,100,1,0
1569,-200,4,1,0,100,0,0
3173,-200,4,1,0,5,0,0
3267,-200,4,1,0,100,0,0
3550,-200,4,1,0,5,0,0
3644,-200,4,1,0,100,0,0
3927,-200,4,1,0,5,0,0
4022,-200,4,1,0,100,0,0
4493,-200,4,1,0,5,0,0
4588,-200,4,1,0,100,0,0
9210,-200,4,1,0,5,0,0
9305,-200,4,1,0,100,0,0
9588,-200,4,1,0,5,0,0
9682,-200,4,1,0,100,0,0
9965,-200,4,1,0,5,0,0
10060,-200,4,1,0,100,0,0
10531,-200,4,1,0,5,0,0
10626,-200,4,1,0,100,0,0
12135,-100,4,1,0,100,0,0
13644,-66.6666666666667,4,1,0,100,0,0
18173,-222.222222222222,4,1,0,100,0,0
19305,-100,4,1,0,100,0,0
19682,-66.6666666666667,4,1,0,100,0,0
24965,-133.333333333333,4,1,0,100,0,0
27041,-66.6666666666667,4,1,0,100,0,0
27418,-133.333333333333,4,1,0,100,0,0
27795,-66.6666666666667,4,1,0,100,0,0
28361,-285.714285714284,4,1,0,100,0,0
28739,-66.6666666666667,4,1,0,100,0,0
28927,-133.333333333333,4,1,0,100,0,0
30060,-66.6666666666667,4,1,0,100,0,0
30437,-133.333333333333,4,1,0,100,0,0
31192,-285.714285714284,4,1,0,100,0,0
31758,-133.333333333333,4,1,0,100,0,0
33078,-66.6666666666667,4,1,0,100,0,0
33456,-133.333333333333,4,1,0,100,0,0
33833,-66.6666666666667,4,1,0,100,0,0
34210,-181.818181818181,4,1,0,100,0,0
34776,-133.333333333333,4,1,0,100,0,0
36475,-66.6666666666667,4,1,0,100,0,0
43361,-66.6666666666667,4,1,0,5,0,0
43456,-66.6666666666667,4,1,0,100,0,0
43550,-66.6666666666667,4,1,0,5,0,0
43644,-66.6666666666667,4,1,0,100,0,0
45154,-200,4,1,0,100,0,0
46192,-66.6666666666667,4,1,0,100,0,0
48361,-500,4,1,0,100,0,0
49022,-500,4,1,0,5,0,0
49116,-500,4,1,0,100,0,0
59682,-100,4,1,0,100,0,0
60437,-133.333333333333,4,1,0,100,0,0
61569,-40,4,1,0,100,0,0

[Colours]
Combo1 : 255,83,83
Combo2 : 10,233,210
Combo3 : 255,255,21
Combo4 : 255,0,0

[HitObjects]
96,96,1569,6,0,L|134:70,1,45
204,21,1946,2,0,P|219:65|219:78,1,45
186,147,2324,2,0,L|148:172,2,45
248,86,2890,2,0,P|274:65|307:57,1,67.5
389,62,3267,2,0,P|379:95|360:120,1,67.5
422,174,3644,2,0,P|395:194|363:203,1,67.5
359,120,4022,2,0,P|302:138|276:187,1,112.5
306,260,4588,6,0,L|308:314,1,45
276,338,4965,2,0,L|274:392,1,45
274,382,5531,2,0,L|276:338,1,45
307,304,5909,2,0,L|306:260,1,45
368,161,6286,1,0,0:0:0:0:
306,226,6475,1,0,0:0:0:0:
244,161,6663,1,0,0:0:0:0:
182,226,6852,2,0,L|144:268,3,45
85,320,7607,38,0,P|64:284|62:261,1,45
73,191,7984,2,0,L|103:157,1,45
165,92,8361,2,0,L|195:58,2,45
103,157,8927,2,0,P|129:178|162:186,1,67.5
244,181,9305,2,0,P|234:148|215:123,1,67.5
277,69,9682,2,0,P|250:49|218:40,1,67.5
212,0,10060,2,0,P|265:13|314:60,1,112.5
352,208,10626,5,0,0:0:0:0:
137,169,12135,37,0,0:0:0:0:
122,153,12229,1,0,0:0:0:0:
107,137,12324,2,0,L|81:109,2,22.5
278,210,12512,5,0,0:0:0:0:
293,226,12607,1,0,0:0:0:0:
308,242,12701,2,0,L|334:270,2,22.5
205,39,12890,2,0,L|179:11,7,22.5
277,56,13267,2,0,L|317:99,1,45
235,143,13456,2,0,L|275:186,1,45
272,269,13644,37,0,0:0:0:0:
315,261,13739,1,0,0:0:0:0:
348,231,13833,1,0,0:0:0:0:
360,188,13927,2,0,L|434:165,1,67.5000025749208
301,109,14116,2,0,L|365:88,1,67.5000025749208
241,29,14305,1,0,0:0:0:0:
241,29,14399,2,0,L|176:49,1,67.5000025749208
44,90,14588,2,0,L|64:154,1,67.5000025749208
56,240,14776,1,0,0:0:0:0:
99,232,14871,1,0,0:0:0:0:
132,202,14965,1,0,0:0:0:0:
132,202,15154,5,0,0:0:0:0:
99,232,15248,1,0,0:0:0:0:
56,240,15343,1,0,0:0:0:0:
64,154,15437,2,0,P|97:116|140:111,1,67.5000025749208
201,214,15626,2,0,P|230:198|249:171,1,67.5000025749208
251,87,15814,1,0,0:0:0:0:
251,87,15909,2,0,L|176:63,2,67.5000025749208
335,193,16192,2,0,P|364:177|383:150,1,67.5000025749208
480,48,16380,2,0,L|480:128,1,67.5000025749208
390,111,16663,37,0,0:0:0:0:
398,154,16758,1,0,0:0:0:0:
428,187,16852,1,0,0:0:0:0:
471,199,16946,2,0,L|471:279,1,67.5000025749208
336,285,17135,2,0,L|336:365,1,67.5000025749208
201,199,17324,1,0,0:0:0:0:
201,199,17418,2,0,L|201:279,1,67.5000025749208
336,112,17607,2,0,L|336:180,1,67.5000025749208
201,199,17795,2,0,L|201:279,2,67.5000025749208
74,126,18173,6,0,L|44:92,1,40.4999987640381
201,288,18456,2,0,L|231:320,1,40.4999987640381
156,86,18739,2,0,L|128:53,1,40.4999987640381
283,248,19022,2,0,L|311:281,1,40.4999987640381
238,46,19305,2,0,L|207:12,1,45
365,208,19493,2,0,L|399:244,1,45
474,267,19682,37,0,0:0:0:0:
451,304,19776,1,0,0:0:0:0:
411,324,19871,1,0,0:0:0:0:
366,320,19965,2,0,L|318:380,1,67.5000025749208
296,233,20154,2,0,L|248:172,1,67.5000025749208
395,240,20343,1,0,0:0:0:0:
395,240,20437,2,0,L|347:179,1,67.5000025749208
366,320,20626,2,0,L|318:380,1,67.5000025749208
296,233,20814,1,0,0:0:0:0:
275,206,20909,1,0,0:0:0:0:
254,180,21003,1,0,0:0:0:0:
395,240,21192,5,0,0:0:0:0:
374,213,21286,1,0,0:0:0:0:
353,187,21380,1,0,0:0:0:0:
421,139,21475,2,0,P|388:101|345:96,1,67.5000025749208
284,199,21663,2,0,P|255:183|236:156,1,67.5000025749208
234,72,21852,1,0,0:0:0:0:
234,72,21946,2,0,L|309:48,2,67.5000025749208
150,178,22229,2,0,P|121:162|102:135,1,67.5000025749208
5,33,22418,2,0,L|5:113,1,67.5000025749208
84,97,22701,37,0,0:0:0:0:
76,140,22795,1,0,0:0:0:0:
46,173,22890,1,0,0:0:0:0:
3,185,22984,2,0,L|3:265,1,67.5000025749208
138,271,23173,2,0,L|138:351,1,67.5000025749208
272,192,23361,5,0,0:0:0:0:
272,203,23456,1,0,0:0:0:0:
272,214,23550,1,0,0:0:0:0:
271,226,23644,1,0,0:0:0:0:
356,222,23739,1,0,0:0:0:0:
415,160,23833,1,0,0:0:0:0:
412,75,23927,1,0,0:0:0:0:
351,15,24022,1,0,0:0:0:0:
265,17,24116,1,0,0:0:0:0:
266,17,24871,37,0,0:0:0:0:
266,17,24965,2,0,L|252:51,1,33.7500012874604
214,145,25154,1,0,0:0:0:0:
213,163,25248,1,0,0:0:0:0:
302,239,25343,1,0,0:0:0:0:
303,257,25437,1,0,0:0:0:0:
214,333,25531,1,0,0:0:0:0:
215,351,25626,1,0,0:0:0:0:
192,352,25720,1,0,0:0:0:0:
192,352,25909,6,0,L|144:352,2,33.7500012874604
160,272,26286,2,0,L|112:272,2,33.7500012874604
128,192,26663,2,0,L|80:192,2,33.7500012874604
304,144,27041,38,0,L|387:114,2,67.5000025749208
96,112,27418,6,0,L|48:112,2,33.7500012874604
272,64,27795,38,0,L|355:34,2,67.5000025749208
247,71,28078,1,0,0:0:0:0:
223,79,28173,1,0,0:0:0:0:
199,87,28267,1,0,0:0:0:0:
176,94,28361,2,0,L|128:112,1,47.2499985580445
52,0,28739,2,0,L|106:46,1,67.5000025749208
229,81,29116,5,0,0:0:0:0:
313,56,29305,2,0,L|346:56,2,33.7500012874604
345,136,29682,2,0,L|378:136,2,33.7500012874604
169,184,30060,38,0,L|86:214,2,67.5000025749208
377,216,30437,6,0,L|410:216,2,33.7500012874604
215,245,30814,1,0,0:0:0:0:
176,260,30909,1,0,0:0:0:0:
144,288,31003,2,0,P|127:306|121:319,1,33.7500012874604
307,199,31192,38,0,L|365:144,1,78.7499975967408
366,325,31758,5,0,0:0:0:0:
278,326,31946,2,0,L|232:326,2,33.7500012874604
332,256,32324,2,0,L|286:256,2,33.7500012874604
161,256,32701,1,0,0:0:0:0:
144,256,32795,1,0,0:0:0:0:
127,256,32890,1,0,0:0:0:0:
336,258,33078,2,0,L|416:258,2,67.5000025749208
244,161,33456,2,0,L|198:161,2,33.7500012874604
336,64,33833,2,0,L|416:64,2,67.5000025749208
100,176,34210,38,0,L|118:159,1,24.7500007553101
270,20,34399,2,0,L|253:38,1,24.7500007553101
110,186,34588,2,0,L|128:169,1,24.7500007553101
273,33,34776,2,0,L|273:66,2,33.7500012874604
343,87,35154,2,0,L|343:120,2,33.7500012874604
413,141,35531,2,0,L|413:174,2,33.7500012874604
483,195,35909,2,0,L|483:228,1,33.7500012874604
481,270,36097,1,0,0:0:0:0:
481,311,36192,1,0,0:0:0:0:
481,352,36286,1,0,0:0:0:0:
412,90,36475,6,0,L|412:15,1,67.5000025749208
343,284,36663,2,0,L|343:359,1,67.5000025749208
251,131,36852,2,0,P|234:104|202:73,1,67.5000025749208
151,145,37041,2,0,P|131:119|97:92,1,67.5000025749208
69,177,37229,2,0,P|86:204|117:234,1,67.5000025749208
69,295,37418,2,0,P|101:307|143:302,3,67.5000025749208
69,177,37795,37,0,0:0:0:0:
69,177,37890,1,0,0:0:0:0:
69,177,37984,2,0,P|92:135|107:93,1,67.5000025749208
206,58,38173,2,0,P|192:88|175:118,1,67.5000025749208
125,228,38361,2,0,P|111:258|94:288,2,67.5000025749208
195,127,38644,1,0,0:0:0:0:
142,237,38739,1,0,0:0:0:0:
328,82,38927,1,0,0:0:0:0:
328,82,39116,6,0,P|299:115|284:141,1,67.5000025749208
409,142,39305,2,0,P|438:175|453:201,1,67.5000025749208
328,202,39493,2,0,P|299:235|284:261,1,67.5000025749208
450,195,39682,2,0,P|457:148|457:108,1,67.5000025749208
342,88,39871,2,0,P|335:40|335:0,2,67.5000025749208
230,138,40154,1,0,0:0:0:0:
283,28,40248,1,0,0:0:0:0:
110,183,40437,1,0,0:0:0:0:
110,183,40626,37,0,0:0:0:0:
110,183,40814,2,0,P|55:209|26:229,2,67.5000025749208
60,333,41097,1,0,0:0:0:0:
60,333,41192,2,0,P|5:359|-24:379,1,67.5000025749208
110,182,41380,6,0,P|78:196|49:212,2,67.5000025749208
224,140,41663,1,0,0:0:0:0:
171,250,41758,1,0,0:0:0:0:
344,95,41946,1,0,0:0:0:0:
344,95,42135,38,0,P|309:71|271:59,1,67.5000025749208
244,177,42324,2,0,P|212:164|185:144,1,67.5000025749208
223,29,42512,2,0,P|188:5|154:-3,1,67.5000025749208
185,144,42701,2,0,P|212:164|244:177,1,67.5000025749208
285,62,42890,2,0,P|316:75|344:95,1,67.5000025749208
400,151,43078,1,0,0:0:0:0:
413,166,43173,1,0,0:0:0:0:
251,217,43267,2,0,L|180:233,1,67.5000025749208
294,101,43456,2,0,L|359:86,1,67.5000025749208
358,290,43644,1,0,0:0:0:0:
372,306,43739,1,0,0:0:0:0:
451,118,43833,1,0,0:0:0:0:
451,118,44022,6,0,L|445:34,1,67.5000025749208
369,169,44210,2,0,L|363:253,1,67.5000025749208
287,118,44398,2,0,L|281:34,2,67.5000025749208
234,250,44682,1,0,0:0:0:0:
181,140,44777,1,0,0:0:0:0:
354,295,44965,1,0,0:0:0:0:
361,303,45154,38,0,L|349:259,1,45
298,74,45531,2,0,L|286:118,1,45
242,295,45909,2,0,L|230:251,1,45
186,115,46192,1,0,0:0:0:0:
239,225,46287,1,0,0:0:0:0:
66,70,46475,1,0,0:0:0:0:
66,70,46663,5,0,0:0:0:0:
66,70,46852,2,0,P|114:64|214:115,1,135.000005149842
290,240,47229,2,0,P|350:268|417:264,1,135.000005149842
61,68,47607,1,0,0:0:0:0:
119,65,47701,1,0,0:0:0:0:
175,83,47795,1,0,0:0:0:0:
216,125,47890,1,0,0:0:0:0:
244,176,47984,1,0,0:0:0:0:
277,226,48078,1,0,0:0:0:0:
324,260,48173,1,0,0:0:0:0:
382,270,48267,1,0,0:0:0:0:
438,255,48361,2,0,L|482:208,1,63
256,288,49116,2,0,L|219:327,1,54
256,96,49871,38,0,L|256:59,1,36
256,60,50437,1,0,0:0:0:0:
256,288,50626,2,0,L|256:309,1,18
256,306,51003,1,0,0:0:0:0:
290,102,51192,2,0,L|297:83,1,18
221,281,51569,1,0,0:0:0:0:
320,120,51758,2,0,L|333:104,1,18
191,263,52135,1,0,0:0:0:0:
320,120,52324,2,0,L|344:93,1,36
344,93,52795,5,0,0:0:0:0:
344,93,52890,1,0,0:0:0:0:
170,235,53078,1,0,0:0:0:0:
341,148,53267,2,0,L|360:139,1,18,0|0,0:3|0:3,0:3:0:0:
161,203,53644,2,0,L|140:205,1,18,0|0,0:3|0:3,0:3:0:0:
352,182,54022,1,0,0:0:0:0:
163,167,54210,2,0,L|143:161,1,18,0|0,0:3|0:3,0:3:0:0:
348,216,54588,1,0,0:0:0:0:
173,132,54776,2,0,L|158:120,1,18,0|0,0:3|0:3,0:3:0:0:
338,250,55154,1,0,0:0:0:0:
185,84,55343,1,0,0:0:0:0:
325,297,55531,1,0,0:0:0:0:
228,66,55720,1,0,0:0:0:0:
279,285,55909,38,0,L|292:340,1,54
232,98,56663,1,0,0:0:0:0:
311,270,56852,1,0,0:0:0:0:
200,113,57041,1,0,0:0:0:0:
337,244,57229,2,0,L|353:254,1,18
176,138,57607,1,0,0:0:0:0:
349,213,57795,2,0,L|368:217,1,18
162,170,58173,1,0,0:0:0:0:
350,178,58361,2,0,L|388:170,1,36
385,170,58833,5,0,0:0:0:0:
385,170,58927,1,0,0:0:0:0:
160,205,59116,1,0,0:0:0:0:
369,125,59305,1,0,0:0:0:0:
172,238,59493,1,0,0:0:0:0:
337,89,59682,38,0,L|368:64,7,22.5
337,89,60060,1,0,0:0:0:0:
270,88,60154,1,0,0:0:0:0:
210,115,60248,1,0,0:0:0:0:
167,167,60343,1,0,0:0:0:0:
143,230,60437,2,0,B|108:258|108:258|73:117|185:44|253:42,1,337.500012874604
247,42,61475,1,0,0:0:0:0:
247,42,61569,6,0,B|309:43|421:116|386:257|386:257|345:226,1,337.5
