osu file format v14

[General]
AudioFilename: audio.mp3
AudioLeadIn: 0
PreviewTime: 34194
Countdown: 1
SampleSet: None
StackLeniency: 0.7
Mode: 3
LetterboxInBreaks: 0
SpecialStyle: 0
WidescreenStoryboard: 1

[Editor]
DistanceSpacing: 0.6
BeatDivisor: 4
GridSize: 32
TimelineZoom: 2.4

[Metadata]
Title:HYMN
TitleUnicode:НУМЛ
Artist:Zutt
ArtistUnicode:Zutt
Creator:nyanmi-1828
Version:EX
Source:pop'n music うさぎと猫と少年の夢
Tags:SOUND VOLTEX IV HEAVENLY HAVEN sdvx wac pon
BeatmapID:1932879
BeatmapSetID:925320

[Difficulty]
HPDrainRate:8
CircleSize:7
OverallDifficulty:9
ApproachRate:5
SliderMultiplier:1.4
SliderTickRate:1

[Events]
//Background and Video events
0,0,"56149210_p0(RGB)(noise_scale)(Level0)(1920x1080).png",0,0
//Break Periods
//Storyboard Layer 0 (Background)
//Storyboard Layer 1 (Fail)
//Storyboard Layer 2 (Pass)
//Storyboard Layer 3 (Foreground)
//Storyboard Sound Samples

[TimingPoints]
600,379.746835443038,4,1,0,70,1,0
600,-142.857142857143,4,1,0,70,0,0
21865,-117.647058823529,4,1,0,90,0,0
23384,379.746835443038,4,1,0,90,1,8
23394,300,4,1,0,90,1,0
23394,-111.111111111111,4,1,0,90,0,0
29394,-125,4,1,0,70,0,0
34194,-100,4,1,0,90,0,0
53394,-100,4,1,0,90,0,0
65394,300,6,1,0,95,1,1
65394,-100,6,1,0,95,0,1
79794,379.746835443038,4,1,0,90,1,8
80553,379.746835443038,4,1,0,90,1,0
86628,379.746835443038,5,1,0,95,1,0
86628,-76.9230769230769,5,1,0,95,0,0
88337,379.746835443038,5,1,0,95,1,0
88337,-76.9230769230769,5,1,0,95,0,0
90236,379.746835443038,5,1,0,95,1,0
90236,-76.9230769230769,5,1,0,95,0,0
91945,379.746835443038,5,1,0,95,1,0
91945,-76.9230769230769,5,1,0,95,0,0
93654,379.746835443038,5,1,0,95,1,0
93654,-76.9230769230769,5,1,0,95,0,0
95553,379.746835443038,5,1,0,95,1,0
95553,-76.9230769230769,5,1,0,95,0,0
97261,379.746835443038,4,1,0,95,1,0
97261,-90.9090909090909,4,1,0,95,0,0
100298,379.746835443038,4,1,0,95,1,8
101019,300,4,1,0,70,1,0
101019,-125,4,1,0,70,0,0
105069,-100,4,1,0,90,0,0
125019,-100,4,1,0,90,0,1
134619,-100,4,1,0,90,0,0
135819,-111.111111111111,4,1,0,70,0,0
138219,312.5,4,1,0,70,1,0
138219,-117.647058823529,4,1,0,70,0,0
140094,322.58064516129,4,1,0,70,1,8
140094,-114.942528735632,4,1,0,70,0,0
140416,315.789473684211,4,1,0,70,1,8
140416,-117.647058823529,4,1,0,70,0,0
140731,315.789473684211,4,1,0,70,1,0
140731,-117.647058823529,4,1,0,70,0,0

[HitObjects]
36,192,600,5,0,0:0:0:0:
475,192,600,1,0,0:0:0:0:
256,192,1359,1,0,0:0:0:0:
109,192,2118,1,0,0:0:0:0:
329,192,2878,1,0,0:0:0:0:
402,192,3258,1,0,0:0:0:0:
36,192,3637,1,0,0:0:0:0:
36,192,6675,1,0,0:0:0:0:
256,192,7435,1,0,0:0:0:0:
109,192,8194,1,0,0:0:0:0:
329,192,8954,1,0,0:0:0:0:
402,192,9334,1,0,0:0:0:0:
182,192,9713,1,0,0:0:0:0:
36,192,12751,1,0,0:0:0:0:
329,192,12751,1,0,0:0:0:0:
402,192,13131,1,0,0:0:0:0:
256,192,13511,1,0,0:0:0:0:
109,192,14270,1,0,0:0:0:0:
402,192,14270,1,0,0:0:0:0:
475,192,14650,1,0,0:0:0:0:
402,192,15030,1,0,0:0:0:0:
329,192,15410,1,0,0:0:0:0:
256,192,15789,1,0,0:0:0:0:
109,192,15789,1,0,0:0:0:0:
182,192,16169,1,0,0:0:0:0:
402,192,16549,1,0,0:0:0:0:
36,192,18827,1,0,0:0:0:0:
402,192,18827,1,0,0:0:0:0:
475,192,19207,1,0,0:0:0:0:
256,192,19587,1,0,0:0:0:0:
109,192,20346,1,0,0:0:0:0:
402,192,20346,1,0,0:0:0:0:
475,192,20726,1,0,0:0:0:0:
402,192,21106,1,0,0:0:0:0:
329,192,21486,1,0,0:0:0:0:
109,192,21865,1,0,0:0:0:0:
182,192,21865,1,0,0:0:0:0:
256,192,21865,1,0,0:0:0:0:
402,192,21865,1,0,0:0:0:0:
329,192,21865,1,0,0:0:0:0:
182,192,22245,1,0,0:0:0:0:
36,192,22625,1,0,0:0:0:0:
402,192,22625,1,0,0:0:0:0:
329,192,24594,1,0,0:0:0:0:
402,192,24594,1,0,0:0:0:0:
109,192,24594,1,0,0:0:0:0:
329,192,24744,1,0,0:0:0:0:
329,192,24894,1,0,0:0:0:0:
256,192,24894,1,0,0:0:0:0:
329,192,25044,1,0,0:0:0:0:
329,192,25194,1,0,0:0:0:0:
475,192,25194,1,0,0:0:0:0:
36,192,25194,1,0,0:0:0:0:
329,192,25344,1,0,0:0:0:0:
329,192,25494,1,0,0:0:0:0:
329,192,25644,1,0,0:0:0:0:
256,192,25794,1,0,0:0:0:0:
36,192,25794,1,0,0:0:0:0:
475,192,25794,1,0,0:0:0:0:
329,192,25794,1,0,0:0:0:0:
182,192,25944,1,0,0:0:0:0:
402,192,26094,1,0,0:0:0:0:
182,192,26244,1,0,0:0:0:0:
329,192,26394,1,0,0:0:0:0:
475,192,26394,1,0,0:0:0:0:
36,192,26394,1,0,0:0:0:0:
256,192,26544,1,0,0:0:0:0:
182,192,26694,1,0,0:0:0:0:
256,192,26844,1,0,0:0:0:0:
329,192,26994,1,0,0:0:0:0:
402,192,26994,1,0,0:0:0:0:
475,192,26994,1,0,0:0:0:0:
182,192,26994,1,0,0:0:0:0:
36,192,26994,1,0,0:0:0:0:
182,192,27144,1,0,0:0:0:0:
182,192,27294,1,0,0:0:0:0:
256,192,27294,1,0,0:0:0:0:
182,192,27444,1,0,0:0:0:0:
182,192,27594,1,0,0:0:0:0:
36,192,27594,1,0,0:0:0:0:
475,192,27594,1,0,0:0:0:0:
182,192,27744,1,0,0:0:0:0:
182,192,27894,1,0,0:0:0:0:
182,192,28044,1,0,0:0:0:0:
256,192,28194,1,0,0:0:0:0:
475,192,28194,1,0,0:0:0:0:
36,192,28194,1,0,0:0:0:0:
182,192,28344,1,0,0:0:0:0:
109,192,28494,1,0,0:0:0:0:
182,192,28644,1,0,0:0:0:0:
475,192,28794,1,0,0:0:0:0:
36,192,28794,1,0,0:0:0:0:
402,192,28794,1,0,0:0:0:0:
256,192,28794,1,0,0:0:0:0:
329,192,28944,1,0,0:0:0:0:
182,192,29094,1,0,0:0:0:0:
329,192,29244,1,0,0:0:0:0:
109,192,29394,1,0,0:0:0:0:
475,192,29394,1,0,0:0:0:0:
109,192,29594,1,0,0:0:0:0:
402,192,29594,1,0,0:0:0:0:
329,192,29794,1,0,0:0:0:0:
109,192,29794,1,0,0:0:0:0:
402,192,29994,1,0,0:0:0:0:
36,192,29994,1,0,0:0:0:0:
402,192,30194,1,0,0:0:0:0:
109,192,30194,1,0,0:0:0:0:
402,192,30394,1,0,0:0:0:0:
182,192,30394,1,0,0:0:0:0:
329,192,30594,1,0,0:0:0:0:
182,192,30594,1,0,0:0:0:0:
36,192,30794,1,0,0:0:0:0:
475,192,30794,1,0,0:0:0:0:
329,192,30994,1,0,0:0:0:0:
182,192,30994,1,0,0:0:0:0:
475,192,31194,1,0,0:0:0:0:
329,192,31194,1,0,0:0:0:0:
256,192,31194,1,0,0:0:0:0:
182,192,31394,1,0,0:0:0:0:
109,192,31394,1,0,0:0:0:0:
36,192,31394,1,0,0:0:0:0:
329,192,31594,1,0,0:0:0:0:
402,192,31594,1,0,0:0:0:0:
475,192,31594,1,0,0:0:0:0:
182,192,31794,1,0,0:0:0:0:
109,192,31794,1,0,0:0:0:0:
36,192,31994,1,0,0:0:0:0:
256,192,32194,1,0,0:0:0:0:
182,192,32194,1,0,0:0:0:0:
109,192,32394,1,0,0:0:0:0:
329,192,32594,1,0,0:0:0:0:
256,192,32594,1,0,0:0:0:0:
182,192,32794,1,0,0:0:0:0:
329,192,32994,1,0,0:0:0:0:
475,192,32994,1,0,0:0:0:0:
109,192,33094,1,0,0:0:0:0:
36,192,33094,1,0,0:0:0:0:
256,192,33194,1,0,0:0:0:0:
182,192,33194,1,0,0:0:0:0:
329,192,33294,1,0,0:0:0:0:
402,192,33294,1,0,0:0:0:0:
109,192,33394,1,0,0:0:0:0:
36,192,33394,1,0,0:0:0:0:
475,192,33494,1,0,0:0:0:0:
329,192,33494,1,0,0:0:0:0:
256,192,33594,1,0,0:0:0:0:
182,192,33594,1,0,0:0:0:0:
109,192,33694,1,0,0:0:0:0:
36,192,33694,1,0,0:0:0:0:
329,192,33794,1,0,0:0:0:0:
402,192,33794,1,0,0:0:0:0:
475,192,33794,1,0,0:0:0:0:
256,192,33894,1,0,0:0:0:0:
182,192,33894,1,0,0:0:0:0:
475,192,33994,1,0,0:0:0:0:
36,192,33994,1,0,0:0:0:0:
182,192,34094,1,0,0:0:0:0:
329,192,34094,1,0,0:0:0:0:
36,192,34194,1,0,0:0:0:0:
475,192,34194,1,0,0:0:0:0:
256,192,34194,1,0,0:0:0:0:
256,192,34344,1,0,0:0:0:0:
36,192,34494,1,0,0:0:0:0:
256,192,34644,1,0,0:0:0:0:
36,192,34794,1,0,0:0:0:0:
109,192,34794,1,0,0:0:0:0:
256,192,34794,1,0,0:0:0:0:
256,192,34944,1,0,0:0:0:0:
36,192,35094,1,0,0:0:0:0:
256,192,35244,1,0,0:0:0:0:
182,192,35394,1,0,0:0:0:0:
109,192,35394,1,0,0:0:0:0:
329,192,35394,1,0,0:0:0:0:
329,192,35544,1,0,0:0:0:0:
182,192,35694,1,0,0:0:0:0:
329,192,35844,1,0,0:0:0:0:
109,192,35994,1,0,0:0:0:0:
182,192,35994,1,0,0:0:0:0:
402,192,35994,1,0,0:0:0:0:
329,192,36144,1,0,0:0:0:0:
256,192,36294,1,0,0:0:0:0:
109,192,36294,1,0,0:0:0:0:
36,192,36294,1,0,0:0:0:0:
402,192,36294,1,0,0:0:0:0:
475,192,36444,1,0,0:0:0:0:
109,192,36594,1,0,0:0:0:0:
475,192,36744,1,0,0:0:0:0:
402,192,36744,1,0,0:0:0:0:
109,192,36894,1,0,0:0:0:0:
329,192,37044,1,0,0:0:0:0:
475,192,37044,1,0,0:0:0:0:
109,192,37194,1,0,0:0:0:0:
256,192,37344,1,0,0:0:0:0:
475,192,37344,1,0,0:0:0:0:
109,192,37494,1,0,0:0:0:0:
329,192,37644,1,0,0:0:0:0:
475,192,37644,1,0,0:0:0:0:
256,192,37794,1,0,0:0:0:0:
109,192,37794,1,0,0:0:0:0:
182,192,37944,1,0,0:0:0:0:
36,192,37944,1,0,0:0:0:0:
475,192,37944,1,0,0:0:0:0:
329,192,37944,1,0,0:0:0:0:
256,192,38094,1,0,0:0:0:0:
109,192,38094,1,0,0:0:0:0:
329,192,38244,1,0,0:0:0:0:
182,192,38244,1,0,0:0:0:0:
475,192,38244,1,0,0:0:0:0:
402,192,38394,1,0,0:0:0:0:
475,192,38544,1,0,0:0:0:0:
329,192,38544,1,0,0:0:0:0:
182,192,38544,1,0,0:0:0:0:
109,192,38544,1,0,0:0:0:0:
475,192,38844,1,0,0:0:0:0:
402,192,38994,1,0,0:0:0:0:
256,192,38994,1,0,0:0:0:0:
109,192,38994,1,0,0:0:0:0:
256,192,39144,1,0,0:0:0:0:
36,192,39294,1,0,0:0:0:0:
256,192,39444,1,0,0:0:0:0:
36,192,39594,1,0,0:0:0:0:
109,192,39594,1,0,0:0:0:0:
256,192,39594,1,0,0:0:0:0:
256,192,39744,1,0,0:0:0:0:
36,192,39894,1,0,0:0:0:0:
256,192,40044,1,0,0:0:0:0:
182,192,40194,1,0,0:0:0:0:
109,192,40194,1,0,0:0:0:0:
329,192,40194,1,0,0:0:0:0:
329,192,40344,1,0,0:0:0:0:
182,192,40494,1,0,0:0:0:0:
329,192,40644,1,0,0:0:0:0:
109,192,40794,1,0,0:0:0:0:
182,192,40794,1,0,0:0:0:0:
402,192,40794,1,0,0:0:0:0:
329,192,40944,1,0,0:0:0:0:
256,192,41094,1,0,0:0:0:0:
109,192,41094,1,0,0:0:0:0:
36,192,41094,1,0,0:0:0:0:
402,192,41094,1,0,0:0:0:0:
475,192,41244,1,0,0:0:0:0:
109,192,41394,1,0,0:0:0:0:
475,192,41544,1,0,0:0:0:0:
402,192,41544,1,0,0:0:0:0:
109,192,41694,1,0,0:0:0:0:
329,192,41844,1,0,0:0:0:0:
475,192,41844,1,0,0:0:0:0:
109,192,41994,1,0,0:0:0:0:
256,192,42144,1,0,0:0:0:0:
475,192,42144,1,0,0:0:0:0:
109,192,42294,1,0,0:0:0:0:
256,192,42444,1,0,0:0:0:0:
475,192,42444,1,0,0:0:0:0:
475,192,42594,1,0,0:0:0:0:
329,192,42594,1,0,0:0:0:0:
109,192,42594,1,0,0:0:0:0:
402,192,42744,1,0,0:0:0:0:
256,192,42744,1,0,0:0:0:0:
182,192,42894,1,0,0:0:0:0:
329,192,42894,1,0,0:0:0:0:
36,192,42894,1,0,0:0:0:0:
402,192,43044,1,0,0:0:0:0:
109,192,43044,1,0,0:0:0:0:
256,192,43044,1,0,0:0:0:0:
475,192,43344,1,0,0:0:0:0:
402,192,43344,1,0,0:0:0:0:
256,192,43344,1,0,0:0:0:0:
109,192,43344,1,0,0:0:0:0:
475,192,43494,1,0,0:0:0:0:
182,192,43494,1,0,0:0:0:0:
36,192,43494,1,0,0:0:0:0:
402,192,43644,1,0,0:0:0:0:
109,192,43644,1,0,0:0:0:0:
256,192,43644,1,0,0:0:0:0:
256,192,43794,1,0,0:0:0:0:
36,192,43794,1,0,0:0:0:0:
402,192,43794,1,0,0:0:0:0:
182,192,43944,1,0,0:0:0:0:
475,192,44094,1,0,0:0:0:0:
329,192,44094,1,0,0:0:0:0:
36,192,44094,1,0,0:0:0:0:
475,192,44244,1,0,0:0:0:0:
329,192,44394,1,0,0:0:0:0:
182,192,44394,1,0,0:0:0:0:
36,192,44394,1,0,0:0:0:0:
256,192,44544,1,0,0:0:0:0:
36,192,44694,1,0,0:0:0:0:
256,192,44844,1,0,0:0:0:0:
329,192,44994,1,0,0:0:0:0:
475,192,44994,1,0,0:0:0:0:
36,192,44994,1,0,0:0:0:0:
402,192,45144,1,0,0:0:0:0:
109,192,45294,1,0,0:0:0:0:
329,192,45294,1,0,0:0:0:0:
182,192,45294,1,0,0:0:0:0:
402,192,45444,1,0,0:0:0:0:
109,192,45594,1,0,0:0:0:0:
36,192,45594,1,0,0:0:0:0:
329,192,45594,1,0,0:0:0:0:
256,192,45744,1,0,0:0:0:0:
329,192,45794,1,0,0:0:0:0:
475,192,45894,1,0,0:0:0:0:
402,192,45894,1,0,0:0:0:0:
36,192,45894,1,0,0:0:0:0:
109,192,45894,1,0,0:0:0:0:
329,192,45994,1,0,0:0:0:0:
256,192,46044,1,0,0:0:0:0:
109,192,46194,1,0,0:0:0:0:
182,192,46194,1,0,0:0:0:0:
402,192,46194,1,0,0:0:0:0:
329,192,46344,1,0,0:0:0:0:
182,192,46494,1,0,0:0:0:0:
36,192,46494,1,0,0:0:0:0:
402,192,46494,1,0,0:0:0:0:
475,192,46494,1,0,0:0:0:0:
329,192,46644,1,0,0:0:0:0:
256,192,46794,1,0,0:0:0:0:
402,192,46794,1,0,0:0:0:0:
36,192,46794,1,0,0:0:0:0:
329,192,46944,1,0,0:0:0:0:
329,192,47094,1,0,0:0:0:0:
109,192,47094,1,0,0:0:0:0:
329,192,47244,1,0,0:0:0:0:
256,192,47394,1,0,0:0:0:0:
109,192,47394,1,0,0:0:0:0:
182,192,47544,1,0,0:0:0:0:
36,192,47544,1,0,0:0:0:0:
109,192,47694,1,0,0:0:0:0:
256,192,47694,1,0,0:0:0:0:
182,192,47844,1,0,0:0:0:0:
329,192,47844,1,0,0:0:0:0:
475,192,47844,1,0,0:0:0:0:
475,192,48144,1,0,0:0:0:0:
329,192,48144,1,0,0:0:0:0:
182,192,48144,1,0,0:0:0:0:
329,192,48294,1,0,0:0:0:0:
182,192,48294,1,0,0:0:0:0:
475,192,48294,1,0,0:0:0:0:
256,192,48369,1,0,0:0:0:0:
109,192,48369,1,0,0:0:0:0:
182,192,48444,1,0,0:0:0:0:
36,192,48444,1,0,0:0:0:0:
402,192,48594,1,0,0:0:0:0:
256,192,48594,1,0,0:0:0:0:
36,192,48594,1,0,0:0:0:0:
182,192,48744,1,0,0:0:0:0:
329,192,48894,1,0,0:0:0:0:
475,192,48894,1,0,0:0:0:0:
36,192,48894,1,0,0:0:0:0:
256,192,49044,1,0,0:0:0:0:
329,192,49194,1,0,0:0:0:0:
182,192,49194,1,0,0:0:0:0:
36,192,49194,1,0,0:0:0:0:
402,192,49344,1,0,0:0:0:0:
36,192,49494,1,0,0:0:0:0:
402,192,49644,1,0,0:0:0:0:
329,192,49794,1,0,0:0:0:0:
36,192,49794,1,0,0:0:0:0:
109,192,49944,1,0,0:0:0:0:
402,192,50094,1,0,0:0:0:0:
36,192,50094,1,0,0:0:0:0:
109,192,50244,1,0,0:0:0:0:
36,192,50394,1,0,0:0:0:0:
256,192,50394,1,0,0:0:0:0:
182,192,50594,1,0,0:0:0:0:
475,192,50619,1,0,0:0:0:0:
402,192,50619,1,0,0:0:0:0:
256,192,50694,1,0,0:0:0:0:
182,192,50794,1,0,0:0:0:0:
475,192,50844,1,0,0:0:0:0:
402,192,50844,1,0,0:0:0:0:
256,192,50994,1,0,0:0:0:0:
36,192,50994,1,0,0:0:0:0:
475,192,51144,1,0,0:0:0:0:
182,192,51294,1,0,0:0:0:0:
36,192,51294,1,0,0:0:0:0:
256,192,51444,1,0,0:0:0:0:
329,192,51594,1,0,0:0:0:0:
36,192,51594,1,0,0:0:0:0:
402,192,51744,1,0,0:0:0:0:
109,192,51894,1,0,0:0:0:0:
182,192,51894,1,0,0:0:0:0:
329,192,52044,1,0,0:0:0:0:
36,192,52194,1,0,0:0:0:0:
402,192,52344,1,0,0:0:0:0:
475,192,52344,1,0,0:0:0:0:
36,192,52494,1,0,0:0:0:0:
256,192,52494,1,0,0:0:0:0:
109,192,52569,1,0,0:0:0:0:
182,192,52644,1,0,0:0:0:0:
475,192,52644,1,0,0:0:0:0:
256,192,52719,1,0,0:0:0:0:
329,192,52794,1,0,0:0:0:0:
36,192,52794,1,0,0:0:0:0:
402,192,52869,1,0,0:0:0:0:
475,192,52944,1,0,0:0:0:0:
329,192,52944,1,0,0:0:0:0:
256,192,53019,1,0,0:0:0:0:
475,192,53094,1,0,0:0:0:0:
182,192,53094,1,0,0:0:0:0:
109,192,53169,1,0,0:0:0:0:
36,192,53244,1,0,0:0:0:0:
475,192,53244,1,0,0:0:0:0:
109,192,53319,1,0,0:0:0:0:
475,192,53394,1,0,0:0:0:0:
256,192,53394,1,0,0:0:0:0:
329,192,53394,1,0,0:0:0:0:
182,192,53394,1,0,0:0:0:0:
109,192,53469,1,0,0:0:0:0:
36,192,53544,1,0,0:0:0:0:
256,192,53619,1,0,0:0:0:0:
329,192,53694,1,0,0:0:0:0:
182,192,53694,1,0,0:0:0:0:
329,192,53844,1,0,0:0:0:0:
36,192,53844,1,0,0:0:0:0:
475,192,53994,1,0,0:0:0:0:
109,192,53994,1,0,0:0:0:0:
182,192,53994,1,0,0:0:0:0:
329,192,54144,1,0,0:0:0:0:
36,192,54294,1,0,0:0:0:0:
182,192,54294,1,0,0:0:0:0:
402,192,54294,1,0,0:0:0:0:
329,192,54369,1,0,0:0:0:0:
182,192,54444,1,0,0:0:0:0:
329,192,54519,1,0,0:0:0:0:
402,192,54594,1,0,0:0:0:0:
36,192,54594,1,0,0:0:0:0:
182,192,54594,1,0,0:0:0:0:
329,192,54744,1,0,0:0:0:0:
475,192,54894,1,0,0:0:0:0:
109,192,54894,1,0,0:0:0:0:
402,192,55044,1,0,0:0:0:0:
109,192,55044,1,0,0:0:0:0:
475,192,55194,1,0,0:0:0:0:
329,192,55194,1,0,0:0:0:0:
256,192,55269,1,0,0:0:0:0:
182,192,55344,1,0,0:0:0:0:
329,192,55419,1,0,0:0:0:0:
402,192,55494,1,0,0:0:0:0:
109,192,55494,1,0,0:0:0:0:
36,192,55494,1,0,0:0:0:0:
329,192,55644,1,0,0:0:0:0:
109,192,55794,1,0,0:0:0:0:
402,192,55794,1,0,0:0:0:0:
475,192,55794,1,0,0:0:0:0:
329,192,55944,1,0,0:0:0:0:
182,192,56094,1,0,0:0:0:0:
109,192,56094,1,0,0:0:0:0:
329,192,56094,1,0,0:0:0:0:
256,192,56169,1,0,0:0:0:0:
109,192,56244,1,0,0:0:0:0:
182,192,56244,1,0,0:0:0:0:
329,192,56319,1,0,0:0:0:0:
402,192,56394,1,0,0:0:0:0:
475,192,56394,1,0,0:0:0:0:
182,192,56394,1,0,0:0:0:0:
329,192,56544,1,0,0:0:0:0:
182,192,56694,1,0,0:0:0:0:
36,192,56694,1,0,0:0:0:0:
329,192,56844,1,0,0:0:0:0:
475,192,56994,1,0,0:0:0:0:
402,192,56994,1,0,0:0:0:0:
256,192,57069,1,0,0:0:0:0:
109,192,57144,1,0,0:0:0:0:
256,192,57219,1,0,0:0:0:0:
402,192,57294,1,0,0:0:0:0:
475,192,57294,1,0,0:0:0:0:
36,192,57294,1,0,0:0:0:0:
109,192,57294,1,0,0:0:0:0:
329,192,57444,1,0,0:0:0:0:
109,192,57444,1,0,0:0:0:0:
475,192,57594,1,0,0:0:0:0:
109,192,57594,1,0,0:0:0:0:
329,192,57744,1,0,0:0:0:0:
475,192,57894,1,0,0:0:0:0:
109,192,57894,1,0,0:0:0:0:
182,192,57969,1,0,0:0:0:0:
109,192,58044,1,0,0:0:0:0:
329,192,58044,1,0,0:0:0:0:
182,192,58119,1,0,0:0:0:0:
475,192,58194,1,0,0:0:0:0:
36,192,58194,1,0,0:0:0:0:
402,192,58344,1,0,0:0:0:0:
256,192,58344,1,0,0:0:0:0:
256,192,58494,1,0,0:0:0:0:
109,192,58494,1,0,0:0:0:0:
182,192,58644,1,0,0:0:0:0:
36,192,58644,1,0,0:0:0:0:
475,192,58794,1,0,0:0:0:0:
329,192,58794,1,0,0:0:0:0:
182,192,58869,1,0,0:0:0:0:
329,192,58944,1,0,0:0:0:0:
182,192,59019,1,0,0:0:0:0:
329,192,59094,1,0,0:0:0:0:
475,192,59094,1,0,0:0:0:0:
36,192,59094,1,0,0:0:0:0:
182,192,59244,1,0,0:0:0:0:
475,192,59394,1,0,0:0:0:0:
36,192,59394,1,0,0:0:0:0:
256,192,59544,1,0,0:0:0:0:
109,192,59544,1,0,0:0:0:0:
402,192,59694,1,0,0:0:0:0:
329,192,59694,1,0,0:0:0:0:
256,192,59769,1,0,0:0:0:0:
182,192,59844,1,0,0:0:0:0:
329,192,59919,1,0,0:0:0:0:
402,192,59994,1,0,0:0:0:0:
475,192,59994,1,0,0:0:0:0:
109,192,59994,1,0,0:0:0:0:
329,192,60144,1,0,0:0:0:0:
182,192,60294,1,0,0:0:0:0:
36,192,60294,1,0,0:0:0:0:
402,192,60294,1,0,0:0:0:0:
329,192,60444,1,0,0:0:0:0:
402,192,60594,1,0,0:0:0:0:
475,192,60594,1,0,0:0:0:0:
256,192,60669,1,0,0:0:0:0:
109,192,60744,1,0,0:0:0:0:
256,192,60819,1,0,0:0:0:0:
402,192,60894,1,0,0:0:0:0:
329,192,60894,1,0,0:0:0:0:
182,192,60894,1,0,0:0:0:0:
402,192,61044,1,0,0:0:0:0:
329,192,61044,1,0,0:0:0:0:
475,192,61194,1,0,0:0:0:0:
36,192,61194,1,0,0:0:0:0:
402,192,61344,1,0,0:0:0:0:
182,192,61344,1,0,0:0:0:0:
329,192,61494,1,0,0:0:0:0:
109,192,61494,1,0,0:0:0:0:
36,192,61494,1,0,0:0:0:0:
256,192,61569,1,0,0:0:0:0:
182,192,61644,1,0,0:0:0:0:
256,192,61719,1,0,0:0:0:0:
329,192,61794,1,0,0:0:0:0:
109,192,61794,1,0,0:0:0:0:
402,192,61794,1,0,0:0:0:0:
329,192,61944,1,0,0:0:0:0:
256,192,62094,1,0,0:0:0:0:
36,192,62094,1,0,0:0:0:0:
109,192,62244,1,0,0:0:0:0:
402,192,62244,1,0,0:0:0:0:
329,192,62394,1,0,0:0:0:0:
182,192,62394,1,0,0:0:0:0:
402,192,62469,1,0,0:0:0:0:
475,192,62544,1,0,0:0:0:0:
36,192,62544,1,0,0:0:0:0:
402,192,62619,1,0,0:0:0:0:
329,192,62694,1,0,0:0:0:0:
182,192,62694,1,0,0:0:0:0:
256,192,62844,1,0,0:0:0:0:
182,192,62994,1,0,0:0:0:0:
475,192,62994,1,0,0:0:0:0:
329,192,63069,1,0,0:0:0:0:
109,192,63069,1,0,0:0:0:0:
256,192,63144,1,0,0:0:0:0:
36,192,63144,1,0,0:0:0:0:
329,192,63219,1,0,0:0:0:0:
182,192,63219,1,0,0:0:0:0:
402,192,63294,1,0,0:0:0:0:
475,192,63294,1,0,0:0:0:0:
109,192,63294,1,0,0:0:0:0:
256,192,63369,1,0,0:0:0:0:
329,192,63369,1,0,0:0:0:0:
182,192,63444,1,0,0:0:0:0:
109,192,63444,1,0,0:0:0:0:
329,192,63519,1,0,0:0:0:0:
402,192,63519,1,0,0:0:0:0:
256,192,63594,1,0,0:0:0:0:
36,192,63669,1,0,0:0:0:0:
182,192,63669,1,0,0:0:0:0:
402,192,63744,1,0,0:0:0:0:
109,192,63744,1,0,0:0:0:0:
475,192,63819,1,0,0:0:0:0:
182,192,63819,1,0,0:0:0:0:
329,192,63894,1,0,0:0:0:0:
256,192,63894,1,0,0:0:0:0:
402,192,63969,1,0,0:0:0:0:
475,192,64044,1,0,0:0:0:0:
256,192,64119,1,0,0:0:0:0:
182,192,64194,1,0,0:0:0:0:
109,192,64194,1,0,0:0:0:0:
36,192,64194,1,0,0:0:0:0:
329,192,64269,1,0,0:0:0:0:
256,192,64269,1,0,0:0:0:0:
402,192,64344,1,0,0:0:0:0:
475,192,64344,1,0,0:0:0:0:
182,192,64344,1,0,0:0:0:0:
109,192,64344,1,0,0:0:0:0:
36,192,64344,1,0,0:0:0:0:
329,192,64419,1,0,0:0:0:0:
256,192,64419,1,0,0:0:0:0:
182,192,64494,1,0,0:0:0:0:
109,192,64494,1,0,0:0:0:0:
36,192,64494,1,0,0:0:0:0:
402,192,64494,1,0,0:0:0:0:
475,192,64494,1,0,0:0:0:0:
329,192,64569,1,0,0:0:0:0:
256,192,64569,1,0,0:0:0:0:
36,192,64644,1,0,0:0:0:0:
109,192,64644,1,0,0:0:0:0:
182,192,64644,1,0,0:0:0:0:
402,192,64644,1,0,0:0:0:0:
475,192,64644,1,0,0:0:0:0:
329,192,64719,1,0,0:0:0:0:
256,192,64719,1,0,0:0:0:0:
182,192,64794,1,0,0:0:0:0:
109,192,64794,1,0,0:0:0:0:
36,192,64794,1,0,0:0:0:0:
402,192,64794,1,0,0:0:0:0:
475,192,64794,1,0,0:0:0:0:
329,192,64944,1,0,0:0:0:0:
182,192,65019,1,0,0:0:0:0:
329,192,65094,1,0,0:0:0:0:
182,192,65144,1,0,0:0:0:0:
329,192,65194,1,0,0:0:0:0:
182,192,65244,1,0,0:0:0:0:
329,192,65294,1,0,0:0:0:0:
182,192,65344,1,0,0:0:0:0:
329,192,65394,1,0,0:0:0:0:
36,192,65394,1,0,0:0:0:0:
475,192,65394,1,0,0:0:0:0:
475,192,65544,1,0,0:0:0:0:
36,192,65544,1,0,0:0:0:0:
402,192,65619,1,0,0:0:0:0:
109,192,65619,1,0,0:0:0:0:
329,192,65694,1,0,0:0:0:0:
182,192,65694,1,0,0:0:0:0:
256,192,65844,1,0,0:0:0:0:
109,192,65844,1,0,0:0:0:0:
36,192,65994,1,0,0:0:0:0:
475,192,65994,1,0,0:0:0:0:
109,192,66069,1,0,0:0:0:0:
402,192,66069,1,0,0:0:0:0:
182,192,66144,1,0,0:0:0:0:
329,192,66144,1,0,0:0:0:0:
182,192,66294,1,0,0:0:0:0:
402,192,66369,1,0,0:0:0:0:
329,192,66444,1,0,0:0:0:0:
182,192,66519,1,0,0:0:0:0:
109,192,66594,1,0,0:0:0:0:
329,192,66744,1,0,0:0:0:0:
182,192,66744,1,0,0:0:0:0:
402,192,66819,1,0,0:0:0:0:
109,192,66819,1,0,0:0:0:0:
475,192,66894,1,0,0:0:0:0:
36,192,66894,1,0,0:0:0:0:
329,192,66969,1,0,0:0:0:0:
182,192,66969,1,0,0:0:0:0:
475,192,67044,1,0,0:0:0:0:
36,192,67044,1,0,0:0:0:0:
329,192,67194,1,0,0:0:0:0:
182,192,67194,1,0,0:0:0:0:
36,192,67344,1,0,0:0:0:0:
475,192,67344,1,0,0:0:0:0:
109,192,67419,1,0,0:0:0:0:
402,192,67419,1,0,0:0:0:0:
329,192,67494,1,0,0:0:0:0:
182,192,67494,1,0,0:0:0:0:
256,192,67644,1,0,0:0:0:0:
109,192,67644,1,0,0:0:0:0:
36,192,67794,1,0,0:0:0:0:
475,192,67794,1,0,0:0:0:0:
109,192,67869,1,0,0:0:0:0:
402,192,67869,1,0,0:0:0:0:
182,192,67944,1,0,0:0:0:0:
329,192,67944,1,0,0:0:0:0:
402,192,68094,1,0,0:0:0:0:
109,192,68094,1,0,0:0:0:0:
182,192,68169,1,0,0:0:0:0:
256,192,68169,1,0,0:0:0:0:
329,192,68169,1,0,0:0:0:0:
109,192,68244,1,0,0:0:0:0:
402,192,68244,1,0,0:0:0:0:
329,192,68394,1,0,0:0:0:0:
402,192,68469,1,0,0:0:0:0:
475,192,68544,1,0,0:0:0:0:
329,192,68619,1,0,0:0:0:0:
182,192,68694,1,0,0:0:0:0:
36,192,68769,1,0,0:0:0:0:
256,192,68844,1,0,0:0:0:0:
329,192,68994,1,0,0:0:0:0:
182,192,68994,1,0,0:0:0:0:
36,192,69144,1,0,0:0:0:0:
475,192,69144,1,0,0:0:0:0:
109,192,69219,1,0,0:0:0:0:
402,192,69219,1,0,0:0:0:0:
182,192,69294,1,0,0:0:0:0:
329,192,69294,1,0,0:0:0:0:
256,192,69444,1,0,0:0:0:0:
109,192,69444,1,0,0:0:0:0:
36,192,69594,1,0,0:0:0:0:
475,192,69594,1,0,0:0:0:0:
109,192,69669,1,0,0:0:0:0:
402,192,69669,1,0,0:0:0:0:
182,192,69744,1,0,0:0:0:0:
329,192,69744,1,0,0:0:0:0:
256,192,69894,1,0,0:0:0:0:
402,192,69969,1,0,0:0:0:0:
329,192,70044,1,0,0:0:0:0:
182,192,70119,1,0,0:0:0:0:
109,192,70194,1,0,0:0:0:0:
329,192,70344,1,0,0:0:0:0:
182,192,70344,1,0,0:0:0:0:
402,192,70419,1,0,0:0:0:0:
109,192,70419,1,0,0:0:0:0:
475,192,70494,1,0,0:0:0:0:
36,192,70494,1,0,0:0:0:0:
329,192,70569,1,0,0:0:0:0:
182,192,70569,1,0,0:0:0:0:
475,192,70644,1,0,0:0:0:0:
36,192,70644,1,0,0:0:0:0:
256,192,70794,1,0,0:0:0:0:
329,192,70794,1,0,0:0:0:0:
109,192,70944,1,0,0:0:0:0:
475,192,70944,1,0,0:0:0:0:
182,192,71019,1,0,0:0:0:0:
402,192,71019,1,0,0:0:0:0:
256,192,71094,1,0,0:0:0:0:
329,192,71094,1,0,0:0:0:0:
182,192,71244,1,0,0:0:0:0:
109,192,71244,1,0,0:0:0:0:
109,192,71394,1,0,0:0:0:0:
475,192,71394,1,0,0:0:0:0:
182,192,71469,1,0,0:0:0:0:
402,192,71469,1,0,0:0:0:0:
256,192,71544,1,0,0:0:0:0:
329,192,71544,1,0,0:0:0:0:
109,192,71694,1,0,0:0:0:0:
402,192,71694,1,0,0:0:0:0:
182,192,71769,1,0,0:0:0:0:
256,192,71769,1,0,0:0:0:0:
329,192,71769,1,0,0:0:0:0:
109,192,71844,1,0,0:0:0:0:
402,192,71844,1,0,0:0:0:0:
329,192,71994,1,0,0:0:0:0:
36,192,71994,1,0,0:0:0:0:
109,192,71994,1,0,0:0:0:0:
402,192,72069,1,0,0:0:0:0:
475,192,72144,1,0,0:0:0:0:
329,192,72144,1,0,0:0:0:0:
256,192,72219,1,0,0:0:0:0:
182,192,72294,1,0,0:0:0:0:
109,192,72369,1,0,0:0:0:0:
256,192,72444,1,0,0:0:0:0:
402,192,72594,1,0,0:0:0:0:
256,192,72594,1,0,0:0:0:0:
109,192,72594,1,0,0:0:0:0:
36,192,72744,1,0,0:0:0:0:
475,192,72744,1,0,0:0:0:0:
109,192,72819,1,0,0:0:0:0:
402,192,72819,1,0,0:0:0:0:
182,192,72894,1,0,0:0:0:0:
329,192,72894,1,0,0:0:0:0:
329,192,73044,1,0,0:0:0:0:
182,192,73044,1,0,0:0:0:0:
36,192,73044,1,0,0:0:0:0:
36,192,73194,1,0,0:0:0:0:
475,192,73194,1,0,0:0:0:0:
109,192,73269,1,0,0:0:0:0:
402,192,73269,1,0,0:0:0:0:
182,192,73344,1,0,0:0:0:0:
329,192,73344,1,0,0:0:0:0:
402,192,73494,1,0,0:0:0:0:
109,192,73494,1,0,0:0:0:0:
256,192,73494,1,0,0:0:0:0:
475,192,73569,1,0,0:0:0:0:
36,192,73569,1,0,0:0:0:0:
402,192,73644,1,0,0:0:0:0:
109,192,73644,1,0,0:0:0:0:
329,192,73719,1,0,0:0:0:0:
182,192,73719,1,0,0:0:0:0:
256,192,73794,1,0,0:0:0:0:
329,192,73944,1,0,0:0:0:0:
182,192,73944,1,0,0:0:0:0:
402,192,74019,1,0,0:0:0:0:
109,192,74019,1,0,0:0:0:0:
475,192,74094,1,0,0:0:0:0:
36,192,74094,1,0,0:0:0:0:
329,192,74169,1,0,0:0:0:0:
182,192,74169,1,0,0:0:0:0:
475,192,74244,1,0,0:0:0:0:
36,192,74244,1,0,0:0:0:0:
402,192,74394,1,0,0:0:0:0:
256,192,74394,1,0,0:0:0:0:
109,192,74394,1,0,0:0:0:0:
36,192,74544,1,0,0:0:0:0:
475,192,74544,1,0,0:0:0:0:
109,192,74619,1,0,0:0:0:0:
402,192,74619,1,0,0:0:0:0:
182,192,74694,1,0,0:0:0:0:
329,192,74694,1,0,0:0:0:0:
329,192,74844,1,0,0:0:0:0:
182,192,74844,1,0,0:0:0:0:
36,192,74844,1,0,0:0:0:0:
36,192,74994,1,0,0:0:0:0:
475,192,74994,1,0,0:0:0:0:
109,192,75069,1,0,0:0:0:0:
402,192,75069,1,0,0:0:0:0:
182,192,75144,1,0,0:0:0:0:
329,192,75144,1,0,0:0:0:0:
109,192,75294,1,0,0:0:0:0:
475,192,75294,1,0,0:0:0:0:
36,192,75294,1,0,0:0:0:0:
402,192,75294,1,0,0:0:0:0:
329,192,75369,1,0,0:0:0:0:
256,192,75369,1,0,0:0:0:0:
182,192,75369,1,0,0:0:0:0:
109,192,75444,1,0,0:0:0:0:
36,192,75444,1,0,0:0:0:0:
402,192,75444,1,0,0:0:0:0:
475,192,75444,1,0,0:0:0:0:
329,192,75594,1,0,0:0:0:0:
109,192,75594,1,0,0:0:0:0:
402,192,75669,1,0,0:0:0:0:
182,192,75669,1,0,0:0:0:0:
329,192,75744,1,0,0:0:0:0:
109,192,75744,1,0,0:0:0:0:
36,192,75819,1,0,0:0:0:0:
256,192,75819,1,0,0:0:0:0:
475,192,75894,1,0,0:0:0:0:
182,192,75894,1,0,0:0:0:0:
402,192,75969,1,0,0:0:0:0:
109,192,75969,1,0,0:0:0:0:
329,192,76044,1,0,0:0:0:0:
36,192,76044,1,0,0:0:0:0:
256,192,76119,1,0,0:0:0:0:
402,192,76194,1,0,0:0:0:0:
256,192,76194,1,0,0:0:0:0:
109,192,76194,1,0,0:0:0:0:
36,192,76344,1,0,0:0:0:0:
475,192,76344,1,0,0:0:0:0:
109,192,76419,1,0,0:0:0:0:
402,192,76419,1,0,0:0:0:0:
182,192,76494,1,0,0:0:0:0:
329,192,76494,1,0,0:0:0:0:
329,192,76644,1,0,0:0:0:0:
182,192,76644,1,0,0:0:0:0:
36,192,76644,1,0,0:0:0:0:
36,192,76794,1,0,0:0:0:0:
475,192,76794,1,0,0:0:0:0:
109,192,76869,1,0,0:0:0:0:
402,192,76869,1,0,0:0:0:0:
182,192,76944,1,0,0:0:0:0:
329,192,76944,1,0,0:0:0:0:
402,192,77094,1,0,0:0:0:0:
109,192,77094,1,0,0:0:0:0:
256,192,77094,1,0,0:0:0:0:
475,192,77169,1,0,0:0:0:0:
36,192,77169,1,0,0:0:0:0:
402,192,77244,1,0,0:0:0:0:
109,192,77244,1,0,0:0:0:0:
329,192,77319,1,0,0:0:0:0:
182,192,77319,1,0,0:0:0:0:
256,192,77394,1,0,0:0:0:0:
329,192,77544,1,0,0:0:0:0:
182,192,77544,1,0,0:0:0:0:
402,192,77619,1,0,0:0:0:0:
109,192,77619,1,0,0:0:0:0:
475,192,77694,1,0,0:0:0:0:
36,192,77694,1,0,0:0:0:0:
329,192,77769,1,0,0:0:0:0:
182,192,77769,1,0,0:0:0:0:
475,192,77844,1,0,0:0:0:0:
36,192,77844,1,0,0:0:0:0:
256,192,77994,1,0,0:0:0:0:
109,192,77994,1,0,0:0:0:0:
402,192,77994,1,0,0:0:0:0:
475,192,78144,1,0,0:0:0:0:
36,192,78144,1,0,0:0:0:0:
402,192,78219,1,0,0:0:0:0:
109,192,78219,1,0,0:0:0:0:
329,192,78294,1,0,0:0:0:0:
182,192,78294,1,0,0:0:0:0:
329,192,78444,1,0,0:0:0:0:
182,192,78444,1,0,0:0:0:0:
36,192,78444,1,0,0:0:0:0:
36,192,78594,1,0,0:0:0:0:
475,192,78594,1,0,0:0:0:0:
109,192,78669,1,0,0:0:0:0:
402,192,78669,1,0,0:0:0:0:
182,192,78744,1,0,0:0:0:0:
329,192,78744,1,0,0:0:0:0:
475,192,78894,1,0,0:0:0:0:
402,192,78894,1,0,0:0:0:0:
109,192,78894,1,0,0:0:0:0:
36,192,78894,1,0,0:0:0:0:
182,192,78969,1,0,0:0:0:0:
256,192,78969,1,0,0:0:0:0:
329,192,78969,1,0,0:0:0:0:
402,192,79044,1,0,0:0:0:0:
475,192,79044,1,0,0:0:0:0:
109,192,79044,1,0,0:0:0:0:
36,192,79044,1,0,0:0:0:0:
109,192,79194,1,0,0:0:0:0:
182,192,79194,1,0,0:0:0:0:
256,192,79269,1,0,0:0:0:0:
329,192,79269,1,0,0:0:0:0:
402,192,79344,1,0,0:0:0:0:
475,192,79344,1,0,0:0:0:0:
329,192,79419,1,0,0:0:0:0:
256,192,79419,1,0,0:0:0:0:
182,192,79494,1,0,0:0:0:0:
109,192,79494,1,0,0:0:0:0:
36,192,79494,1,0,0:0:0:0:
475,192,79569,1,0,0:0:0:0:
402,192,79569,1,0,0:0:0:0:
329,192,79569,1,0,0:0:0:0:
256,192,79644,1,0,0:0:0:0:
182,192,79644,1,0,0:0:0:0:
109,192,79644,1,0,0:0:0:0:
256,192,80553,1,0,0:0:0:0:
402,192,80647,1,0,0:0:0:0:
109,192,80742,1,0,0:0:0:0:
256,192,80837,1,0,0:0:0:0:
402,192,80932,1,0,0:0:0:0:
329,192,81027,1,0,0:0:0:0:
182,192,81122,1,0,0:0:0:0:
109,192,81217,1,0,0:0:0:0:
256,192,81312,1,0,0:0:0:0:
109,192,81407,1,0,0:0:0:0:
402,192,81502,1,0,0:0:0:0:
256,192,81597,1,0,0:0:0:0:
109,192,81692,1,0,0:0:0:0:
329,192,81787,1,0,0:0:0:0:
36,192,81882,1,0,0:0:0:0:
182,192,81977,1,0,0:0:0:0:
329,192,82071,1,0,0:0:0:0:
475,192,82166,1,0,0:0:0:0:
109,192,82261,1,0,0:0:0:0:
329,192,82356,1,0,0:0:0:0:
475,192,82451,1,0,0:0:0:0:
182,192,82546,1,0,0:0:0:0:
475,192,82641,1,0,0:0:0:0:
329,192,82736,1,0,0:0:0:0:
109,192,82831,1,0,0:0:0:0:
329,192,82926,1,0,0:0:0:0:
182,192,83021,1,0,0:0:0:0:
36,192,83116,1,0,0:0:0:0:
402,192,83211,1,0,0:0:0:0:
256,192,83306,1,0,0:0:0:0:
109,192,83401,1,0,0:0:0:0:
256,192,83496,1,0,0:0:0:0:
402,192,83590,1,0,0:0:0:0:
36,192,83590,1,0,0:0:0:0:
475,192,83685,1,0,0:0:0:0:
109,192,83780,1,0,0:0:0:0:
402,192,83875,1,0,0:0:0:0:
256,192,83970,1,0,0:0:0:0:
475,192,83970,1,0,0:0:0:0:
329,192,84065,1,0,0:0:0:0:
182,192,84160,1,0,0:0:0:0:
36,192,84255,1,0,0:0:0:0:
256,192,84350,1,0,0:0:0:0:
402,192,84350,1,0,0:0:0:0:
36,192,84445,1,0,0:0:0:0:
475,192,84540,1,0,0:0:0:0:
329,192,84635,1,0,0:0:0:0:
256,192,84730,1,0,0:0:0:0:
182,192,84730,1,0,0:0:0:0:
402,192,84825,1,0,0:0:0:0:
109,192,84920,1,0,0:0:0:0:
256,192,85015,1,0,0:0:0:0:
36,192,85109,1,0,0:0:0:0:
475,192,85109,1,0,0:0:0:0:
182,192,85204,1,0,0:0:0:0:
402,192,85299,1,0,0:0:0:0:
329,192,85394,1,0,0:0:0:0:
256,192,85489,1,0,0:0:0:0:
109,192,85489,1,0,0:0:0:0:
475,192,85584,1,0,0:0:0:0:
329,192,85679,1,0,0:0:0:0:
256,192,85774,1,0,0:0:0:0:
182,192,85869,1,0,0:0:0:0:
109,192,85869,1,0,0:0:0:0:
329,192,85964,1,0,0:0:0:0:
475,192,86059,1,0,0:0:0:0:
329,192,86154,1,0,0:0:0:0:
256,192,86249,1,0,0:0:0:0:
36,192,86249,1,0,0:0:0:0:
475,192,86249,1,0,0:0:0:0:
256,192,86628,1,0,0:0:0:0:
182,192,86628,1,0,0:0:0:0:
36,192,86628,1,0,0:0:0:0:
109,192,86628,1,0,0:0:0:0:
329,192,86722,1,0,0:0:0:0:
182,192,86817,1,0,0:0:0:0:
256,192,86912,1,0,0:0:0:0:
329,192,86912,1,0,0:0:0:0:
402,192,86912,1,0,0:0:0:0:
475,192,86912,1,0,0:0:0:0:
36,192,87197,1,0,0:0:0:0:
109,192,87197,1,0,0:0:0:0:
182,192,87197,1,0,0:0:0:0:
256,192,87292,1,0,0:0:0:0:
182,192,87387,1,0,0:0:0:0:
329,192,87482,1,0,0:0:0:0:
402,192,87577,1,0,0:0:0:0:
329,192,87640,1,0,0:0:0:0:
256,192,87703,1,0,0:0:0:0:
182,192,87767,1,0,0:0:0:0:
475,192,87767,1,0,0:0:0:0:
402,192,87814,1,0,0:0:0:0:
329,192,87862,1,0,0:0:0:0:
256,192,87909,1,0,0:0:0:0:
182,192,87957,1,0,0:0:0:0:
109,192,88004,1,0,0:0:0:0:
36,192,88052,1,0,0:0:0:0:
36,192,88337,1,0,0:0:0:0:
109,192,88337,1,0,0:0:0:0:
182,192,88337,1,0,0:0:0:0:
256,192,88337,1,0,0:0:0:0:
329,192,88431,1,0,0:0:0:0:
182,192,88526,1,0,0:0:0:0:
256,192,88621,1,0,0:0:0:0:
329,192,88621,1,0,0:0:0:0:
475,192,88621,1,0,0:0:0:0:
402,192,88621,1,0,0:0:0:0:
256,192,88811,1,0,0:0:0:0:
329,192,88906,1,0,0:0:0:0:
182,192,88906,1,0,0:0:0:0:
402,192,89001,1,0,0:0:0:0:
475,192,89096,1,0,0:0:0:0:
402,192,89159,1,0,0:0:0:0:
329,192,89223,1,0,0:0:0:0:
256,192,89286,1,0,0:0:0:0:
402,192,89349,1,0,0:0:0:0:
329,192,89412,1,0,0:0:0:0:
256,192,89476,1,0,0:0:0:0:
182,192,89539,1,0,0:0:0:0:
109,192,89602,1,0,0:0:0:0:
36,192,89666,1,0,0:0:0:0:
329,192,89666,1,0,0:0:0:0:
256,192,89761,1,0,0:0:0:0:
182,192,89855,1,0,0:0:0:0:
402,192,89855,1,0,0:0:0:0:
329,192,90236,1,0,0:0:0:0:
475,192,90236,1,0,0:0:0:0:
256,192,90236,1,0,0:0:0:0:
402,192,90236,1,0,0:0:0:0:
182,192,90330,1,0,0:0:0:0:
329,192,90425,1,0,0:0:0:0:
256,192,90520,1,0,0:0:0:0:
182,192,90520,1,0,0:0:0:0:
109,192,90520,1,0,0:0:0:0:
36,192,90520,1,0,0:0:0:0:
256,192,90805,1,0,0:0:0:0:
402,192,90805,1,0,0:0:0:0:
329,192,90900,1,0,0:0:0:0:
475,192,90900,1,0,0:0:0:0:
402,192,90995,1,0,0:0:0:0:
256,192,90995,1,0,0:0:0:0:
329,192,91090,1,0,0:0:0:0:
182,192,91090,1,0,0:0:0:0:
256,192,91185,1,0,0:0:0:0:
109,192,91185,1,0,0:0:0:0:
182,192,91280,1,0,0:0:0:0:
36,192,91280,1,0,0:0:0:0:
256,192,91375,1,0,0:0:0:0:
109,192,91375,1,0,0:0:0:0:
402,192,91470,1,0,0:0:0:0:
329,192,91470,1,0,0:0:0:0:
182,192,91565,1,0,0:0:0:0:
109,192,91565,1,0,0:0:0:0:
256,192,91660,1,0,0:0:0:0:
329,192,91660,1,0,0:0:0:0:
402,192,91754,1,0,0:0:0:0:
475,192,91754,1,0,0:0:0:0:
182,192,91849,1,0,0:0:0:0:
475,192,91945,1,0,0:0:0:0:
402,192,91945,1,0,0:0:0:0:
329,192,91945,1,0,0:0:0:0:
256,192,91945,1,0,0:0:0:0:
182,192,92039,1,0,0:0:0:0:
109,192,92039,1,0,0:0:0:0:
256,192,92134,1,0,0:0:0:0:
329,192,92134,1,0,0:0:0:0:
182,192,92229,1,0,0:0:0:0:
109,192,92229,1,0,0:0:0:0:
36,192,92229,1,0,0:0:0:0:
402,192,92229,1,0,0:0:0:0:
475,192,92229,1,0,0:0:0:0:
36,192,92609,1,0,0:0:0:0:
475,192,92609,1,0,0:0:0:0:
329,192,92704,1,0,0:0:0:0:
182,192,92704,1,0,0:0:0:0:
36,192,92799,1,0,0:0:0:0:
475,192,92799,1,0,0:0:0:0:
256,192,92894,1,0,0:0:0:0:
182,192,92894,1,0,0:0:0:0:
475,192,92894,1,0,0:0:0:0:
402,192,92957,1,0,0:0:0:0:
329,192,93020,1,0,0:0:0:0:
256,192,93084,1,0,0:0:0:0:
475,192,93084,1,0,0:0:0:0:
402,192,93131,1,0,0:0:0:0:
329,192,93179,1,0,0:0:0:0:
256,192,93226,1,0,0:0:0:0:
182,192,93274,1,0,0:0:0:0:
109,192,93321,1,0,0:0:0:0:
36,192,93369,1,0,0:0:0:0:
475,192,93654,1,0,0:0:0:0:
402,192,93654,1,0,0:0:0:0:
329,192,93654,1,0,0:0:0:0:
182,192,93654,1,0,0:0:0:0:
256,192,93748,1,0,0:0:0:0:
109,192,93748,1,0,0:0:0:0:
182,192,93843,1,0,0:0:0:0:
36,192,93843,1,0,0:0:0:0:
475,192,93938,1,0,0:0:0:0:
329,192,93938,1,0,0:0:0:0:
402,192,93938,1,0,0:0:0:0:
109,192,93938,1,0,0:0:0:0:
256,192,93938,1,0,0:0:0:0:
256,192,94128,1,0,0:0:0:0:
329,192,94223,1,0,0:0:0:0:
182,192,94223,1,0,0:0:0:0:
109,192,94318,1,0,0:0:0:0:
402,192,94318,1,0,0:0:0:0:
36,192,94413,1,0,0:0:0:0:
475,192,94413,1,0,0:0:0:0:
402,192,94476,1,0,0:0:0:0:
109,192,94508,1,0,0:0:0:0:
329,192,94540,1,0,0:0:0:0:
256,192,94603,1,0,0:0:0:0:
182,192,94603,1,0,0:0:0:0:
402,192,94698,1,0,0:0:0:0:
36,192,94698,1,0,0:0:0:0:
329,192,94761,1,0,0:0:0:0:
109,192,94793,1,0,0:0:0:0:
256,192,94824,1,0,0:0:0:0:
182,192,94888,1,0,0:0:0:0:
329,192,94983,1,0,0:0:0:0:
402,192,94983,1,0,0:0:0:0:
475,192,94983,1,0,0:0:0:0:
256,192,95078,1,0,0:0:0:0:
182,192,95078,1,0,0:0:0:0:
329,192,95172,1,0,0:0:0:0:
402,192,95172,1,0,0:0:0:0:
109,192,95172,1,0,0:0:0:0:
36,192,95172,1,0,0:0:0:0:
329,192,95553,1,0,0:0:0:0:
182,192,95553,1,0,0:0:0:0:
109,192,95553,1,0,0:0:0:0:
36,192,95553,1,0,0:0:0:0:
256,192,95647,1,0,0:0:0:0:
182,192,95742,1,0,0:0:0:0:
109,192,95837,1,0,0:0:0:0:
36,192,95837,1,0,0:0:0:0:
475,192,95837,1,0,0:0:0:0:
402,192,95837,1,0,0:0:0:0:
109,192,96122,1,0,0:0:0:0:
256,192,96122,1,0,0:0:0:0:
475,192,96122,1,0,0:0:0:0:
402,192,96122,1,0,0:0:0:0:
329,192,96217,1,0,0:0:0:0:
182,192,96217,1,0,0:0:0:0:
256,192,96312,1,0,0:0:0:0:
109,192,96312,1,0,0:0:0:0:
36,192,96407,1,0,0:0:0:0:
182,192,96407,1,0,0:0:0:0:
329,192,96407,1,0,0:0:0:0:
475,192,96407,1,0,0:0:0:0:
402,192,96502,1,0,0:0:0:0:
109,192,96502,1,0,0:0:0:0:
329,192,96597,1,0,0:0:0:0:
182,192,96597,1,0,0:0:0:0:
402,192,96692,1,0,0:0:0:0:
109,192,96692,1,0,0:0:0:0:
182,192,96787,1,0,0:0:0:0:
36,192,96787,1,0,0:0:0:0:
329,192,96787,1,0,0:0:0:0:
475,192,96787,1,0,0:0:0:0:
109,192,96882,1,0,0:0:0:0:
256,192,96882,1,0,0:0:0:0:
182,192,96977,1,0,0:0:0:0:
329,192,96977,1,0,0:0:0:0:
402,192,97071,1,0,0:0:0:0:
256,192,97071,1,0,0:0:0:0:
109,192,97166,1,0,0:0:0:0:
475,192,97261,1,0,0:0:0:0:
402,192,97261,1,0,0:0:0:0:
329,192,97261,1,0,0:0:0:0:
256,192,97261,1,0,0:0:0:0:
182,192,97261,1,0,0:0:0:0:
402,192,97545,1,0,0:0:0:0:
329,192,97545,1,0,0:0:0:0:
256,192,97545,1,0,0:0:0:0:
182,192,97545,1,0,0:0:0:0:
109,192,97545,1,0,0:0:0:0:
475,192,98020,1,0,0:0:0:0:
329,192,98147,1,0,0:0:0:0:
402,192,98273,1,0,0:0:0:0:
256,192,98400,1,0,0:0:0:0:
329,192,98526,1,0,0:0:0:0:
182,192,98653,1,0,0:0:0:0:
329,192,98779,1,0,0:0:0:0:
256,192,98779,1,0,0:0:0:0:
182,192,98779,1,0,0:0:0:0:
109,192,98779,1,0,0:0:0:0:
36,192,98779,1,0,0:0:0:0:
109,192,99064,1,0,0:0:0:0:
182,192,99064,1,0,0:0:0:0:
256,192,99064,1,0,0:0:0:0:
329,192,99064,1,0,0:0:0:0:
402,192,99064,1,0,0:0:0:0:
182,192,99349,1,0,0:0:0:0:
256,192,99349,1,0,0:0:0:0:
329,192,99349,1,0,0:0:0:0:
402,192,99349,1,0,0:0:0:0:
475,192,99349,1,0,0:0:0:0:
36,192,99634,1,0,0:0:0:0:
109,192,99634,1,0,0:0:0:0:
182,192,99634,1,0,0:0:0:0:
256,192,99634,1,0,0:0:0:0:
329,192,99634,1,0,0:0:0:0:
182,192,99919,1,0,0:0:0:0:
109,192,99919,1,0,0:0:0:0:
36,192,99919,1,0,0:0:0:0:
329,192,99919,1,0,0:0:0:0:
402,192,99919,1,0,0:0:0:0:
475,192,99919,1,0,0:0:0:0:
256,192,101019,1,0,0:0:0:0:
36,192,102219,1,0,0:0:0:0:
475,192,102369,1,0,0:0:0:0:
475,192,102669,1,0,0:0:0:0:
475,192,102969,1,0,0:0:0:0:
475,192,103269,1,0,0:0:0:0:
256,192,103419,1,0,0:0:0:0:
256,192,104619,1,0,0:0:0:0:
475,192,104769,1,0,0:0:0:0:
475,192,105069,1,0,0:0:0:0:
475,192,105219,1,0,0:0:0:0:
329,192,105294,1,0,0:0:0:0:
182,192,105369,1,0,0:0:0:0:
402,192,105444,1,0,0:0:0:0:
256,192,105519,1,0,0:0:0:0:
109,192,105594,1,0,0:0:0:0:
402,192,105669,1,0,0:0:0:0:
36,192,105669,1,0,0:0:0:0:
109,192,105819,1,0,0:0:0:0:
182,192,105819,1,0,0:0:0:0:
329,192,105819,1,0,0:0:0:0:
402,192,105819,1,0,0:0:0:0:
256,192,105969,1,0,0:0:0:0:
36,192,106269,1,0,0:0:0:0:
475,192,106269,1,0,0:0:0:0:
109,192,106306,1,0,0:0:0:0:
182,192,106344,1,0,0:0:0:0:
475,192,106569,1,0,0:0:0:0:
109,192,106569,1,0,0:0:0:0:
182,192,106606,1,0,0:0:0:0:
256,192,106644,1,0,0:0:0:0:
475,192,106869,1,0,0:0:0:0:
182,192,106869,1,0,0:0:0:0:
256,192,106906,1,0,0:0:0:0:
329,192,106944,1,0,0:0:0:0:
475,192,107019,1,0,0:0:0:0:
36,192,107019,1,0,0:0:0:0:
109,192,107019,1,0,0:0:0:0:
402,192,107019,1,0,0:0:0:0:
256,192,107169,1,0,0:0:0:0:
109,192,107469,1,0,0:0:0:0:
475,192,107469,1,0,0:0:0:0:
182,192,107506,1,0,0:0:0:0:
256,192,107544,1,0,0:0:0:0:
182,192,107769,1,0,0:0:0:0:
475,192,107769,1,0,0:0:0:0:
256,192,107806,1,0,0:0:0:0:
329,192,107844,1,0,0:0:0:0:
256,192,108069,1,0,0:0:0:0:
475,192,108069,1,0,0:0:0:0:
329,192,108106,1,0,0:0:0:0:
402,192,108144,1,0,0:0:0:0:
36,192,108219,1,0,0:0:0:0:
182,192,108219,1,0,0:0:0:0:
475,192,108219,1,0,0:0:0:0:
256,192,108369,1,0,0:0:0:0:
475,192,108669,1,0,0:0:0:0:
36,192,108669,1,0,0:0:0:0:
402,192,108706,1,0,0:0:0:0:
329,192,108744,1,0,0:0:0:0:
402,192,108969,1,0,0:0:0:0:
36,192,108969,1,0,0:0:0:0:
329,192,109006,1,0,0:0:0:0:
256,192,109044,1,0,0:0:0:0:
36,192,109269,1,0,0:0:0:0:
329,192,109269,1,0,0:0:0:0:
402,192,109306,1,0,0:0:0:0:
475,192,109344,1,0,0:0:0:0:
109,192,109419,1,0,0:0:0:0:
182,192,109419,1,0,0:0:0:0:
329,192,109419,1,0,0:0:0:0:
329,192,109569,1,0,0:0:0:0:
182,192,109569,1,0,0:0:0:0:
109,192,109569,1,0,0:0:0:0:
256,192,109719,1,0,0:0:0:0:
182,192,109869,1,0,0:0:0:0:
109,192,109869,1,0,0:0:0:0:
402,192,109869,1,0,0:0:0:0:
329,192,110169,1,0,0:0:0:0:
182,192,110169,1,0,0:0:0:0:
109,192,110169,1,0,0:0:0:0:
402,192,110244,1,0,0:0:0:0:
475,192,110319,1,0,0:0:0:0:
329,192,110469,1,0,0:0:0:0:
182,192,110619,1,0,0:0:0:0:
475,192,110619,1,0,0:0:0:0:
109,192,110619,1,0,0:0:0:0:
182,192,110769,1,0,0:0:0:0:
329,192,110769,1,0,0:0:0:0:
109,192,110769,1,0,0:0:0:0:
256,192,110919,1,0,0:0:0:0:
402,192,111069,1,0,0:0:0:0:
475,192,111069,1,0,0:0:0:0:
182,192,111069,1,0,0:0:0:0:
109,192,111069,1,0,0:0:0:0:
329,192,111369,1,0,0:0:0:0:
182,192,111369,1,0,0:0:0:0:
109,192,111369,1,0,0:0:0:0:
329,192,111669,1,0,0:0:0:0:
402,192,111744,1,0,0:0:0:0:
475,192,111819,1,0,0:0:0:0:
182,192,111819,1,0,0:0:0:0:
36,192,111819,1,0,0:0:0:0:
256,192,111819,1,0,0:0:0:0:
109,192,111969,1,0,0:0:0:0:
36,192,111969,1,0,0:0:0:0:
402,192,111969,1,0,0:0:0:0:
256,192,112119,1,0,0:0:0:0:
329,192,112269,1,0,0:0:0:0:
475,192,112269,1,0,0:0:0:0:
182,192,112269,1,0,0:0:0:0:
36,192,112269,1,0,0:0:0:0:
182,192,112569,1,0,0:0:0:0:
402,192,112569,1,0,0:0:0:0:
475,192,112569,1,0,0:0:0:0:
402,192,112794,1,0,0:0:0:0:
329,192,112869,1,0,0:0:0:0:
256,192,112944,1,0,0:0:0:0:
182,192,113019,1,0,0:0:0:0:
109,192,113019,1,0,0:0:0:0:
475,192,113019,1,0,0:0:0:0:
109,192,113169,1,0,0:0:0:0:
36,192,113169,1,0,0:0:0:0:
329,192,113169,1,0,0:0:0:0:
329,192,113469,1,0,0:0:0:0:
402,192,113469,1,0,0:0:0:0:
109,192,113469,1,0,0:0:0:0:
182,192,113769,1,0,0:0:0:0:
329,192,113769,1,0,0:0:0:0:
182,192,114069,1,0,0:0:0:0:
402,192,114219,1,0,0:0:0:0:
329,192,114219,1,0,0:0:0:0:
182,192,114219,1,0,0:0:0:0:
109,192,114219,1,0,0:0:0:0:
475,192,114369,1,0,0:0:0:0:
256,192,114519,1,0,0:0:0:0:
182,192,114519,1,0,0:0:0:0:
109,192,114519,1,0,0:0:0:0:
36,192,114519,1,0,0:0:0:0:
475,192,114669,1,0,0:0:0:0:
329,192,114819,1,0,0:0:0:0:
256,192,114819,1,0,0:0:0:0:
182,192,114819,1,0,0:0:0:0:
109,192,114819,1,0,0:0:0:0:
475,192,115119,1,0,0:0:0:0:
402,192,115119,1,0,0:0:0:0:
329,192,115119,1,0,0:0:0:0:
256,192,115119,1,0,0:0:0:0:
182,192,115119,1,0,0:0:0:0:
329,192,115419,1,0,0:0:0:0:
109,192,115419,1,0,0:0:0:0:
182,192,115419,1,0,0:0:0:0:
329,192,115569,1,0,0:0:0:0:
36,192,115719,1,0,0:0:0:0:
182,192,115869,1,0,0:0:0:0:
36,192,115869,1,0,0:0:0:0:
256,192,115906,1,0,0:0:0:0:
329,192,115944,1,0,0:0:0:0:
36,192,116019,1,0,0:0:0:0:
256,192,116169,1,0,0:0:0:0:
182,192,116169,1,0,0:0:0:0:
329,192,116206,1,0,0:0:0:0:
402,192,116244,1,0,0:0:0:0:
109,192,116244,1,0,0:0:0:0:
36,192,116319,1,0,0:0:0:0:
329,192,116469,1,0,0:0:0:0:
182,192,116469,1,0,0:0:0:0:
402,192,116506,1,0,0:0:0:0:
475,192,116544,1,0,0:0:0:0:
182,192,116619,1,0,0:0:0:0:
256,192,116619,1,0,0:0:0:0:
36,192,116619,1,0,0:0:0:0:
256,192,116769,1,0,0:0:0:0:
36,192,116919,1,0,0:0:0:0:
182,192,117069,1,0,0:0:0:0:
109,192,117069,1,0,0:0:0:0:
256,192,117106,1,0,0:0:0:0:
329,192,117144,1,0,0:0:0:0:
109,192,117219,1,0,0:0:0:0:
256,192,117369,1,0,0:0:0:0:
182,192,117369,1,0,0:0:0:0:
329,192,117406,1,0,0:0:0:0:
402,192,117444,1,0,0:0:0:0:
109,192,117444,1,0,0:0:0:0:
36,192,117519,1,0,0:0:0:0:
329,192,117669,1,0,0:0:0:0:
182,192,117669,1,0,0:0:0:0:
402,192,117706,1,0,0:0:0:0:
475,192,117744,1,0,0:0:0:0:
329,192,117819,1,0,0:0:0:0:
256,192,117819,1,0,0:0:0:0:
109,192,117819,1,0,0:0:0:0:
36,192,117819,1,0,0:0:0:0:
182,192,117969,1,0,0:0:0:0:
36,192,118119,1,0,0:0:0:0:
475,192,118269,1,0,0:0:0:0:
182,192,118269,1,0,0:0:0:0:
109,192,118269,1,0,0:0:0:0:
402,192,118306,1,0,0:0:0:0:
329,192,118344,1,0,0:0:0:0:
182,192,118419,1,0,0:0:0:0:
402,192,118569,1,0,0:0:0:0:
36,192,118569,1,0,0:0:0:0:
329,192,118606,1,0,0:0:0:0:
256,192,118644,1,0,0:0:0:0:
109,192,118644,1,0,0:0:0:0:
182,192,118719,1,0,0:0:0:0:
329,192,118869,1,0,0:0:0:0:
182,192,118869,1,0,0:0:0:0:
402,192,118906,1,0,0:0:0:0:
475,192,118944,1,0,0:0:0:0:
329,192,119019,1,0,0:0:0:0:
256,192,119019,1,0,0:0:0:0:
109,192,119019,1,0,0:0:0:0:
36,192,119019,1,0,0:0:0:0:
256,192,119169,1,0,0:0:0:0:
109,192,119319,1,0,0:0:0:0:
182,192,119319,1,0,0:0:0:0:
475,192,119469,1,0,0:0:0:0:
182,192,119469,1,0,0:0:0:0:
402,192,119544,1,0,0:0:0:0:
109,192,119619,1,0,0:0:0:0:
329,192,119619,1,0,0:0:0:0:
182,192,119769,1,0,0:0:0:0:
475,192,119769,1,0,0:0:0:0:
256,192,119844,1,0,0:0:0:0:
329,192,119919,1,0,0:0:0:0:
402,192,119994,1,0,0:0:0:0:
109,192,120069,1,0,0:0:0:0:
36,192,120069,1,0,0:0:0:0:
182,192,120219,1,0,0:0:0:0:
402,192,120219,1,0,0:0:0:0:
475,192,120219,1,0,0:0:0:0:
256,192,120369,1,0,0:0:0:0:
475,192,120519,1,0,0:0:0:0:
402,192,120519,1,0,0:0:0:0:
109,192,120519,1,0,0:0:0:0:
182,192,120519,1,0,0:0:0:0:
182,192,120669,1,0,0:0:0:0:
109,192,120669,1,0,0:0:0:0:
402,192,120669,1,0,0:0:0:0:
329,192,120669,1,0,0:0:0:0:
256,192,120819,1,0,0:0:0:0:
182,192,120969,1,0,0:0:0:0:
36,192,120969,1,0,0:0:0:0:
475,192,120969,1,0,0:0:0:0:
109,192,121119,1,0,0:0:0:0:
402,192,121119,1,0,0:0:0:0:
329,192,121269,1,0,0:0:0:0:
256,192,121344,1,0,0:0:0:0:
182,192,121419,1,0,0:0:0:0:
402,192,121419,1,0,0:0:0:0:
329,192,121569,1,0,0:0:0:0:
109,192,121569,1,0,0:0:0:0:
256,192,121719,1,0,0:0:0:0:
36,192,121719,1,0,0:0:0:0:
402,192,121719,1,0,0:0:0:0:
475,192,121869,1,0,0:0:0:0:
329,192,121869,1,0,0:0:0:0:
109,192,121869,1,0,0:0:0:0:
182,192,122019,1,0,0:0:0:0:
329,192,122169,1,0,0:0:0:0:
36,192,122169,1,0,0:0:0:0:
402,192,122244,1,0,0:0:0:0:
475,192,122319,1,0,0:0:0:0:
182,192,122319,1,0,0:0:0:0:
256,192,122469,1,0,0:0:0:0:
182,192,122544,1,0,0:0:0:0:
109,192,122619,1,0,0:0:0:0:
402,192,122619,1,0,0:0:0:0:
475,192,122619,1,0,0:0:0:0:
329,192,122769,1,0,0:0:0:0:
402,192,122919,1,0,0:0:0:0:
256,192,122919,1,0,0:0:0:0:
109,192,123069,1,0,0:0:0:0:
329,192,123219,1,0,0:0:0:0:
475,192,123219,1,0,0:0:0:0:
182,192,123369,1,0,0:0:0:0:
36,192,123369,1,0,0:0:0:0:
256,192,123444,1,0,0:0:0:0:
475,192,123519,1,0,0:0:0:0:
329,192,123519,1,0,0:0:0:0:
256,192,123669,1,0,0:0:0:0:
329,192,123819,1,0,0:0:0:0:
475,192,123819,1,0,0:0:0:0:
182,192,123819,1,0,0:0:0:0:
36,192,123819,1,0,0:0:0:0:
329,192,124119,1,0,0:0:0:0:
475,192,124119,1,0,0:0:0:0:
182,192,124119,1,0,0:0:0:0:
36,192,124119,1,0,0:0:0:0:
256,192,124419,1,0,0:0:0:0:
329,192,124494,1,0,0:0:0:0:
402,192,124569,1,0,0:0:0:0:
475,192,124644,1,0,0:0:0:0:
109,192,124719,1,0,0:0:0:0:
182,192,124794,1,0,0:0:0:0:
256,192,124869,1,0,0:0:0:0:
329,192,124944,1,0,0:0:0:0:
402,192,125019,1,0,0:0:0:0:
182,192,125019,1,0,0:0:0:0:
109,192,125019,1,0,0:0:0:0:
329,192,125119,1,0,0:0:0:0:
256,192,125219,1,0,0:0:0:0:
402,192,125319,1,0,0:0:0:0:
36,192,125319,1,0,0:0:0:0:
329,192,125419,1,0,0:0:0:0:
256,192,125519,1,0,0:0:0:0:
475,192,125619,1,0,0:0:0:0:
182,192,125619,1,0,0:0:0:0:
402,192,125719,1,0,0:0:0:0:
109,192,125719,1,0,0:0:0:0:
329,192,125819,1,0,0:0:0:0:
36,192,125819,1,0,0:0:0:0:
402,192,125919,1,0,0:0:0:0:
182,192,125919,1,0,0:0:0:0:
329,192,126019,1,0,0:0:0:0:
109,192,126019,1,0,0:0:0:0:
256,192,126119,1,0,0:0:0:0:
36,192,126119,1,0,0:0:0:0:
182,192,126219,1,0,0:0:0:0:
109,192,126219,1,0,0:0:0:0:
475,192,126219,1,0,0:0:0:0:
402,192,126319,1,0,0:0:0:0:
329,192,126419,1,0,0:0:0:0:
402,192,126519,1,0,0:0:0:0:
36,192,126519,1,0,0:0:0:0:
329,192,126619,1,0,0:0:0:0:
109,192,126619,1,0,0:0:0:0:
256,192,126719,1,0,0:0:0:0:
182,192,126719,1,0,0:0:0:0:
402,192,126819,1,0,0:0:0:0:
109,192,126819,1,0,0:0:0:0:
329,192,126919,1,0,0:0:0:0:
36,192,126919,1,0,0:0:0:0:
402,192,127019,1,0,0:0:0:0:
109,192,127019,1,0,0:0:0:0:
475,192,127119,1,0,0:0:0:0:
182,192,127119,1,0,0:0:0:0:
402,192,127219,1,0,0:0:0:0:
109,192,127219,1,0,0:0:0:0:
329,192,127319,1,0,0:0:0:0:
36,192,127319,1,0,0:0:0:0:
402,192,127419,1,0,0:0:0:0:
182,192,127419,1,0,0:0:0:0:
109,192,127419,1,0,0:0:0:0:
329,192,127519,1,0,0:0:0:0:
402,192,127619,1,0,0:0:0:0:
475,192,127719,1,0,0:0:0:0:
36,192,127719,1,0,0:0:0:0:
109,192,127819,1,0,0:0:0:0:
329,192,127819,1,0,0:0:0:0:
182,192,127919,1,0,0:0:0:0:
402,192,127919,1,0,0:0:0:0:
475,192,128019,1,0,0:0:0:0:
256,192,128019,1,0,0:0:0:0:
402,192,128119,1,0,0:0:0:0:
182,192,128119,1,0,0:0:0:0:
475,192,128219,1,0,0:0:0:0:
109,192,128219,1,0,0:0:0:0:
256,192,128319,1,0,0:0:0:0:
402,192,128319,1,0,0:0:0:0:
182,192,128419,1,0,0:0:0:0:
329,192,128419,1,0,0:0:0:0:
109,192,128519,1,0,0:0:0:0:
256,192,128519,1,0,0:0:0:0:
36,192,128619,1,0,0:0:0:0:
182,192,128619,1,0,0:0:0:0:
475,192,128619,1,0,0:0:0:0:
329,192,128619,1,0,0:0:0:0:
402,192,128719,1,0,0:0:0:0:
329,192,128819,1,0,0:0:0:0:
475,192,128919,1,0,0:0:0:0:
36,192,128919,1,0,0:0:0:0:
402,192,129019,1,0,0:0:0:0:
109,192,129019,1,0,0:0:0:0:
329,192,129119,1,0,0:0:0:0:
182,192,129119,1,0,0:0:0:0:
256,192,129219,1,0,0:0:0:0:
182,192,129319,1,0,0:0:0:0:
329,192,129319,1,0,0:0:0:0:
109,192,129419,1,0,0:0:0:0:
402,192,129419,1,0,0:0:0:0:
36,192,129519,1,0,0:0:0:0:
329,192,129519,1,0,0:0:0:0:
402,192,129619,1,0,0:0:0:0:
182,192,129619,1,0,0:0:0:0:
475,192,129719,1,0,0:0:0:0:
109,192,129719,1,0,0:0:0:0:
402,192,129819,1,0,0:0:0:0:
182,192,129819,1,0,0:0:0:0:
329,192,129919,1,0,0:0:0:0:
109,192,129969,1,0,0:0:0:0:
256,192,130019,1,0,0:0:0:0:
182,192,130119,1,0,0:0:0:0:
475,192,130119,1,0,0:0:0:0:
402,192,130219,1,0,0:0:0:0:
109,192,130269,1,0,0:0:0:0:
329,192,130319,1,0,0:0:0:0:
475,192,130319,1,0,0:0:0:0:
402,192,130419,1,0,0:0:0:0:
182,192,130419,1,0,0:0:0:0:
36,192,130419,1,0,0:0:0:0:
475,192,130519,1,0,0:0:0:0:
36,192,130569,1,0,0:0:0:0:
329,192,130619,1,0,0:0:0:0:
109,192,130719,1,0,0:0:0:0:
402,192,130719,1,0,0:0:0:0:
329,192,130819,1,0,0:0:0:0:
182,192,130869,1,0,0:0:0:0:
256,192,130919,1,0,0:0:0:0:
36,192,131019,1,0,0:0:0:0:
329,192,131019,1,0,0:0:0:0:
475,192,131019,1,0,0:0:0:0:
402,192,131119,1,0,0:0:0:0:
182,192,131169,1,0,0:0:0:0:
329,192,131219,1,0,0:0:0:0:
109,192,131244,1,0,0:0:0:0:
256,192,131319,1,0,0:0:0:0:
402,192,131319,1,0,0:0:0:0:
36,192,131319,1,0,0:0:0:0:
475,192,131419,1,0,0:0:0:0:
182,192,131469,1,0,0:0:0:0:
36,192,131469,1,0,0:0:0:0:
402,192,131519,1,0,0:0:0:0:
329,192,131619,1,0,0:0:0:0:
182,192,131619,1,0,0:0:0:0:
109,192,131619,1,0,0:0:0:0:
256,192,131719,1,0,0:0:0:0:
36,192,131769,1,0,0:0:0:0:
329,192,131819,1,0,0:0:0:0:
109,192,131844,1,0,0:0:0:0:
182,192,131919,1,0,0:0:0:0:
475,192,131919,1,0,0:0:0:0:
402,192,131919,1,0,0:0:0:0:
329,192,132019,1,0,0:0:0:0:
109,192,132069,1,0,0:0:0:0:
256,192,132119,1,0,0:0:0:0:
182,192,132219,1,0,0:0:0:0:
36,192,132219,1,0,0:0:0:0:
402,192,132219,1,0,0:0:0:0:
475,192,132219,1,0,0:0:0:0:
329,192,132319,1,0,0:0:0:0:
182,192,132369,1,0,0:0:0:0:
329,192,132419,1,0,0:0:0:0:
402,192,132519,1,0,0:0:0:0:
256,192,132519,1,0,0:0:0:0:
329,192,132619,1,0,0:0:0:0:
109,192,132669,1,0,0:0:0:0:
182,192,132719,1,0,0:0:0:0:
402,192,132819,1,0,0:0:0:0:
329,192,132819,1,0,0:0:0:0:
36,192,132819,1,0,0:0:0:0:
256,192,132919,1,0,0:0:0:0:
475,192,132969,1,0,0:0:0:0:
256,192,133019,1,0,0:0:0:0:
475,192,133119,1,0,0:0:0:0:
36,192,133119,1,0,0:0:0:0:
402,192,133219,1,0,0:0:0:0:
182,192,133269,1,0,0:0:0:0:
329,192,133319,1,0,0:0:0:0:
402,192,133419,1,0,0:0:0:0:
475,192,133419,1,0,0:0:0:0:
36,192,133419,1,0,0:0:0:0:
182,192,133519,1,0,0:0:0:0:
329,192,133569,1,0,0:0:0:0:
182,192,133619,1,0,0:0:0:0:
402,192,133719,1,0,0:0:0:0:
329,192,133719,1,0,0:0:0:0:
36,192,133719,1,0,0:0:0:0:
109,192,133719,1,0,0:0:0:0:
256,192,133819,1,0,0:0:0:0:
182,192,133869,1,0,0:0:0:0:
109,192,133869,1,0,0:0:0:0:
256,192,133919,1,0,0:0:0:0:
475,192,134019,1,0,0:0:0:0:
402,192,134019,1,0,0:0:0:0:
36,192,134019,1,0,0:0:0:0:
109,192,134019,1,0,0:0:0:0:
256,192,134119,1,0,0:0:0:0:
329,192,134169,1,0,0:0:0:0:
402,192,134169,1,0,0:0:0:0:
182,192,134219,1,0,0:0:0:0:
36,192,134219,1,0,0:0:0:0:
329,192,134319,1,0,0:0:0:0:
402,192,134319,1,0,0:0:0:0:
475,192,134319,1,0,0:0:0:0:
36,192,134419,1,0,0:0:0:0:
109,192,134419,1,0,0:0:0:0:
329,192,134469,1,0,0:0:0:0:
182,192,134519,1,0,0:0:0:0:
475,192,134619,1,0,0:0:0:0:
329,192,134619,1,0,0:0:0:0:
36,192,134619,1,0,0:0:0:0:
109,192,134619,1,0,0:0:0:0:
402,192,135819,1,0,0:0:0:0:
475,192,135969,1,0,0:0:0:0:
256,192,136119,1,0,0:0:0:0:
402,192,136419,1,0,0:0:0:0:
475,192,136569,1,0,0:0:0:0:
182,192,136719,1,0,0:0:0:0:
402,192,137019,1,0,0:0:0:0:
475,192,137169,1,0,0:0:0:0:
36,192,137319,1,0,0:0:0:0:
402,192,137619,1,0,0:0:0:0:
475,192,137769,1,0,0:0:0:0:
182,192,137919,1,0,0:0:0:0:
402,192,138219,1,0,0:0:0:0:
475,192,138375,1,0,0:0:0:0:
256,192,138531,1,0,0:0:0:0:
402,192,138844,1,0,0:0:0:0:
475,192,139000,1,0,0:0:0:0:
182,192,139156,1,0,0:0:0:0:
402,192,139469,1,0,0:0:0:0:
475,192,139625,1,0,0:0:0:0:
36,192,139781,1,0,0:0:0:0:
402,192,140094,1,0,0:0:0:0:
475,192,140255,1,0,0:0:0:0:
182,192,140416,1,0,0:0:0:0:
475,192,140573,1,0,0:0:0:0:
329,192,140731,1,0,0:0:0:0:
402,192,141046,1,0,0:0:0:0:
36,192,141362,1,0,0:0:0:0:
329,192,141994,1,0,0:0:0:0:
402,192,142309,1,0,0:0:0:0:
182,192,142625,1,0,0:0:0:0:
256,192,142836,1,0,0:0:0:0:
182,192,143046,1,0,0:0:0:0:
109,192,143257,1,0,0:0:0:0:
36,192,143573,1,0,0:0:0:0:
475,192,143888,1,0,0:0:0:0:
329,192,145783,1,0,0:0:0:0:
402,192,146099,1,0,0:0:0:0:
36,192,146415,1,0,0:0:0:0:
329,192,147046,1,0,0:0:0:0:
402,192,147362,1,0,0:0:0:0:
182,192,147678,1,0,0:0:0:0:
256,192,147888,1,0,0:0:0:0:
182,192,148099,1,0,0:0:0:0:
109,192,148309,1,0,0:0:0:0:
36,192,148625,1,0,0:0:0:0:
475,192,148941,1,0,0:0:0:0:
